osu file format v14

[General]
AudioFilename: audio.mp3
AudioLeadIn: 0
PreviewTime: -1
Countdown: 1
SampleSet: None
StackLeniency: 0.7
Mode: 0
LetterboxInBreaks: 0
WidescreenStoryboard: 0

[Editor]
DistanceSpacing: 0.5
BeatDivisor: 4
GridSize: 4
TimelineZoom: 1

[Metadata]
Title:Shut Up
TitleUnicode:Shut Up
Artist:Telekinesis
ArtistUnicode:Telekinesis
Creator:avalanche
Version:I Never Ask Politely
Source:
Tags:
BeatmapID:1307661
BeatmapSetID:620451

[Difficulty]
HPDrainRate:4
CircleSize:4.5
OverallDifficulty:9
ApproachRate:9
SliderMultiplier:1.8
SliderTickRate:2

[Events]
//Background and Video events
0,0,"Arkham-Horror-Web2.jpg",0,0
//Break Periods
//Storyboard Layer 0 (Background)
//Storyboard Layer 1 (Fail)
//Storyboard Layer 2 (Pass)
//Storyboard Layer 3 (Foreground)
//Storyboard Sound Samples

[TimingPoints]
22082.0517241379,689.655172413793,4,1,0,100,1,0
44151,344.827586206897,4,1,0,100,1,0
54495,-66.6666666666667,4,1,0,100,0,0
55185,-100,4,1,0,100,0,0
64840,-133.333333333333,4,1,0,100,0,0
65875,-66.6666666666667,4,1,0,100,0,0
66219,-83.3333333333333,4,1,0,100,0,0
71392,-66.6666666666667,4,1,0,100,0,0
71737,-83.3333333333333,4,1,0,100,0,0
74151,-66.6666666666667,4,1,0,100,0,0
74495,-83.3333333333333,4,1,0,100,0,0
75875,-66.6666666666667,4,1,0,100,0,0
77254,-83.3333333333333,4,1,0,100,0,0

[HitObjects]
256,192,44151,6,0,B|220:220|220:220|288:236|288:236|256:192,1,135
264,60,44495,1,0,0:0:0:0:
232,360,44668,1,0,0:0:0:0:
388,152,44840,1,0,0:0:0:0:
448,220,45013,1,0,0:0:0:0:
116,156,45185,1,0,0:0:0:0:
56,312,45357,1,0,0:0:0:0:
216,204,45530,5,0,0:0:0:0:
136,72,45645,1,0,0:0:0:0:
8,116,45760,1,0,0:0:0:0:
230,323,45875,2,0,L|214:191,1,120
216,340,46219,1,0,0:0:0:0:
328,160,46392,1,0,0:0:0:0:
408,256,46564,1,0,0:0:0:0:
468,184,46737,1,0,0:0:0:0:
40,232,46909,6,0,B|32:276|32:276|40:308|40:308|32:364,1,120
0,160,47254,1,0,0:0:0:0:
184,296,47426,1,0,0:0:0:0:
384,152,47599,1,0,0:0:0:0:
424,252,47771,1,0,0:0:0:0:
240,104,47944,1,0,0:0:0:0:
460,16,48116,1,0,0:0:0:0:
256,248,48288,5,0,0:0:0:0:
124,200,48403,1,0,0:0:0:0:
96,80,48518,1,0,0:0:0:0:
168,284,48633,2,0,B|172:316|160:348|160:348|148:316|164:276,1,120
260,316,48978,1,0,0:0:0:0:
72,336,49151,1,0,0:0:0:0:
288,168,49323,1,0,0:0:0:0:
336,356,49495,1,0,0:0:0:0:
416,172,49668,6,0,B|348:136|360:200|288:168,1,135
404,64,50013,1,0,0:0:0:0:
460,328,50185,1,0,0:0:0:0:
384,240,50357,1,0,0:0:0:0:
416,172,50530,1,0,0:0:0:0:
460,328,50702,1,0,0:0:0:0:
128,288,50875,1,0,0:0:0:0:
336,124,51047,5,0,0:0:0:0:
384,240,51162,1,0,0:0:0:0:
344,364,51277,1,0,0:0:0:0:
217,128,51392,2,0,B|261:116|261:116|345:124,1,120
276,220,51737,1,0,0:0:0:0:
172,28,51909,1,0,0:0:0:0:
52,200,52082,1,0,0:0:0:0:
72,120,52254,1,0,0:0:0:0:
200,352,52426,6,0,L|64:364,1,135
232,212,52771,1,0,0:0:0:0:
340,376,52944,1,0,0:0:0:0:
320,72,53116,1,0,0:0:0:0:
304,164,53288,1,0,0:0:0:0:
456,100,53461,1,0,0:0:0:0:
100,136,53633,1,0,0:0:0:0:
192,20,53806,5,0,0:0:0:0:
224,184,53921,1,0,0:0:0:0:
248,352,54036,1,0,0:0:0:0:
256,336,54151,1,0,0:0:0:0:
96,264,54265,2,0,L|112:360,1,60
416,136,54495,2,0,L|392:328,1,180.000006866455
364,84,54840,2,0,B|404:64|416:16|416:16|432:64|488:96,1,180.000006866455
144,244,55185,6,0,P|80:236|52:160,1,120
120,128,55530,1,0,0:0:0:0:
88,344,55702,1,0,0:0:0:0:
96,56,55875,1,0,0:0:0:0:
120,128,56047,1,0,0:0:0:0:
432,24,56219,1,0,0:0:0:0:
388,292,56392,1,0,0:0:0:0:
184,176,56564,5,0,0:0:0:0:
352,56,56679,1,0,0:0:0:0:
472,216,56794,1,0,0:0:0:0:
268,232,56909,2,0,L|256:100,1,120
440,88,57254,2,0,L|432:176,1,60
456,80,57484,1,0,0:0:0:0:
472,216,57599,2,0,P|424:248|384:200,1,120
480,224,57944,6,0,B|496:264|496:264|488:296|488:296|504:340,1,120
344,128,58288,1,0,0:0:0:0:
264,296,58461,1,0,0:0:0:0:
244,20,58633,1,0,0:0:0:0:
260,108,58806,1,0,0:0:0:0:
432,40,58978,1,0,0:0:0:0:
360,352,59151,1,0,0:0:0:0:
104,212,59323,5,0,0:0:0:0:
180,40,59438,1,0,0:0:0:0:
344,128,59553,1,0,0:0:0:0:
119,331,59668,2,0,L|103:207,1,120
216,280,60013,1,0,0:0:0:0:
24,324,60185,1,0,0:0:0:0:
232,192,60357,1,0,0:0:0:0:
424,284,60530,1,0,0:0:0:0:
176,132,60702,6,0,B|156:96|168:56|168:56|180:84|172:116,1,120
80,172,61047,1,0,0:0:0:0:
300,64,61219,1,0,0:0:0:0:
280,340,61392,1,0,0:0:0:0:
256,252,61564,1,0,0:0:0:0:
424,320,61737,1,0,0:0:0:0:
120,272,61909,1,0,0:0:0:0:
452,36,62082,5,0,0:0:0:0:
360,148,62196,1,0,0:0:0:0:
472,244,62311,1,0,0:0:0:0:
364,64,62426,2,0,B|300:56|300:56|232:80,1,120
200,148,62771,1,0,0:0:0:0:
232,320,62944,1,0,0:0:0:0:
248,308,63116,2,0,L|256:204,1,90
36,44,63461,6,0,L|52:184,1,120
20,36,63806,1,0,0:0:0:0:
72,308,63978,1,0,0:0:0:0:
276,120,64151,1,0,0:0:0:0:
240,192,64323,1,0,0:0:0:0:
444,36,64495,1,0,0:0:0:0:
484,276,64668,1,0,0:0:0:0:
276,120,64840,5,0,0:0:0:0:
288,104,65013,2,0,L|332:96,1,33.7500012874604
356,164,65185,1,0,0:0:0:0:
231,285,65530,2,0,P|219:233|247:185,1,101.250003862381
248,292,65875,2,0,P|176:352|120:252,1,202.500007724762
140,104,66219,6,0,B|156:92|152:60|152:60|184:120|144:200,1,161.999995056153
44,60,66564,1,0,0:0:0:0:
368,24,66737,1,0,0:0:0:0:
280,280,66909,1,0,0:0:0:0:
272,200,67082,1,0,0:0:0:0:
388,360,67254,1,0,0:0:0:0:
96,316,67426,1,0,0:0:0:0:
468,132,67599,6,0,L|460:216,1,71.9999978027344
496,304,67829,1,0,0:0:0:0:
424,48,67944,2,0,P|352:32|296:68,1,143.999995605469
272,264,68288,1,0,0:0:0:0:
244,176,68461,1,0,0:0:0:0:
56,216,68633,2,0,L|184:224,1,107.999996704102
472,132,68978,6,0,L|312:144,1,143.999995605469
452,28,69323,1,0,0:0:0:0:
420,340,69495,1,0,0:0:0:0:
340,216,69668,1,0,0:0:0:0:
416,248,69840,1,0,0:0:0:0:
200,352,70013,1,0,0:0:0:0:
260,32,70185,1,0,0:0:0:0:
306,337,70357,6,0,L|190:353,1,107.999996704102
20,192,70702,1,0,0:0:0:0:
128,108,70875,1,0,0:0:0:0:
205,243,71047,2,0,L|197:371,1,107.999996704102
200,156,71392,2,0,B|252:184|304:172|304:172|328:128|304:52,1,202.500007724762
352,232,71737,6,0,P|416:276|504:244,1,161.999995056153
444,92,72082,1,0,0:0:0:0:
488,352,72254,1,0,0:0:0:0:
188,232,72426,1,0,0:0:0:0:
160,304,72599,1,0,0:0:0:0:
344,336,72771,1,0,0:0:0:0:
160,44,72944,1,0,0:0:0:0:
16,268,73116,6,0,L|100:256,1,71.9999978027344
160,304,73346,1,0,0:0:0:0:
352,220,73461,2,0,L|280:208,1,71.9999978027344
212,248,73691,1,0,0:0:0:0:
160,44,73806,2,0,L|304:24,1,107.999996704102
100,96,74151,2,0,P|120:28|124:108,1,202.500007724762
332,72,74495,6,0,P|360:148|336:236,1,161.999995056153
248,132,74840,1,0,0:0:0:0:
496,96,75013,1,0,0:0:0:0:
396,324,75185,1,0,0:0:0:0:
292,296,75357,1,0,0:0:0:0:
0,248,75530,1,0,0:0:0:0:
220,204,75702,1,0,0:0:0:0:
104,356,75875,6,0,B|140:308|136:236|136:236|148:272|188:292,1,202.500007724762
195,122,76219,2,0,P|195:166|227:210,1,90.0000034332277
292,220,76449,1,0,0:0:0:0:
360,188,76564,1,0,0:0:0:0:
376,176,76737,1,0,0:0:0:0:
392,164,76909,2,0,L|400:16,1,135.000005149842
476,136,77254,6,0,L|496:304,1,161.999995056153
