osu file format v14

[General]
AudioFilename: audio.mp3
AudioLeadIn: 0
PreviewTime: 59711
Countdown: 0
SampleSet: None
StackLeniency: 0.7
Mode: 3
LetterboxInBreaks: 0
SpecialStyle: 0
WidescreenStoryboard: 0

[Editor]
DistanceSpacing: 1.2
BeatDivisor: 8
GridSize: 8
TimelineZoom: 1.4

[Metadata]
Title:Gdzie pieniadze sa za las
TitleUnicode:Gdzie pieniądze są za las
Artist:Telefon
ArtistUnicode:Telefon
Creator:Oktawia
Version:Stachu?
Source:
Tags:
BeatmapID:2104976
BeatmapSetID:1005791

[Difficulty]
HPDrainRate:8
CircleSize:4
OverallDifficulty:8
ApproachRate:5
SliderMultiplier:1.4
SliderTickRate:1

[Events]
//Background and Video events
0,0,"MASZ CHUJUSIE.png",0,0
//Break Periods
//Storyboard Layer 0 (Background)
//Storyboard Layer 1 (Fail)
//Storyboard Layer 2 (Pass)
//Storyboard Layer 3 (Foreground)
//Storyboard Sound Samples

[TimingPoints]
3653,437.956204379562,4,2,0,0,1,0
28178,-57.1428571428571,4,2,0,0,0,0
28288,-400,4,2,0,0,0,0
28397,-55.5555555555556,4,2,0,0,0,0
28507,-333.333333333333,4,2,0,0,0,0
28616,-54.054054054054,4,2,0,0,0,0
28726,-285.714285714286,4,2,0,0,0,0
28835,-52.6315789473684,4,2,0,0,0,0
28945,-250,4,2,0,0,0,0
29054,-51.2820512820513,4,2,0,0,0,0
29164,-222.222222222222,4,2,0,0,0,0
29273,-50,4,2,0,0,0,0
29383,-200,4,2,0,0,0,0
29492,-48.780487804878,4,2,0,0,0,0
29602,-181.818181818182,4,2,0,0,0,0
29711,-47.6190476190476,4,2,0,0,0,0
29821,-166.666666666667,4,2,0,0,0,0
29930,-100,4,2,0,0,0,0
31244,-52.6315789473684,4,2,0,0,0,0
31298,-1000,4,2,0,0,0,0
31353,-52.6315789473684,4,2,0,0,0,0
31407,-1000,4,2,0,0,0,0
31463,-52.6315789473684,4,2,0,0,0,0
31517,-1000,4,2,0,0,0,0
31572,-52.6315789473684,4,2,0,0,0,0
31626,-1000,4,2,0,0,0,0
31682,-100,4,2,0,0,0,0
45696,-133.333333333333,4,2,0,0,0,0
57959,-200,4,2,0,0,0,0
59054,-1000,4,2,0,0,0,0
59382,-400,4,2,0,0,0,0
59437,-250,4,2,0,0,0,0
59492,-181.818181818182,4,2,0,0,0,0
59547,-142.857142857143,4,2,0,0,0,0
59601,-125,4,2,0,0,0,0
59656,-111.111111111111,4,2,0,0,0,0
59711,-100,4,2,0,0,0,0
101755,-1000,4,2,0,0,0,0
102375,-13.3333333333333,4,2,0,0,0,0
102412,-1000,4,2,0,0,0,0
103032,-13.3333333333333,4,2,0,0,0,0
103069,-1000,4,2,0,0,0,0
103479,-13.3333333333333,4,2,0,0,0,0
103507,-1000,4,2,0,0,0,0
104127,-13.3333333333333,4,2,0,0,0,0
104163,-1000,4,2,0,0,0,0
104784,-13.3333333333333,4,2,0,0,0,0
104820,-1000,4,2,0,0,0,0
105231,-13.3333333333333,4,2,0,0,0,0
105258,-1000,4,2,0,0,0,0
105879,-13.3333333333333,4,2,0,0,0,0
105915,-1000,4,2,0,0,0,0
106536,-13.3333333333333,4,2,0,0,0,0
106572,-1000,4,2,0,0,0,0
106983,-13.3333333333333,4,2,0,0,0,0
107010,-200,4,2,0,0,0,0
108488,-200,4,2,0,0,0,0
108543,-166.666666666667,4,2,0,0,0,0
108598,-142.857142857143,4,2,0,0,0,0
108652,-125,4,2,0,0,0,0
108707,-111.111111111111,4,2,0,0,0,0
108762,-100,4,2,0,0,0,0
114017,-133.333333333333,4,2,0,0,0,0
115331,-1000,4,2,0,0,0,0
115715,-27.7777777777778,4,2,0,0,0,0
115769,-100,4,2,0,0,0,0
147302,-1000,4,2,0,0,0,0
147685,-25,4,2,0,0,0,0
147740,-1000,4,2,0,0,0,0
148123,-25,4,2,0,0,0,0
148178,-1000,4,2,0,0,0,0
148561,-25,4,2,0,0,0,0
148616,-1000,4,2,0,0,0,0
148999,-25,4,2,0,0,0,0
149054,-1000,4,2,0,0,0,0
149246,-25,4,2,0,0,0,0
149273,-1000,4,2,0,0,0,0
149465,-25,4,2,0,0,0,0
149492,-1000,4,2,0,0,0,0
149684,-25,4,2,0,0,0,0
149711,-1000,4,2,0,0,0,0
149902,-25,4,2,0,0,0,0
149930,-1000,4,2,0,0,0,0
150121,-25,4,2,0,0,0,0
150149,-100,4,2,0,0,0,0

[HitObjects]
64,192,3653,5,0,0:0:0:0:
192,192,3707,1,0,0:0:0:0:
320,192,3762,1,0,0:0:0:0:
192,192,3981,1,0,0:0:0:0:
320,192,4036,1,0,0:0:0:0:
448,192,4090,1,0,0:0:0:0:
320,192,4309,1,0,0:0:0:0:
192,192,4364,1,0,0:0:0:0:
64,192,4419,1,0,0:0:0:0:
448,192,4638,1,0,0:0:0:0:
320,192,4693,1,0,0:0:0:0:
192,192,4747,1,0,0:0:0:0:
64,192,4966,1,0,0:0:0:0:
320,192,5021,1,0,0:0:0:0:
448,192,5076,1,0,0:0:0:0:
192,192,5404,1,0,0:0:0:0:
320,192,5459,1,0,0:0:0:0:
64,192,5514,1,0,0:0:0:0:
448,192,5623,1,0,0:0:0:0:
64,192,5842,1,0,0:0:0:0:
320,192,5842,1,0,0:0:0:0:
192,192,6061,1,0,0:0:0:0:
448,192,6061,1,0,0:0:0:0:
448,192,6171,1,0,0:0:0:0:
64,192,6280,1,0,0:0:0:0:
320,192,6280,1,0,0:0:0:0:
192,192,6499,1,0,0:0:0:0:
320,192,6499,1,0,0:0:0:0:
320,192,6718,1,0,0:0:0:0:
192,192,6718,1,0,0:0:0:0:
192,192,6828,1,0,0:0:0:0:
320,192,6828,1,0,0:0:0:0:
64,192,6937,1,0,0:0:0:0:
448,192,6937,1,0,0:0:0:0:
64,192,7047,1,0,0:0:0:0:
320,192,7156,1,0,0:0:0:0:
192,192,7211,1,0,0:0:0:0:
64,192,7266,1,0,0:0:0:0:
448,192,7485,1,0,0:0:0:0:
320,192,7539,1,0,0:0:0:0:
192,192,7594,1,0,0:0:0:0:
64,192,7813,1,0,0:0:0:0:
192,192,7868,1,0,0:0:0:0:
320,192,7923,1,0,0:0:0:0:
192,192,8142,1,0,0:0:0:0:
320,192,8196,1,0,0:0:0:0:
448,192,8251,1,0,0:0:0:0:
320,192,8470,1,0,0:0:0:0:
192,192,8525,1,0,0:0:0:0:
64,192,8580,1,0,0:0:0:0:
320,192,8908,1,0,0:0:0:0:
192,192,8963,1,0,0:0:0:0:
448,192,9017,1,0,0:0:0:0:
64,192,9127,1,0,0:0:0:0:
192,192,9346,1,0,0:0:0:0:
448,192,9346,1,0,0:0:0:0:
64,192,9565,1,0,0:0:0:0:
64,192,9674,1,0,0:0:0:0:
192,192,9784,1,0,0:0:0:0:
448,192,9784,1,0,0:0:0:0:
320,192,10003,1,0,0:0:0:0:
64,192,10222,1,0,0:0:0:0:
192,192,10222,1,0,0:0:0:0:
448,192,10441,1,0,0:0:0:0:
448,192,10550,1,0,0:0:0:0:
64,192,10660,1,0,0:0:0:0:
192,192,10715,1,0,0:0:0:0:
320,192,10769,1,0,0:0:0:0:
192,192,10988,1,0,0:0:0:0:
320,192,11043,1,0,0:0:0:0:
448,192,11098,1,0,0:0:0:0:
320,192,11317,1,0,0:0:0:0:
192,192,11371,1,0,0:0:0:0:
64,192,11426,1,0,0:0:0:0:
448,192,11645,1,0,0:0:0:0:
320,192,11700,1,0,0:0:0:0:
192,192,11755,1,0,0:0:0:0:
64,192,11974,1,0,0:0:0:0:
320,192,12028,1,0,0:0:0:0:
448,192,12083,1,0,0:0:0:0:
192,192,12412,1,0,0:0:0:0:
320,192,12466,1,0,0:0:0:0:
64,192,12521,1,0,0:0:0:0:
448,192,12631,1,0,0:0:0:0:
64,192,12850,1,0,0:0:0:0:
320,192,12850,1,0,0:0:0:0:
192,192,13069,1,0,0:0:0:0:
448,192,13069,1,0,0:0:0:0:
448,192,13178,1,0,0:0:0:0:
64,192,13288,1,0,0:0:0:0:
320,192,13288,1,0,0:0:0:0:
192,192,13507,1,0,0:0:0:0:
320,192,13507,1,0,0:0:0:0:
320,192,13725,1,0,0:0:0:0:
192,192,13725,1,0,0:0:0:0:
192,192,13835,1,0,0:0:0:0:
320,192,13835,1,0,0:0:0:0:
64,192,13944,1,0,0:0:0:0:
448,192,13944,1,0,0:0:0:0:
64,192,14054,1,0,0:0:0:0:
320,192,14163,1,0,0:0:0:0:
192,192,14218,1,0,0:0:0:0:
64,192,14273,1,0,0:0:0:0:
448,192,14492,1,0,0:0:0:0:
320,192,14547,1,0,0:0:0:0:
192,192,14601,1,0,0:0:0:0:
64,192,14820,1,0,0:0:0:0:
192,192,14875,1,0,0:0:0:0:
320,192,14930,1,0,0:0:0:0:
192,192,15149,1,0,0:0:0:0:
320,192,15204,1,0,0:0:0:0:
448,192,15258,1,0,0:0:0:0:
320,192,15477,1,0,0:0:0:0:
192,192,15532,1,0,0:0:0:0:
64,192,15587,1,0,0:0:0:0:
192,192,15915,1,0,0:0:0:0:
448,192,15915,1,0,0:0:0:0:
320,192,16025,1,0,0:0:0:0:
192,192,16244,1,0,0:0:0:0:
64,192,16353,1,0,0:0:0:0:
320,192,16353,1,0,0:0:0:0:
448,192,16463,1,0,0:0:0:0:
64,192,16572,1,0,0:0:0:0:
64,192,16682,1,0,0:0:0:0:
448,192,16791,1,0,0:0:0:0:
320,192,16864,1,0,0:0:0:0:
192,192,16937,1,0,0:0:0:0:
64,192,17010,1,0,0:0:0:0:
448,192,17065,1,0,0:0:0:0:
320,192,17120,1,0,0:0:0:0:
192,192,17174,1,0,0:0:0:0:
64,192,17229,1,0,0:0:0:0:
320,192,17448,1,0,0:0:0:0:
320,192,17558,1,0,0:0:0:0:
64,192,17667,1,0,0:0:0:0:
192,192,17667,1,0,0:0:0:0:
448,192,17667,1,0,0:0:0:0:
64,192,17886,1,0,0:0:0:0:
448,192,17886,1,0,0:0:0:0:
448,192,18105,1,0,0:0:0:0:
64,192,18105,1,0,0:0:0:0:
320,192,18105,1,0,0:0:0:0:
64,192,18324,1,0,0:0:0:0:
448,192,18324,1,0,0:0:0:0:
64,192,18434,1,0,0:0:0:0:
448,192,18434,1,0,0:0:0:0:
192,192,18543,1,0,0:0:0:0:
320,192,18543,1,0,0:0:0:0:
64,192,18616,1,0,0:0:0:0:
192,192,18689,1,0,0:0:0:0:
320,192,18762,1,0,0:0:0:0:
448,192,18835,1,0,0:0:0:0:
320,192,18908,1,0,0:0:0:0:
64,192,18981,1,0,0:0:0:0:
448,192,18981,1,0,0:0:0:0:
192,192,18981,1,0,0:0:0:0:
320,192,19200,1,0,0:0:0:0:
192,192,19309,1,0,0:0:0:0:
64,192,19419,1,0,0:0:0:0:
448,192,19419,1,0,0:0:0:0:
192,192,19638,1,0,0:0:0:0:
320,192,19638,1,0,0:0:0:0:
192,192,19857,1,0,0:0:0:0:
320,192,19857,1,0,0:0:0:0:
448,192,19857,1,0,0:0:0:0:
192,192,20076,1,0,0:0:0:0:
320,192,20076,1,0,0:0:0:0:
192,192,20185,1,0,0:0:0:0:
320,192,20185,1,0,0:0:0:0:
64,192,20295,1,0,0:0:0:0:
448,192,20295,1,0,0:0:0:0:
320,192,20368,1,0,0:0:0:0:
192,192,20441,1,0,0:0:0:0:
64,192,20514,1,0,0:0:0:0:
448,192,20569,1,0,0:0:0:0:
320,192,20623,1,0,0:0:0:0:
64,192,20678,1,0,0:0:0:0:
192,192,20733,1,0,0:0:0:0:
320,192,20788,1,0,0:0:0:0:
64,192,20842,1,0,0:0:0:0:
448,192,20897,1,0,0:0:0:0:
320,192,20952,1,0,0:0:0:0:
192,192,21007,1,0,0:0:0:0:
64,192,21061,1,0,0:0:0:0:
320,192,21116,1,0,0:0:0:0:
192,192,21171,1,0,0:0:0:0:
448,192,21225,1,0,0:0:0:0:
64,192,21280,1,0,0:0:0:0:
192,192,21390,1,0,0:0:0:0:
320,192,21390,1,0,0:0:0:0:
192,192,21609,1,0,0:0:0:0:
320,192,21609,1,0,0:0:0:0:
64,192,21609,1,0,0:0:0:0:
192,192,21828,1,0,0:0:0:0:
320,192,21828,1,0,0:0:0:0:
320,192,21937,1,0,0:0:0:0:
192,192,21937,1,0,0:0:0:0:
64,192,22047,1,0,0:0:0:0:
448,192,22047,1,0,0:0:0:0:
320,192,22120,1,0,0:0:0:0:
192,192,22193,1,0,0:0:0:0:
64,192,22266,1,0,0:0:0:0:
192,192,22339,1,0,0:0:0:0:
320,192,22412,1,0,0:0:0:0:
64,192,22485,1,0,0:0:0:0:
192,192,22485,1,0,0:0:0:0:
448,192,22485,1,0,0:0:0:0:
320,192,22704,128,0,23032:0:0:0:0:
448,192,22704,128,0,23251:0:0:0:0:
64,192,22850,128,0,23032:0:0:0:0:
192,192,22850,128,0,23251:0:0:0:0:
320,192,23105,128,0,23507:0:0:0:0:
64,192,23105,128,0,23725:0:0:0:0:
448,192,23324,128,0,23507:0:0:0:0:
192,192,23324,128,0,23725:0:0:0:0:
320,192,23580,128,0,23944:0:0:0:0:
448,192,23580,128,0,24017:0:0:0:0:
192,192,23798,128,0,23944:0:0:0:0:
64,192,23798,128,0,24017:0:0:0:0:
192,192,24017,1,0,0:0:0:0:
320,192,24017,1,0,0:0:0:0:
64,192,24236,1,0,0:0:0:0:
192,192,24273,1,0,0:0:0:0:
320,192,24309,1,0,0:0:0:0:
448,192,24346,1,0,0:0:0:0:
448,192,24455,1,0,0:0:0:0:
320,192,24492,1,0,0:0:0:0:
192,192,24528,1,0,0:0:0:0:
64,192,24565,1,0,0:0:0:0:
448,192,24674,1,0,0:0:0:0:
320,192,24729,1,0,0:0:0:0:
192,192,24784,1,0,0:0:0:0:
448,192,24839,1,0,0:0:0:0:
320,192,24893,1,0,0:0:0:0:
64,192,24948,1,0,0:0:0:0:
448,192,25003,1,0,0:0:0:0:
192,192,25058,1,0,0:0:0:0:
64,192,25112,1,0,0:0:0:0:
448,192,25167,1,0,0:0:0:0:
320,192,25222,1,0,0:0:0:0:
64,192,25331,1,0,0:0:0:0:
192,192,25386,1,0,0:0:0:0:
320,192,25441,1,0,0:0:0:0:
64,192,25496,1,0,0:0:0:0:
192,192,25550,1,0,0:0:0:0:
448,192,25605,1,0,0:0:0:0:
64,192,25660,1,0,0:0:0:0:
320,192,25715,1,0,0:0:0:0:
448,192,25769,1,0,0:0:0:0:
64,192,25824,1,0,0:0:0:0:
192,192,25879,1,0,0:0:0:0:
320,192,25934,1,0,0:0:0:0:
448,192,25988,1,0,0:0:0:0:
320,192,26043,1,0,0:0:0:0:
192,192,26098,1,0,0:0:0:0:
448,192,26153,1,0,0:0:0:0:
320,192,26207,1,0,0:0:0:0:
64,192,26262,1,0,0:0:0:0:
448,192,26317,1,0,0:0:0:0:
192,192,26371,1,0,0:0:0:0:
64,192,26426,1,0,0:0:0:0:
448,192,26481,1,0,0:0:0:0:
320,192,26536,1,0,0:0:0:0:
64,192,26645,1,0,0:0:0:0:
192,192,26700,1,0,0:0:0:0:
320,192,26755,1,0,0:0:0:0:
64,192,26809,1,0,0:0:0:0:
192,192,26864,1,0,0:0:0:0:
448,192,26919,1,0,0:0:0:0:
64,192,26974,1,0,0:0:0:0:
320,192,27028,1,0,0:0:0:0:
448,192,27083,1,0,0:0:0:0:
64,192,27138,1,0,0:0:0:0:
192,192,27193,1,0,0:0:0:0:
320,192,27247,1,0,0:0:0:0:
448,192,27302,1,0,0:0:0:0:
320,192,27357,1,0,0:0:0:0:
192,192,27412,1,0,0:0:0:0:
448,192,27466,1,0,0:0:0:0:
320,192,27521,1,0,0:0:0:0:
64,192,27576,1,0,0:0:0:0:
448,192,27631,1,0,0:0:0:0:
192,192,27685,1,0,0:0:0:0:
64,192,27740,1,0,0:0:0:0:
448,192,27795,1,0,0:0:0:0:
320,192,27850,1,0,0:0:0:0:
64,192,27959,1,0,0:0:0:0:
192,192,27959,1,0,0:0:0:0:
320,192,28069,1,0,0:0:0:0:
64,192,28178,1,0,0:0:0:0:
448,192,28178,1,0,0:0:0:0:
64,192,28397,1,0,0:0:0:0:
448,192,28397,1,0,0:0:0:0:
448,192,28616,1,0,0:0:0:0:
64,192,28616,1,0,0:0:0:0:
64,192,28835,1,0,0:0:0:0:
448,192,28835,1,0,0:0:0:0:
448,192,29054,1,0,0:0:0:0:
64,192,29054,1,0,0:0:0:0:
64,192,29273,1,0,0:0:0:0:
448,192,29273,1,0,0:0:0:0:
64,192,29492,1,0,0:0:0:0:
448,192,29492,1,0,0:0:0:0:
448,192,29711,1,0,0:0:0:0:
64,192,29711,1,0,0:0:0:0:
64,192,29930,1,0,0:0:0:0:
448,192,29930,1,0,0:0:0:0:
192,192,30149,1,0,0:0:0:0:
320,192,30149,1,0,0:0:0:0:
64,192,30477,1,0,0:0:0:0:
320,192,30477,1,0,0:0:0:0:
192,192,30696,1,0,0:0:0:0:
448,192,30696,1,0,0:0:0:0:
192,192,30915,1,0,0:0:0:0:
320,192,30915,1,0,0:0:0:0:
64,192,31025,1,0,0:0:0:0:
448,192,31025,1,0,0:0:0:0:
320,192,31244,1,0,0:0:0:0:
320,192,31353,1,0,0:0:0:0:
320,192,31463,1,0,0:0:0:0:
320,192,31572,1,0,0:0:0:0:
64,192,31682,1,0,0:0:0:0:
192,192,31682,1,0,0:0:0:0:
448,192,31682,1,0,0:0:0:0:
320,192,31736,1,0,0:0:0:0:
192,192,31791,1,0,0:0:0:0:
64,192,31846,1,0,0:0:0:0:
448,192,31901,1,0,0:0:0:0:
320,192,31955,1,0,0:0:0:0:
192,192,32010,1,0,0:0:0:0:
64,192,32065,1,0,0:0:0:0:
320,192,32120,1,0,0:0:0:0:
448,192,32120,1,0,0:0:0:0:
192,192,32174,1,0,0:0:0:0:
64,192,32229,1,0,0:0:0:0:
320,192,32284,1,0,0:0:0:0:
192,192,32339,1,0,0:0:0:0:
448,192,32393,1,0,0:0:0:0:
320,192,32448,1,0,0:0:0:0:
64,192,32503,1,0,0:0:0:0:
448,192,32558,1,0,0:0:0:0:
192,192,32558,1,0,0:0:0:0:
320,192,32612,1,0,0:0:0:0:
64,192,32667,1,0,0:0:0:0:
448,192,32722,1,0,0:0:0:0:
192,192,32777,1,0,0:0:0:0:
64,192,32831,1,0,0:0:0:0:
320,192,32886,1,0,0:0:0:0:
192,192,32941,1,0,0:0:0:0:
64,192,32996,1,0,0:0:0:0:
448,192,32996,1,0,0:0:0:0:
320,192,33105,1,0,0:0:0:0:
192,192,33215,1,0,0:0:0:0:
320,192,33324,1,0,0:0:0:0:
64,192,33434,1,0,0:0:0:0:
448,192,33434,1,0,0:0:0:0:
192,192,33543,1,0,0:0:0:0:
320,192,33653,1,0,0:0:0:0:
448,192,33725,1,0,0:0:0:0:
192,192,33798,1,0,0:0:0:0:
320,192,33871,1,0,0:0:0:0:
448,192,33871,1,0,0:0:0:0:
64,192,33944,1,0,0:0:0:0:
448,192,34017,1,0,0:0:0:0:
192,192,34090,1,0,0:0:0:0:
320,192,34163,1,0,0:0:0:0:
64,192,34236,1,0,0:0:0:0:
448,192,34309,1,0,0:0:0:0:
192,192,34309,1,0,0:0:0:0:
320,192,34382,1,0,0:0:0:0:
64,192,34455,1,0,0:0:0:0:
448,192,34528,1,0,0:0:0:0:
192,192,34601,1,0,0:0:0:0:
320,192,34674,1,0,0:0:0:0:
64,192,34747,1,0,0:0:0:0:
192,192,34747,1,0,0:0:0:0:
192,192,34966,1,0,0:0:0:0:
64,192,34966,1,0,0:0:0:0:
64,192,35185,1,0,0:0:0:0:
192,192,35185,1,0,0:0:0:0:
320,192,35222,1,0,0:0:0:0:
448,192,35258,1,0,0:0:0:0:
64,192,35295,1,0,0:0:0:0:
192,192,35331,1,0,0:0:0:0:
320,192,35404,1,0,0:0:0:0:
448,192,35477,1,0,0:0:0:0:
64,192,35550,1,0,0:0:0:0:
192,192,35587,1,0,0:0:0:0:
320,192,35623,1,0,0:0:0:0:
448,192,35696,1,0,0:0:0:0:
192,192,35733,1,0,0:0:0:0:
320,192,35806,1,0,0:0:0:0:
192,192,35842,1,0,0:0:0:0:
64,192,35879,1,0,0:0:0:0:
448,192,35915,1,0,0:0:0:0:
320,192,35952,1,0,0:0:0:0:
192,192,35988,1,0,0:0:0:0:
448,192,36061,1,0,0:0:0:0:
320,192,36134,1,0,0:0:0:0:
64,192,36207,1,0,0:0:0:0:
192,192,36280,1,0,0:0:0:0:
320,192,36317,1,0,0:0:0:0:
448,192,36353,1,0,0:0:0:0:
64,192,36390,1,0,0:0:0:0:
320,192,36463,1,0,0:0:0:0:
192,192,36536,1,0,0:0:0:0:
448,192,36609,1,0,0:0:0:0:
320,192,36645,1,0,0:0:0:0:
64,192,36682,1,0,0:0:0:0:
192,192,36755,1,0,0:0:0:0:
448,192,36828,1,0,0:0:0:0:
64,192,36937,1,0,0:0:0:0:
320,192,36937,1,0,0:0:0:0:
192,192,37047,1,0,0:0:0:0:
448,192,37156,1,0,0:0:0:0:
192,192,37266,1,0,0:0:0:0:
64,192,37375,1,0,0:0:0:0:
320,192,37375,1,0,0:0:0:0:
448,192,37375,1,0,0:0:0:0:
192,192,37485,1,0,0:0:0:0:
320,192,37594,1,0,0:0:0:0:
64,192,37704,1,0,0:0:0:0:
448,192,37813,1,0,0:0:0:0:
320,192,37868,1,0,0:0:0:0:
192,192,37923,1,0,0:0:0:0:
320,192,38032,1,0,0:0:0:0:
192,192,38087,1,0,0:0:0:0:
64,192,38142,1,0,0:0:0:0:
192,192,38251,1,0,0:0:0:0:
320,192,38251,1,0,0:0:0:0:
448,192,38251,1,0,0:0:0:0:
64,192,38361,1,0,0:0:0:0:
320,192,38470,1,0,0:0:0:0:
192,192,38580,1,0,0:0:0:0:
64,192,38689,1,0,0:0:0:0:
448,192,38689,1,0,0:0:0:0:
192,192,38744,1,0,0:0:0:0:
320,192,38798,1,0,0:0:0:0:
448,192,38853,1,0,0:0:0:0:
64,192,38908,1,0,0:0:0:0:
192,192,38963,1,0,0:0:0:0:
320,192,39017,1,0,0:0:0:0:
448,192,39072,1,0,0:0:0:0:
64,192,39127,1,0,0:0:0:0:
192,192,39127,1,0,0:0:0:0:
320,192,39182,1,0,0:0:0:0:
448,192,39236,1,0,0:0:0:0:
192,192,39291,1,0,0:0:0:0:
320,192,39346,1,0,0:0:0:0:
64,192,39401,1,0,0:0:0:0:
192,192,39455,1,0,0:0:0:0:
448,192,39510,1,0,0:0:0:0:
320,192,39565,1,0,0:0:0:0:
64,192,39565,1,0,0:0:0:0:
192,192,39620,1,0,0:0:0:0:
448,192,39674,1,0,0:0:0:0:
64,192,39729,1,0,0:0:0:0:
320,192,39784,1,0,0:0:0:0:
448,192,39839,1,0,0:0:0:0:
192,192,39893,1,0,0:0:0:0:
320,192,39948,1,0,0:0:0:0:
448,192,40003,1,0,0:0:0:0:
64,192,40003,1,0,0:0:0:0:
192,192,40112,1,0,0:0:0:0:
320,192,40222,1,0,0:0:0:0:
192,192,40331,1,0,0:0:0:0:
448,192,40441,1,0,0:0:0:0:
64,192,40441,1,0,0:0:0:0:
320,192,40550,1,0,0:0:0:0:
192,192,40660,1,0,0:0:0:0:
64,192,40733,1,0,0:0:0:0:
320,192,40806,1,0,0:0:0:0:
192,192,40879,1,0,0:0:0:0:
64,192,40879,1,0,0:0:0:0:
448,192,40952,1,0,0:0:0:0:
64,192,41025,1,0,0:0:0:0:
320,192,41098,1,0,0:0:0:0:
192,192,41171,1,0,0:0:0:0:
448,192,41244,1,0,0:0:0:0:
64,192,41317,1,0,0:0:0:0:
320,192,41317,1,0,0:0:0:0:
192,192,41390,1,0,0:0:0:0:
448,192,41463,1,0,0:0:0:0:
64,192,41536,1,0,0:0:0:0:
320,192,41609,1,0,0:0:0:0:
192,192,41682,1,0,0:0:0:0:
448,192,41755,1,0,0:0:0:0:
320,192,41755,1,0,0:0:0:0:
320,192,41974,1,0,0:0:0:0:
448,192,41974,1,0,0:0:0:0:
64,192,42193,1,0,0:0:0:0:
192,192,42193,1,0,0:0:0:0:
320,192,42302,1,0,0:0:0:0:
64,192,42412,1,0,0:0:0:0:
448,192,42412,1,0,0:0:0:0:
192,192,42521,1,0,0:0:0:0:
320,192,42631,1,0,0:0:0:0:
448,192,42631,1,0,0:0:0:0:
192,192,42740,1,0,0:0:0:0:
64,192,42850,1,0,0:0:0:0:
448,192,42959,1,0,0:0:0:0:
192,192,43069,1,0,0:0:0:0:
64,192,43069,1,0,0:0:0:0:
320,192,43178,1,0,0:0:0:0:
64,192,43288,1,0,0:0:0:0:
192,192,43397,1,0,0:0:0:0:
320,192,43507,1,0,0:0:0:0:
448,192,43507,1,0,0:0:0:0:
64,192,43507,1,0,0:0:0:0:
192,192,43616,1,0,0:0:0:0:
448,192,43725,1,0,0:0:0:0:
320,192,43835,1,0,0:0:0:0:
64,192,43944,1,0,0:0:0:0:
192,192,43944,1,0,0:0:0:0:
448,192,43981,1,0,0:0:0:0:
320,192,44017,1,0,0:0:0:0:
192,192,44054,1,0,0:0:0:0:
64,192,44090,1,0,0:0:0:0:
448,192,44127,1,0,0:0:0:0:
320,192,44163,1,0,0:0:0:0:
192,192,44200,1,0,0:0:0:0:
64,192,44236,1,0,0:0:0:0:
192,192,44328,1,0,0:0:0:0:
448,192,44328,1,0,0:0:0:0:
320,192,44328,1,0,0:0:0:0:
320,192,44465,1,0,0:0:0:0:
192,192,44465,1,0,0:0:0:0:
64,192,44465,1,0,0:0:0:0:
448,192,44601,1,0,0:0:0:0:
64,192,44601,1,0,0:0:0:0:
320,192,44601,1,0,0:0:0:0:
192,192,44711,1,0,0:0:0:0:
320,192,44820,1,0,0:0:0:0:
192,192,44930,1,0,0:0:0:0:
64,192,44930,1,0,0:0:0:0:
448,192,44930,1,0,0:0:0:0:
64,192,45094,1,0,0:0:0:0:
320,192,45094,1,0,0:0:0:0:
448,192,45094,1,0,0:0:0:0:
192,192,45258,1,0,0:0:0:0:
320,192,45258,1,0,0:0:0:0:
448,192,45423,1,0,0:0:0:0:
64,192,45423,1,0,0:0:0:0:
64,192,45696,1,0,0:0:0:0:
192,192,45696,1,0,0:0:0:0:
320,192,45696,1,0,0:0:0:0:
448,192,45696,1,0,0:0:0:0:
320,192,45915,1,0,0:0:0:0:
192,192,46025,1,0,0:0:0:0:
64,192,46134,1,0,0:0:0:0:
320,192,46134,1,0,0:0:0:0:
448,192,46134,1,0,0:0:0:0:
192,192,46353,1,0,0:0:0:0:
64,192,46572,1,0,0:0:0:0:
320,192,46572,1,0,0:0:0:0:
448,192,46791,1,0,0:0:0:0:
320,192,46901,1,0,0:0:0:0:
64,192,47010,1,0,0:0:0:0:
192,192,47047,1,0,0:0:0:0:
320,192,47083,1,0,0:0:0:0:
448,192,47120,1,0,0:0:0:0:
448,192,47229,1,0,0:0:0:0:
320,192,47266,1,0,0:0:0:0:
192,192,47302,1,0,0:0:0:0:
64,192,47339,1,0,0:0:0:0:
320,192,47448,1,0,0:0:0:0:
448,192,47448,1,0,0:0:0:0:
192,192,47667,1,0,0:0:0:0:
320,192,47777,1,0,0:0:0:0:
64,192,47886,1,0,0:0:0:0:
192,192,47886,1,0,0:0:0:0:
448,192,47886,1,0,0:0:0:0:
320,192,48105,1,0,0:0:0:0:
64,192,48324,1,0,0:0:0:0:
192,192,48379,1,0,0:0:0:0:
320,192,48434,1,0,0:0:0:0:
192,192,48543,1,0,0:0:0:0:
320,192,48598,1,0,0:0:0:0:
448,192,48652,1,0,0:0:0:0:
64,192,48762,1,0,0:0:0:0:
192,192,48762,1,0,0:0:0:0:
320,192,48762,1,0,0:0:0:0:
448,192,48981,1,0,0:0:0:0:
64,192,49200,1,0,0:0:0:0:
320,192,49200,1,0,0:0:0:0:
192,192,49419,1,0,0:0:0:0:
320,192,49528,1,0,0:0:0:0:
192,192,49638,1,0,0:0:0:0:
64,192,49638,1,0,0:0:0:0:
448,192,49638,1,0,0:0:0:0:
320,192,49857,1,0,0:0:0:0:
192,192,50076,1,0,0:0:0:0:
448,192,50076,1,0,0:0:0:0:
64,192,50295,1,0,0:0:0:0:
192,192,50404,1,0,0:0:0:0:
64,192,50514,1,0,0:0:0:0:
320,192,50514,1,0,0:0:0:0:
448,192,50514,1,0,0:0:0:0:
192,192,50733,1,0,0:0:0:0:
64,192,50952,1,0,0:0:0:0:
448,192,50952,1,0,0:0:0:0:
320,192,51171,1,0,0:0:0:0:
192,192,51280,1,0,0:0:0:0:
64,192,51390,1,0,0:0:0:0:
448,192,51390,1,0,0:0:0:0:
320,192,51390,1,0,0:0:0:0:
192,192,51609,1,0,0:0:0:0:
448,192,51828,1,0,0:0:0:0:
320,192,51882,1,0,0:0:0:0:
192,192,51937,1,0,0:0:0:0:
320,192,52047,1,0,0:0:0:0:
192,192,52101,1,0,0:0:0:0:
64,192,52156,1,0,0:0:0:0:
192,192,52266,1,0,0:0:0:0:
320,192,52266,1,0,0:0:0:0:
448,192,52266,1,0,0:0:0:0:
64,192,52485,1,0,0:0:0:0:
192,192,52704,1,0,0:0:0:0:
448,192,52704,1,0,0:0:0:0:
320,192,52923,1,0,0:0:0:0:
192,192,53032,1,0,0:0:0:0:
64,192,53142,1,0,0:0:0:0:
320,192,53142,1,0,0:0:0:0:
448,192,53142,1,0,0:0:0:0:
192,192,53361,1,0,0:0:0:0:
64,192,53580,1,0,0:0:0:0:
320,192,53580,1,0,0:0:0:0:
448,192,53798,1,0,0:0:0:0:
64,192,54017,1,0,0:0:0:0:
192,192,54054,1,0,0:0:0:0:
320,192,54090,1,0,0:0:0:0:
448,192,54127,1,0,0:0:0:0:
448,192,54236,1,0,0:0:0:0:
320,192,54273,1,0,0:0:0:0:
192,192,54309,1,0,0:0:0:0:
64,192,54346,1,0,0:0:0:0:
320,192,54455,1,0,0:0:0:0:
448,192,54455,1,0,0:0:0:0:
192,192,54674,1,0,0:0:0:0:
320,192,54784,1,0,0:0:0:0:
64,192,54893,1,0,0:0:0:0:
192,192,54893,1,0,0:0:0:0:
448,192,54893,1,0,0:0:0:0:
320,192,55112,1,0,0:0:0:0:
64,192,55331,1,0,0:0:0:0:
192,192,55386,1,0,0:0:0:0:
320,192,55441,1,0,0:0:0:0:
192,192,55550,1,0,0:0:0:0:
320,192,55605,1,0,0:0:0:0:
448,192,55660,1,0,0:0:0:0:
64,192,55769,1,0,0:0:0:0:
192,192,55769,1,0,0:0:0:0:
320,192,55769,1,0,0:0:0:0:
448,192,55988,1,0,0:0:0:0:
64,192,56207,1,0,0:0:0:0:
320,192,56207,1,0,0:0:0:0:
192,192,56426,1,0,0:0:0:0:
320,192,56536,1,0,0:0:0:0:
64,192,56645,1,0,0:0:0:0:
192,192,56645,1,0,0:0:0:0:
448,192,56645,1,0,0:0:0:0:
320,192,56864,1,0,0:0:0:0:
192,192,57083,1,0,0:0:0:0:
448,192,57083,1,0,0:0:0:0:
64,192,57302,1,0,0:0:0:0:
192,192,57412,1,0,0:0:0:0:
64,192,57521,1,0,0:0:0:0:
320,192,57521,1,0,0:0:0:0:
448,192,57521,1,0,0:0:0:0:
192,192,57740,1,0,0:0:0:0:
448,192,57850,1,0,0:0:0:0:
320,192,57904,1,0,0:0:0:0:
64,192,57959,1,0,0:0:0:0:
192,192,57959,1,0,0:0:0:0:
448,192,57959,1,0,0:0:0:0:
320,192,58178,1,0,0:0:0:0:
192,192,58397,1,0,0:0:0:0:
448,192,58616,1,0,0:0:0:0:
64,192,58762,1,0,0:0:0:0:
320,192,59054,1,0,0:0:0:0:
448,192,59711,1,0,0:0:0:0:
320,192,59711,128,0,59820:0:0:0:0:
192,192,59711,128,0,59930:0:0:0:0:
64,192,59711,128,0,60039:0:0:0:0:
448,192,59930,1,0,0:0:0:0:
320,192,60149,128,0,60477:0:0:0:0:
192,192,60149,128,0,60368:0:0:0:0:
64,192,60368,128,0,60477:0:0:0:0:
448,192,60368,128,0,60477:0:0:0:0:
192,192,60587,128,0,60915:0:0:0:0:
448,192,60587,128,0,60806:0:0:0:0:
320,192,60806,1,0,0:0:0:0:
64,192,61025,128,0,61244:0:0:0:0:
448,192,61025,128,0,61353:0:0:0:0:
192,192,61244,128,0,61353:0:0:0:0:
320,192,61244,128,0,61353:0:0:0:0:
64,192,61463,128,0,61791:0:0:0:0:
320,192,61463,128,0,61682:0:0:0:0:
192,192,61682,1,0,0:0:0:0:
192,192,61901,128,0,62120:0:0:0:0:
448,192,61901,128,0,62229:0:0:0:0:
64,192,62120,128,0,62448:0:0:0:0:
320,192,62120,128,0,62339:0:0:0:0:
192,192,62339,128,0,62667:0:0:0:0:
448,192,62339,128,0,62558:0:0:0:0:
320,192,62558,128,0,62667:0:0:0:0:
64,192,62558,128,0,62777:0:0:0:0:
448,192,62777,1,0,0:0:0:0:
320,192,62813,1,0,0:0:0:0:
192,192,62850,1,0,0:0:0:0:
64,192,62886,1,0,0:0:0:0:
64,192,62996,1,0,0:0:0:0:
192,192,63032,1,0,0:0:0:0:
320,192,63069,1,0,0:0:0:0:
448,192,63105,1,0,0:0:0:0:
192,192,63215,128,0,63434:0:0:0:0:
64,192,63215,128,0,63543:0:0:0:0:
320,192,63434,1,0,0:0:0:0:
192,192,63652,128,0,63762:0:0:0:0:
320,192,63652,128,0,63871:0:0:0:0:
448,192,63652,128,0,63981:0:0:0:0:
64,192,63871,128,0,63981:0:0:0:0:
192,192,64090,128,0,64419:0:0:0:0:
320,192,64090,128,0,64309:0:0:0:0:
64,192,64309,1,0,0:0:0:0:
320,192,64528,128,0,64857:0:0:0:0:
448,192,64528,128,0,64747:0:0:0:0:
192,192,64747,128,0,65076:0:0:0:0:
64,192,64747,128,0,64966:0:0:0:0:
448,192,65076,1,0,0:0:0:0:
192,192,65185,128,0,65514:0:0:0:0:
320,192,65185,128,0,65404:0:0:0:0:
448,192,65404,1,0,0:0:0:0:
64,192,65404,1,0,0:0:0:0:
192,192,65623,128,0,65952:0:0:0:0:
320,192,65623,128,0,65842:0:0:0:0:
448,192,65842,1,0,0:0:0:0:
192,192,66061,128,0,66390:0:0:0:0:
320,192,66061,128,0,66280:0:0:0:0:
64,192,66280,128,0,66390:0:0:0:0:
448,192,66280,1,0,0:0:0:0:
320,192,66499,1,0,0:0:0:0:
320,192,66609,1,0,0:0:0:0:
64,192,66718,128,0,66937:0:0:0:0:
448,192,66718,1,0,0:0:0:0:
448,192,66828,1,0,0:0:0:0:
192,192,66937,1,0,0:0:0:0:
320,192,67047,1,0,0:0:0:0:
320,192,67156,1,0,0:0:0:0:
192,192,67156,1,0,0:0:0:0:
448,192,67156,128,0,67375:0:0:0:0:
64,192,67375,1,0,0:0:0:0:
64,192,67485,1,0,0:0:0:0:
320,192,67594,1,0,0:0:0:0:
192,192,67594,128,0,67813:0:0:0:0:
320,192,67704,1,0,0:0:0:0:
64,192,67813,1,0,0:0:0:0:
64,192,67923,1,0,0:0:0:0:
192,192,68032,1,0,0:0:0:0:
320,192,68032,128,0,68251:0:0:0:0:
448,192,68032,128,0,68142:0:0:0:0:
192,192,68251,128,0,68361:0:0:0:0:
64,192,68251,128,0,68470:0:0:0:0:
320,192,68470,128,0,68798:0:0:0:0:
192,192,68470,128,0,68689:0:0:0:0:
64,192,68689,1,0,0:0:0:0:
192,192,68908,128,0,69127:0:0:0:0:
448,192,68908,128,0,69236:0:0:0:0:
64,192,69127,128,0,69455:0:0:0:0:
320,192,69127,128,0,69346:0:0:0:0:
192,192,69346,128,0,69674:0:0:0:0:
448,192,69346,128,0,69565:0:0:0:0:
320,192,69565,128,0,69674:0:0:0:0:
64,192,69565,128,0,69784:0:0:0:0:
448,192,69784,1,0,0:0:0:0:
320,192,69820,1,0,0:0:0:0:
192,192,69857,1,0,0:0:0:0:
64,192,69893,1,0,0:0:0:0:
64,192,70003,1,0,0:0:0:0:
192,192,70039,1,0,0:0:0:0:
320,192,70076,1,0,0:0:0:0:
448,192,70112,1,0,0:0:0:0:
448,192,70222,128,0,70441:0:0:0:0:
64,192,70222,1,0,0:0:0:0:
64,192,70331,1,0,0:0:0:0:
320,192,70441,1,0,0:0:0:0:
192,192,70550,1,0,0:0:0:0:
192,192,70660,1,0,0:0:0:0:
320,192,70660,1,0,0:0:0:0:
64,192,70660,128,0,70879:0:0:0:0:
448,192,70879,1,0,0:0:0:0:
448,192,70988,1,0,0:0:0:0:
192,192,71098,1,0,0:0:0:0:
320,192,71098,128,0,71317:0:0:0:0:
192,192,71207,1,0,0:0:0:0:
448,192,71317,1,0,0:0:0:0:
448,192,71426,1,0,0:0:0:0:
320,192,71536,1,0,0:0:0:0:
192,192,71536,128,0,71755:0:0:0:0:
64,192,71536,128,0,71645:0:0:0:0:
320,192,71755,128,0,71974:0:0:0:0:
448,192,71755,128,0,72083:0:0:0:0:
192,192,71974,1,0,0:0:0:0:
448,192,72193,128,0,72521:0:0:0:0:
320,192,72193,128,0,72412:0:0:0:0:
192,192,72412,1,0,0:0:0:0:
64,192,72412,1,0,0:0:0:0:
320,192,72631,128,0,72850:0:0:0:0:
448,192,72631,128,0,72959:0:0:0:0:
192,192,72850,1,0,0:0:0:0:
320,192,73069,128,0,73288:0:0:0:0:
448,192,73069,128,0,73397:0:0:0:0:
64,192,73288,1,0,0:0:0:0:
192,192,73288,1,0,0:0:0:0:
320,192,73507,1,0,0:0:0:0:
320,192,73616,1,0,0:0:0:0:
448,192,73725,1,0,0:0:0:0:
192,192,73725,1,0,0:0:0:0:
64,192,73725,1,0,0:0:0:0:
320,192,73780,1,0,0:0:0:0:
192,192,73835,1,0,0:0:0:0:
64,192,73890,1,0,0:0:0:0:
448,192,73944,1,0,0:0:0:0:
320,192,73999,1,0,0:0:0:0:
192,192,74054,1,0,0:0:0:0:
64,192,74109,1,0,0:0:0:0:
448,192,74163,1,0,0:0:0:0:
320,192,74163,1,0,0:0:0:0:
192,192,74218,1,0,0:0:0:0:
64,192,74273,1,0,0:0:0:0:
320,192,74328,1,0,0:0:0:0:
192,192,74382,1,0,0:0:0:0:
448,192,74437,1,0,0:0:0:0:
320,192,74492,1,0,0:0:0:0:
64,192,74547,1,0,0:0:0:0:
192,192,74601,1,0,0:0:0:0:
448,192,74601,1,0,0:0:0:0:
320,192,74656,1,0,0:0:0:0:
64,192,74711,1,0,0:0:0:0:
448,192,74766,1,0,0:0:0:0:
192,192,74820,1,0,0:0:0:0:
64,192,74875,1,0,0:0:0:0:
320,192,74930,1,0,0:0:0:0:
192,192,74985,1,0,0:0:0:0:
448,192,75039,1,0,0:0:0:0:
64,192,75039,1,0,0:0:0:0:
320,192,75149,1,0,0:0:0:0:
192,192,75258,1,0,0:0:0:0:
320,192,75368,1,0,0:0:0:0:
448,192,75477,1,0,0:0:0:0:
64,192,75477,1,0,0:0:0:0:
192,192,75587,1,0,0:0:0:0:
320,192,75696,1,0,0:0:0:0:
448,192,75769,1,0,0:0:0:0:
192,192,75842,1,0,0:0:0:0:
448,192,75915,1,0,0:0:0:0:
320,192,75915,1,0,0:0:0:0:
64,192,75988,1,0,0:0:0:0:
448,192,76061,1,0,0:0:0:0:
192,192,76134,1,0,0:0:0:0:
320,192,76207,1,0,0:0:0:0:
64,192,76280,1,0,0:0:0:0:
192,192,76353,1,0,0:0:0:0:
448,192,76353,1,0,0:0:0:0:
320,192,76426,1,0,0:0:0:0:
64,192,76499,1,0,0:0:0:0:
448,192,76572,1,0,0:0:0:0:
192,192,76645,1,0,0:0:0:0:
320,192,76718,1,0,0:0:0:0:
192,192,76791,1,0,0:0:0:0:
64,192,76791,1,0,0:0:0:0:
64,192,77010,1,0,0:0:0:0:
192,192,77010,1,0,0:0:0:0:
448,192,77229,1,0,0:0:0:0:
64,192,77229,1,0,0:0:0:0:
192,192,77284,1,0,0:0:0:0:
320,192,77339,1,0,0:0:0:0:
448,192,77393,1,0,0:0:0:0:
64,192,77448,1,0,0:0:0:0:
192,192,77503,1,0,0:0:0:0:
320,192,77558,1,0,0:0:0:0:
448,192,77612,1,0,0:0:0:0:
192,192,77667,1,0,0:0:0:0:
64,192,77667,1,0,0:0:0:0:
320,192,77722,1,0,0:0:0:0:
448,192,77777,1,0,0:0:0:0:
192,192,77831,1,0,0:0:0:0:
320,192,77886,1,0,0:0:0:0:
64,192,77941,1,0,0:0:0:0:
192,192,77996,1,0,0:0:0:0:
448,192,78050,1,0,0:0:0:0:
64,192,78105,1,0,0:0:0:0:
320,192,78105,1,0,0:0:0:0:
192,192,78160,1,0,0:0:0:0:
448,192,78215,1,0,0:0:0:0:
64,192,78269,1,0,0:0:0:0:
320,192,78324,1,0,0:0:0:0:
448,192,78379,1,0,0:0:0:0:
192,192,78434,1,0,0:0:0:0:
320,192,78488,1,0,0:0:0:0:
448,192,78543,1,0,0:0:0:0:
64,192,78543,1,0,0:0:0:0:
192,192,78652,1,0,0:0:0:0:
320,192,78762,1,0,0:0:0:0:
192,192,78871,1,0,0:0:0:0:
448,192,78981,1,0,0:0:0:0:
64,192,78981,1,0,0:0:0:0:
320,192,78981,1,0,0:0:0:0:
64,192,79200,1,0,0:0:0:0:
192,192,79200,1,0,0:0:0:0:
448,192,79200,1,0,0:0:0:0:
320,192,79364,1,0,0:0:0:0:
448,192,79364,1,0,0:0:0:0:
192,192,79364,1,0,0:0:0:0:
64,192,79528,1,0,0:0:0:0:
192,192,79528,1,0,0:0:0:0:
320,192,79528,1,0,0:0:0:0:
64,192,79693,1,0,0:0:0:0:
320,192,79693,1,0,0:0:0:0:
448,192,79693,1,0,0:0:0:0:
64,192,79857,1,0,0:0:0:0:
192,192,79857,1,0,0:0:0:0:
448,192,79857,1,0,0:0:0:0:
64,192,80076,1,0,0:0:0:0:
320,192,80076,1,0,0:0:0:0:
448,192,80076,1,0,0:0:0:0:
192,192,80240,1,0,0:0:0:0:
320,192,80240,1,0,0:0:0:0:
64,192,80240,1,0,0:0:0:0:
192,192,80404,1,0,0:0:0:0:
320,192,80404,1,0,0:0:0:0:
448,192,80404,1,0,0:0:0:0:
64,192,80623,1,0,0:0:0:0:
320,192,80623,1,0,0:0:0:0:
192,192,80623,1,0,0:0:0:0:
448,192,80733,1,0,0:0:0:0:
320,192,80788,1,0,0:0:0:0:
192,192,80842,1,0,0:0:0:0:
64,192,80897,1,0,0:0:0:0:
448,192,80952,1,0,0:0:0:0:
320,192,81007,1,0,0:0:0:0:
192,192,81061,1,0,0:0:0:0:
64,192,81116,1,0,0:0:0:0:
320,192,81171,1,0,0:0:0:0:
448,192,81171,1,0,0:0:0:0:
192,192,81225,1,0,0:0:0:0:
64,192,81280,1,0,0:0:0:0:
320,192,81335,1,0,0:0:0:0:
192,192,81390,1,0,0:0:0:0:
448,192,81444,1,0,0:0:0:0:
320,192,81499,1,0,0:0:0:0:
64,192,81554,1,0,0:0:0:0:
448,192,81609,1,0,0:0:0:0:
192,192,81609,1,0,0:0:0:0:
320,192,81663,1,0,0:0:0:0:
64,192,81718,1,0,0:0:0:0:
448,192,81773,1,0,0:0:0:0:
192,192,81828,1,0,0:0:0:0:
64,192,81882,1,0,0:0:0:0:
320,192,81937,1,0,0:0:0:0:
192,192,81992,1,0,0:0:0:0:
64,192,82047,1,0,0:0:0:0:
448,192,82047,1,0,0:0:0:0:
320,192,82156,1,0,0:0:0:0:
192,192,82266,1,0,0:0:0:0:
320,192,82375,1,0,0:0:0:0:
448,192,82485,1,0,0:0:0:0:
64,192,82485,1,0,0:0:0:0:
192,192,82594,1,0,0:0:0:0:
320,192,82704,1,0,0:0:0:0:
448,192,82777,1,0,0:0:0:0:
192,192,82850,1,0,0:0:0:0:
448,192,82923,1,0,0:0:0:0:
320,192,82923,1,0,0:0:0:0:
64,192,82996,1,0,0:0:0:0:
448,192,83069,1,0,0:0:0:0:
192,192,83142,1,0,0:0:0:0:
320,192,83215,1,0,0:0:0:0:
64,192,83288,1,0,0:0:0:0:
192,192,83361,1,0,0:0:0:0:
448,192,83361,1,0,0:0:0:0:
320,192,83434,1,0,0:0:0:0:
64,192,83507,1,0,0:0:0:0:
448,192,83580,1,0,0:0:0:0:
192,192,83652,1,0,0:0:0:0:
320,192,83725,1,0,0:0:0:0:
192,192,83798,1,0,0:0:0:0:
64,192,83798,1,0,0:0:0:0:
64,192,84017,1,0,0:0:0:0:
192,192,84017,1,0,0:0:0:0:
64,192,84236,1,0,0:0:0:0:
448,192,84236,1,0,0:0:0:0:
192,192,84291,1,0,0:0:0:0:
320,192,84346,1,0,0:0:0:0:
448,192,84401,1,0,0:0:0:0:
64,192,84455,1,0,0:0:0:0:
192,192,84510,1,0,0:0:0:0:
320,192,84565,1,0,0:0:0:0:
448,192,84620,1,0,0:0:0:0:
192,192,84674,1,0,0:0:0:0:
64,192,84674,1,0,0:0:0:0:
320,192,84729,1,0,0:0:0:0:
448,192,84784,1,0,0:0:0:0:
192,192,84839,1,0,0:0:0:0:
320,192,84893,1,0,0:0:0:0:
64,192,84948,1,0,0:0:0:0:
192,192,85003,1,0,0:0:0:0:
448,192,85058,1,0,0:0:0:0:
64,192,85112,1,0,0:0:0:0:
320,192,85112,1,0,0:0:0:0:
192,192,85167,1,0,0:0:0:0:
448,192,85222,1,0,0:0:0:0:
64,192,85277,1,0,0:0:0:0:
320,192,85331,1,0,0:0:0:0:
448,192,85386,1,0,0:0:0:0:
192,192,85441,1,0,0:0:0:0:
320,192,85496,1,0,0:0:0:0:
448,192,85550,1,0,0:0:0:0:
64,192,85550,1,0,0:0:0:0:
192,192,85660,1,0,0:0:0:0:
320,192,85769,1,0,0:0:0:0:
192,192,85879,1,0,0:0:0:0:
64,192,85988,1,0,0:0:0:0:
448,192,85988,1,0,0:0:0:0:
320,192,85988,1,0,0:0:0:0:
64,192,86207,1,0,0:0:0:0:
192,192,86207,1,0,0:0:0:0:
448,192,86207,1,0,0:0:0:0:
448,192,86317,1,0,0:0:0:0:
320,192,86317,1,0,0:0:0:0:
64,192,86317,1,0,0:0:0:0:
64,192,86590,1,0,0:0:0:0:
192,192,86590,1,0,0:0:0:0:
320,192,86590,1,0,0:0:0:0:
192,192,86809,1,0,0:0:0:0:
320,192,86809,1,0,0:0:0:0:
448,192,86809,1,0,0:0:0:0:
64,192,87028,1,0,0:0:0:0:
192,192,87028,1,0,0:0:0:0:
448,192,87028,1,0,0:0:0:0:
64,192,87193,1,0,0:0:0:0:
320,192,87193,1,0,0:0:0:0:
448,192,87193,1,0,0:0:0:0:
192,192,87521,1,0,0:0:0:0:
64,192,87740,1,0,0:0:0:0:
448,192,87740,1,0,0:0:0:0:
448,192,87959,1,0,0:0:0:0:
64,192,87959,1,0,0:0:0:0:
192,192,88178,1,0,0:0:0:0:
320,192,88178,1,0,0:0:0:0:
320,192,88397,1,0,0:0:0:0:
192,192,88397,1,0,0:0:0:0:
64,192,88616,1,0,0:0:0:0:
448,192,88616,1,0,0:0:0:0:
448,192,88835,1,0,0:0:0:0:
64,192,88835,1,0,0:0:0:0:
64,192,89054,1,0,0:0:0:0:
192,192,89054,1,0,0:0:0:0:
320,192,89273,1,0,0:0:0:0:
448,192,89273,1,0,0:0:0:0:
192,192,89492,1,0,0:0:0:0:
320,192,89711,1,0,0:0:0:0:
192,192,89930,1,0,0:0:0:0:
448,192,89930,1,0,0:0:0:0:
448,192,90149,1,0,0:0:0:0:
320,192,90149,1,0,0:0:0:0:
64,192,90368,1,0,0:0:0:0:
320,192,90368,1,0,0:0:0:0:
64,192,90587,1,0,0:0:0:0:
192,192,90587,1,0,0:0:0:0:
320,192,90806,1,0,0:0:0:0:
192,192,90806,1,0,0:0:0:0:
64,192,91025,1,0,0:0:0:0:
448,192,91025,1,0,0:0:0:0:
320,192,91244,1,0,0:0:0:0:
192,192,91463,1,0,0:0:0:0:
320,192,91682,1,0,0:0:0:0:
448,192,91682,1,0,0:0:0:0:
192,192,91901,1,0,0:0:0:0:
448,192,91901,1,0,0:0:0:0:
64,192,92120,1,0,0:0:0:0:
192,192,92120,1,0,0:0:0:0:
64,192,92339,1,0,0:0:0:0:
320,192,92339,1,0,0:0:0:0:
448,192,92558,1,0,0:0:0:0:
192,192,92777,1,0,0:0:0:0:
320,192,92777,1,0,0:0:0:0:
64,192,92996,1,0,0:0:0:0:
192,192,93215,1,0,0:0:0:0:
320,192,93434,1,0,0:0:0:0:
448,192,93652,1,0,0:0:0:0:
64,192,93871,1,0,0:0:0:0:
192,192,93908,1,0,0:0:0:0:
320,192,93944,1,0,0:0:0:0:
448,192,94017,1,0,0:0:0:0:
320,192,94054,1,0,0:0:0:0:
192,192,94090,1,0,0:0:0:0:
448,192,94200,1,0,0:0:0:0:
64,192,94309,1,0,0:0:0:0:
448,192,94309,1,0,0:0:0:0:
192,192,94528,1,0,0:0:0:0:
64,192,94747,1,0,0:0:0:0:
320,192,94747,1,0,0:0:0:0:
448,192,94747,1,0,0:0:0:0:
192,192,94966,1,0,0:0:0:0:
320,192,94966,1,0,0:0:0:0:
64,192,95185,1,0,0:0:0:0:
192,192,95185,1,0,0:0:0:0:
320,192,95185,1,0,0:0:0:0:
448,192,95185,1,0,0:0:0:0:
64,192,95404,1,0,0:0:0:0:
448,192,95404,1,0,0:0:0:0:
64,192,95623,1,0,0:0:0:0:
192,192,95623,1,0,0:0:0:0:
448,192,95623,1,0,0:0:0:0:
320,192,95842,1,0,0:0:0:0:
448,192,95842,1,0,0:0:0:0:
192,192,95952,1,0,0:0:0:0:
64,192,96061,1,0,0:0:0:0:
448,192,96061,1,0,0:0:0:0:
64,192,96280,1,0,0:0:0:0:
320,192,96280,1,0,0:0:0:0:
448,192,96280,1,0,0:0:0:0:
320,192,96499,1,0,0:0:0:0:
192,192,96499,1,0,0:0:0:0:
64,192,96718,1,0,0:0:0:0:
64,192,96937,1,0,0:0:0:0:
192,192,96937,1,0,0:0:0:0:
320,192,96937,1,0,0:0:0:0:
448,192,96937,1,0,0:0:0:0:
192,192,97156,1,0,0:0:0:0:
448,192,97156,1,0,0:0:0:0:
64,192,97375,1,0,0:0:0:0:
320,192,97375,1,0,0:0:0:0:
448,192,97375,1,0,0:0:0:0:
64,192,97594,1,0,0:0:0:0:
192,192,97594,1,0,0:0:0:0:
320,192,97704,1,0,0:0:0:0:
64,192,97813,1,0,0:0:0:0:
448,192,97813,1,0,0:0:0:0:
192,192,98032,1,0,0:0:0:0:
448,192,98032,1,0,0:0:0:0:
320,192,98032,1,0,0:0:0:0:
64,192,98251,1,0,0:0:0:0:
320,192,98251,1,0,0:0:0:0:
192,192,98251,1,0,0:0:0:0:
64,192,98470,1,0,0:0:0:0:
320,192,98470,1,0,0:0:0:0:
448,192,98470,1,0,0:0:0:0:
64,192,98689,1,0,0:0:0:0:
192,192,98689,1,0,0:0:0:0:
448,192,98689,1,0,0:0:0:0:
320,192,98853,1,0,0:0:0:0:
448,192,98853,1,0,0:0:0:0:
192,192,98853,1,0,0:0:0:0:
64,192,99017,1,0,0:0:0:0:
192,192,99017,1,0,0:0:0:0:
320,192,99017,1,0,0:0:0:0:
64,192,99182,1,0,0:0:0:0:
448,192,99182,1,0,0:0:0:0:
320,192,99182,1,0,0:0:0:0:
64,192,99401,1,0,0:0:0:0:
192,192,99401,1,0,0:0:0:0:
448,192,99401,1,0,0:0:0:0:
64,192,99565,1,0,0:0:0:0:
320,192,99565,1,0,0:0:0:0:
192,192,99565,1,0,0:0:0:0:
64,192,99839,1,0,0:0:0:0:
320,192,99839,1,0,0:0:0:0:
448,192,99839,1,0,0:0:0:0:
64,192,100003,1,0,0:0:0:0:
192,192,100003,1,0,0:0:0:0:
448,192,100003,1,0,0:0:0:0:
64,192,100112,1,0,0:0:0:0:
192,192,100112,1,0,0:0:0:0:
448,192,100112,1,0,0:0:0:0:
320,192,100222,1,0,0:0:0:0:
192,192,100277,1,0,0:0:0:0:
64,192,100331,1,0,0:0:0:0:
448,192,100331,1,0,0:0:0:0:
448,192,100441,1,0,0:0:0:0:
64,192,100441,1,0,0:0:0:0:
192,192,100550,1,0,0:0:0:0:
320,192,100550,1,0,0:0:0:0:
448,192,100660,1,0,0:0:0:0:
320,192,100715,1,0,0:0:0:0:
64,192,100769,1,0,0:0:0:0:
192,192,100769,1,0,0:0:0:0:
448,192,100879,1,0,0:0:0:0:
320,192,100879,1,0,0:0:0:0:
64,192,100988,1,0,0:0:0:0:
192,192,100988,1,0,0:0:0:0:
192,192,101098,1,0,0:0:0:0:
64,192,101098,1,0,0:0:0:0:
320,192,101207,1,0,0:0:0:0:
192,192,101262,1,0,0:0:0:0:
64,192,101317,1,0,0:0:0:0:
320,192,101317,1,0,0:0:0:0:
448,192,101317,1,0,0:0:0:0:
64,192,101426,1,0,0:0:0:0:
192,192,101426,1,0,0:0:0:0:
320,192,101536,1,0,0:0:0:0:
448,192,101536,1,0,0:0:0:0:
64,192,101645,1,0,0:0:0:0:
192,192,101645,1,0,0:0:0:0:
64,192,101755,1,0,0:0:0:0:
192,192,101755,1,0,0:0:0:0:
448,192,101755,1,0,0:0:0:0:
320,192,101755,1,0,0:0:0:0:
64,192,102412,1,0,0:0:0:0:
192,192,102412,1,0,0:0:0:0:
320,192,102412,1,0,0:0:0:0:
448,192,102412,1,0,0:0:0:0:
64,192,103069,1,0,0:0:0:0:
192,192,103069,1,0,0:0:0:0:
320,192,103069,1,0,0:0:0:0:
448,192,103069,1,0,0:0:0:0:
64,192,103507,1,0,0:0:0:0:
192,192,103507,1,0,0:0:0:0:
320,192,103507,1,0,0:0:0:0:
448,192,103507,1,0,0:0:0:0:
64,192,104163,1,0,0:0:0:0:
192,192,104163,1,0,0:0:0:0:
320,192,104163,1,0,0:0:0:0:
448,192,104163,1,0,0:0:0:0:
64,192,104820,1,0,0:0:0:0:
192,192,104820,1,0,0:0:0:0:
320,192,104820,1,0,0:0:0:0:
448,192,104820,1,0,0:0:0:0:
448,192,105258,1,0,0:0:0:0:
320,192,105258,1,0,0:0:0:0:
192,192,105258,1,0,0:0:0:0:
64,192,105258,1,0,0:0:0:0:
64,192,105915,1,0,0:0:0:0:
320,192,105915,1,0,0:0:0:0:
448,192,105915,1,0,0:0:0:0:
192,192,105915,1,0,0:0:0:0:
64,192,106572,1,0,0:0:0:0:
192,192,106572,1,0,0:0:0:0:
320,192,106572,1,0,0:0:0:0:
448,192,106572,1,0,0:0:0:0:
448,192,107010,1,0,0:0:0:0:
320,192,107010,1,0,0:0:0:0:
192,192,107010,1,0,0:0:0:0:
64,192,107010,1,0,0:0:0:0:
320,192,107302,1,0,0:0:0:0:
192,192,107448,1,0,0:0:0:0:
448,192,107667,1,0,0:0:0:0:
64,192,107831,1,0,0:0:0:0:
448,192,107996,1,0,0:0:0:0:
192,192,108160,1,0,0:0:0:0:
320,192,108324,1,0,0:0:0:0:
64,192,108488,1,0,0:0:0:0:
448,192,108762,1,0,0:0:0:0:
192,192,108762,1,0,0:0:0:0:
64,192,108762,1,0,0:0:0:0:
320,192,108817,1,0,0:0:0:0:
192,192,108871,1,0,0:0:0:0:
64,192,108926,1,0,0:0:0:0:
448,192,108981,1,0,0:0:0:0:
192,192,109090,1,0,0:0:0:0:
448,192,109200,1,0,0:0:0:0:
320,192,109200,1,0,0:0:0:0:
64,192,109200,1,0,0:0:0:0:
192,192,109309,1,0,0:0:0:0:
448,192,109419,1,0,0:0:0:0:
320,192,109474,1,0,0:0:0:0:
192,192,109528,1,0,0:0:0:0:
64,192,109583,1,0,0:0:0:0:
448,192,109638,1,0,0:0:0:0:
320,192,109638,1,0,0:0:0:0:
192,192,109747,1,0,0:0:0:0:
320,192,109857,1,0,0:0:0:0:
192,192,109966,1,0,0:0:0:0:
64,192,110076,1,0,0:0:0:0:
320,192,110076,1,0,0:0:0:0:
448,192,110076,1,0,0:0:0:0:
192,192,110131,1,0,0:0:0:0:
320,192,110185,1,0,0:0:0:0:
448,192,110240,1,0,0:0:0:0:
64,192,110295,1,0,0:0:0:0:
320,192,110404,1,0,0:0:0:0:
64,192,110514,1,0,0:0:0:0:
192,192,110514,1,0,0:0:0:0:
320,192,110569,1,0,0:0:0:0:
448,192,110623,1,0,0:0:0:0:
64,192,110678,1,0,0:0:0:0:
192,192,110733,1,0,0:0:0:0:
320,192,110842,1,0,0:0:0:0:
64,192,110952,1,0,0:0:0:0:
448,192,110952,1,0,0:0:0:0:
192,192,110952,1,0,0:0:0:0:
320,192,111061,1,0,0:0:0:0:
192,192,111171,1,0,0:0:0:0:
64,192,111225,1,0,0:0:0:0:
448,192,111280,1,0,0:0:0:0:
320,192,111335,1,0,0:0:0:0:
64,192,111390,1,0,0:0:0:0:
192,192,111390,1,0,0:0:0:0:
448,192,111499,1,0,0:0:0:0:
320,192,111609,1,0,0:0:0:0:
192,192,111718,1,0,0:0:0:0:
320,192,111828,1,0,0:0:0:0:
448,192,111828,1,0,0:0:0:0:
64,192,111828,1,0,0:0:0:0:
192,192,111882,1,0,0:0:0:0:
320,192,111937,1,0,0:0:0:0:
448,192,111992,1,0,0:0:0:0:
64,192,112047,1,0,0:0:0:0:
320,192,112156,1,0,0:0:0:0:
64,192,112266,1,0,0:0:0:0:
192,192,112266,1,0,0:0:0:0:
320,192,112320,1,0,0:0:0:0:
448,192,112375,1,0,0:0:0:0:
64,192,112430,1,0,0:0:0:0:
192,192,112485,1,0,0:0:0:0:
320,192,112594,1,0,0:0:0:0:
448,192,112704,1,0,0:0:0:0:
64,192,112704,1,0,0:0:0:0:
192,192,112704,1,0,0:0:0:0:
320,192,112813,1,0,0:0:0:0:
192,192,112923,1,0,0:0:0:0:
64,192,112977,1,0,0:0:0:0:
448,192,113032,1,0,0:0:0:0:
320,192,113087,1,0,0:0:0:0:
64,192,113142,1,0,0:0:0:0:
192,192,113142,1,0,0:0:0:0:
448,192,113251,1,0,0:0:0:0:
320,192,113361,1,0,0:0:0:0:
192,192,113470,1,0,0:0:0:0:
64,192,113580,1,0,0:0:0:0:
448,192,113580,1,0,0:0:0:0:
320,192,113580,1,0,0:0:0:0:
192,192,113634,1,0,0:0:0:0:
320,192,113689,1,0,0:0:0:0:
448,192,113744,1,0,0:0:0:0:
64,192,113798,1,0,0:0:0:0:
320,192,113908,1,0,0:0:0:0:
64,192,114017,1,0,0:0:0:0:
448,192,114017,1,0,0:0:0:0:
192,192,114017,1,0,0:0:0:0:
192,192,114236,1,0,0:0:0:0:
320,192,114236,1,0,0:0:0:0:
320,192,114373,1,0,0:0:0:0:
448,192,114373,1,0,0:0:0:0:
64,192,114538,1,0,0:0:0:0:
192,192,114538,1,0,0:0:0:0:
64,192,114674,1,0,0:0:0:0:
320,192,114674,1,0,0:0:0:0:
320,192,114893,1,0,0:0:0:0:
192,192,115003,1,0,0:0:0:0:
448,192,115003,1,0,0:0:0:0:
64,192,115112,1,0,0:0:0:0:
192,192,115185,1,0,0:0:0:0:
320,192,115258,1,0,0:0:0:0:
64,192,115331,1,0,0:0:0:0:
448,192,115331,1,0,0:0:0:0:
192,192,115331,1,0,0:0:0:0:
64,192,115769,1,0,0:0:0:0:
192,192,115769,1,0,0:0:0:0:
448,192,115769,1,0,0:0:0:0:
320,192,115769,1,0,0:0:0:0:
448,192,115879,1,0,0:0:0:0:
64,192,115988,1,0,0:0:0:0:
320,192,115988,1,0,0:0:0:0:
64,192,116098,1,0,0:0:0:0:
192,192,116207,1,0,0:0:0:0:
448,192,116207,1,0,0:0:0:0:
320,192,116207,1,0,0:0:0:0:
448,192,116317,1,0,0:0:0:0:
64,192,116426,1,0,0:0:0:0:
320,192,116426,1,0,0:0:0:0:
64,192,116536,1,0,0:0:0:0:
192,192,116645,1,0,0:0:0:0:
448,192,116645,1,0,0:0:0:0:
448,192,116755,1,0,0:0:0:0:
64,192,116864,1,0,0:0:0:0:
320,192,116864,1,0,0:0:0:0:
64,192,116974,1,0,0:0:0:0:
192,192,117083,1,0,0:0:0:0:
320,192,117083,1,0,0:0:0:0:
448,192,117083,1,0,0:0:0:0:
64,192,117193,1,0,0:0:0:0:
192,192,117302,1,0,0:0:0:0:
448,192,117302,1,0,0:0:0:0:
320,192,117412,1,0,0:0:0:0:
64,192,117521,1,0,0:0:0:0:
448,192,117521,1,0,0:0:0:0:
192,192,117631,1,0,0:0:0:0:
320,192,117740,1,0,0:0:0:0:
64,192,117850,1,0,0:0:0:0:
192,192,117959,1,0,0:0:0:0:
448,192,117959,1,0,0:0:0:0:
320,192,117959,1,0,0:0:0:0:
448,192,118069,1,0,0:0:0:0:
64,192,118178,1,0,0:0:0:0:
320,192,118178,1,0,0:0:0:0:
320,192,118288,1,0,0:0:0:0:
192,192,118397,1,0,0:0:0:0:
448,192,118397,1,0,0:0:0:0:
192,192,118507,1,0,0:0:0:0:
64,192,118616,1,0,0:0:0:0:
448,192,118616,1,0,0:0:0:0:
64,192,118725,1,0,0:0:0:0:
192,192,118835,1,0,0:0:0:0:
320,192,118835,1,0,0:0:0:0:
448,192,118835,1,0,0:0:0:0:
64,192,118944,1,0,0:0:0:0:
320,192,119054,1,0,0:0:0:0:
448,192,119054,1,0,0:0:0:0:
192,192,119163,1,0,0:0:0:0:
64,192,119273,1,0,0:0:0:0:
448,192,119273,1,0,0:0:0:0:
320,192,119382,1,0,0:0:0:0:
192,192,119492,1,0,0:0:0:0:
320,192,119601,1,0,0:0:0:0:
64,192,119711,1,0,0:0:0:0:
192,192,119711,1,0,0:0:0:0:
448,192,119711,1,0,0:0:0:0:
64,192,119820,1,0,0:0:0:0:
192,192,119930,1,0,0:0:0:0:
448,192,119930,1,0,0:0:0:0:
192,192,120039,1,0,0:0:0:0:
64,192,120149,1,0,0:0:0:0:
320,192,120149,1,0,0:0:0:0:
320,192,120258,1,0,0:0:0:0:
64,192,120368,1,0,0:0:0:0:
448,192,120368,1,0,0:0:0:0:
448,192,120477,1,0,0:0:0:0:
192,192,120587,1,0,0:0:0:0:
320,192,120587,1,0,0:0:0:0:
64,192,120696,1,0,0:0:0:0:
448,192,120806,1,0,0:0:0:0:
320,192,120915,1,0,0:0:0:0:
64,192,121025,1,0,0:0:0:0:
192,192,121025,1,0,0:0:0:0:
320,192,121098,1,0,0:0:0:0:
64,192,121171,1,0,0:0:0:0:
448,192,121244,1,0,0:0:0:0:
192,192,121317,1,0,0:0:0:0:
320,192,121390,1,0,0:0:0:0:
64,192,121463,1,0,0:0:0:0:
192,192,121463,1,0,0:0:0:0:
448,192,121463,1,0,0:0:0:0:
320,192,121536,1,0,0:0:0:0:
64,192,121609,1,0,0:0:0:0:
448,192,121682,1,0,0:0:0:0:
192,192,121755,1,0,0:0:0:0:
320,192,121828,1,0,0:0:0:0:
64,192,121901,1,0,0:0:0:0:
192,192,121901,1,0,0:0:0:0:
448,192,121974,1,0,0:0:0:0:
64,192,122047,1,0,0:0:0:0:
320,192,122120,1,0,0:0:0:0:
192,192,122193,1,0,0:0:0:0:
448,192,122266,1,0,0:0:0:0:
64,192,122339,1,0,0:0:0:0:
192,192,122339,1,0,0:0:0:0:
320,192,122339,1,0,0:0:0:0:
448,192,122448,1,0,0:0:0:0:
320,192,122558,1,0,0:0:0:0:
192,192,122667,1,0,0:0:0:0:
64,192,122777,1,0,0:0:0:0:
320,192,122777,1,0,0:0:0:0:
320,192,122886,1,0,0:0:0:0:
192,192,122996,1,0,0:0:0:0:
448,192,122996,1,0,0:0:0:0:
192,192,123105,1,0,0:0:0:0:
64,192,123215,1,0,0:0:0:0:
320,192,123215,1,0,0:0:0:0:
448,192,123215,1,0,0:0:0:0:
320,192,123324,1,0,0:0:0:0:
192,192,123434,1,0,0:0:0:0:
448,192,123434,1,0,0:0:0:0:
192,192,123543,1,0,0:0:0:0:
64,192,123652,1,0,0:0:0:0:
320,192,123652,1,0,0:0:0:0:
320,192,123762,1,0,0:0:0:0:
192,192,123871,1,0,0:0:0:0:
448,192,123871,1,0,0:0:0:0:
192,192,123981,1,0,0:0:0:0:
320,192,124090,1,0,0:0:0:0:
448,192,124090,1,0,0:0:0:0:
64,192,124200,1,0,0:0:0:0:
192,192,124309,1,0,0:0:0:0:
448,192,124309,1,0,0:0:0:0:
320,192,124419,1,0,0:0:0:0:
64,192,124528,1,0,0:0:0:0:
448,192,124528,1,0,0:0:0:0:
320,192,124638,1,0,0:0:0:0:
192,192,124747,1,0,0:0:0:0:
64,192,124857,1,0,0:0:0:0:
192,192,124966,1,0,0:0:0:0:
320,192,124966,1,0,0:0:0:0:
448,192,124966,1,0,0:0:0:0:
320,192,125076,1,0,0:0:0:0:
64,192,125185,1,0,0:0:0:0:
192,192,125295,1,0,0:0:0:0:
64,192,125404,1,0,0:0:0:0:
448,192,125404,1,0,0:0:0:0:
448,192,125514,1,0,0:0:0:0:
192,192,125623,1,0,0:0:0:0:
320,192,125623,1,0,0:0:0:0:
192,192,125733,1,0,0:0:0:0:
320,192,125842,1,0,0:0:0:0:
448,192,125842,1,0,0:0:0:0:
64,192,125952,1,0,0:0:0:0:
192,192,126061,1,0,0:0:0:0:
448,192,126061,1,0,0:0:0:0:
320,192,126171,1,0,0:0:0:0:
64,192,126280,1,0,0:0:0:0:
192,192,126280,1,0,0:0:0:0:
64,192,126390,1,0,0:0:0:0:
320,192,126499,1,0,0:0:0:0:
448,192,126609,1,0,0:0:0:0:
192,192,126718,1,0,0:0:0:0:
448,192,126718,1,0,0:0:0:0:
64,192,126718,1,0,0:0:0:0:
192,192,126828,1,0,0:0:0:0:
64,192,126937,1,0,0:0:0:0:
320,192,126937,1,0,0:0:0:0:
320,192,127047,1,0,0:0:0:0:
192,192,127156,1,0,0:0:0:0:
448,192,127156,1,0,0:0:0:0:
448,192,127266,1,0,0:0:0:0:
64,192,127375,1,0,0:0:0:0:
192,192,127375,1,0,0:0:0:0:
64,192,127485,1,0,0:0:0:0:
192,192,127594,1,0,0:0:0:0:
320,192,127594,1,0,0:0:0:0:
448,192,127594,1,0,0:0:0:0:
64,192,127704,1,0,0:0:0:0:
192,192,127813,1,0,0:0:0:0:
320,192,127923,1,0,0:0:0:0:
64,192,128032,1,0,0:0:0:0:
448,192,128032,1,0,0:0:0:0:
192,192,128142,1,0,0:0:0:0:
320,192,128251,1,0,0:0:0:0:
448,192,128361,1,0,0:0:0:0:
64,192,128470,1,0,0:0:0:0:
192,192,128470,1,0,0:0:0:0:
320,192,128470,1,0,0:0:0:0:
448,192,128543,1,0,0:0:0:0:
320,192,128616,1,0,0:0:0:0:
192,192,128689,1,0,0:0:0:0:
64,192,128762,1,0,0:0:0:0:
192,192,128835,1,0,0:0:0:0:
320,192,128908,1,0,0:0:0:0:
448,192,128908,1,0,0:0:0:0:
64,192,128981,1,0,0:0:0:0:
192,192,129054,1,0,0:0:0:0:
320,192,129127,1,0,0:0:0:0:
448,192,129200,1,0,0:0:0:0:
64,192,129273,1,0,0:0:0:0:
192,192,129346,1,0,0:0:0:0:
448,192,129346,1,0,0:0:0:0:
320,192,129346,1,0,0:0:0:0:
64,192,129419,1,0,0:0:0:0:
448,192,129492,1,0,0:0:0:0:
320,192,129565,1,0,0:0:0:0:
192,192,129674,1,0,0:0:0:0:
64,192,129784,1,0,0:0:0:0:
192,192,129784,1,0,0:0:0:0:
448,192,129784,1,0,0:0:0:0:
320,192,129784,1,0,0:0:0:0:
64,192,130076,1,0,0:0:0:0:
320,192,130076,1,0,0:0:0:0:
448,192,130076,1,0,0:0:0:0:
192,192,130386,1,0,0:0:0:0:
448,192,130386,1,0,0:0:0:0:
192,192,130587,1,0,0:0:0:0:
320,192,130587,1,0,0:0:0:0:
64,192,130733,1,0,0:0:0:0:
320,192,130733,1,0,0:0:0:0:
64,192,131025,1,0,0:0:0:0:
192,192,131025,1,0,0:0:0:0:
64,192,131207,1,0,0:0:0:0:
320,192,131207,1,0,0:0:0:0:
192,192,131317,1,0,0:0:0:0:
320,192,131317,1,0,0:0:0:0:
192,192,131426,1,0,0:0:0:0:
448,192,131426,1,0,0:0:0:0:
64,192,131590,1,0,0:0:0:0:
448,192,131590,1,0,0:0:0:0:
64,192,131700,1,0,0:0:0:0:
192,192,131700,1,0,0:0:0:0:
192,192,131864,1,0,0:0:0:0:
320,192,131864,1,0,0:0:0:0:
320,192,132028,1,0,0:0:0:0:
448,192,132028,1,0,0:0:0:0:
448,192,132193,1,0,0:0:0:0:
64,192,132193,1,0,0:0:0:0:
64,192,132357,1,0,0:0:0:0:
320,192,132357,1,0,0:0:0:0:
192,192,132558,1,0,0:0:0:0:
320,192,132558,1,0,0:0:0:0:
192,192,132704,1,0,0:0:0:0:
448,192,132704,1,0,0:0:0:0:
64,192,132923,1,0,0:0:0:0:
448,192,132923,1,0,0:0:0:0:
64,192,133215,1,0,0:0:0:0:
192,192,133215,1,0,0:0:0:0:
192,192,133361,1,0,0:0:0:0:
320,192,133361,1,0,0:0:0:0:
320,192,133580,1,0,0:0:0:0:
448,192,133580,1,0,0:0:0:0:
192,192,133725,1,0,0:0:0:0:
320,192,133725,1,0,0:0:0:0:
64,192,133835,1,0,0:0:0:0:
192,192,133835,1,0,0:0:0:0:
64,192,134090,1,0,0:0:0:0:
448,192,134090,1,0,0:0:0:0:
192,192,134273,1,0,0:0:0:0:
448,192,134273,1,0,0:0:0:0:
64,192,134437,1,0,0:0:0:0:
320,192,134437,1,0,0:0:0:0:
64,192,134547,1,0,0:0:0:0:
192,192,134547,1,0,0:0:0:0:
320,192,134711,1,0,0:0:0:0:
448,192,134711,1,0,0:0:0:0:
192,192,134820,1,0,0:0:0:0:
448,192,134820,1,0,0:0:0:0:
64,192,135076,1,0,0:0:0:0:
192,192,135076,1,0,0:0:0:0:
192,192,135204,1,0,0:0:0:0:
320,192,135204,1,0,0:0:0:0:
320,192,135368,1,0,0:0:0:0:
448,192,135368,1,0,0:0:0:0:
64,192,135642,1,0,0:0:0:0:
192,192,135642,1,0,0:0:0:0:
448,192,135642,1,0,0:0:0:0:
64,192,135952,1,0,0:0:0:0:
320,192,135952,1,0,0:0:0:0:
448,192,135952,1,0,0:0:0:0:
64,192,136134,1,0,0:0:0:0:
192,192,136134,1,0,0:0:0:0:
320,192,136134,1,0,0:0:0:0:
192,192,136353,1,0,0:0:0:0:
320,192,136353,1,0,0:0:0:0:
448,192,136353,1,0,0:0:0:0:
64,192,136499,1,0,0:0:0:0:
448,192,136499,1,0,0:0:0:0:
64,192,136627,1,0,0:0:0:0:
320,192,136627,1,0,0:0:0:0:
320,192,136828,1,0,0:0:0:0:
448,192,136828,1,0,0:0:0:0:
192,192,137010,1,0,0:0:0:0:
320,192,137010,1,0,0:0:0:0:
64,192,137156,1,0,0:0:0:0:
192,192,137156,1,0,0:0:0:0:
320,192,137339,1,0,0:0:0:0:
448,192,137339,1,0,0:0:0:0:
192,192,137485,1,0,0:0:0:0:
448,192,137485,1,0,0:0:0:0:
64,192,137722,1,0,0:0:0:0:
320,192,137722,1,0,0:0:0:0:
448,192,137722,1,0,0:0:0:0:
64,192,137886,1,0,0:0:0:0:
192,192,137886,1,0,0:0:0:0:
192,192,138105,1,0,0:0:0:0:
320,192,138105,1,0,0:0:0:0:
64,192,138215,1,0,0:0:0:0:
320,192,138215,1,0,0:0:0:0:
64,192,138488,1,0,0:0:0:0:
192,192,138488,1,0,0:0:0:0:
448,192,138488,1,0,0:0:0:0:
64,192,138652,1,0,0:0:0:0:
320,192,138652,1,0,0:0:0:0:
448,192,138652,1,0,0:0:0:0:
192,192,138817,1,0,0:0:0:0:
320,192,138817,1,0,0:0:0:0:
192,192,138926,1,0,0:0:0:0:
448,192,138926,1,0,0:0:0:0:
64,192,139090,1,0,0:0:0:0:
320,192,139090,1,0,0:0:0:0:
64,192,139200,1,0,0:0:0:0:
192,192,139200,1,0,0:0:0:0:
320,192,139273,1,0,0:0:0:0:
448,192,139273,1,0,0:0:0:0:
64,192,139492,1,0,0:0:0:0:
192,192,139492,1,0,0:0:0:0:
64,192,139583,1,0,0:0:0:0:
320,192,139583,1,0,0:0:0:0:
192,192,139693,1,0,0:0:0:0:
320,192,139693,1,0,0:0:0:0:
192,192,139820,1,0,0:0:0:0:
448,192,139820,1,0,0:0:0:0:
448,192,139930,1,0,0:0:0:0:
320,192,139930,1,0,0:0:0:0:
64,192,140039,128,0,140149:0:0:0:0:
64,192,140514,1,0,0:0:0:0:
192,192,140514,1,0,0:0:0:0:
320,192,140514,1,0,0:0:0:0:
448,192,140514,1,0,0:0:0:0:
64,192,140788,1,0,0:0:0:0:
192,192,140788,1,0,0:0:0:0:
320,192,140788,1,0,0:0:0:0:
448,192,140788,1,0,0:0:0:0:
64,192,141061,1,0,0:0:0:0:
192,192,141061,1,0,0:0:0:0:
320,192,141061,1,0,0:0:0:0:
448,192,141061,1,0,0:0:0:0:
64,192,141225,1,0,0:0:0:0:
320,192,141225,1,0,0:0:0:0:
448,192,141225,1,0,0:0:0:0:
64,192,141463,1,0,0:0:0:0:
192,192,141463,1,0,0:0:0:0:
448,192,141463,1,0,0:0:0:0:
64,192,141937,1,0,0:0:0:0:
192,192,141937,1,0,0:0:0:0:
320,192,141937,1,0,0:0:0:0:
448,192,141937,1,0,0:0:0:0:
64,192,142266,1,0,0:0:0:0:
192,192,142266,1,0,0:0:0:0:
320,192,142266,1,0,0:0:0:0:
448,192,142266,1,0,0:0:0:0:
64,192,142448,1,0,0:0:0:0:
320,192,142448,1,0,0:0:0:0:
448,192,142448,1,0,0:0:0:0:
64,192,142704,1,0,0:0:0:0:
192,192,142704,1,0,0:0:0:0:
320,192,142868,1,0,0:0:0:0:
192,192,142868,1,0,0:0:0:0:
448,192,143032,1,0,0:0:0:0:
320,192,143032,1,0,0:0:0:0:
64,192,143798,128,0,144565:0:0:0:0:
192,192,144017,128,0,144784:0:0:0:0:
320,192,144291,128,0,145058:0:0:0:0:
64,192,144674,1,0,0:0:0:0:
192,192,144893,1,0,0:0:0:0:
320,192,145167,1,0,0:0:0:0:
64,192,145550,1,0,0:0:0:0:
192,192,145550,1,0,0:0:0:0:
448,192,145550,1,0,0:0:0:0:
64,192,145715,1,0,0:0:0:0:
320,192,145715,1,0,0:0:0:0:
448,192,145715,1,0,0:0:0:0:
64,192,145879,1,0,0:0:0:0:
192,192,145879,1,0,0:0:0:0:
320,192,145879,1,0,0:0:0:0:
192,192,146098,1,0,0:0:0:0:
320,192,146098,1,0,0:0:0:0:
448,192,146098,1,0,0:0:0:0:
64,192,146317,1,0,0:0:0:0:
192,192,146317,1,0,0:0:0:0:
448,192,146317,1,0,0:0:0:0:
448,192,146536,1,0,0:0:0:0:
320,192,146536,1,0,0:0:0:0:
64,192,146536,1,0,0:0:0:0:
64,192,146718,1,0,0:0:0:0:
192,192,146718,1,0,0:0:0:0:
320,192,146718,1,0,0:0:0:0:
192,192,146974,1,0,0:0:0:0:
320,192,146974,1,0,0:0:0:0:
448,192,146974,1,0,0:0:0:0:
64,192,147302,1,0,0:0:0:0:
192,192,147302,1,0,0:0:0:0:
320,192,147302,1,0,0:0:0:0:
448,192,147302,1,0,0:0:0:0:
64,192,147740,1,0,0:0:0:0:
192,192,147740,1,0,0:0:0:0:
320,192,147740,1,0,0:0:0:0:
448,192,147740,1,0,0:0:0:0:
64,192,148178,1,0,0:0:0:0:
192,192,148178,1,0,0:0:0:0:
448,192,148178,1,0,0:0:0:0:
320,192,148178,1,0,0:0:0:0:
64,192,148616,1,0,0:0:0:0:
192,192,148616,1,0,0:0:0:0:
448,192,148616,1,0,0:0:0:0:
320,192,148616,1,0,0:0:0:0:
448,192,149054,1,0,0:0:0:0:
320,192,149054,1,0,0:0:0:0:
64,192,149273,1,0,0:0:0:0:
192,192,149273,1,0,0:0:0:0:
320,192,149492,1,0,0:0:0:0:
448,192,149492,1,0,0:0:0:0:
64,192,149711,1,0,0:0:0:0:
192,192,149711,1,0,0:0:0:0:
320,192,149930,1,0,0:0:0:0:
448,192,149930,1,0,0:0:0:0:
64,192,150149,1,0,0:0:0:0:
192,192,150149,1,0,0:0:0:0:
320,192,150222,1,0,0:0:0:0:
192,192,150295,1,0,0:0:0:0:
64,192,150368,1,0,0:0:0:0:
320,192,150368,1,0,0:0:0:0:
448,192,150368,1,0,0:0:0:0:
192,192,150477,128,0,150642:0:0:0:0:
320,192,150532,128,0,150696:0:0:0:0:
448,192,150587,128,0,150751:0:0:0:0:
64,192,150696,128,0,151682:0:0:0:0:
192,192,150751,128,0,152120:0:0:0:0:
320,192,150806,128,0,152558:0:0:0:0:
