osu file format v14

[General]
AudioFilename: audio.mp3
AudioLeadIn: 0
PreviewTime: 53359
Countdown: 1
SampleSet: Soft
StackLeniency: 0.7
Mode: 0
LetterboxInBreaks: 0
WidescreenStoryboard: 1

[Editor]
DistanceSpacing: 1.5
BeatDivisor: 4
GridSize: 32
TimelineZoom: 2.2

[Metadata]
Title:Toumei Elegy (Cut Ver.)
TitleUnicode:透明エレジー (Cut Ver.)
Artist:Teksy
ArtistUnicode:テクシー
Creator:Owens
Version:Normal
Source:櫻花アリス
Tags:rock japanese male vocal cover 櫻花アリス ナブナ
BeatmapID:3346584
BeatmapSetID:765797

[Difficulty]
HPDrainRate:4
CircleSize:3
OverallDifficulty:4
ApproachRate:5
SliderMultiplier:1
SliderTickRate:1

[Events]
//Background and Video events
0,0,"Anime-Sad-Boy-Image.jpg",0,0
//Break Periods
2,88724,96051
//Storyboard Layer 0 (Background)
//Storyboard Layer 1 (Fail)
//Storyboard Layer 2 (Pass)
//Storyboard Layer 3 (Foreground)
//Storyboard Layer 4 (Overlay)
//Storyboard Sound Samples

[TimingPoints]
1269,272.727272727273,4,2,1,60,1,0
1269,-166.666666666667,4,2,1,60,0,0
8905,-166.666666666667,4,2,1,60,0,0
9996,-133.333333333333,4,2,1,80,0,1
10269,-133.333333333333,4,2,1,80,0,1
10678,-133.333333333333,4,2,1,80,0,1
10814,-133.333333333333,4,2,1,80,0,1
12178,-133.333333333333,4,2,1,80,0,1
12450,-133.333333333333,4,2,1,80,0,1
12859,-133.333333333333,4,2,1,80,0,1
12996,-133.333333333333,4,2,1,80,0,1
13950,-133.333333333333,4,2,1,80,0,1
14087,-133.333333333333,4,2,1,80,0,1
14359,-133.333333333333,4,2,1,80,0,1
14632,-133.333333333333,4,2,1,80,0,1
14769,-133.333333333333,4,2,1,80,0,1
15178,-133.333333333333,4,2,1,80,0,1
15450,-133.333333333333,4,2,1,80,0,1
15723,-133.333333333333,4,2,1,80,0,1
16132,-133.333333333333,4,2,1,80,0,1
16269,-133.333333333333,4,2,1,80,0,1
16541,-133.333333333333,4,2,1,80,0,1
16814,-133.333333333333,4,2,1,80,0,1
16950,-133.333333333333,4,2,1,80,0,1
17359,-133.333333333333,4,2,1,80,0,1
17632,-133.333333333333,4,2,1,80,0,1
17905,-133.333333333333,4,2,1,80,0,1
18314,-133.333333333333,4,2,1,80,0,1
18450,-133.333333333333,4,2,1,80,0,1
18723,-133.333333333333,4,2,1,80,0,1
18996,-133.333333333333,4,2,1,80,0,1
19405,-133.333333333333,4,2,1,80,0,1
19541,-133.333333333333,4,2,1,80,0,1
19814,-133.333333333333,4,2,1,80,0,1
19950,-133.333333333333,4,2,1,80,0,1
20223,-133.333333333333,4,2,1,80,0,1
20359,-133.333333333333,4,2,1,80,0,1
20905,-133.333333333333,4,2,1,80,0,1
21178,-133.333333333333,4,2,1,80,0,1
21587,-133.333333333333,4,2,1,80,0,1
21723,-133.333333333333,4,2,1,80,0,1
22678,-133.333333333333,4,2,1,80,0,1
22814,-133.333333333333,4,2,1,80,0,1
23087,-133.333333333333,4,2,1,80,0,1
23359,-133.333333333333,4,2,1,80,0,1
23496,-133.333333333333,4,2,1,80,0,1
23905,-133.333333333333,4,2,1,80,0,1
24178,-133.333333333333,4,2,1,80,0,1
24314,-133.333333333333,4,2,1,80,0,1
24859,-133.333333333333,4,2,1,80,0,1
24996,-133.333333333333,4,2,1,80,0,1
25269,-133.333333333333,4,2,1,80,0,1
25541,-133.333333333333,4,2,1,80,0,1
25678,-133.333333333333,4,2,1,80,0,1
26087,-133.333333333333,4,2,1,80,0,1
26359,-133.333333333333,4,2,1,80,0,1
26632,-133.333333333333,4,2,1,80,0,1
27041,-133.333333333333,4,2,1,80,0,1
27178,-133.333333333333,4,2,1,80,0,1
27450,-133.333333333333,4,2,1,50,0,0
32905,-133.333333333333,4,2,1,50,0,0
35905,-133.333333333333,4,2,1,50,0,0
36178,-133.333333333333,4,2,1,50,0,0
40269,-133.333333333333,4,2,1,50,0,0
40541,-133.333333333333,4,2,1,50,0,0
40814,-133.333333333333,4,2,1,50,0,0
42723,-133.333333333333,4,2,1,50,0,0
42996,-133.333333333333,4,2,1,50,0,0
44087,-133.333333333333,4,2,1,50,0,0
44223,-133.333333333333,4,2,1,50,0,0
44359,-133.333333333333,4,2,1,50,0,0
44632,-133.333333333333,4,2,1,50,0,0
44905,-133.333333333333,4,2,1,55,0,0
45450,-133.333333333333,4,2,1,55,0,0
45723,-133.333333333333,4,2,1,55,0,0
45996,-133.333333333333,4,2,1,55,0,0
47632,-133.333333333333,4,2,1,55,0,0
47973,-133.333333333333,4,2,1,55,0,0
48450,-133.333333333333,4,2,1,55,0,0
48587,-133.333333333333,4,2,1,55,0,0
48996,-133.333333333333,4,2,1,55,0,0
49269,-133.333333333333,4,2,1,60,0,0
49678,-133.333333333333,4,2,1,60,0,0
49814,-133.333333333333,4,2,1,60,0,0
50087,-133.333333333333,4,2,1,60,0,0
50291,-133.333333333333,4,2,1,60,0,0
50359,-133.333333333333,4,2,1,60,0,0
50905,-133.333333333333,4,2,1,60,0,0
51178,-133.333333333333,4,2,1,60,0,0
51450,-133.333333333333,4,2,1,60,0,0
51859,-133.333333333333,4,2,1,60,0,0
52269,-133.333333333333,4,2,1,60,0,0
52541,-133.333333333333,4,2,1,60,0,0
52814,-133.333333333333,4,2,1,60,0,0
53615,272.727272727273,4,2,1,80,1,1
53615,-133.333333333333,4,2,1,80,0,1
54161,-133.333333333333,4,2,1,80,0,1
55251,-133.333333333333,4,2,1,80,0,1
61524,-133.333333333333,4,2,1,80,0,1
61796,-133.333333333333,4,2,1,80,0,1
62342,-133.333333333333,4,2,1,80,0,1
71069,-133.333333333333,4,2,1,65,0,0
79796,-133.333333333333,4,2,1,80,0,1
84160,-133.333333333333,4,2,1,70,0,0
86342,-133.333333333333,4,2,1,80,0,1
87433,-133.333333333333,4,2,1,80,0,1
87637,-133.333333333333,4,2,1,5,0,1
87705,-133.333333333333,4,2,1,80,0,1
87978,-133.333333333333,4,2,1,80,0,1
88183,-133.333333333333,4,2,1,5,0,1
88251,-133.333333333333,4,2,1,80,0,1
88455,-133.333333333333,4,2,1,5,0,0
88524,-133.333333333333,4,2,1,60,0,0
89342,-133.333333333333,4,2,1,60,0,0
89615,-133.333333333333,4,2,1,60,0,0
90569,-133.333333333333,4,2,1,60,0,0
90705,-133.333333333333,4,2,1,60,0,0
91524,-133.333333333333,4,2,1,60,0,0
91796,-133.333333333333,4,2,1,60,0,0
92478,-133.333333333333,4,2,1,60,0,0
92615,-133.333333333333,4,2,1,60,0,0
93842,-133.333333333333,4,2,1,60,0,0
93978,-133.333333333333,4,2,1,60,0,0
94660,-133.333333333333,4,2,1,60,0,0
94796,-133.333333333333,4,2,1,60,0,0
94933,-133.333333333333,4,2,1,60,0,0
95069,-133.333333333333,4,2,1,60,0,0
95615,-133.333333333333,4,2,1,60,0,0
95887,-133.333333333333,4,2,1,60,0,0
96024,-133.333333333333,4,2,1,60,0,0
96160,-133.333333333333,4,2,1,60,0,0
98069,-133.333333333333,4,2,1,60,0,0
98342,-133.333333333333,4,2,1,60,0,0
99296,-133.333333333333,4,2,1,60,0,0
99433,-133.333333333333,4,2,1,60,0,0
100251,-133.333333333333,4,2,1,60,0,0
100524,-133.333333333333,4,2,1,60,0,0
101205,-133.333333333333,4,2,1,60,0,0
101615,-133.333333333333,4,2,1,60,0,0
102569,-133.333333333333,4,2,1,60,0,0
102705,-133.333333333333,4,2,1,60,0,0
103387,-133.333333333333,4,2,1,60,0,0
103524,-133.333333333333,4,2,1,60,0,0
103660,-133.333333333333,4,2,1,60,0,0
103796,-133.333333333333,4,2,1,60,0,0
104751,-133.333333333333,4,2,1,60,0,0
104887,-133.333333333333,4,2,1,60,0,0
105024,-133.333333333333,4,2,1,60,0,0
105842,-133.333333333333,4,2,1,5,0,0

[Colours]
Combo1 : 128,128,128
Combo2 : 192,192,192
Combo3 : 128,64,0
Combo4 : 64,0,0

[HitObjects]
112,256,1269,6,0,P|55:241|0:261,2,119.999996337891,2|2|2,0:1|0:0|0:1,0:0:0:0:
175,328,2632,1,2,0:0:0:0:
240,256,2905,2,0,L|256:192,1,59.9999981689454,2|10,0:0|0:0,0:0:0:0:
336,144,3450,6,0,B|368:192|368:192|352:256,2,119.999996337891,2|2|2,0:1|0:0|0:1,0:0:0:0:
272,80,4814,1,2,0:0:0:0:
192,32,5087,2,0,L|128:48,1,59.9999981689454,2|10,0:0|0:0,0:0:0:0:
48,48,5632,6,0,B|32:80|32:80|48:176,1,119.999996337891,6|0,0:1|0:0,0:0:0:0:
64,256,6450,1,10,0:0:0:0:
160,272,6723,2,0,P|208:256|224:256,1,59.9999981689454,2|2,0:1|0:0,0:0:0:0:
304,304,7269,1,2,0:0:0:0:
400,288,7541,1,10,0:0:0:0:
480,240,7814,6,0,P|480:160|448:128,1,119.999996337891,2|0,0:1|0:0,0:0:0:0:
368,160,8632,1,10,0:0:0:0:
320,80,8905,2,0,B|200:64|272:120|144:104,1,179.999994506836,2|0,0:1|0:0,0:0:0:0:
52,164,9996,6,0,P|36:100|52:52,2,112.500004291535,6|2|10,0:1|0:1|0:0,0:0:0:0:
112,256,11087,2,0,P|160:240|192:240,1,75.0000028610231,2|10,0:1|0:0,0:0:0:0:
256,336,11632,2,0,P|293:332|328:319,1,75.0000028610231,2|10,0:0|0:0,0:0:0:0:
416,256,12178,5,2,0:1:0:0:
336,176,12450,1,10,0:0:0:0:
400,80,12723,2,0,B|448:64|448:64|512:80,2,112.500004291535,2|2|10,0:0|0:0|0:0,0:0:0:0:
352,176,13814,1,2,0:0:0:0:
240,160,14087,1,10,0:0:0:0:
160,80,14359,6,0,P|96:96|64:176,1,150.000005722046,6|0,0:1|0:0,0:0:0:0:
112,272,15178,2,0,L|224:256,2,112.500004291535,10|2|2,0:0|0:0|0:0,0:0:0:0:
32,352,16269,1,10,0:0:0:0:
144,368,16541,6,0,L|228:356,1,75.0000028610231,2|10,0:1|0:0,0:0:0:0:
304,288,17087,2,0,P|320:240|320:208,1,75.0000028610231,2|10,0:0|0:0,0:0:0:0:
384,128,17632,2,0,P|361:82|338:60,1,75.0000028610231,2|10,0:1|0:0,0:0:0:0:
240,48,18178,1,2,0:0:0:0:
144,96,18450,1,10,0:0:0:0:
96,192,18723,6,0,P|52:152|40:88,2,112.500004291535,6|2|10,0:1|0:1|0:0,0:0:0:0:
192,256,19814,2,0,L|272:240,1,75.0000028610231,2|10,0:1|0:0,0:0:0:0:
320,336,20359,2,0,L|400:336,1,75.0000028610231,2|10,0:0|0:0,0:0:0:0:
512,352,20905,5,2,0:1:0:0:
448,256,21178,1,8,0:0:0:0:
448,144,21450,2,0,L|464:32,2,112.500004291535,2|2|10,0:0|0:0|0:0,0:0:0:0:
336,192,22541,1,2,0:0:0:0:
256,112,22814,1,10,0:0:0:0:
144,80,23087,6,0,B|128:160|176:128|144:240,1,150.000005722046,6|0,0:1|0:0,0:0:0:0:
112,336,23905,2,0,P|48:320|0:336,2,112.500004291535,10|2|2,0:0|0:0|0:0,0:0:0:0:
208,384,24996,1,10,0:0:0:0:
288,304,25269,6,0,L|368:320,1,75.0000028610231,2|10,0:1|0:0,0:0:0:0:
464,352,25814,1,2,0:0:0:0:
512,256,26087,1,10,0:0:0:0:
464,160,26359,2,0,P|480:112|464:48,2,112.500004291535,2|2|8,0:1|0:1|0:0,0:0:0:0:
352,192,27450,6,0,L|224:208,2,112.500004291535,6|2|8,0:1|0:1|0:0,0:0:0:0:
368,80,28541,1,2,0:1:0:0:
133,98,29632,6,0,L|5:82,2,112.500004291535,2|2|8,0:1|0:1|0:0,0:0:0:0:
149,210,30723,1,2,0:1:0:0:
384,240,31814,6,0,P|416:192|384:144,2,112.500004291535,2|2|8,0:1|0:1|0:0,0:0:0:0:
272,272,32905,1,2,0:1:0:0:
128,144,33996,6,0,P|96:192|128:240,2,112.500004291535,2|2|8,0:1|0:1|0:0,0:0:0:0:
240,112,35087,1,2,0:1:0:0:
350,90,35359,2,0,L|373:47,2,37.5000014305115,8|0|0,0:0|0:0|0:0,0:0:0:0:
413,183,35905,1,8,0:0:0:0:
494,104,36178,6,0,P|504:63|456:0,2,112.500004291535,6|2|8,0:1|0:1|0:0,0:0:0:0:
404,172,37269,2,0,L|281:153,2,112.500004291535,2|2|8,0:1|0:1|0:0,0:0:0:0:
473,260,38359,6,0,L|361:277,1,112.500004291535,2|2,0:1|0:1,0:0:0:0:
216,363,39178,1,0,0:0:0:0:
114,314,39450,2,0,P|88:243|99:193,1,112.500004291535,2|2,0:1|0:1,0:0:0:0:
185,66,40269,1,0,0:0:0:0:
266,142,40541,6,0,P|321:145|365:112,1,112.500004291535,6|2,0:1|0:1,0:0:0:0:
506,203,41359,1,0,0:0:0:0:
442,295,41632,2,0,P|380:324|331:318,1,112.500004291535,2|2,0:1|0:1,0:0:0:0:
239,183,42450,1,8,0:0:0:0:
307,93,42723,6,0,B|342:86|342:86|423:133,2,112.500004291535,2|2|8,0:1|0:1|0:0,0:0:0:0:
341,200,43814,1,2,0:1:0:0:
244,257,44087,2,0,L|261:304,2,37.5000014305115,6|2|6,0:3|0:1|0:3,0:0:0:0:
133,234,44632,1,8,0:0:0:0:
108,124,44905,6,0,B|200:102|159:173|264:147,1,150.000005722046,6|8,0:1|0:0,0:0:0:0:
332,74,45723,1,2,0:0:0:0:
418,157,45996,2,0,L|408:242,1,75.0000028610231,2|2,0:1|0:1,0:0:0:0:
298,213,46541,2,0,L|308:298,1,75.0000028610231,2|2,0:1|0:1,0:0:0:0:
242,380,47087,6,0,P|183:382|156:367,1,75.0000028610231,2|2,0:1|0:1,0:0:0:0:
98,280,47632,1,8,0:0:0:0:
56,175,47905,1,8,0:0:0:0:
65,62,48178,2,0,B|90:41|90:41|141:53,1,75.0000028610231,2|8,0:1|0:0,0:0:0:0:
224,114,48723,1,0,0:0:0:0:
310,41,48996,1,4,0:3:0:0:
421,53,49269,6,0,B|459:81|465:126|465:126|432:144|426:178,1,150.000005722046,2|8,0:1|0:0,0:0:0:0:
457,281,50087,1,2,0:0:0:0:
354,326,50359,2,0,L|266:312,1,75.0000028610231,2|2,0:1|0:1,0:0:0:0:
207,228,50905,2,0,L|132:239,1,75.0000028610231,2|8,0:1|0:0,0:0:0:0:
29,195,51450,6,0,P|22:242|27:275,2,75.0000028610231,2|8|2,0:1|0:0|0:1,0:0:0:0:
102,108,52269,1,8,0:0:0:0:
209,139,52541,2,0,L|293:117,1,75.0000028610231,2|10,0:1|0:0,0:0:0:0:
382,69,53087,1,10,0:0:0:0:
404,268,53615,6,0,P|346:258|317:263,1,75.0000028610231,6|8,0:1|0:0,0:0:0:0:
280,286,54024,1,2,0:1:0:0:
280,286,54160,2,0,P|242:287|206:277,1,75.0000028610231,0|8,0:0|0:0,0:0:0:0:
100,240,54705,1,2,0:1:0:0:
83,128,54978,1,8,0:0:0:0:
156,42,55251,1,0,0:0:0:0:
267,57,55524,1,8,0:0:0:0:
309,156,55796,6,0,L|322:232,1,75.0000028610231,2|8,0:1|0:0,0:0:0:0:
437,274,56342,2,0,L|441:222,2,37.5000014305115,0|2|8,0:0|0:1|0:0,0:0:0:0:
355,351,56887,2,0,P|311:362|274:349,1,75.0000028610231,2|8,0:1|0:0,0:0:0:0:
200,277,57433,1,0,0:0:0:0:
94,294,57705,1,8,0:0:0:0:
24,200,57978,6,0,P|42:161|81:138,1,75.0000028610231,6|8,0:1|0:0,0:0:0:0:
108,117,58387,1,2,0:1:0:0:
108,117,58524,2,0,L|186:127,1,75.0000028610231,0|8,0:0|0:0,0:0:0:0:
258,209,59069,1,2,0:1:0:0:
323,117,59342,1,8,0:0:0:0:
435,120,59615,1,0,0:0:0:0:
510,204,59887,1,8,0:0:0:0:
481,305,60160,6,0,L|395:288,1,75.0000028610231,2|8,0:1|0:0,0:0:0:0:
375,337,60569,1,2,0:1:0:0:
375,337,60705,2,0,P|324:322|287:328,1,75.0000028610231,0|8,0:0|0:0,0:0:0:0:
193,362,61251,1,2,0:1:0:0:
159,254,61524,1,8,0:0:0:0:
197,148,61796,1,0,0:0:0:0:
53,15,62342,6,0,B|38:47|38:47|47:98,1,75.0000028610231,6|8,0:1|0:0,0:0:0:0:
64,138,62751,1,2,0:1:0:0:
64,138,62887,2,0,P|75:184|67:219,1,75.0000028610231,0|8,0:0|0:0,0:0:0:0:
16,310,63433,1,2,0:1:0:0:
111,368,63705,1,8,0:0:0:0:
223,359,63978,1,0,0:0:0:0:
308,295,64251,1,8,0:0:0:0:
314,196,64524,6,0,L|304:110,1,75.0000028610231,2|8,0:1|0:0,0:0:0:0:
298,70,64933,1,2,0:1:0:0:
298,70,65069,2,0,P|253:60|210:69,1,75.0000028610231,0|8,0:0|0:0,0:0:0:0:
167,139,65615,2,0,L|172:182,2,37.5000014305115,2|0|8,0:1|0:0|0:0,0:0:0:0:
82,64,66160,2,0,L|86:26,2,37.5000014305115,0|2|8,0:0|0:1|0:0,0:0:0:0:
6,147,66705,6,0,P|2:191|15:231,1,75.0000028610231,2|8,0:1|0:0,0:0:0:0:
71,315,67251,1,0,0:0:0:0:
176,355,67524,1,8,0:0:0:0:
283,321,67796,2,0,P|314:309|356:319,1,75.0000028610231,2|8,0:1|0:0,0:0:0:0:
403,343,68205,1,2,0:1:0:0:
403,343,68342,2,0,L|394:254,1,75.0000028610231,0|8,0:0|0:0,0:0:0:0:
432,162,68887,6,0,P|399:136|387:106,1,75.0000028610231,2|8,0:1|0:0,0:0:0:0:
404,52,69296,1,2,0:1:0:0:
404,52,69433,2,0,L|326:71,1,75.0000028610231,0|8,0:0|0:0,0:0:0:0:
236,130,69978,2,0,P|234:163|249:217,1,75.0000028610231,2|8,0:1|0:0,0:0:0:0:
304,298,70524,1,0,0:0:0:0:
99,316,71069,6,0,L|89:188,2,112.500004291535,6|2|10,0:1|0:1|0:0,0:0:0:0:
206,352,72160,2,0,L|213:274,1,75.0000028610231,2|10,0:1|0:0,0:0:0:0:
257,174,72705,1,2,0:0:0:0:
337,252,72978,1,10,0:0:0:0:
448,265,73251,6,0,P|448:329|426:376,2,112.500004291535,2|2|10,0:1|0:1|0:0,0:0:0:0:
408,159,74342,1,2,0:1:0:0:
318,90,74615,1,10,0:0:0:0:
207,68,74887,1,2,0:0:0:0:
100,105,75160,1,10,0:0:0:0:
38,199,75433,6,0,L|26:327,2,112.500004291535,6|2|10,0:1|0:1|0:0,0:0:0:0:
136,252,76524,2,0,P|203:278|244:273,2,112.500004291535,2|2|10,0:1|0:1|0:0,0:0:0:0:
118,140,77615,5,2,0:1:0:0:
220,95,77887,1,10,0:0:0:0:
315,155,78160,1,2,0:0:0:0:
417,110,78433,1,10,0:0:0:0:
512,170,78705,2,0,P|482:207|415:228,1,112.500004291535,2|2,0:1|0:1,0:0:0:0:
508,57,79796,5,6,0:1:0:0:
396,39,80069,1,10,0:0:0:0:
283,38,80342,1,2,0:0:0:0:
172,57,80615,1,10,0:0:0:0:
80,121,80887,2,0,P|72:170|81:207,1,75.0000028610231,2|10,0:1|0:0,0:0:0:0:
134,289,81433,2,0,P|175:275|216:278,1,75.0000028610231,2|10,0:0|0:0,0:0:0:0:
310,317,81978,6,0,L|301:229,2,75.0000028610231,2|10|2,0:1|0:0|0:0,0:0:0:0:
395,383,82796,1,10,0:0:0:0:
473,301,83069,2,0,L|479:217,1,75.0000028610231,2|10,0:1|0:0,0:0:0:0:
433,122,83615,1,2,0:0:0:0:
340,57,83887,1,10,0:0:0:0:
227,46,84160,6,0,B|81:18|156:102|9:72,1,225.000008583069,6|10,0:1|0:0,0:0:0:0:
10,185,85251,2,0,P|14:228|40:263,1,75.0000028610231,2|10,0:1|0:0,0:0:0:0:
139,282,85796,2,0,P|181:265|225:276,1,75.0000028610231,0|10,0:0|0:0,0:0:0:0:
292,345,86342,5,10,0:0:0:0:
334,240,86615,1,10,0:0:0:0:
445,256,86887,1,10,0:0:0:0:
487,151,87160,1,10,0:0:0:0:
435,50,87433,2,0,P|378:34|349:38,1,75.0000028610231,2|10,0:1|0:0,0:0:0:0:
312,60,87842,1,2,0:1:0:0:
312,60,87978,2,0,P|274:58|239:45,1,75.0000028610231,2|10,0:0|0:0,0:0:0:0:
135,0,88524,5,6,0:1:0:0:
0,323,97251,6,0,P|-8:249|111:264,1,225.000008583069,6|8,0:1|0:0,0:0:0:0:
195,328,98342,2,0,B|190:143|190:143|232:155,1,225.000008583069,2|2,0:1|0:1,0:0:0:0:
336,124,99433,6,0,B|377:117|431:65|431:65|418:137|431:179,1,225.000008583069,2|8,0:1|0:0,0:0:0:0:
424,288,100524,2,0,B|350:329|286:269|286:269|194:249|143:316,1,300.000011444092,2|2,0:1|0:1,0:0:0:0:
88,164,102705,6,0,P|77:105|201:109,1,225.000008583069,0|2,0:0|0:1,0:0:0:0:
228,213,103796,1,2,0:1:0:0:
256,192,103933,12,0,105842,0:0:0:0:
