osu file format v14

[General]
AudioFilename: audio.mp3
AudioLeadIn: 0
PreviewTime: 53359
Countdown: 1
SampleSet: Soft
StackLeniency: 0.7
Mode: 0
LetterboxInBreaks: 0
WidescreenStoryboard: 1

[Editor]
DistanceSpacing: 1.5
BeatDivisor: 4
GridSize: 32
TimelineZoom: 2.2

[Metadata]
Title:Toumei Elegy (Cut Ver.)
TitleUnicode:透明エレジー (Cut Ver.)
Artist:Teksy
ArtistUnicode:テクシー
Creator:Owens
Version:Hard
Source:櫻花アリス
Tags:rock japanese male vocal cover 櫻花アリス ナブナ
BeatmapID:3345381
BeatmapSetID:765797

[Difficulty]
HPDrainRate:5
CircleSize:3.6
OverallDifficulty:6
ApproachRate:8
SliderMultiplier:1.4
SliderTickRate:1

[Events]
//Background and Video events
0,0,"Anime-Sad-Boy-Image.jpg",0,0
//Break Periods
//Storyboard Layer 0 (Background)
//Storyboard Layer 1 (Fail)
//Storyboard Layer 2 (Pass)
//Storyboard Layer 3 (Foreground)
//Storyboard Layer 4 (Overlay)
//Storyboard Sound Samples

[TimingPoints]
1269,272.727272727273,4,2,1,60,1,0
1269,-200,4,2,1,60,0,0
8905,-250,4,2,1,60,0,0
9996,-100,4,2,1,80,0,1
10269,-100,4,2,1,80,0,1
10678,-100,4,2,1,80,0,1
10814,-100,4,2,1,80,0,1
12178,-100,4,2,1,80,0,1
12450,-100,4,2,1,80,0,1
12859,-100,4,2,1,80,0,1
12996,-100,4,2,1,80,0,1
13950,-100,4,2,1,80,0,1
14087,-100,4,2,1,80,0,1
14359,-100,4,2,1,80,0,1
14632,-100,4,2,1,80,0,1
14769,-100,4,2,1,80,0,1
15178,-100,4,2,1,80,0,1
15450,-100,4,2,1,80,0,1
15723,-100,4,2,1,80,0,1
16132,-100,4,2,1,80,0,1
16269,-100,4,2,1,80,0,1
16541,-100,4,2,1,80,0,1
16814,-100,4,2,1,80,0,1
16950,-100,4,2,1,80,0,1
17359,-100,4,2,1,80,0,1
17632,-100,4,2,1,80,0,1
17905,-100,4,2,1,80,0,1
18314,-100,4,2,1,80,0,1
18450,-100,4,2,1,80,0,1
18723,-100,4,2,1,80,0,1
18996,-100,4,2,1,80,0,1
19405,-100,4,2,1,80,0,1
19541,-100,4,2,1,80,0,1
19814,-100,4,2,1,80,0,1
19950,-100,4,2,1,80,0,1
20223,-100,4,2,1,80,0,1
20359,-100,4,2,1,80,0,1
20905,-100,4,2,1,80,0,1
21178,-100,4,2,1,80,0,1
21587,-100,4,2,1,80,0,1
21723,-100,4,2,1,80,0,1
22678,-100,4,2,1,80,0,1
22814,-100,4,2,1,80,0,1
23087,-100,4,2,1,80,0,1
23359,-100,4,2,1,80,0,1
23496,-100,4,2,1,80,0,1
23905,-100,4,2,1,80,0,1
24178,-100,4,2,1,80,0,1
24314,-100,4,2,1,80,0,1
24859,-100,4,2,1,80,0,1
24996,-100,4,2,1,80,0,1
25269,-100,4,2,1,80,0,1
25541,-100,4,2,1,80,0,1
25678,-100,4,2,1,80,0,1
26087,-100,4,2,1,80,0,1
26359,-100,4,2,1,80,0,1
26632,-100,4,2,1,80,0,1
27041,-100,4,2,1,80,0,1
27178,-100,4,2,1,80,0,1
27450,-200,4,2,1,50,0,0
32905,-200,4,2,1,50,0,0
35905,-133.333333333333,4,2,1,50,0,0
36178,-133.333333333333,4,2,1,50,0,0
40269,-133.333333333333,4,2,1,50,0,0
40541,-133.333333333333,4,2,1,50,0,0
40814,-133.333333333333,4,2,1,50,0,0
42723,-133.333333333333,4,2,1,50,0,0
42996,-133.333333333333,4,2,1,50,0,0
44087,-133.333333333333,4,2,1,50,0,0
44223,-133.333333333333,4,2,1,50,0,0
44359,-133.333333333333,4,2,1,50,0,0
44632,-133.333333333333,4,2,1,50,0,0
44905,-142.857142857143,4,2,1,55,0,0
45450,-142.857142857143,4,2,1,55,0,0
45723,-133.333333333333,4,2,1,55,0,0
45996,-133.333333333333,4,2,1,55,0,0
47632,-133.333333333333,4,2,1,55,0,0
47973,-133.333333333333,4,2,1,55,0,0
48450,-133.333333333333,4,2,1,55,0,0
48587,-133.333333333333,4,2,1,55,0,0
48996,-133.333333333333,4,2,1,55,0,0
49269,-133.333333333333,4,2,1,60,0,0
49678,-133.333333333333,4,2,1,60,0,0
49814,-133.333333333333,4,2,1,60,0,0
50087,-133.333333333333,4,2,1,60,0,0
50291,-133.333333333333,4,2,1,60,0,0
50359,-133.333333333333,4,2,1,60,0,0
50905,-133.333333333333,4,2,1,60,0,0
51178,-133.333333333333,4,2,1,60,0,0
51450,-133.333333333333,4,2,1,60,0,0
51859,-133.333333333333,4,2,1,60,0,0
52269,-133.333333333333,4,2,1,60,0,0
52541,-117.647058823529,4,2,1,60,0,0
52814,-117.647058823529,4,2,1,60,0,0
53615,272.727272727273,4,2,1,80,1,1
53615,-100,4,2,1,80,0,1
54161,-100,4,2,1,80,0,1
55251,-100,4,2,1,80,0,1
61524,-100,4,2,1,80,0,1
61796,-100,4,2,1,80,0,1
62342,-100,4,2,1,80,0,1
71069,-100,4,2,1,65,0,0
79796,-100,4,2,1,80,0,1
84160,-100,4,2,1,70,0,0
86342,-100,4,2,1,80,0,1
87433,-100,4,2,1,80,0,1
87637,-100,4,2,1,5,0,1
87705,-100,4,2,1,80,0,1
87978,-100,4,2,1,80,0,1
88183,-100,4,2,1,5,0,1
88251,-100,4,2,1,80,0,1
88455,-100,4,2,1,5,0,0
88524,-200,4,2,1,60,0,0
89342,-200,4,2,1,60,0,0
89615,-200,4,2,1,60,0,0
90569,-200,4,2,1,60,0,0
90705,-200,4,2,1,60,0,0
91524,-200,4,2,1,60,0,0
91796,-200,4,2,1,60,0,0
92478,-200,4,2,1,60,0,0
92615,-200,4,2,1,60,0,0
93842,-200,4,2,1,60,0,0
93978,-200,4,2,1,60,0,0
94660,-200,4,2,1,60,0,0
94796,-200,4,2,1,60,0,0
94933,-200,4,2,1,60,0,0
95069,-200,4,2,1,60,0,0
95615,-200,4,2,1,60,0,0
95887,-200,4,2,1,60,0,0
96024,-200,4,2,1,60,0,0
96160,-200,4,2,1,60,0,0
98069,-200,4,2,1,60,0,0
98342,-200,4,2,1,60,0,0
99296,-200,4,2,1,60,0,0
99433,-200,4,2,1,60,0,0
100251,-200,4,2,1,60,0,0
100524,-200,4,2,1,60,0,0
101205,-200,4,2,1,60,0,0
101615,-200,4,2,1,60,0,0
102569,-200,4,2,1,60,0,0
102705,-200,4,2,1,60,0,0
103387,-200,4,2,1,60,0,0
103524,-200,4,2,1,60,0,0
103660,-200,4,2,1,60,0,0
103796,-200,4,2,1,60,0,0
104751,-200,4,2,1,60,0,0
104887,-200,4,2,1,60,0,0
105024,-200,4,2,1,60,0,0
105842,-200,4,2,1,60,0,0

[Colours]
Combo1 : 128,128,128
Combo2 : 192,192,192
Combo3 : 128,64,0
Combo4 : 64,0,0

[HitObjects]
320,128,1269,6,0,P|352:96|384:80,2,70,2|2|2,0:1|0:0|0:0,0:0:0:0:
304,240,2087,2,0,L|312:280,1,35,10|2,0:0|0:0,0:0:0:0:
208,224,2360,2,0,L|216:264,1,35,2|2,0:1|0:0,0:0:0:0:
128,288,2633,2,0,L|136:328,1,35,2|2,0:0|0:1,0:0:0:0:
48,256,2905,2,0,P|64:208|64:176,1,70,2|10,0:0|0:0,0:0:0:0:
16,112,3314,1,2,0:0:0:0:
16,112,3450,6,0,P|65:101|93:85,1,70,2|2,0:1|0:0,0:0:0:0:
124,12,3860,1,2,0:1:0:0:
124,12,3996,2,0,P|157:49|185:65,1,70,2|10,0:0|0:0,0:0:0:0:
304,80,4541,2,0,P|270:117|242:133,1,70,2|2,0:1|0:0,0:0:0:0:
112,144,5087,2,0,P|145:181|173:197,1,70,2|10,0:0|0:0,0:0:0:0:
285,271,5632,6,0,P|234:273|192:304,2,105,6|2|10,0:1|0:1|0:0,0:0:0:0:
368,320,6587,1,2,0:0:0:0:
368,320,6723,2,0,L|376:240,1,70,2|2,0:1|0:0,0:0:0:0:
464,176,7269,2,0,L|456:96,1,70,2|10,0:0|0:0,0:0:0:0:
368,32,7814,6,0,B|300:24|336:56|264:48,2,105,2|0|10,0:1|0:0|0:0,0:0:0:0:
384,48,8905,1,2,0:1:0:0:
64,272,9996,6,0,P|96:240|192:272,1,140,6|10,0:1|0:0,0:0:0:0:
208,352,10405,2,0,L|224:208,1,140,2|2,0:1|0:1,0:0:0:0:
160,144,10814,2,0,P|144:128|128:80,1,70,10|2,0:0|0:0,0:0:0:0:
240,96,11087,2,0,P|234:74|244:24,1,70,2|2,0:1|0:0,0:0:0:0:
333,94,11359,2,0,P|338:72|372:34,1,70,10|2,0:0|0:1,0:0:0:0:
464,176,11632,2,0,P|458:154|424:116,2,70,2|2|10,0:0|0:1|0:0,0:0:0:0:
416,256,12041,1,2,0:0:0:0:
416,256,12178,6,0,B|368:240|368:240|272:256,1,140,2|10,0:1|0:0,0:0:0:0:
112,176,12723,2,0,B|160:192|160:192|256:176,1,140,2|10,0:0|0:0,0:0:0:0:
304,96,13132,2,0,P|288:64|176:64,1,140,2|0,0:0|0:0,0:0:0:0:
112,80,13541,2,0,P|96:64|80:16,1,70,10|2,0:0|0:1,0:0:0:0:
48,144,13814,2,0,P|64:160|80:208,1,70,2|2,0:0|0:1,0:0:0:0:
64,288,14087,2,0,L|144:272,1,70,10|2,0:0|0:0,0:0:0:0:
224,272,14359,6,0,P|208:224|240:144,1,140,6|10,0:1|0:0,0:0:0:0:
336,160,14769,2,0,P|352:208|320:288,1,140,2|2,0:1|0:1,0:0:0:0:
272,368,15178,2,0,P|336:368|416:320,1,140,10|2,0:0|0:1,0:0:0:0:
464,272,15587,1,2,0:0:0:0:
464,272,15723,2,0,L|456:200,1,70,10|2,0:0|0:1,0:0:0:0:
368,176,15996,2,0,L|376:104,1,70,2|2,0:0|0:1,0:0:0:0:
464,80,16269,2,0,L|456:8,1,70,10|2,0:0|0:0,0:0:0:0:
352,0,16541,6,0,P|304:32|224:48,1,140,2|10,0:1|0:0,0:0:0:0:
144,0,16950,1,2,0:1:0:0:
144,0,17087,2,0,B|128:48|128:48|144:160,1,140,2|10,0:0|0:0,0:0:0:0:
240,256,17632,2,0,B|256:208|256:208|240:96,1,140,2|10,0:1|0:0,0:0:0:0:
32,288,18178,2,0,P|96:320|192:304,1,140,2|10,0:0|0:0,0:0:0:0:
256,240,18723,6,0,P|325:237|386:268,1,140,6|10,0:1|0:0,0:0:0:0:
432,352,19132,2,0,L|416:208,1,140,2|2,0:1|0:1,0:0:0:0:
360,144,19541,2,0,P|392:128|440:128,1,70,10|2,0:0|0:0,0:0:0:0:
272,112,19814,2,0,P|291:82|333:58,1,70,2|2,0:1|0:0,0:0:0:0:
200,172,20087,2,0,P|183:140|183:92,1,70,10|2,0:0|0:1,0:0:0:0:
96,80,20359,2,0,L|88:8,2,70,2|2|10,0:0|0:1|0:0,0:0:0:0:
32,144,20769,1,2,0:0:0:0:
32,144,20905,6,0,P|48:192|64:288,1,140,2|8,0:1|0:0,0:0:0:0:
176,384,21450,2,0,P|186:314|207:248,1,140,2|10,0:0|0:0,0:0:0:0:
176,160,21859,2,0,P|208:192|304:176,1,140,2|0,0:0|0:0,0:0:0:0:
368,128,22269,2,0,L|360:48,1,70,10|0,0:0|0:0,0:0:0:0:
432,192,22541,2,0,L|425:261,1,70,2|2,0:0|0:1,0:0:0:0:
352,320,22814,2,0,P|320:336|272:336,1,70,10|2,0:0|0:0,0:0:0:0:
208,288,23087,6,0,L|224:144,1,140,6|10,0:1|0:0,0:0:0:0:
288,80,23496,2,0,P|240:56|148:92,1,140,2|2,0:1|0:1,0:0:0:0:
80,16,23905,2,0,P|64:80|96:240,1,210,10|2,0:0|0:0,0:0:0:0:
112,304,24450,2,0,L|32:296,1,70,10|2,0:0|0:1,0:0:0:0:
170,230,24723,2,0,L|240:224,1,70,2|2,0:0|0:1,0:0:0:0:
240,320,24996,2,0,L|309:326,1,70,10|2,0:0|0:0,0:0:0:0:
400,368,25269,6,0,P|392:320|416:232,1,140,2|10,0:1|0:0,0:0:0:0:
400,130,25678,2,0,P|348:176|320:240,1,140,2|2,0:1|0:1,0:0:0:0:
309,326,26087,1,10,0:0:0:0:
208,256,26359,2,0,B|80:240|144:304|0:280,2,210,2|2|8,0:1|0:1|0:0,0:0:0:0:
400,240,27450,6,0,L|416:128,2,105,6|2|8,0:1|0:1|0:0,0:0:0:0:
432,340,28541,1,2,0:1:0:0:
144,160,29632,6,0,P|96:179|69:223,2,105,2|0|8,0:1|0:0|0:0,0:0:0:0:
161,263,30723,1,2,0:1:0:0:
352,80,31814,6,0,B|408:94|408:94|448:136,2,105,2|2|0,0:1|0:1|0:0,0:0:0:0:
277,154,32905,1,2,0:1:0:0:
96,160,33996,6,0,P|94:107|78:57,2,105,2|0|8,0:1|0:0|0:0,0:0:0:0:
72,262,35087,1,2,0:1:0:0:
144,338,35359,2,0,L|136:386,2,35,8|0|0,0:0|0:0|0:0,0:0:0:0:
199,189,35905,1,8,0:0:0:0:
336,272,36178,6,0,P|368:256|432:288,1,105.000004005432,6|0,0:1|0:0,0:0:0:0:
512,336,36587,2,0,L|496:208,1,105.000004005432,2|0,0:1|0:0,0:0:0:0:
432,176,36996,1,8,0:0:0:0:
432,48,37269,2,0,P|384:32|320:32,1,105.000004005432,2|0,0:1|0:0,0:0:0:0:
304,112,37678,2,0,P|251:110|201:94,1,105.000004005432,2|0,0:1|0:0,0:0:0:0:
144,32,38087,1,8,0:0:0:0:
64,160,38359,6,0,L|80:272,1,105.000004005432,2|0,0:1|0:0,0:0:0:0:
160,208,38769,2,0,L|176:320,1,105.000004005432,2|0,0:1|0:0,0:0:0:0:
256,352,39178,1,8,0:0:0:0:
400,288,39450,2,0,P|400:240|368:176,1,105.000004005432,2|0,0:1|0:0,0:0:0:0:
288,168,39859,2,0,P|318:125|363:98,1,105.000004005432,2|0,0:1|0:0,0:0:0:0:
448,128,40268,1,8,0:0:0:0:
320,16,40541,6,0,L|208:32,1,105.000004005432,6|0,0:1|0:0,0:0:0:0:
224,112,40950,2,0,L|120:97,1,105.000004005432,2|0,0:1|0:0,0:0:0:0:
32,80,41359,1,8,0:0:0:0:
48,240,41632,2,0,P|128:224|208:272,2,157.500006008148,2|2|8,0:1|0:1|0:0,0:0:0:0:
256,336,42723,6,0,P|286:295|292:236,1,105.000004005432,2|0,0:1|0:0,0:0:0:0:
376,280,43132,1,2,0:1:0:0:
376,280,43269,2,0,P|381:229|357:175,1,105.000004005432,4|8,0:3|0:0,0:0:0:0:
215,118,43814,1,2,0:1:0:0:
400,64,44087,2,0,L|468:53,2,52.5000020027161,6|2|6,0:3|0:1|0:3,0:0:0:0:
334,207,44632,1,8,0:0:0:0:
208,64,44905,6,0,B|156:80|156:80|99:64,1,97.9999970092774,6|2,0:1|0:1,0:0:0:0:
0,12,45450,2,0,P|16:92|11:116,1,97.9999970092774,8|2,0:0|0:1,0:0:0:0:
32,224,45996,2,0,P|72:220|96:204,1,52.5000020027161,2|0,0:1|0:0,0:0:0:0:
176,208,46269,2,0,P|159:244|161:273,1,52.5000020027161,2|0,0:1|0:0,0:0:0:0:
192,336,46541,2,0,L|256:328,1,52.5000020027161,2|0,0:1|0:0,0:0:0:0:
288,256,46814,2,0,L|340:262,1,52.5000020027161,2|0,0:1|0:0,0:0:0:0:
416,320,47087,6,0,P|432:268|412:200,1,105.000004005432,2|2,0:1|0:1,0:0:0:0:
352,160,47496,1,2,0:1:0:0:
352,160,47632,2,0,P|352:128|368:96,1,52.5000020027161,8|0,0:0|0:0,0:0:0:0:
448,64,47905,2,0,P|448:96|432:128,1,52.5000020027161,8|2,0:0|0:1,0:0:0:0:
336,176,48178,2,0,L|224:160,1,105.000004005432,2|8,0:1|0:0,0:0:0:0:
112,144,48723,2,0,P|120:112|120:72,1,52.5000020027161,0|2,0:0|0:1,0:0:0:0:
32,176,48995,2,0,P|34:202|41:227,1,52.5000020027161,4|0,0:3|0:0,0:0:0:0:
96,304,49269,6,0,P|144:288|208:304,1,105.000004005432,2|0,0:1|0:0,0:0:0:0:
192,208,49678,1,2,0:1:0:0:
192,208,49814,2,0,P|241:218|288:264,1,105.000004005432,8|2,0:0|0:0,0:0:0:0:
336,336,50223,1,0,0:0:0:0:
336,336,50359,2,0,P|372:292|376:224,1,105.000004005432,2|2,0:1|0:1,0:0:0:0:
480,224,50905,2,0,P|444:180|440:112,1,105.000004005432,2|8,0:1|0:0,0:0:0:0:
448,32,51450,6,0,L|397:44,1,52.5000020027161,2|0,0:1|0:0,0:0:0:0:
352,128,51723,2,0,L|288:112,1,52.5000020027161,8|2,0:0|0:0,0:0:0:0:
240,8,51996,2,0,P|224:40|224:72,1,52.5000020027161,2|0,0:1|0:0,0:0:0:0:
136,48,52269,2,0,P|138:83|154:111,1,52.5000020027161,8|2,0:0|0:0,0:0:0:0:
216,152,52541,2,0,P|213:187|196:216,1,59.5000011348725,2|0,0:1|0:0,0:0:0:0:
286,238,52814,2,0,P|266:267|236:284,1,59.5000011348725,10|0,0:0|0:0,0:0:0:0:
148,312,53087,1,10,0:0:0:0:
133,134,53359,1,0,0:0:0:0:
48,288,53615,6,0,B|24:208|76:236|48:148,1,140,6|8,0:1|0:0,0:0:0:0:
32,64,54024,1,2,0:1:0:0:
112,16,54160,2,0,P|168:16|240:56,1,140,0|8,0:0|0:0,0:0:0:0:
288,128,54569,1,0,0:0:0:0:
368,80,54705,2,0,L|360:0,1,70,2|0,0:1|0:0,0:0:0:0:
432,144,54978,2,0,L|425:213,1,70,8|2,0:0|0:1,0:0:0:0:
480,288,55251,2,0,P|432:304|348:264,1,140,0|8,0:0|0:0,0:0:0:0:
292,204,55660,1,0,0:0:0:0:
292,204,55796,6,0,P|264:260|268:288,1,70,2|0,0:1|0:0,0:0:0:0:
272,368,56069,2,0,P|216:340|188:344,1,70,8|2,0:0|0:1,0:0:0:0:
112,352,56342,2,0,L|128:272,1,70,0|2,0:0|0:1,0:0:0:0:
32,288,56615,2,0,L|48:208,1,70,8|0,0:0|0:0,0:0:0:0:
128,176,56887,2,0,P|128:144|176:48,1,140,2|8,0:1|0:0,0:0:0:0:
272,80,57296,1,2,0:1:0:0:
272,80,57433,2,0,P|272:112|224:208,1,140,0|8,0:0|0:0,0:0:0:0:
80,304,57978,6,0,L|240:288,1,140,6|8,0:1|0:0,0:0:0:0:
304,336,58387,1,2,0:1:0:0:
384,288,58524,2,0,P|400:224|384:144,1,140,0|8,0:0|0:0,0:0:0:0:
320,80,58933,1,0,0:0:0:0:
240,128,59069,2,0,P|192:144|160:144,1,70,2|0,0:1|0:0,0:0:0:0:
128,64,59342,2,0,P|93:67|60:80,1,70,8|2,0:0|0:1,0:0:0:0:
0,160,59615,2,0,L|16:304,1,140,0|8,0:0|0:0,0:0:0:0:
96,352,60024,1,0,0:0:0:0:
96,352,60160,6,0,P|112:308|108:276,1,70,2|0,0:1|0:0,0:0:0:0:
200,296,60433,2,0,P|191:249|172:224,1,70,8|2,0:0|0:1,0:0:0:0:
144,128,60705,2,0,P|188:144|220:140,1,70,0|2,0:0|0:1,0:0:0:0:
317,163,60978,2,0,P|281:193|268:222,1,70,8|0,0:0|0:0,0:0:0:0:
320,320,61251,2,0,L|400:304,1,70,2|0,0:1|0:0,0:0:0:0:
480,240,61524,2,0,L|400:224,1,70,8|2,0:0|0:1,0:0:0:0:
288,160,61796,2,0,L|368:144,1,70,0|2,0:0|0:1,0:0:0:0:
512,80,62069,2,0,L|432:64,1,70,8|0,0:0|0:0,0:0:0:0:
288,32,62342,6,0,P|224:64|144:48,1,140,6|8,0:1|0:0,0:0:0:0:
80,0,62751,1,2,0:1:0:0:
32,80,62887,2,0,L|48:224,1,140,0|8,0:0|0:0,0:0:0:0:
32,312,63296,1,0,0:0:0:0:
116,272,63433,2,0,P|148:256|204:264,1,70,2|0,0:1|0:0,0:0:0:0:
256,320,63705,2,0,P|290:319|321:303,1,70,8|2,0:0|0:1,0:0:0:0:
392,364,63978,2,0,P|408:312|384:232,1,140,0|8,0:0|0:0,0:0:0:0:
288,208,64387,1,0,0:0:0:0:
288,208,64524,6,0,P|312:164|408:136,1,140,2|8,0:1|0:0,0:0:0:0:
480,64,64933,1,2,0:1:0:0:
480,64,65069,2,0,L|400:48,1,70,0|2,0:0|0:1,0:0:0:0:
336,112,65342,2,0,L|267:125,1,70,8|0,0:0|0:0,0:0:0:0:
176,96,65615,1,2,0:1:0:0:
176,96,65751,1,0,0:0:0:0:
80,128,65887,2,0,P|64:176|64:224,1,70,8|2,0:0|0:1,0:0:0:0:
152,216,66160,2,0,P|168:264|168:312,1,70,0|2,0:0|0:1,0:0:0:0:
246,227,66433,2,0,P|251:192|264:160,1,70,8|0,0:0|0:0,0:0:0:0:
231,64,66705,6,0,P|300:66|352:112,1,140,2|8,0:1|0:0,0:0:0:0:
368,208,67115,1,2,0:1:0:0:
368,208,67251,2,0,L|360:280,1,70,0|2,0:0|0:1,0:0:0:0:
464,192,67524,2,0,L|456:264,1,70,8|0,0:0|0:0,0:0:0:0:
488,360,67796,2,0,P|440:344|392:344,1,70,2|0,0:1|0:0,0:0:0:0:
328,360,68069,2,0,P|293:354|260:342,1,70,8|2,0:0|0:1,0:0:0:0:
256,240,68342,2,0,P|176:256|128:288,1,140,0|8,0:0|0:0,0:0:0:0:
48,352,68751,1,0,0:0:0:0:
48,256,68887,6,0,B|84:180|32:192|68:112,1,140,2|8,0:1|0:0,0:0:0:0:
96,32,69296,1,2,0:1:0:0:
192,48,69433,2,0,P|256:56|328:20,1,140,0|8,0:0|0:0,0:0:0:0:
416,16,69842,1,0,0:0:0:0:
416,16,69978,2,0,L|400:160,1,140,2|8,0:1|0:0,0:0:0:0:
432,288,70524,2,0,P|352:272|272:304,1,140,0|10,0:0|0:0,0:0:0:0:
224,352,70933,1,2,0:0:0:0:
224,352,71069,6,0,P|204:320|204:264,1,70,6|0,0:1|0:0,0:0:0:0:
118,308,71342,2,0,P|116:270|144:221,1,70,10|2,0:0|0:1,0:0:0:0:
48,216,71615,2,0,P|65:182|114:154,1,70,2|2,0:0|0:1,0:0:0:0:
176,112,71887,1,10,0:0:0:0:
176,112,72024,2,0,P|224:144|304:144,1,140,2|2,0:0|0:0,0:0:0:0:
400,104,72433,2,0,P|404:144|396:192,1,70,10|2,0:0|0:1,0:0:0:0:
432,264,72705,2,0,L|480:280,2,35,2|0|2,0:0|0:0|0:1,0:0:0:0:
336,256,72978,2,0,P|304:270|276:291,1,70,10|0,0:0|0:0,0:0:0:0:
192,336,73251,5,2,0:1:0:0:
192,336,73387,2,0,L|200:264,1,70,2|8,0:0|0:0,0:0:0:0:
96,224,73660,1,2,0:1:0:0:
96,224,73796,2,0,L|103:293,1,70,2|2,0:0|0:1,0:0:0:0:
168,160,74069,2,0,P|168:128|152:80,1,70,10|2,0:0|0:0,0:0:0:0:
160,0,74342,2,0,P|187:16|237:26,1,70,2|2,0:1|0:0,0:0:0:0:
302,73,74615,2,0,P|274:88|240:126,1,70,10|0,0:0|0:0,0:0:0:0:
256,224,74887,2,0,L|328:232,1,70,2|2,0:0|0:1,0:0:0:0:
464,288,75160,2,0,L|392:296,1,70,10|0,0:0|0:0,0:0:0:0:
304,336,75433,6,0,P|224:320|160:336,1,140,6|10,0:1|0:0,0:0:0:0:
64,320,75842,2,0,B|48:240|96:260|80:176,1,140,2|2,0:1|0:1,0:0:0:0:
64,80,76251,2,0,P|104:60|160:68,1,70,10|2,0:0|0:0,0:0:0:0:
192,128,76524,2,0,P|226:124|256:106,1,70,2|2,0:1|0:0,0:0:0:0:
304,16,76796,1,10,0:0:0:0:
304,16,76933,2,0,P|348:64|344:156,1,140,2|2,0:1|0:1,0:0:0:0:
272,192,77342,2,0,P|256:240|272:288,1,70,10|0,0:0|0:0,0:0:0:0:
338,346,77615,6,0,L|304:352,2,35,2|0|2,0:1|0:0|0:0,0:0:0:0:
432,320,77887,2,0,L|466:323,2,35,10|0|2,0:0|0:0|0:1,0:0:0:0:
368,256,78160,2,0,L|362:221,2,35,2|0|2,0:0|0:0|0:1,0:0:0:0:
465,216,78433,2,0,L|470:181,2,35,10|0|2,0:0|0:0|0:0,0:0:0:0:
429,117,78705,2,0,P|353:113|305:65,1,140,2|10,0:1|0:0,0:0:0:0:
227,30,79115,2,0,P|163:53|128:112,1,140,2|2,0:1|0:1,0:0:0:0:
160,208,79524,2,0,L|240:200,1,70,10|2,0:0|0:0,0:0:0:0:
304,272,79796,6,0,P|328:232|328:188,1,70,6|2,0:1|0:0,0:0:0:0:
448,144,80069,2,0,P|424:184|424:228,1,70,10|2,0:0|0:1,0:0:0:0:
464,304,80342,2,0,P|417:303|379:325,1,70,2|2,0:0|0:1,0:0:0:0:
316,360,80615,2,0,P|283:371|248:367,1,70,10|2,0:0|0:0,0:0:0:0:
144,336,80887,2,0,L|160:224,1,105,2|2,0:1|0:0,0:0:0:0:
168,224,81160,2,0,P|160:192|136:160,1,70,10|2,0:0|0:1,0:0:0:0:
240,160,81433,2,0,P|249:128|244:88,1,70,2|2,0:0|0:1,0:0:0:0:
334,140,81705,2,0,P|357:117|373:80,1,70,10|2,0:0|0:0,0:0:0:0:
432,176,81978,6,0,L|512:160,2,70,2|2|10,0:1|0:0|0:0,0:0:0:0:
336,240,82387,2,0,L|256:224,2,70,2|2|2,0:1|0:0|0:1,0:0:0:0:
436,168,82796,2,0,P|436:136|404:88,2,70,10|2|2,0:0|0:0|0:1,0:0:0:0:
288,128,83205,2,0,P|304:100|355:74,2,70,2|10|2,0:0|0:0|0:1,0:0:0:0:
332,232,83615,2,0,P|268:216|252:216,1,70,2|0,0:0|0:0,0:0:0:0:
176,256,83887,2,0,P|141:251|108:239,1,70,10|0,0:0|0:0,0:0:0:0:
16,272,84160,6,0,P|32:200|88:144,1,140,6|10,0:1|0:0,0:0:0:0:
4,88,84569,2,0,P|74:65|150:86,1,140,2|2,0:1|0:1,0:0:0:0:
208,144,84978,2,0,L|192:224,1,70,10|0,0:0|0:0,0:0:0:0:
290,203,85251,2,0,L|304:272,1,70,2|0,0:1|0:0,0:0:0:0:
400,160,85524,2,0,L|384:240,1,70,10|0,0:0|0:0,0:0:0:0:
320,112,85796,2,0,P|320:80|352:32,1,70,0|2,0:0|0:1,0:0:0:0:
408,168,86069,2,0,L|392:248,1,70,10|0,0:0|0:0,0:0:0:0:
319,319,86342,6,0,P|349:338|382:349,2,70,10|2|10,0:0|0:0|0:0,0:0:0:0:
240,256,86751,1,2,0:1:0:0:
144,288,86887,2,0,P|114:306|81:317,2,70,10|2|10,0:0|0:1|0:0,0:0:0:0:
160,192,87296,1,2,0:0:0:0:
256,160,87433,6,0,P|288:144|384:208,1,140,2|0,0:1|0:0,0:0:0:0:
416,280,87842,1,2,0:1:0:0:
380,194,87978,2,0,P|364:161|428:65,2,140,2|10|6,0:0|0:0|0:1,0:0:0:0:
64,112,89342,6,0,L|72:192,1,70,8|2,0:0|0:1,0:0:0:0:
192,288,90296,6,0,P|168:288|144:284,2,35,2|2|10,0:0|0:1|0:0,0:0:0:0:
256,240,90705,1,2,0:1:0:0:
384,336,91524,6,0,P|384:288|368:256,1,70,8|2,0:0|0:1,0:0:0:0:
320,112,92478,6,0,L|336:64,2,35,8|2|4,0:0|0:1|0:3,0:0:0:0:
272,176,92887,1,2,0:1:0:0:
48,128,93705,6,0,P|72:116|96:112,1,35,2|8,0:1|0:0,0:0:0:0:
160,96,93978,2,0,P|144:64|144:16,1,70,2|2,0:1|0:1,0:0:0:0:
144,248,94660,1,10,0:0:0:0:
144,248,94796,6,0,L|136:288,1,35,2|8,0:1|0:0,0:0:0:0:
80,336,95069,2,0,P|128:320|160:320,1,70,2|2,0:1|0:1,0:0:0:0:
224,344,95615,2,0,P|258:340|291:327,1,70,2|2,0:1|0:1,0:0:0:0:
384,336,96160,2,0,L|368:192,2,140,0|2|6,0:0|0:0|0:1,0:0:0:0:
416,32,98069,6,0,P|380:32|344:52,1,70,8|2,0:0|0:1,0:0:0:0:
128,176,99024,6,0,L|136:224,2,35,2|2|8,0:0|0:1|0:0,0:0:0:0:
80,112,99433,1,2,0:1:0:0:
288,336,100251,6,0,B|260:348|260:348|208:336,1,70,8|2,0:0|0:1,0:0:0:0:
320,176,101205,6,0,P|320:160|312:136,2,35,8|2|4,0:0|0:1|0:3,0:0:0:0:
272,240,101615,2,0,P|320:224|376:248,2,105,2|0|2,0:1|0:0|0:1,0:0:0:0:
200,280,102569,1,10,0:0:0:0:
200,280,102705,2,0,L|208:328,2,35,0|2|2,0:0|0:0|0:1,0:0:0:0:
128,192,103251,6,0,L|133:157,1,35,2|8,0:0|0:0,0:0:0:0:
224,112,103524,2,0,L|218:146,1,35,2|8,0:1|0:0,0:0:0:0:
120,200,103796,2,0,P|80:184|48:188,2,70,2|2|8,0:1|0:1|0:0,0:0:0:0:
256,304,104615,6,0,P|288:288|296:288,1,35,2|8,0:1|0:0,0:0:0:0:
276,208,104887,2,0,P|311:210|318:214,1,35,2|8,0:1|0:0,0:0:0:0:
376,264,105160,2,0,P|396:224|392:184,2,70,2|4|8,0:1|0:3|0:0,0:0:0:0:
368,272,105842,1,8,0:0:0:0:
