osu file format v14

[General]
AudioFilename: audio.mp3
AudioLeadIn: 0
PreviewTime: 55603
Countdown: 0
SampleSet: Soft
StackLeniency: 0.3
Mode: 0
LetterboxInBreaks: 0
EpilepsyWarning: 1
WidescreenStoryboard: 1

[Editor]
Bookmarks: 22376,44702,55864,67027,89353,111678,134004,156330,167492,178655,200981,223306,245632,267957,290283,301446,312609
DistanceSpacing: 0.8
BeatDivisor: 8
GridSize: 16
TimelineZoom: 4.999998

[Metadata]
Title:Lockheed
TitleUnicode:Lockheed
Artist:Teknian, Disprove & Ordure
ArtistUnicode:Teknian, Disprove & Ordure
Creator:Shiirn
Version:Containment
Source:
Tags:Mun Powered by Inspected neurofunk garage dnb drum and bass Jakomo73
BeatmapID:1360265
BeatmapSetID:641496

[Difficulty]
HPDrainRate:7
CircleSize:4
OverallDifficulty:8.8
ApproachRate:9.4
SliderMultiplier:2
SliderTickRate:1

[Events]
//Background and Video events
0,0,"valley.png",0,0
//Break Periods
2,290493,300916
//Storyboard Layer 0 (Background)
//Storyboard Layer 1 (Fail)
//Storyboard Layer 2 (Pass)
//Storyboard Layer 3 (Foreground)
//Storyboard Sound Samples

[TimingPoints]
61,348.837209302326,4,2,1,50,1,0
409,-333.333333333333,4,2,1,50,0,0
17502,-200,4,2,1,50,0,0
17851,-333.333333333333,4,2,1,50,0,0
22386,-285.714285714286,4,2,1,50,0,0
41921,-333.333333333333,4,2,1,50,0,0
45061,-200,4,2,1,50,0,0
45409,-166.666666666667,4,2,1,50,0,0
46107,-200,4,2,1,50,0,0
46455,-166.666666666667,4,2,1,50,0,0
55874,-142.857142857143,4,2,1,50,0,0
56921,-250,4,2,1,50,0,0
57270,-142.857142857143,4,2,1,50,0,0
59712,-250,4,2,1,50,0,0
60061,-142.857142857143,4,2,1,50,0,0
64247,-100,4,2,1,50,0,0
66688,-66.6666666666667,4,2,1,50,0,0
67037,-133.333333333333,4,2,1,75,0,0
67386,-66.6666666666667,4,2,1,75,0,0
68781,-100,4,2,1,75,0,0
69828,-133.333333333333,4,2,1,75,0,0
70177,-66.6666666666667,4,2,1,75,0,0
71572,-100,4,2,1,75,0,0
71921,-66.6666666666667,4,2,1,75,0,0
72619,-133.333333333333,4,2,1,75,0,0
72967,-66.6666666666667,4,2,1,75,0,0
74363,-100,4,2,1,75,0,0
75061,-66.6666666666667,4,2,1,75,0,0
75409,-133.333333333333,4,2,1,75,0,0
77154,-66.6666666666667,4,2,1,75,0,0
77502,-200,4,2,1,75,0,0
78200,-133.333333333333,4,2,1,75,0,0
78549,-66.6666666666667,4,2,1,75,0,0
79944,-100,4,2,1,75,0,0
80642,-66.6666666666667,4,2,1,75,0,0
80991,-133.333333333333,4,2,1,75,0,0
81340,-66.6666666666667,4,2,1,75,0,0
82735,-100,4,2,1,75,0,0
83781,-133.333333333333,4,2,1,75,0,0
84130,-66.6666666666667,4,2,1,75,0,0
85525,-100,4,2,1,75,0,0
86921,-200,4,2,1,30,0,0
89363,-66.6666666666667,4,2,1,75,0,0
90758,-76.9230769230769,4,2,1,75,0,0
91107,-100,4,2,1,75,0,0
91805,-76.9230769230769,4,2,1,75,0,0
92154,-133.333333333333,4,2,1,75,0,0
92502,-100,4,2,1,75,0,0
92851,-66.6666666666667,4,2,1,75,0,0
93200,-100,4,2,1,75,0,0
93723,-76.9230769230769,4,2,1,75,0,0
94159,-66.6666666666667,4,2,1,75,0,0
94595,-133.333333333333,4,2,1,75,0,0
94944,-66.6666666666667,4,2,1,75,0,0
95467,-100,4,2,1,75,0,0
95642,-66.6666666666667,4,2,1,75,0,0
96514,-76.9230769230769,4,2,1,75,0,0
97037,-66.6666666666667,4,2,1,75,0,0
97735,-100,4,2,1,75,0,0
98781,-76.9230769230769,4,2,1,75,0,0
99654,-66.6666666666667,4,2,1,75,0,0
102095,-76.9230769230769,4,2,1,75,0,0
102619,-66.6666666666667,4,2,1,75,0,0
105061,-76.9230769230769,4,2,1,75,0,0
105409,-66.6666666666667,4,2,1,75,0,0
105758,-133.333333333333,4,2,1,75,0,0
106107,-66.6666666666667,4,2,1,75,0,0
107502,-76.9230769230769,4,2,1,75,0,0
108549,-100,4,2,1,75,0,0
108898,-142.857142857143,4,2,1,30,0,0
111688,-133.333333333333,4,2,1,65,0,0
112036,-66.6666666666667,4,2,1,65,0,0
113432,-100,4,2,1,65,0,0
114479,-133.333333333333,4,2,1,65,0,0
114827,-66.6666666666667,4,2,1,65,0,0
116223,-100,4,2,1,65,0,0
116921,-50,4,2,1,65,0,0
117270,-133.333333333333,4,2,1,65,0,0
117619,-66.6666666666667,4,2,1,65,0,0
119014,-100,4,2,1,65,0,0
120061,-133.333333333333,4,2,1,65,0,0
120409,-76.9230769230769,4,2,1,65,0,0
122851,-133.333333333333,4,2,1,65,0,0
123200,-66.6666666666667,4,2,1,65,0,0
124595,-100,4,2,1,65,0,0
125642,-133.333333333333,4,2,1,65,0,0
125991,-66.6666666666667,4,2,1,65,0,0
127386,-100,4,2,1,65,0,0
128084,-57.1428571428571,4,2,1,65,0,0
128433,-133.333333333333,4,2,1,65,0,0
128782,-66.6666666666667,4,2,1,65,0,0
130177,-100,4,2,1,65,0,0
131223,-133.333333333333,4,2,1,35,0,0
131245,-133.333333333333,4,2,1,30,0,0
131267,-133.333333333333,4,2,1,25,0,0
131289,-133.333333333333,4,2,1,20,0,0
131311,-133.333333333333,4,2,1,15,0,0
131332,-133.333333333333,4,2,1,10,0,0
131354,-133.333333333333,4,2,1,5,0,0
132292,-133.333333333333,4,2,1,7,0,0
132313,-133.333333333333,4,2,1,10,0,0
132335,-133.333333333333,4,2,1,12,0,0
132357,-133.333333333333,4,2,1,15,0,0
132379,-133.333333333333,4,2,1,20,0,0
132401,-133.333333333333,4,2,1,25,0,0
132422,-133.333333333333,4,2,1,30,0,0
132444,-133.333333333333,4,2,1,35,0,0
132466,-133.333333333333,4,2,1,45,0,0
132488,-133.333333333333,4,2,1,50,0,0
132510,-133.333333333333,4,2,1,60,0,0
132531,-133.333333333333,4,2,1,70,0,0
132619,-100,4,2,1,30,0,0
132749,-100,4,2,1,5,0,0
132793,-100,4,2,1,30,0,0
133098,-100,4,2,1,5,0,0
133142,-100,4,2,1,30,0,0
133447,-100,4,2,1,5,0,0
133491,-100,4,2,1,30,0,0
133796,-100,4,2,1,5,0,0
133840,-100,4,2,1,30,0,0
134014,-125,4,2,1,5,0,0
134363,-66.6666666666667,4,2,1,50,0,0
136107,-100,4,2,1,50,0,0
136456,-133.333333333333,4,2,1,50,0,0
136805,-100,4,2,1,50,0,0
137154,-66.6666666666667,4,2,1,50,0,0
138898,-100,4,2,1,50,0,0
139421,-50,4,2,1,50,0,0
139595,-133.333333333333,4,2,1,50,0,0
139944,-66.6666666666667,4,2,1,50,0,0
140119,-66.6666666666667,4,2,1,50,0,0
141340,-76.9230769230769,4,2,1,50,0,0
141688,-100,4,2,1,50,0,0
142386,-166.666666666667,4,2,1,50,0,0
143433,-100,4,2,1,50,0,0
144828,-333.333333333333,4,2,1,50,0,0
145177,-66.6666666666667,4,2,1,50,0,0
145526,-66.6666666666667,4,2,1,50,0,0
147270,-100,4,2,1,50,0,0
147619,-133.333333333333,4,2,1,50,0,0
147967,-100,4,2,1,50,0,0
148316,-66.6666666666667,4,2,1,50,0,0
149363,-83.3333333333333,4,2,1,50,0,0
150409,-50,4,2,1,50,0,0
150758,-166.666666666667,4,2,1,50,0,0
151107,-66.6666666666667,4,2,1,50,0,0
151543,-83.3333333333333,4,2,1,50,0,0
152851,-66.6666666666667,4,2,1,50,0,0
153200,-76.9230769230769,4,2,1,50,0,0
153549,-142.857142857143,4,2,1,30,0,0
155991,-333.333333333333,4,2,1,30,0,0
156340,-100,4,2,1,30,0,0
161572,-333.333333333333,4,2,1,30,0,0
161921,-100,4,2,1,30,0,0
165409,-200,4,2,1,30,0,0
167502,-166.666666666667,4,2,1,30,0,0
176921,-200,4,2,1,30,0,0
177270,-250,4,2,1,30,0,0
177619,-333.333333333333,4,2,1,30,0,0
177967,-500,4,2,1,30,0,0
178665,-200,4,2,1,30,0,0
189828,-133.333333333333,4,2,1,30,0,0
198200,-100,4,2,1,30,0,0
200991,-66.6666666666667,4,2,1,50,0,0
201340,-133.333333333333,4,2,1,50,0,0
201688,-100,4,2,1,50,0,0
202735,-166.666666666667,4,2,1,50,0,0
203084,-100,4,2,1,50,0,0
203781,-66.6666666666667,4,2,1,50,0,0
204130,-133.333333333333,4,2,1,50,0,0
204479,-100,4,2,1,50,0,0
205874,-76.9230769230769,4,2,1,50,0,0
206049,-62.5,4,2,1,50,0,0
206572,-133.333333333333,4,2,1,50,0,0
206921,-66.6666666666667,4,2,1,50,0,0
207270,-100,4,2,1,50,0,0
208665,-66.6666666666667,4,2,1,50,0,0
209363,-133.333333333333,4,2,1,50,0,0
209712,-66.6666666666667,4,2,1,50,0,0
210061,-83.3333333333333,4,2,1,50,0,0
211805,-66.6666666666667,4,2,1,50,0,0
212154,-133.333333333333,4,2,1,50,0,0
212502,-66.6666666666667,4,2,1,50,0,0
212851,-100,4,2,1,50,0,0
214247,-83.3333333333333,4,2,1,20,0,0
214944,-66.6666666666667,4,2,1,20,0,0
215642,-76.9230769230769,4,2,1,50,0,0
217735,-133.333333333333,4,2,1,50,0,0
218084,-66.6666666666667,4,2,1,50,0,0
218433,-133.333333333333,4,2,1,50,0,0
220526,-66.6666666666667,4,2,1,50,0,0
220874,-200,4,2,1,50,0,0
222444,-133.333333333333,4,2,1,30,0,0
222706,-100,4,2,1,30,0,0
223316,-133.333333333333,4,2,1,55,0,0
223665,-66.6666666666667,4,2,1,55,0,0
223840,-66.6666666666667,4,2,1,55,0,1
225061,-100,4,2,1,55,0,1
225409,-100,4,2,1,55,0,0
225758,-133.333333333333,4,2,1,55,0,0
226107,-133.333333333333,4,2,1,55,0,0
226456,-66.6666666666667,4,2,1,55,0,0
226630,-66.6666666666667,4,2,1,55,0,1
227502,-100,4,2,1,55,0,0
228549,-66.6666666666667,4,2,1,55,0,0
228898,-133.333333333333,4,2,1,55,0,0
229247,-66.6666666666667,4,2,1,55,0,0
229421,-66.6666666666667,4,2,1,55,0,1
230642,-100,4,2,1,55,0,1
230991,-100,4,2,1,55,0,0
231340,-133.333333333333,4,2,1,55,0,0
232386,-100,4,2,1,55,0,0
234479,-133.333333333333,4,2,1,55,0,0
235002,-66.6666666666667,4,2,1,55,0,1
236223,-100,4,2,1,55,0,1
236572,-100,4,2,1,55,0,0
236921,-133.333333333333,4,2,1,55,0,0
237793,-66.6666666666667,4,2,1,55,0,1
238665,-100,4,2,1,55,0,0
239712,-66.6666666666667,4,2,1,55,0,0
240061,-133.333333333333,4,2,1,55,0,0
240409,-66.6666666666667,4,2,1,55,0,0
240584,-66.6666666666667,4,2,1,55,0,1
241805,-100,4,2,1,55,0,0
242851,-200,4,2,1,30,0,0
245642,-133.333333333333,4,2,1,55,0,0
246165,-66.6666666666667,4,2,1,55,0,0
246340,-66.6666666666667,4,2,1,55,0,1
247386,-100,4,2,1,55,0,0
248433,-133.333333333333,4,2,1,55,0,0
248781,-76.9230769230769,4,2,1,55,0,0
248956,-76.9230769230769,4,2,1,55,0,1
249479,-66.6666666666667,4,2,1,55,0,1
249828,-100,4,2,1,55,0,0
250874,-50,4,2,1,55,0,0
251223,-133.333333333333,4,2,1,55,0,0
251747,-66.6666666666667,4,2,1,55,0,0
251921,-66.6666666666667,4,2,1,55,0,1
252967,-100,4,2,1,55,0,0
254014,-133.333333333333,4,2,1,55,0,0
254276,-76.9230769230769,4,2,1,55,0,0
256805,-133.333333333333,4,2,1,55,0,0
257154,-66.6666666666667,4,2,1,55,0,0
257502,-66.6666666666667,4,2,1,55,0,1
258549,-100,4,2,1,55,0,0
259595,-133.333333333333,4,2,1,55,0,0
259944,-66.6666666666667,4,2,1,55,0,0
260119,-66.6666666666667,4,2,1,55,0,1
260642,-58.8235294117647,4,2,1,55,0,1
260991,-100,4,2,1,55,0,0
262037,-66.6666666666667,4,2,1,55,0,0
262386,-133.333333333333,4,2,1,55,0,0
262735,-66.6666666666667,4,2,1,55,0,0
263084,-66.6666666666667,4,2,1,55,0,1
264130,-100,4,2,1,55,0,0
265177,-133.333333333333,4,2,1,35,0,0
265199,-133.333333333333,4,2,1,30,0,0
265221,-133.333333333333,4,2,1,25,0,0
265243,-133.333333333333,4,2,1,20,0,0
265265,-133.333333333333,4,2,1,15,0,0
265286,-133.333333333333,4,2,1,10,0,0
265308,-133.333333333333,4,2,1,5,0,0
266246,-133.333333333333,4,2,1,7,0,0
266267,-133.333333333333,4,2,1,10,0,0
266289,-133.333333333333,4,2,1,12,0,0
266311,-133.333333333333,4,2,1,15,0,0
266333,-133.333333333333,4,2,1,20,0,0
266355,-133.333333333333,4,2,1,25,0,0
266376,-133.333333333333,4,2,1,30,0,0
266398,-133.333333333333,4,2,1,35,0,0
266420,-133.333333333333,4,2,1,45,0,0
266442,-133.333333333333,4,2,1,50,0,0
266464,-133.333333333333,4,2,1,60,0,0
266485,-133.333333333333,4,2,1,70,0,0
266572,-100,4,2,1,30,0,0
266703,-100,4,2,1,5,0,0
266747,-100,4,2,1,30,0,0
267052,-100,4,2,1,5,0,0
267096,-100,4,2,1,30,0,0
267401,-100,4,2,1,5,0,0
267444,-66.6666666666667,4,2,1,30,0,0
267967,-133.333333333333,4,2,1,30,0,0
268316,-80,4,2,1,45,0,0
270758,-133.333333333333,4,2,1,45,0,0
271107,-80,4,2,1,45,0,0
272851,-66.6666666666667,4,2,1,45,0,0
273200,-80,4,2,1,45,0,0
273549,-133.333333333333,4,2,1,40,0,0
273898,-80,4,2,1,40,0,0
275642,-66.6666666666667,4,2,1,40,0,0
275991,-80,4,2,1,40,0,0
276340,-133.333333333333,4,2,1,35,0,0
279479,-80,4,2,1,30,0,0
281572,-133.333333333333,4,2,1,30,0,0
282270,-79.9999999999999,4,2,1,30,0,0
284363,-50,4,2,1,30,0,0
284712,-133.333333333333,4,2,1,30,0,0
285061,-80,4,2,1,30,0,0
287502,-100,4,2,1,30,0,0
301456,-333.333333333333,4,2,1,30,0,0

[Colours]
Combo1 : 136,55,82
Combo2 : 66,78,125
Combo3 : 113,159,157
Combo4 : 132,132,132
Combo5 : 181,181,181
Combo6 : 169,54,54
Combo7 : 240,15,15

[HitObjects]
108,140,61,5,0,0:0:0:0:
108,140,1456,1,0,0:0:0:0:
108,140,2851,1,0,0:0:0:0:
108,140,4247,1,0,0:0:0:0:
292,152,5642,5,0,0:0:0:0:
292,152,7037,1,0,0:0:0:0:
292,152,8433,1,0,0:0:0:0:
292,152,9828,1,0,0:0:0:0:
108,140,11223,5,0,0:0:0:0:
223,224,11921,2,0,L|235:300,1,59.9999981689454,0|0,0:0|0:0,0:0:0:0:
108,140,12619,1,0,0:0:0:0:
223,224,13316,1,0,0:0:0:0:
108,140,14014,5,0,0:0:0:0:
223,224,14712,2,0,L|211:300,1,59.9999981689454,0|0,0:0|0:0,0:0:0:0:
108,140,15409,1,0,0:0:0:0:
213,283,16107,1,0,0:0:0:0:
292,152,16805,53,0,0:0:0:0:
163,203,17502,2,0,L|148:293,1,66.6666666666667,0|0,0:0|0:0,0:0:0:0:
159,282,17851,1,0,0:0:0:0:
165,292,18026,1,0,0:0:0:0:
292,152,18200,5,0,0:0:0:0:
125,201,18898,2,0,L|132:232,1,29.9999990844727,0|0,0:0|0:0,0:0:0:0:
211,275,19247,2,0,L|204:306,1,29.9999990844727,0|0,0:0|0:0,0:0:0:0:
292,152,19595,6,0,B|298:196|298:196|302:168,1,59.9999981689454,0|0,0:0|0:0,0:0:0:0:
372,153,20119,1,0,0:0:0:0:
283,149,20293,2,0,B|292:218,1,59.9999981689454,0|0,0:0|0:0,0:0:0:0:
372,153,20816,1,0,0:0:0:0:
181,140,20991,6,0,L|177:172,2,29.9999990844727,0|0|0,0:0|0:0|0:0,0:0:0:0:
111,221,21514,2,0,L|115:253,2,29.9999990844727,0|0|0,0:0|0:0|0:0,0:0:0:0:
181,302,22037,2,0,L|175:345,1,44.999998626709,0|0,0:0|0:0,0:0:0:0:
280,278,22386,54,0,L|277:243,1,34.9999989318848
403,75,22735,2,0,L|398:110,1,34.9999989318848,0|0,0:0|0:0,0:0:0:0:
401,225,23084,2,0,L|393:281,1,46.6666652425131,0|0,0:0|0:0,0:0:0:0:
383,285,23433,1,0,0:0:0:0:
373,295,23607,1,0,0:0:0:0:
287,138,23781,6,0,L|292:207,1,69.9999978637696,0|0,0:0|0:0,0:0:0:0:
402,110,24305,1,0,0:0:0:0:
274,147,24479,2,0,L|278:195,1,34.9999989318848,0|0,0:0|0:0,0:0:0:0:
377,233,24828,2,0,L|381:184,1,34.9999989318848,0|0,0:0|0:0,0:0:0:0:
287,295,25177,6,0,L|289:260,1,34.9999989318848,0|0,0:0|0:0,0:0:0:0:
197,357,25526,2,0,L|199:322,1,34.9999989318848,0|0,0:0|0:0,0:0:0:0:
118,172,25874,2,0,L|123:241,1,69.9999978637696,0|0,0:0|0:0,0:0:0:0:
209,136,26398,1,0,0:0:0:0:
102,182,26572,6,0,L|104:216,2,34.9999989318848,0|0|0,0:0|0:0|0:0,0:0:0:0:
209,136,27095,1,0,0:0:0:0:
68,292,27270,2,0,B|80:306|80:306|83:341,1,52.4999983978272,0|0,0:0|0:0,0:0:0:0:
86,343,27619,1,0,0:0:0:0:
227,350,27793,1,0,0:0:0:0:
184,149,27967,54,0,L|190:189,1,34.9999989318848,0|0,0:0|0:0,0:0:0:0:
304,116,28316,2,0,L|298:156,1,34.9999989318848,0|0,0:0|0:0,0:0:0:0:
278,309,28665,2,0,L|269:253,1,52.4999983978272,0|0,0:0|0:0,0:0:0:0:
282,249,29014,1,0,0:0:0:0:
293,241,29188,1,0,0:0:0:0:
424,286,29363,6,0,L|413:355,1,69.9999978637696,0|0,0:0|0:0,0:0:0:0:
387,165,30061,2,0,L|381:130,1,34.9999989318848,0|0,0:0|0:0,0:0:0:0:
273,81,30409,2,0,L|267:115,1,34.9999989318848,0|0,0:0|0:0,0:0:0:0:
157,166,30758,6,0,L|146:96,1,69.9999978637696,0|0,0:0|0:0,0:0:0:0:
260,128,31281,1,0,0:0:0:0:
154,76,31456,1,0,0:0:0:0:
53,138,31630,2,0,L|48:173,2,34.9999989318848,0|0|0,0:0|0:0|0:0,0:0:0:0:
111,280,32154,2,0,L|105:245,2,34.9999989318848,0|0|0,0:0|0:0|0:0,0:0:0:0:
52,352,32677,1,0,0:0:0:0:
48,172,32851,2,0,L|55:120,1,52.4999983978272,0|0,0:0|0:0,0:0:0:0:
81,104,33200,2,0,L|73:155,1,52.4999983978272,0|0,0:0|0:0,0:0:0:0:
198,150,33549,6,0,L|190:103,1,34.9999989318848
113,57,33898,2,0,L|107:91,1,34.9999989318848
287,2,34247,2,0,L|276:71,1,69.9999978637696
192,115,34770,1,0,0:0:0:0:
364,42,34944,2,0,L|353:111,1,69.9999978637696,0|0,0:0|0:0,0:0:0:0:
458,162,35467,1,0,0:0:0:0:
368,84,35642,2,0,L|363:119,1,34.9999989318848
328,235,35991,2,0,L|333:200,1,34.9999989318848
236,224,36340,54,0,L|231:259,1,34.9999989318848,0|0,0:0|0:0,0:0:0:0:
134,282,36688,2,0,L|139:247,1,34.9999989318848,0|0,0:0|0:0,0:0:0:0:
226,154,37037,2,0,L|235:223,1,69.9999978637696,0|0,0:0|0:0,0:0:0:0:
138,247,37561,2,0,L|143:212,1,34.9999989318848
230,119,37909,2,0,L|225:154,2,34.9999989318848,0|0|0,0:0|0:0|0:0,0:0:0:0:
142,212,38433,1,0,0:0:0:0:
132,122,38607,2,0,L|128:98,1,23.3333326212565,0|0,0:0|0:0,0:0:0:0:
148,83,38781,2,0,L|151:59,1,23.3333326212565,0|0,0:0|0:0,0:0:0:0:
131,34,38956,2,0,L|127:-1,1,34.9999989318848
233,84,39305,6,0,L|229:119,2,34.9999989318848,0|0|0,0:0|0:0|0:0,0:0:0:0:
352,163,39828,2,0,L|345:94,1,69.9999978637696
278,308,40351,1,0,0:0:0:0:
360,233,40526,2,0,L|352:163,1,69.9999978637696,0|0,0:0|0:0,0:0:0:0:
278,308,41049,1,0,0:0:0:0:
193,206,41223,2,0,L|189:241,1,34.9999989318848,0|0,0:0|0:0,0:0:0:0:
267,111,41572,2,0,L|271:146,1,34.9999989318848,0|0,0:0|0:0,0:0:0:0:
269,277,41921,6,0,P|248:272|160:319,2,119.999996337891,0|0|0,0:0|0:0|0:0,0:0:0:0:
358,328,44014,2,0,L|356:218,1,104.999996795654,0|0,0:0|0:0,0:0:0:0:
363,211,44712,5,0,0:0:0:0:
295,160,45061,54,0,P|284:176|282:156,1,50,0|0,0:0|0:0,0:0:0:0:
302,167,45409,2,0,P|275:178|276:149,1,59.9999981689454
304,60,45758,2,0,L|310:109,1,29.9999990844727,0|0,0:0|0:0,0:0:0:0:
239,241,46107,6,0,P|250:256|252:237,1,50,0|0,0:0|0:0,0:0:0:0:
230,249,46455,2,0,P|256:260|255:231,1,59.9999981689454
230,140,46804,2,0,L|224:189,1,29.9999990844727,0|0,0:0|0:0,0:0:0:0:
304,60,47154,2,0,L|310:109,1,29.9999990844727,0|0,0:0|0:0,0:0:0:0:
230,140,47502,6,0,L|220:215,1,59.9999981689454,0|0,0:0|0:0,0:0:0:0:
304,60,47851,2,0,L|310:109,1,29.9999990844727,0|0,0:0|0:0,0:0:0:0:
222,199,48200,2,0,L|216:248,1,29.9999990844727,0|0,0:0|0:0,0:0:0:0:
307,89,48549,2,0,L|313:138,1,29.9999990844727,0|0,0:0|0:0,0:0:0:0:
218,228,48898,5,0,0:0:0:0:
310,118,49072,1,0,0:0:0:0:
230,140,49247,2,0,L|224:189,1,29.9999990844727,0|0,0:0|0:0,0:0:0:0:
307,89,49595,2,0,L|303:59,2,29.9999990844727,0|0|0,0:0|0:0|0:0,0:0:0:0:
226,169,49944,2,0,L|220:218,2,29.9999990844727,0|0|0,0:0|0:0|0:0,0:0:0:0:
304,60,50293,54,0,L|311:121,1,59.9999981689454,0|0,0:0|0:0,0:0:0:0:
226,169,50642,1,0,0:0:0:0:
222,198,50729,2,0,L|230:270,1,59.9999981689454,0|0,0:0|0:0,0:0:0:0:
311,119,51078,1,0,0:0:0:0:
307,148,51165,2,0,L|315:220,1,59.9999981689454,0|0,0:0|0:0,0:0:0:0:
314,207,51427,1,0,0:0:0:0:
314,207,51514,1,0,0:0:0:0:
230,140,51688,6,0,L|222:201,1,59.9999981689454,0|0,0:0|0:0,0:0:0:0:
308,249,52037,1,0,0:0:0:0:
312,278,52124,2,0,L|303:350,1,59.9999981689454,0|0,0:0|0:0,0:0:0:0:
223,199,52473,1,0,0:0:0:0:
227,228,52560,2,0,L|218:300,1,59.9999981689454,0|0,0:0|0:0,0:0:0:0:
215,294,52822,1,0,0:0:0:0:
210,300,52909,1,0,0:0:0:0:
223,199,53258,5,0,0:0:0:0:
318,361,53433,1,0,0:0:0:0:
304,337,53520,2,0,L|312:278,1,59.9999981689454,0|0,0:0|0:0,0:0:0:0:
227,228,53869,1,0,0:0:0:0:
223,199,53956,2,0,L|230:139,1,59.9999981689454,0|0,0:0|0:0,0:0:0:0:
237,133,54217,1,0,0:0:0:0:
244,127,54305,1,0,0:0:0:0:
311,88,54479,5,0,0:0:0:0:
157,64,54654,1,0,0:0:0:0:
223,199,54828,1,0,0:0:0:0:
227,228,54915,2,0,L|219:287,1,59.9999981689454,0|0,0:0|0:0,0:0:0:0:
318,361,55264,1,0,0:0:0:0:
304,337,55351,2,0,L|312:278,1,59.9999981689454,0|0,0:0|0:0,0:0:0:0:
319,272,55613,1,0,0:0:0:0:
326,266,55700,1,0,0:0:0:0:
426,197,55874,5,0,3:0:0:0:
426,283,56049,2,0,B|425:246|425:246|435:213,1,69.9999978637696,0|0,0:0|0:0,0:0:0:0:
302,49,56398,1,0,0:0:0:0:
302,135,56572,2,0,B|303:98|303:98|292:65,1,69.9999978637696,0|0,0:0|0:0,0:0:0:0:
316,153,56921,2,0,L|307:212,1,60,0|0,0:0|0:0,0:0:0:0:
294,229,57270,53,0,0:0:0:0:
294,315,57445,2,0,L|284:245,1,69.9999978637696,0|0,0:0|0:0,0:0:0:0:
168,206,57793,1,0,0:0:0:0:
168,292,57967,2,0,L|177:222,1,69.9999978637696,0|0,0:0|0:0,0:0:0:0:
70,63,58316,2,0,L|68:97,1,34.9999989318848,0|0,0:0|0:0,0:0:0:0:
66,123,58491,2,0,L|64:157,1,34.9999989318848
62,192,58665,5,0,3:0:0:0:
63,279,58840,2,0,P|74:243|72:209,1,69.9999978637696,0|0,0:0|0:0,0:0:0:0:
206,155,59188,1,0,0:0:0:0:
206,241,59363,2,0,P|195:205|196:171,1,69.9999978637696,0|0,0:0|0:0,0:0:0:0:
123,41,59712,2,0,L|114:100,1,60,0|0,0:0|0:0,0:0:0:0:
123,118,60061,5,0,0:0:0:0:
123,204,60236,2,0,B|122:165|122:165|132:134,1,69.9999978637696,0|0,0:0|0:0,0:0:0:0:
288,87,60584,1,0,0:0:0:0:
288,173,60759,2,0,B|289:134|289:134|278:103,1,69.9999978637696,0|0,0:0|0:0,0:0:0:0:
214,229,61107,2,0,P|246:258|319:262,1,104.999996795654,0|0,0:0|0:0,0:0:0:0:
377,205,61456,5,0,3:0:0:0:
405,121,61630,2,0,B|407:167|407:167|387:201,1,69.9999978637696,0|0,0:0|0:0,0:0:0:0:
505,315,61979,1,0,0:0:0:0:
477,231,62153,2,0,B|475:277|475:277|495:311,1,69.9999978637696,0|0,0:0|0:0,0:0:0:0:
416,45,62502,1,0,0:0:0:0:
416,73,62590,1,0,0:0:0:0:
416,100,62677,1,0,0:0:0:0:
295,259,62851,54,0,L|292:211,1,34.9999989318848,0|0,0:0|0:0,0:0:0:0:
270,138,63026,2,0,P|281:181|268:220,1,69.9999978637696,0|0,0:0|0:0,0:0:0:0:
389,338,63374,2,0,L|392:290,1,34.9999989318848,0|0,0:0|0:0,0:0:0:0:
414,217,63549,2,0,P|403:260|416:299,1,69.9999978637696,0|0,0:0|0:0,0:0:0:0:
382,104,63898,2,0,L|381:49,1,34.9999989318848,0|0,0:0|0:0,0:0:0:0:
270,138,64072,2,0,L|269:83,1,34.9999989318848,0|0,0:0|0:0,0:0:0:0:
308,242,64247,6,0,P|254:217|195:221,1,100,0|0,3:0|0:0,0:0:0:0:
349,384,64595,2,0,P|353:350|348:327,1,50,0|0,3:0|3:0,0:0:0:0:
149,276,64770,1,0,0:0:0:0:
110,286,64857,1,0,0:0:0:0:
71,276,64944,2,0,B|41:268|41:268|15:268,1,50,0|0,3:0|0:0,0:0:0:0:
152,180,65119,2,0,B|122:188|122:188|96:188,1,50,0|0,0:0|0:0,0:0:0:0:
233,230,65293,1,0,3:0:0:0:
308,121,65467,2,0,P|312:154|311:196,1,50,0|0,0:0|0:0,0:0:0:0:
390,305,65642,6,0,P|388:245|394:192,1,100,0|0,3:0|0:0,0:0:0:0:
345,36,65991,2,0,P|312:46|294:47,1,50,0|0,3:0|0:0,0:0:0:0:
396,70,66165,2,0,P|363:60|345:59,1,50,0|0,3:0|0:0,0:0:0:0:
215,62,66340,2,0,B|164:70|164:70|112:62,1,100,0|0,3:0|3:0,0:0:0:0:
16,2,66688,6,0,P|99:65|44:153,1,225.000008583069,0|0,3:0|0:0,0:0:0:0:
16,244,67037,6,0,P|62:230|128:235,1,112.500004291535,0|0,3:0|0:0,0:0:0:0:
258,257,67386,6,0,L|247:342,1,75.0000028610231,8|0,0:0|0:0,0:0:0:0:
333,194,67561,2,0,L|322:109,1,75.0000028610231,0|0,0:0|0:0,0:0:0:0:
246,264,67735,2,0,L|235:349,1,75.0000028610231,0|0,0:0|0:0,0:0:0:0:
336,102,67909,1,0,3:0:0:0:
323,281,68084,86,0,L|408:292,1,75.0000028610231,8|0,0:0|0:0,0:0:0:0:
245,184,68259,2,0,L|160:195,1,75.0000028610231,0|0,0:0|0:0,0:0:0:0:
403,298,68433,1,0,3:0:0:0:
346,177,68607,2,0,L|335:92,1,75.0000028610231,0|0,0:0|0:0,0:0:0:0:
233,363,68781,6,0,L|246:255,1,100,8|0,0:0|0:0,0:0:0:0:
113,131,69043,1,0,3:0:0:0:
113,131,69130,2,0,P|88:187|93:219,1,50,0|0,3:0|0:0,0:0:0:0:
341,169,69305,1,0,3:0:0:0:
346,177,69479,70,0,B|286:161|237:208|171:150,1,150,8|0,3:2|0:0,0:0:0:0:
89,174,69828,6,0,P|139:137|199:174,1,112.500004291535,0|0,3:0|0:0,0:0:0:0:
193,310,70177,6,0,L|94:298,1,75.0000028610231,8|0,0:0|0:0,0:0:0:0:
316,245,70351,2,0,L|390:235,1,75.0000028610231,0|0,0:0|0:0,0:0:0:0:
176,322,70526,2,0,L|77:310,1,75.0000028610231,0|0,0:0|0:0,0:0:0:0:
401,251,70700,1,0,3:0:0:0:
196,237,70874,70,0,L|209:164,1,75.0000028610231,8|0,0:0|0:0,0:0:0:0:
311,255,71049,2,0,L|324:329,1,75.0000028610231,0|0,0:0|0:0,0:0:0:0:
201,153,71223,1,0,3:0:0:0:
161,334,71398,2,0,L|62:322,1,75.0000028610231,0|0,0:0|0:0,0:0:0:0:
410,267,71572,6,0,L|308:254,1,100,8|0,0:0|0:0,0:0:0:0:
179,318,71834,1,0,3:0:0:0:
161,334,71921,6,0,P|55:315|102:244,1,225.000008583069,0|0,3:0|0:0,0:0:0:0:
96,240,72270,2,0,B|63:225|36:284|98:289|148:253|148:253|198:222|247:230|274:274,1,225.000008583069,8|0,3:2|0:0,0:0:0:0:
296,342,72619,70,0,P|248:358|209:306,1,112.500004291535,0|0,3:0|0:0,0:0:0:0:
339,185,72967,6,0,L|326:275,1,75.0000028610231,8|0,0:0|0:0,0:0:0:0:
421,104,73142,2,0,L|410:29,1,75.0000028610231,0|0,0:0|0:0,0:0:0:0:
319,197,73316,2,0,L|306:287,1,75.0000028610231,0|0,0:0|0:0,0:0:0:0:
396,21,73491,1,0,3:0:0:0:
415,192,73665,6,0,L|492:210,1,75.0000028610231,8|0,0:0|0:0,0:0:0:0:
307,109,73840,2,0,L|230:127,1,75.0000028610231,0|0,0:0|0:0,0:0:0:0:
492,225,74014,1,0,3:0:0:0:
319,197,74188,2,0,L|306:287,1,75.0000028610231,0|0,0:0|0:0,0:0:0:0:
364,57,74363,70,0,P|315:67|266:21,1,100,8|0,0:0|0:0,0:0:0:0:
128,49,74624,1,0,3:0:0:0:
132,53,74712,2,0,P|154:78|161:100,1,50,0|0,3:0|0:0,0:0:0:0:
74,287,74886,1,0,3:0:0:0:
68,292,75061,6,0,P|100:305|159:290,1,75.0000028610231,8|0,3:2|0:0,0:0:0:0:
216,216,75235,2,0,P|232:212|299:230,1,75.0000028610231,0|0,3:0|0:0,0:0:0:0:
399,322,75409,54,0,L|392:227,1,75.0000028610231,0|0,3:0|0:0,0:0:0:0:
440,175,75671,1,0,3:0:0:0:
457,192,75758,1,8,0:3:0:0:
216,215,75933,6,0,P|234:211|253:211,1,37.5000014305115,0|0,0:0|0:0,0:0:0:0:
328,246,76107,2,0,P|346:250|365:250,1,37.5000014305115,0|0,0:0|0:0,0:0:0:0:
440,175,76281,1,8,0:3:0:0:
178,205,76456,86,0,P|196:209|215:209,1,37.5000014305115
228,56,76630,2,0,P|209:51|190:51,1,37.5000014305115,0|0,0:0|0:0,0:0:0:0:
205,129,76805,5,0,0:0:0:0:
228,135,76892,2,0,B|255:143|255:143|332:135,1,75.0000028610231,8|0,0:3|0:0,0:0:0:0:
232,217,77154,6,0,B|248:282|248:282|229:343,1,112.500004291535,8|0,0:3|0:0,0:0:0:0:
296,358,77328,2,0,L|276:282,1,75.0000028610231,8|0,0:3|0:0,0:0:0:0:
292,276,77502,6,0,P|318:269|349:275,1,33.3333333333333
457,275,77851,6,0,P|426:288|365:276,1,75
404,143,78200,70,0,P|381:174|440:166,1,112.500004291535,0|0,3:0|0:0,0:0:0:0:
304,82,78549,6,0,P|336:63|373:57,1,75.0000028610231,8|0,0:0|0:0,0:0:0:0:
211,149,78723,2,0,P|178:167|141:173,1,75.0000028610231,0|0,0:0|0:0,0:0:0:0:
319,90,78898,2,0,P|354:80|392:84,1,75.0000028610231,0|0,0:0|0:0,0:0:0:0:
133,161,79072,1,0,3:0:0:0:
300,163,79247,6,0,P|318:195|324:232,1,75.0000028610231,8|0,0:0|0:0,0:0:0:0:
232,70,79421,2,0,P|213:37|207:0,1,75.0000028610231,0|0,0:0|0:0,0:0:0:0:
317,241,79595,1,0,3:0:0:0:
185,146,79770,2,0,P|149:155|111:151,1,75.0000028610231,0|0,0:0|0:0,0:0:0:0:
22,139,79944,70,0,B|56:182|56:182|60:227,1,100,8|0,0:0|0:0,0:0:0:0:
51,309,80206,1,0,3:0:0:0:
57,315,80293,2,0,P|92:330|126:325,1,50,0|0,3:0|0:0,0:0:0:0:
180,157,80467,1,0,3:0:0:0:
185,146,80642,6,0,P|219:132|256:137,1,75.0000028610231,8|0,0:0|0:0,0:0:0:0:
333,221,80816,2,0,P|369:225|405:214,1,75.0000028610231,0|0,3:0|0:0,0:0:0:0:
367,28,80991,6,0,P|341:73|364:137,1,112.500004291535,0|0,3:0|0:0,0:0:0:0:
333,221,81340,70,0,L|344:306,1,75.0000028610231,8|0,0:0|0:0,0:0:0:0:
258,158,81515,2,0,L|269:73,1,75.0000028610231,0|0,0:0|0:0,0:0:0:0:
345,228,81689,2,0,L|356:313,1,75.0000028610231,0|0,0:0|0:0,0:0:0:0:
260,71,81863,1,0,3:0:0:0:
268,245,82038,6,0,L|183:256,1,75.0000028610231,8|0,0:0|0:0,0:0:0:0:
346,148,82213,2,0,L|431:159,1,75.0000028610231,0|0,0:0|0:0,0:0:0:0:
188,262,82387,1,0,3:0:0:0:
245,141,82561,2,0,L|256:56,1,75.0000028610231,0|0,0:0|0:0,0:0:0:0:
277,265,82735,6,0,P|231:282|187:261,1,100,8|0,0:0|0:0,0:0:0:0:
230,128,82997,1,0,3:0:0:0:
245,141,83084,2,0,P|195:165|169:154,1,50,0|0,3:0|0:0,0:0:0:0:
127,59,83258,1,0,3:0:0:0:
113,51,83433,70,0,P|140:110|104:188,1,150,8|0,0:0|0:0,0:0:0:0:
117,289,83781,6,0,P|123:238|178:224,1,112.500004291535,0|0,3:0|0:0,0:0:0:0:
324,283,84130,6,0,L|233:307,1,75.0000028610231,8|0,0:0|0:0,0:0:0:0:
418,227,84305,2,0,L|509:251,1,75.0000028610231,0|0,0:0|0:0,0:0:0:0:
311,268,84479,2,0,L|220:292,1,75.0000028610231,0|0,0:0|0:0,0:0:0:0:
498,259,84654,1,0,3:0:0:0:
323,182,84828,70,0,P|342:139|334:86,1,75.0000028610231,8|0,0:0|0:0,0:0:0:0:
392,313,85002,2,0,P|373:356|381:409,1,75.0000028610231,0|0,0:0|0:0,0:0:0:0:
333,102,85177,1,0,3:0:0:0:
490,246,85351,6,0,L|418:227,1,75.0000028610231,0|0,0:0|0:0,0:0:0:0:
141,296,85526,2,0,B|183:304|183:304|238:287,1,100,8|0,0:0|0:0,0:0:0:0:
317,173,85787,1,0,3:0:0:0:
307,185,85874,2,0,P|291:218|291:255,1,50,0|0,3:0|0:0,0:0:0:0:
501,239,86049,1,0,3:0:0:0:
508,233,86223,6,0,B|442:257|442:257|387:228|387:228|341:245,1,150,8|0,0:0|0:0,0:0:0:0:
221,257,86572,1,4,3:1:0:0:
122,248,86921,38,0,L|221:257,1,100,0|0,0:0|0:0,0:0:0:0:
128,261,87444,2,0,L|221:269,1,87.5,8|0,0:3|0:0,0:0:0:0:
289,282,87793,2,0,B|301:276|301:276|205:267,1,100,0|0,0:0|0:0,0:0:0:0:
128,261,88229,1,0,0:0:0:0:
122,248,88316,2,0,L|146:250,1,25,0|0,0:0|0:0,0:0:0:0:
289,282,88491,6,0,P|312:272|323:243,1,50
330,169,88752,2,0,P|327:193|346:217,1,50,0|0,0:0|0:0,0:0:0:0:
454,227,89014,2,0,P|437:197|404:174,1,75,0|0,0:0|0:0,0:0:0:0:
256,159,89363,6,0,B|175:174|175:174|113:159|113:159|34:173,1,225.000008583069,0|0,3:0|0:0,0:0:0:0:
185,70,89712,2,0,L|258:57,1,75.0000028610231,8|0,0:0|0:0,0:0:0:0:
111,250,89886,6,0,L|37:262,1,75.0000028610231,0|0,0:0|0:0,0:0:0:0:
192,55,90061,2,0,B|230:54|230:54|265:42,1,75.0000028610231,0|0,0:0|0:0,0:0:0:0:
113,160,90235,1,0,3:0:0:0:
229,227,90409,2,0,B|236:189|236:189|254:156,1,75.0000028610231,8|0,0:0|0:0,0:0:0:0:
121,146,90584,1,0,0:0:0:0:
377,149,90758,6,0,P|303:172|244:151,1,129.999994049073,0|0,3:0|0:0,0:0:0:0:
268,282,91020,1,0,0:0:0:0:
278,294,91107,2,0,P|284:261|297:241,1,50,8|0,0:0|0:0,0:0:0:0:
315,73,91281,1,0,0:0:0:0:
254,157,91456,2,0,P|287:215|293:262,1,100,0|0,0:0|3:0,0:0:0:0:
200,362,91805,70,0,B|171:329|170:291|184:261|184:261|196:229|169:209|137:237|160:263,1,194.999991073609,8|0,0:0|0:0,0:0:0:0:
276,227,92154,6,0,B|308:217|329:228|329:228|356:239|398:229,1,112.500004291535,0|0,3:0|0:0,0:0:0:0:
481,161,92502,1,8,0:0:0:0:
465,178,92677,6,0,L|471:248,1,50,0|0,0:0|0:0,0:0:0:0:
380,103,92851,2,0,L|387:16,1,75.0000028610231,0|0,0:0|0:0,0:0:0:0:
276,227,93026,1,0,3:0:0:0:
396,119,93200,2,0,L|404:19,1,100,8|0,0:0|0:0,0:0:0:0:
257,214,93549,69,0,3:0:0:0:
235,202,93723,2,0,P|228:168|235:137,1,64.9999970245363,0|0,0:0|0:0,0:0:0:0:
274,56,93898,2,0,P|223:100|152:93,1,129.999994049073,8|0,0:0|0:0,0:0:0:0:
356,151,94159,1,0,3:0:0:0:
344,130,94247,2,0,P|355:84|373:52,1,75.0000028610231,0|0,3:0|0:0,0:0:0:0:
235,202,94421,2,0,P|224:248|206:280,1,75.0000028610231,0|0,3:0|0:0,0:0:0:0:
330,113,94595,6,0,B|341:65|367:36|367:36|393:27,1,112.500004291535,8|0,0:0|0:0,0:0:0:0:
478,45,94944,6,0,B|500:67|500:67|522:115|499:190|499:190|495:145|461:121,1,225.000008583069,0|0,3:0|0:0,0:0:0:0:
330,113,95293,1,8,0:0:0:0:
367,194,95467,70,0,P|392:189|416:194,1,50
320,300,95642,2,0,B|285:306|285:306|234:299,1,75.0000028610231,0|0,0:0|0:0,0:0:0:0:
206,208,95816,1,0,3:0:0:0:
68,365,95991,2,0,B|103:359|103:359|154:366,1,75.0000028610231,8|0,0:0|0:0,0:0:0:0:
206,208,96165,2,0,B|171:214|171:214|120:207,1,75.0000028610231,0|0,0:0|0:0,0:0:0:0:
320,300,96340,5,0,3:0:0:0:
48,229,96514,2,0,P|49:197|61:167,1,64.9999970245363,0|0,0:0|0:0,0:0:0:0:
139,128,96688,2,0,P|148:64|120:6,1,129.999994049073,8|0,0:0|0:0,0:0:0:0:
206,208,97037,6,0,L|280:201,1,75.0000028610231,0|0,0:0|0:0,0:0:0:0:
485,172,97212,1,0,3:0:0:0:
437,110,97386,2,0,B|396:149|402:206|445:239|445:239|401:211|340:242,1,225.000008583069,8|0,0:0|0:0,0:0:0:0:
292,283,97735,38,0,P|230:298|174:293,1,100,0|0,3:0|0:0,0:0:0:0:
107,248,97997,1,0,3:0:0:0:
91,228,98084,2,0,P|88:199|93:167,1,50,8|0,3:2|0:0,0:0:0:0:
0,145,98258,1,0,3:0:0:0:
16,124,98345,2,0,P|19:99|16:74,1,50,0|0,3:0|0:0,0:0:0:0:
176,69,98520,1,8,3:0:0:0:
162,86,98607,2,0,L|86:89,1,50,0|0,3:0|0:0,0:0:0:0:
258,29,98781,6,0,B|273:51|273:51|268:113,1,64.9999970245363,8|0,0:0|0:0,0:0:0:0:
382,149,98956,2,0,B|379:111|379:111|394:89,1,64.9999970245363,0|0,3:0|0:0,0:0:0:0:
270,206,99130,86,0,B|276:263|276:263|271:288|271:288|280:345,1,129.999994049073,0|0,3:0|0:0,0:0:0:0:
156,182,99392,1,0,3:0:0:0:
179,188,99479,2,0,L|188:277,1,64.9999970245363,8|0,3:2|0:0,0:0:0:0:
366,360,99654,1,0,3:0:0:0:
357,338,99741,1,0,3:0:0:0:
354,316,99828,2,0,P|426:319|491:268,1,150.000005722046,0|0,0:0|3:0,0:0:0:0:
486,19,100177,6,0,L|476:93,1,75.0000028610231,8|0,0:0|0:0,0:0:0:0:
386,139,100351,2,0,L|395:213,1,75.0000028610231,0|0,3:0|0:0,0:0:0:0:
492,365,100526,6,0,B|460:326|410:318|354:316|354:316|431:316|475:268,1,225.000008583069,0|0,3:0|0:0,0:0:0:0:
208,284,100874,2,0,P|260:306|298:310,1,75.0000028610231,8|0,0:0|0:0,0:0:0:0:
108,337,101049,5,0,0:0:0:0:
108,337,101136,1,0,0:0:0:0:
108,337,101223,2,0,L|114:262,1,75.0000028610231,0|0,0:0|0:0,0:0:0:0:
163,49,101398,2,0,L|156:123,1,75.0000028610231,0|0,3:0|0:0,0:0:0:0:
123,345,101572,1,8,0:0:0:0:
181,65,101747,2,0,L|174:139,1,75.0000028610231,0|0,0:0|0:0,0:0:0:0:
17,191,101921,5,0,3:0:0:0:
193,158,102095,2,0,P|229:165|266:160,1,64.9999970245363,0|0,0:0|0:0,0:0:0:0:
376,119,102270,2,0,P|330:178|359:263,1,129.999994049073,8|0,0:0|0:0,0:0:0:0:
444,368,102619,70,0,P|440:328|442:286,1,75.0000028610231,0|0,0:0|0:0,0:0:0:0:
500,78,102793,2,0,L|498:160,1,75.0000028610231,0|0,3:0|0:0,0:0:0:0:
424,364,102967,2,0,B|414:311|425:268|425:268|411:309|386:333,1,150.000005722046,8|0,0:0|0:0,0:0:0:0:
226,279,103316,6,0,P|273:343|418:273,1,225.000008583069,0|0,3:0|0:0,0:0:0:0:
255,181,103665,2,0,P|201:179|171:189,1,75.0000028610231,8|0,0:0|0:0,0:0:0:0:
321,258,103840,6,0,P|363:224|380:197,1,75.0000028610231
413,25,104014,2,0,L|416:116,1,75.0000028610231,0|0,0:0|0:0,0:0:0:0:
432,275,104188,1,0,3:0:0:0:
453,289,104363,2,0,L|456:198,1,75.0000028610231,8|0,0:0|0:0,0:0:0:0:
437,12,104537,2,0,L|440:103,1,75.0000028610231,0|0,0:0|0:0,0:0:0:0:
474,302,104712,70,0,B|428:354|428:354|376:334|376:334|340:347,1,150.000005722046,0|0,0:0|0:0,0:0:0:0:
258,379,104973,1,0,3:0:0:0:
276,363,105061,2,0,B|260:299|260:299|277:227,1,129.999994049073,8|0,0:0|0:0,0:0:0:0:
327,92,105322,1,0,3:0:0:0:
307,84,105409,2,0,P|266:49|234:41,1,75.0000028610231,0|0,3:0|0:0,0:0:0:0:
151,64,105584,1,0,3:0:0:0:
135,76,105758,6,0,L|111:193,1,112.500004291535,8|0,0:0|0:0,0:0:0:0:
43,237,106107,6,0,B|77:287|146:280|181:245|181:245|205:219|253:222,1,225.000008583069,0|0,3:0|0:0,0:0:0:0:
512,236,106456,2,0,L|423:233,1,75.0000028610231,8|0,0:0|0:0,0:0:0:0:
234,206,106630,70,0,L|323:209,1,75.0000028610231,0|0,0:0|0:0,0:0:0:0:
429,60,106805,2,0,B|432:101|432:101|418:154,1,75.0000028610231,0|0,0:0|0:0,0:0:0:0:
334,316,106979,1,0,3:0:0:0:
320,300,107153,2,0,B|317:259|317:259|325:226,1,75.0000028610231,8|0,0:0|0:0,0:0:0:0:
409,44,107328,2,0,B|412:85|412:85|403:117,1,75.0000028610231,0|0,0:0|0:0,0:0:0:0:
506,223,107502,5,0,3:0:0:0:
273,108,107677,2,0,P|235:113|196:103,1,64.9999970245363,0|0,0:0|0:0,0:0:0:0:
135,51,107851,2,0,P|65:38|3:59,1,129.999994049073,8|0,0:0|0:0,0:0:0:0:
105,223,108113,5,0,3:0:0:0:
121,210,108200,2,0,P|116:172|126:133,1,64.9999970245363,0|0,3:0|0:0,0:0:0:0:
249,284,108374,1,0,3:0:0:0:
236,265,108549,2,0,B|257:217|264:183|240:154|240:154|220:169|224:203,1,150,8|0,0:0|0:0,0:0:0:0:
335,216,108898,38,0,P|376:223|422:219,1,69.9999978637696,0|0,3:0|0:0,0:0:0:0:
512,74,109247,2,0,P|482:129|490:171,1,104.999996795654
389,40,109770,2,0,P|382:84|414:153,1,104.999996795654,0|0,0:0|0:0,0:0:0:0:
421,142,110119,2,0,P|371:130|341:137,1,69.9999978637696,0|0,0:0|0:0,0:0:0:0:
353,132,110816,2,0,P|326:135|305:134,1,34.9999989318848,0|0,0:0|0:0,0:0:0:0:
216,111,110991,5,0,3:3:0:0:
197,101,111078,1,0,0:0:0:0:
183,85,111165,1,0,0:0:0:0:
174,65,111252,1,0,0:0:0:0:
149,1,111340,85,0,3:0:0:0:
146,35,111427,1,0,0:0:0:0:
144,69,111514,1,0,0:0:0:0:
142,103,111601,1,0,0:0:0:0:
90,174,111688,22,0,P|132:191|206:165,1,112.500004291535,0|0,3:0|0:0,0:0:0:0:
253,51,112037,1,8,0:0:0:0:
76,163,112212,6,0,P|70:218|79:257,1,75.0000028610231
217,247,112386,2,0,L|134:288,1,75.0000028610231
147,364,112561,2,0,P|150:326|143:289,1,75.0000028610231,0|0,3:0|0:0,0:0:0:0:
76,245,112735,1,8,0:0:0:0:
115,94,112909,6,0,P|83:78|29:83,1,75.0000028610231,0|0,0:0|0:0,0:0:0:0:
189,151,113084,2,0,P|221:167|275:162,1,75.0000028610231,0|0,3:0|0:0,0:0:0:0:
352,112,113258,2,0,P|384:96|438:101,1,75.0000028610231,0|0,0:0|0:0,0:0:0:0:
474,214,113433,70,0,L|459:295,1,50,4|0,3:2|0:0,0:0:0:0:
380,221,113607,2,0,L|365:302,1,50,4|0,0:0|0:0,0:0:0:0:
430,104,113781,1,0,0:0:0:0:
436,113,113869,1,0,0:0:0:0:
440,121,113956,1,0,3:0:0:0:
365,282,114130,6,0,L|380:363,1,50,12|0,0:0|0:0,0:0:0:0:
459,289,114304,2,0,L|474:370,1,50,4|0,0:0|0:0,0:0:0:0:
445,131,114479,6,0,P|390:160|327:124,1,112.500004291535,0|0,3:0|0:0,0:0:0:0:
272,64,114828,1,8,0:0:0:0:
456,132,115002,70,0,P|457:174|430:212,1,75.0000028610231,0|0,0:0|0:0,0:0:0:0:
283,245,115177,2,0,P|318:223|365:227,1,75.0000028610231,0|0,0:0|0:0,0:0:0:0:
468,338,115351,2,0,P|431:317|411:275,1,75.0000028610231,0|0,3:0|0:0,0:0:0:0:
455,132,115526,6,0,P|419:141|382:142,1,75.0000028610231,8|0,0:0|0:0,0:0:0:0:
271,63,115700,2,0,P|235:54|198:53,1,75.0000028610231,0|0,0:0|0:0,0:0:0:0:
108,123,115874,1,0,3:0:0:0:
446,101,116049,1,0,3:0:0:0:
455,116,116136,1,0,3:0:0:0:
455,132,116223,6,0,P|419:141|383:142,1,50,8|0,0:0|0:0,0:0:0:0:
283,27,116398,1,0,0:0:0:0:
277,45,116485,1,0,3:0:0:0:
271,63,116572,2,0,L|289:138,1,50,0|0,3:0|0:0,0:0:0:0:
108,123,116747,1,0,3:0:0:0:
196,178,116921,70,0,B|177:222|72:268|10:229|-25:88|124:60|113:160,1,300,8|0,0:0|0:0,0:0:0:0:
209,169,117270,6,0,P|270:168|324:217,1,112.500004291535,0|0,3:0|0:0,0:0:0:0:
238,263,117619,1,8,0:0:0:0:
432,310,117793,6,0,P|417:245|427:207,1,75.0000028610231,0|0,0:0|0:0,0:0:0:0:
351,114,117967,2,0,L|427:157,1,75.0000028610231,0|0,0:0|0:0,0:0:0:0:
446,83,118141,2,0,P|431:148|441:186,1,75.0000028610231,0|0,3:0|0:0,0:0:0:0:
502,262,118316,1,8,0:0:0:0:
447,71,118491,70,0,P|487:81|525:76,1,75.0000028610231,0|0,0:0|0:0,0:0:0:0:
348,111,118665,2,0,P|311:127|268:118,1,75.0000028610231,0|0,3:0|0:0,0:0:0:0:
195,83,118840,2,0,P|158:67|115:76,1,75.0000028610231,0|0,0:0|0:0,0:0:0:0:
38,214,119014,6,0,L|53:295,1,50,4|0,3:2|0:0,0:0:0:0:
132,221,119188,2,0,L|147:302,1,50,4|0,0:0|0:0,0:0:0:0:
113,80,119362,1,0,0:0:0:0:
107,89,119450,1,0,0:0:0:0:
103,97,119537,1,0,3:0:0:0:
147,282,119711,6,0,L|132:363,1,50,12|0,0:0|0:0,0:0:0:0:
53,289,119885,2,0,L|38:370,1,50,4|0,0:0|0:0,0:0:0:0:
95,109,120061,70,0,P|128:158|164:169,1,75.0000028610231,0|0,3:0|0:0,0:0:0:0:
209,64,120322,1,0,3:0:0:0:
209,64,120409,2,0,P|209:123|234:151,1,64.9999970245363,8|0,0:0|0:0,0:0:0:0:
334,209,120584,5,0,3:0:0:0:
334,209,120671,2,0,P|282:180|245:186,1,64.9999970245363,0|0,3:0|0:0,0:0:0:0:
145,243,120846,1,0,3:0:0:0:
145,243,120933,2,0,P|195:212|208:177,1,64.9999970245363,0|0,3:0|0:0,0:0:0:0:
209,64,121107,5,8,0:0:0:0:
337,200,121281,2,0,P|285:171|248:177,1,64.9999970245363,0|0,0:0|0:0,0:0:0:0:
135,238,121456,1,0,3:0:0:0:
209,64,121630,69,0,0:0:0:0:
203,95,121717,1,0,3:0:0:0:
211,126,121805,2,0,P|226:152|280:164,1,64.9999970245363,8|0,0:0|0:0,0:0:0:0:
325,259,121979,5,0,3:0:0:0:
325,259,122066,2,0,P|339:234|323:181,1,64.9999970245363,0|0,3:0|0:0,0:0:0:0:
383,95,122241,1,0,3:0:0:0:
383,95,122328,2,0,P|354:94|316:135,1,64.9999970245363,0|0,3:0|0:0,0:0:0:0:
257,166,122502,6,0,P|228:154|292:35,1,194.999991073609,8|0,3:2|0:0,0:0:0:0:
123,83,122851,70,0,P|154:129|136:190,1,112.500004291535,0|0,3:0|0:0,0:0:0:0:
2,195,123200,1,8,0:0:0:0:
49,326,123374,6,0,P|93:306|152:314,1,75.0000028610231
225,193,123549,2,0,L|205:274,1,75.0000028610231,0|0,0:0|0:0,0:0:0:0:
349,314,123723,2,0,P|285:334|248:318,1,75.0000028610231,0|0,3:0|0:0,0:0:0:0:
49,283,123898,2,0,P|93:303|152:295,1,75.0000028610231,8|0,0:0|0:0,0:0:0:0:
207,265,124072,2,0,P|246:237|270:182,1,75.0000028610231
496,250,124247,2,0,P|473:220|441:200,1,75.0000028610231,0|0,3:0|0:0,0:0:0:0:
348,175,124421,2,0,P|310:178|277:196,1,75.0000028610231
337,280,124595,86,0,L|346:337,1,50,4|0,3:2|0:0,0:0:0:0:
421,286,124770,2,0,L|430:343,1,50,4|0,0:0|0:0,0:0:0:0:
363,190,124944,1,0,0:0:0:0:
363,190,125031,1,0,0:0:0:0:
363,190,125119,1,0,3:0:0:0:
327,330,125293,6,0,L|318:387,1,50,12|0,0:0|0:0,0:0:0:0:
245,334,125468,2,0,L|236:391,1,50,4|0,0:0|0:0,0:0:0:0:
106,248,125642,6,0,P|151:277|223:250,1,112.500004291535,0|0,3:0|0:0,0:0:0:0:
306,137,125991,1,8,0:0:0:0:
425,306,126165,70,0,P|426:264|399:226,1,75.0000028610231,0|0,0:0|0:0,0:0:0:0:
252,193,126340,2,0,P|287:215|334:211,1,75.0000028610231,0|0,0:0|0:0,0:0:0:0:
437,100,126514,2,0,P|400:121|380:163,1,75.0000028610231,0|0,3:0|0:0,0:0:0:0:
424,306,126689,6,0,P|388:297|351:296,1,75.0000028610231,8|0,0:0|0:0,0:0:0:0:
240,375,126863,2,0,P|204:384|167:385,1,75.0000028610231,0|0,0:0|0:0,0:0:0:0:
77,315,127037,1,0,3:0:0:0:
280,325,127212,5,0,0:0:0:0:
268,355,127299,1,0,3:0:0:0:
240,375,127386,2,0,P|213:315|224:266,1,100,8|0,0:0|0:0,0:0:0:0:
296,172,127648,1,0,3:0:0:0:
322,188,127735,2,0,P|293:212|262:211,1,50,0|0,3:0|0:0,0:0:0:0:
151,144,127909,1,0,3:0:0:0:
397,140,128084,70,0,B|366:95|306:79|240:136|240:136|184:179|120:137,1,262.500002503395,0|0,3:0|0:0,0:0:0:0:
70,71,128433,6,0,P|134:56|184:86,1,112.500004291535,0|0,3:0|0:0,0:0:0:0:
322,188,128781,1,8,0:0:0:0:
465,187,128956,6,0,P|421:207|362:199,1,75.0000028610231,0|0,0:0|0:0,0:0:0:0:
293,355,129131,2,0,L|313:274,1,75.0000028610231,0|0,0:0|0:0,0:0:0:0:
165,199,129305,2,0,P|229:179|266:195,1,75.0000028610231,0|0,3:0|0:0,0:0:0:0:
464,235,129480,2,0,P|420:215|361:223,1,75.0000028610231,8|0,0:0|0:0,0:0:0:0:
301,239,129654,2,0,P|261:266|237:321,1,75.0000028610231,0|0,0:0|0:0,0:0:0:0:
18,263,129829,2,0,P|40:292|72:312,1,75.0000028610231,0|0,3:0|0:0,0:0:0:0:
166,338,130003,2,0,P|203:334|236:316,1,75.0000028610231,0|0,0:0|0:0,0:0:0:0:
194,154,130177,86,0,L|200:209,1,50,4|0,3:2|0:0,0:0:0:0:
114,144,130351,1,4,0:0:0:0:
116,168,130438,1,0,0:0:0:0:
119,193,130526,2,0,L|125:248,1,50,0|0,0:0|0:0,0:0:0:0:
162,74,130700,1,0,3:0:0:0:
326,207,130874,6,0,L|320:262,1,50,12|0,0:0|0:0,0:0:0:0:
401,246,131049,2,0,L|395:301,1,50,4|0,0:0|0:0,0:0:0:0:
322,345,131223,86,0,L|337:338,60,9.37500035762788,0|0|0|0|0|0|0|0|0|0|0|0|0|0|0|0|0|0|0|0|0|0|0|0|0|0|0|0|0|0|0|0|0|0|0|0|0|0|0|0|0|0|0|0|0|0|0|0|0|0|0|0|0|0|0|0|0|0|0|0|0,0:0|0:0|0:0|0:0|0:0|0:0|0:0|0:0|0:0|0:0|0:0|0:0|0:0|0:0|0:0|0:0|0:0|0:0|0:0|0:0|0:0|0:0|0:0|0:0|0:0|0:0|0:0|0:0|0:0|0:0|0:0|0:0|0:0|0:0|0:0|0:0|0:0|0:0|0:0|0:0|0:0|0:0|0:0|0:0|0:0|0:0|0:0|0:0|0:0|0:0|0:0|0:0|0:0|0:0|0:0|0:0|0:0|0:0|0:0|0:0|0:0,0:0:0:0:
416,276,132619,6,0,L|339:269,1,75,0|0,3:0|0:0,0:0:0:0:
320,268,132793,2,0,L|324:320,1,50,0|0,0:0|0:0,0:0:0:0:
425,268,132967,70,0,L|348:261,1,75,0|0,3:0|0:0,0:0:0:0:
307,259,133141,2,0,L|311:311,1,50,0|0,0:0|0:0,0:0:0:0:
434,260,133316,6,0,L|357:253,1,75,0|0,3:0|0:0,0:0:0:0:
294,250,133491,2,0,L|298:302,1,50,0|0,0:0|0:0,0:0:0:0:
443,252,133665,6,0,L|366:245,1,75,0|0,3:0|0:0,0:0:0:0:
281,241,133840,2,0,L|285:293,1,50,0|0,0:0|0:0,0:0:0:0:
452,244,134014,70,0,L|471:126,1,120,0|0,3:0|0:0,0:0:0:0:
301,171,134363,6,0,P|342:163|399:127,1,75.0000028610231,2|0,0:0|0:0,0:0:0:0:
190,252,134537,1,2,0:0:0:0:
191,229,134624,1,0,0:0:0:0:
190,206,134712,2,0,P|153:185|86:176,1,75.0000028610231,2|0,0:0|0:0,0:0:0:0:
372,124,134886,1,0,3:0:0:0:
178,37,135061,6,0,P|178:78|204:141,1,75.0000028610231,2|0,3:2|0:0,0:0:0:0:
28,170,135235,1,2,0:0:0:0:
33,148,135322,1,0,0:0:0:0:
29,130,135409,2,0,P|64:108|106:55,1,75.0000028610231,2|0,0:0|0:0,0:0:0:0:
265,147,135584,1,0,3:0:0:0:
425,62,135758,70,0,P|411:135|432:206,1,150.000005722046,10|0,0:0|0:0,0:0:0:0:
512,325,136020,1,0,0:0:0:0:
487,307,136107,2,0,L|484:238,1,50,2|0,0:0|0:0,0:0:0:0:
367,360,136281,1,0,3:0:0:0:
355,349,136369,1,0,0:0:0:0:
343,340,136456,6,0,L|338:225,1,112.500004291535,8|0,3:0|0:0,0:0:0:0:
450,120,136805,6,0,B|407:93|363:102|363:102|336:107|336:107|279:93,1,150,0|0,3:0|0:0,0:0:0:0:
190,33,137154,70,0,L|199:136,1,75.0000028610231,10|0,0:0|0:0,0:0:0:0:
238,316,137328,2,0,L|247:213,1,75.0000028610231,2|0,0:0|0:0,0:0:0:0:
91,237,137502,1,2,0:0:0:0:
70,226,137590,1,0,0:0:0:0:
49,210,137677,2,0,L|152:201,1,75.0000028610231,0|0,3:0|0:0,0:0:0:0:
394,140,137851,6,0,L|291:131,1,75.0000028610231,10|0,0:0|0:0,0:0:0:0:
332,321,138026,1,2,0:0:0:0:
352,311,138113,1,0,0:0:0:0:
366,293,138200,2,0,B|382:353|382:353|476:355,1,150.000005722046,2|0,0:0|3:0,0:0:0:0:
296,242,138549,2,0,B|261:233|261:233|291:356,1,150.000005722046
274,50,138811,1,0,0:0:0:0:
291,65,138898,5,0,3:0:0:0:
310,80,138985,2,0,L|368:84,1,50
198,140,139159,1,0,3:0:0:0:
180,157,139246,2,0,L|122:161,1,50,8|0,0:0|0:0,0:0:0:0:
316,179,139421,2,0,B|366:176|366:176|424:186,1,100
498,292,139595,70,0,P|489:244|524:176,1,112.500004291535,0|0,3:0|0:0,0:0:0:0:
336,306,139944,6,0,P|377:298|434:262,1,75.0000028610231,2|0,0:0|0:0,0:0:0:0:
223,300,140118,1,2,0:0:0:0:
224,277,140205,1,0,0:0:0:0:
223,254,140293,2,0,P|186:233|119:224,1,75.0000028610231,2|0,0:0|0:0,0:0:0:0:
412,269,140467,1,0,3:0:0:0:
211,85,140642,6,0,P|211:126|237:189,1,75.0000028610231,2|0,3:2|0:0,0:0:0:0:
61,218,140816,1,2,0:0:0:0:
66,196,140903,1,0,0:0:0:0:
62,178,140990,2,0,P|97:156|139:103,1,75.0000028610231,2|0,0:0|0:0,0:0:0:0:
316,179,141165,1,0,3:0:0:0:
121,134,141340,2,0,B|57:120|57:120|-8:134,1,129.999994049073
199,71,141601,1,0,0:0:0:0:
211,85,141688,2,0,L|211:157,1,50,0|0,0:0|0:0,0:0:0:0:
174,260,141863,69,0,3:0:0:0:
182,276,141950,1,0,3:0:0:0:
188,289,142037,2,0,P|240:277|310:289,1,100,8|0,0:0|0:0,0:0:0:0:
464,240,142386,6,0,L|472:150,1,89.9999972534181,0|0,3:0|0:0,0:0:0:0:
404,86,142735,70,0,L|396:5,1,59.9999981689454,8|0,0:0|0:0,0:0:0:0:
382,25,142997,1,0,3:0:0:0:
382,25,143345,85,0,3:0:0:0:
361,23,143433,2,0,L|280:15,1,50,8|0,0:0|0:0,0:0:0:0:
208,65,143607,2,0,L|127:73,1,50,0|0,0:0|0:0,0:0:0:0:
56,16,143781,5,0,3:0:0:0:
113,221,144130,1,8,0:0:0:0:
35,265,144479,2,0,P|24:232|26:211,1,50
190,181,144654,2,0,P|201:214|199:235,1,50
117,135,144828,6,0,P|139:111|162:100,1,44.999998626709,10|0,0:0|0:0,0:0:0:0:
234,106,145177,6,0,B|289:150|352:146|374:115|374:115|362:83|318:65|291:88,1,225.000008583069,0|0,3:0|0:0,0:0:0:0:
472,160,145526,6,0,P|479:111|467:58,1,75.0000028610231,10|0,0:0|0:0,0:0:0:0:
392,232,145700,2,0,P|390:270|397:307,1,75.0000028610231,2|0,0:0|0:0,0:0:0:0:
456,158,145874,2,0,P|462:121|459:83,1,75.0000028610231,10|0,0:0|0:0,0:0:0:0:
414,316,146049,1,0,3:0:0:0:
313,344,146223,70,0,P|301:260|316:194,1,150.000005722046,10|2,0:0|0:0,0:0:0:0:
342,58,146485,1,0,0:0:0:0:
329,73,146572,2,0,P|266:76|244:71,1,75.0000028610231,2|0,0:0|0:0,0:0:0:0:
51,36,146747,1,0,3:0:0:0:
417,30,146921,6,0,P|423:112|328:171,1,150.000005722046,10|2,0:0|0:0,0:0:0:0:
185,174,147183,1,0,0:0:0:0:
205,152,147270,2,0,L|273:147,1,50,2|0,0:0|0:0,0:0:0:0:
253,244,147444,1,0,3:0:0:0:
265,258,147531,1,0,3:0:0:0:
275,269,147618,6,0,B|330:280|330:280|368:268|368:268|434:280,1,150,8|0,0:0|0:0,0:0:0:0:
235,359,147967,70,0,B|180:344|166:288|184:254|184:254|168:262|128:258,1,150,0|0,3:0|0:0,0:0:0:0:
403,143,148316,6,0,L|288:135,1,75.0000028610231,10|0,0:0|0:0,0:0:0:0:
65,90,148491,2,0,L|180:98,1,75.0000028610231,2|0,0:0|0:0,0:0:0:0:
400,127,148665,1,0,0:0:0:0:
370,124,148752,1,0,0:0:0:0:
340,122,148840,2,0,L|337:206,1,75.0000028610231
221,242,149014,6,0,B|235:204|235:204|238:150,1,75.0000028610231,10|0,0:0|0:0,0:0:0:0:
226,1,149188,1,2,0:0:0:0:
236,15,149276,1,0,0:0:0:0:
249,26,149363,2,0,B|303:34|335:14|335:14|366:18|402:52,1,119.999996337891,2|0,0:0|3:0,0:0:0:0:
431,240,149712,70,0,P|434:181|420:123,1,119.999996337891,8|0,0:0|0:0,0:0:0:0:
231,251,149973,1,0,0:0:0:0:
247,258,150061,2,0,P|302:265|342:253,1,59.9999981689454,0|0,0:0|0:0,0:0:0:0:
195,161,150235,1,0,3:0:0:0:
0,86,150409,6,0,B|42:115|104:116|140:88|140:88|147:67|147:67|190:48|228:49|274:81,1,300,8|0,0:0|0:0,0:0:0:0:
361,139,150758,6,0,P|373:96|370:51,1,89.9999972534181,0|0,3:0|0:0,0:0:0:0:
312,214,151107,70,0,P|305:263|317:316,1,75.0000028610231,10|0,0:0|0:0,0:0:0:0:
384,125,151281,2,0,P|386:87|380:51,1,75.0000028610231,2|0,0:0|0:0,0:0:0:0:
323,284,151456,1,0,0:0:0:0:
321,254,151543,1,0,0:0:0:0:
322,222,151630,2,0,L|406:223,1,59.9999981689454
146,173,151805,6,0,L|83:177,1,59.9999981689454,8|0,0:0|0:0,0:0:0:0:
204,90,151979,1,0,0:0:0:0:
186,92,152066,1,0,0:0:0:0:
167,92,152154,2,0,B|89:96|89:96|36:75,1,119.999996337891,0|0,0:0|3:0,0:0:0:0:
282,10,152502,6,0,P|313:70|309:136,1,119.999996337891,8|0,0:0|0:0,0:0:0:0:
231,274,152764,1,0,0:0:0:0:
225,252,152851,2,0,B|267:246|267:246|312:253,1,75.0000028610231,0|0,0:0|0:0,0:0:0:0:
461,340,153026,1,0,3:0:0:0:
417,204,153200,70,0,B|391:148|416:111|444:67|418:12,1,194.999991073609,8|0,0:0|0:0,0:0:0:0:
394,148,153549,70,0,P|395:195|416:232,1,69.9999978637696,0|0,3:0|0:0,0:0:0:0:
461,340,153898,1,8,0:0:0:0:
346,334,154072,2,0,L|322:373,1,34.9999989318848,0|0,0:0|0:0,0:0:0:0:
265,311,154247,2,0,L|241:350,1,34.9999989318848,0|0,0:0|0:0,0:0:0:0:
184,288,154421,2,0,L|160:327,1,34.9999989318848,0|0,0:0|0:0,0:0:0:0:
155,152,154595,5,0,0:0:0:0:
128,162,154683,1,0,0:0:0:0:
105,178,154770,1,0,0:0:0:0:
89,201,154857,1,0,0:0:0:0:
83,228,154944,1,0,3:0:0:0:
204,380,155119,85,0,0:0:0:0:
211,338,155206,1,0,0:0:0:0:
217,296,155293,1,0,0:0:0:0:
223,254,155380,1,0,0:0:0:0:
231,212,155467,1,0,3:0:0:0:
161,101,155642,6,0,L|214:108,1,34.9999989318848,0|0,0:0|0:0,0:0:0:0:
213,26,155816,2,0,L|160:19,1,34.9999989318848,0|0,0:0|0:0,0:0:0:0:
349,78,155991,6,0,L|304:71,1,44.999998626709,0|0,3:0|0:0,0:0:0:0:
405,143,156340,53,0,3:0:0:0:
356,230,156514,1,0,3:0:0:0:
265,271,156688,1,0,3:0:0:0:
165,261,156863,1,0,3:0:0:0:
82,205,157037,5,0,0:0:0:0:
82,205,157386,1,0,0:0:0:0:
82,205,157735,1,0,0:0:0:0:
82,205,158084,1,0,0:0:0:0:
82,205,158433,1,0,0:0:0:0:
82,205,158782,1,0,0:0:0:0:
82,205,159130,5,0,3:0:0:0:
131,292,159304,1,0,3:0:0:0:
222,333,159478,1,0,3:0:0:0:
322,323,159653,1,0,3:0:0:0:
405,267,159827,53,0,0:0:0:0:
405,267,160177,1,0,0:0:0:0:
405,267,160526,1,0,0:0:0:0:
405,267,160874,1,0,0:0:0:0:
405,267,161223,1,0,0:0:0:0:
405,267,161616,6,0,P|387:284|364:294,1,44.999998626709
315,235,161921,5,0,3:0:0:0:
282,140,162095,1,0,3:0:0:0:
204,75,162270,1,0,3:0:0:0:
104,66,162444,1,0,3:0:0:0:
8,97,162619,5,0,0:0:0:0:
8,97,162967,1,0,0:0:0:0:
83,156,163142,1,0,0:0:0:0:
8,97,163316,1,0,0:0:0:0:
104,66,163491,1,0,0:0:0:0:
204,75,163665,1,0,0:0:0:0:
204,75,164014,85,0,0:0:0:0:
282,140,164188,1,0,0:0:0:0:
315,235,164362,1,0,0:0:0:0:
375,315,164537,1,0,0:0:0:0:
464,358,164712,5,0,3:0:0:0:
453,259,164886,1,0,3:0:0:0:
372,199,165061,1,0,3:0:0:0:
272,199,165235,1,0,3:0:0:0:
198,266,165409,70,0,L|209:331,1,50
272,199,165758,2,0,L|283:134,1,50,0|0,0:0|0:0,0:0:0:0:
206,315,166107,86,0,L|217:380,1,50
263,248,166456,2,0,L|274:183,1,50,0|0,0:0|0:0,0:0:0:0:
139,255,166805,5,0,0:0:0:0:
163,179,166979,1,0,0:0:0:0:
228,132,167154,1,0,0:0:0:0:
307,131,167328,1,0,0:0:0:0:
374,174,167502,21,0,3:0:0:0:
299,244,167677,1,0,3:0:0:0:
197,246,167851,1,0,3:0:0:0:
119,179,168026,1,0,3:0:0:0:
111,77,168200,86,0,L|115:13,1,59.9999981689454
204,108,168549,2,0,L|208:44,1,59.9999981689454,0|0,0:0|0:0,0:0:0:0:
294,92,168898,5,0,0:0:0:0:
370,103,169072,1,0,0:0:0:0:
444,79,169247,2,0,L|448:15,1,59.9999981689454,0|0,0:0|0:0,0:0:0:0:
370,103,169595,85,0,0:0:0:0:
322,163,169770,1,0,0:0:0:0:
310,239,169944,1,0,0:0:0:0:
346,308,170119,1,0,0:0:0:0:
426,332,170293,85,0,3:0:0:0:
402,232,170467,1,0,3:0:0:0:
315,177,170642,1,0,3:0:0:0:
214,193,170816,1,0,3:0:0:0:
169,285,170991,6,0,L|239:269,1,59.9999981689454
107,204,171340,2,0,L|48:190,1,59.9999981689454
88,284,171688,5,0,0:0:0:0:
188,303,171863,2,0,L|258:287,2,59.9999981689454
113,372,172386,1,0,0:0:0:0:
309,315,172561,2,0,L|321:268,1,39.9999987792969,0|0,0:0|0:0,0:0:0:0:
336,260,172735,2,0,L|324:213,1,39.9999987792969,0|0,0:0|0:0,0:0:0:0:
310,209,172909,2,0,L|322:162,1,39.9999987792969,0|0,0:0|0:0,0:0:0:0:
306,147,173084,69,0,3:0:0:0:
224,197,173258,1,0,3:0:0:0:
128,188,173433,1,0,3:0:0:0:
60,120,173607,1,0,3:0:0:0:
52,24,173781,5,0,0:0:0:0:
52,24,174130,1,0,0:0:0:0:
52,24,174479,5,0,0:0:0:0:
104,36,174654,1,0,0:0:0:0:
156,47,174828,1,0,0:0:0:0:
208,59,175002,1,0,0:0:0:0:
260,70,175177,2,0,L|392:69,1,119.999996337891,0|0,0:0|0:0,0:0:0:0:
379,69,175874,85,0,3:0:0:0:
304,120,176049,1,0,3:0:0:0:
273,204,176223,1,0,3:0:0:0:
300,289,176398,1,0,3:0:0:0:
371,343,176572,6,0,P|431:345|470:321,1,89.9999972534181,0|0,0:0|0:0,0:0:0:0:
475,245,176921,2,0,P|431:249|399:269,1,75,0|0,0:0|0:0,0:0:0:0:
399,344,177270,6,0,P|438:340|467:322,1,60,0|0,0:0|0:0,0:0:0:0:
475,245,177619,2,0,P|447:247|427:260,1,44.999998626709,0|0,0:0|0:0,0:0:0:0:
317,292,177967,6,0,L|315:250,1,40
317,245,178665,6,0,L|260:255,1,50,0|0,3:0|0:0,0:0:0:0:
256,250,178927,1,0,0:0:0:0:
244,245,179014,1,0,0:0:0:0:
357,163,179188,1,0,3:0:0:0:
197,172,179363,53,0,0:0:0:0:
209,167,179450,1,0,0:0:0:0:
220,163,179538,2,0,L|269:171,1,50,0|0,0:0|3:0,0:0:0:0:
393,100,179886,5,0,0:0:0:0:
391,112,179973,1,0,0:0:0:0:
389,124,180061,2,0,L|356:162,1,50,0|0,3:0|0:0,0:0:0:0:
356,174,180322,1,0,0:0:0:0:
355,186,180409,1,0,3:0:0:0:
316,73,180584,1,0,3:0:0:0:
272,240,180758,2,0,L|308:225,1,25,0|0,0:0|0:0,0:0:0:0:
220,163,180933,2,0,L|262:171,1,25,0|0,0:0|0:0,0:0:0:0:
380,240,181107,6,0,L|294:224,1,75,0|0,3:0|0:0,0:0:0:0:
206,265,181456,69,0,3:0:0:0:
408,84,181630,1,0,0:0:0:0:
405,96,181717,1,0,0:0:0:0:
400,107,181805,2,0,L|382:49,1,50,0|0,3:0|0:0,0:0:0:0:
459,165,182066,1,0,3:0:0:0:
464,176,182154,6,0,L|482:118,1,50,0|0,0:0|3:0,0:0:0:0:
464,49,182502,1,0,3:0:0:0:
381,197,182677,1,0,0:0:0:0:
371,204,182764,1,0,0:0:0:0:
360,211,182851,1,0,0:0:0:0:
470,266,183026,1,0,3:0:0:0:
473,278,183113,1,0,0:0:0:0:
478,289,183201,2,0,L|496:231,1,50,0|0,0:0|0:0,0:0:0:0:
414,344,183462,1,0,3:0:0:0:
409,355,183550,38,0,L|395:312,1,25,0|0,0:0|0:0,0:0:0:0:
319,298,183723,2,0,L|305:340,1,25,0|0,3:0|3:0,0:0:0:0:
399,243,183898,2,0,L|385:200,1,25,0|0,0:0|0:0,0:0:0:0:
309,186,184072,1,0,3:0:0:0:
478,289,184247,37,0,3:0:0:0:
220,249,184421,1,0,0:0:0:0:
228,258,184508,1,0,0:0:0:0:
236,267,184595,1,0,0:0:0:0:
309,186,184770,1,0,0:0:0:0:
478,289,184944,6,0,L|486:246,1,25,0|0,0:0|0:0,0:0:0:0:
383,318,185119,1,0,0:0:0:0:
309,186,185293,1,0,3:0:0:0:
385,224,185467,1,0,0:0:0:0:
220,249,185642,6,0,L|212:206,1,25,0|0,0:0|0:0,0:0:0:0:
309,186,185816,2,0,L|317:143,1,25,0|0,3:0|0:0,0:0:0:0:
419,134,185991,1,0,0:0:0:0:
225,137,186165,1,0,3:0:0:0:
385,224,186340,70,0,L|355:235,1,25,0|0,3:0|0:0,0:0:0:0:
419,134,186514,1,0,0:0:0:0:
68,149,186688,1,0,3:0:0:0:
68,149,186863,1,0,3:0:0:0:
352,238,187037,6,0,P|345:187|328:171,1,75,0|0,3:0|0:0,0:0:0:0:
236,166,187386,1,0,0:0:0:0:
234,178,187473,1,0,0:0:0:0:
230,190,187561,2,0,L|246:233,1,25,0|0,3:0|0:0,0:0:0:0:
263,307,187735,2,0,L|271:283,1,25,0|0,0:0|0:0,0:0:0:0:
144,219,187910,1,0,0:0:0:0:
142,207,187997,1,0,0:0:0:0:
139,194,188084,2,0,P|110:183|101:154,1,50,0|0,3:0|0:0,0:0:0:0:
190,123,188433,69,0,0:0:0:0:
176,321,188607,1,0,3:0:0:0:
172,309,188694,1,0,0:0:0:0:
168,297,188781,1,0,0:0:0:0:
195,132,188956,1,0,3:0:0:0:
331,348,189130,38,0,L|343:304,1,25,0|0,3:0|3:0,0:0:0:0:
266,289,189305,2,0,L|254:245,1,25
346,250,189479,2,0,L|358:206,1,25,0|0,3:0|3:0,0:0:0:0:
217,173,189654,1,0,0:0:0:0:
71,308,189828,86,0,P|110:326|177:267,1,112.500004291535,0|0,3:0|0:0,0:0:0:0:
229,104,190177,2,0,P|212:155|224:184,1,75.0000028610231,0|0,3:0|0:0,0:0:0:0:
376,172,190526,1,0,3:0:0:0:
357,158,190613,1,0,0:0:0:0:
334,155,190700,1,0,0:0:0:0:
293,264,190874,1,0,3:0:0:0:
465,191,191049,1,0,3:0:0:0:
229,104,191223,86,0,P|212:155|252:208,1,112.500004291535,0|0,3:0|0:0,0:0:0:0:
465,191,191572,2,0,P|422:159|379:163,1,75.0000028610231,0|0,3:0|0:0,0:0:0:0:
362,334,191921,2,0,L|386:263,1,75.0000028610231,0|0,3:0|0:0,0:0:0:0:
512,328,192270,1,0,3:0:0:0:
293,264,192444,1,0,3:0:0:0:
141,224,192619,6,0,P|206:191|256:214,1,112.500004291535,0|0,3:0|0:0,0:0:0:0:
362,334,192967,2,0,B|344:301|344:301|348:258,1,75.0000028610231,0|0,3:0|0:0,0:0:0:0:
411,168,193229,1,0,0:0:0:0:
418,176,193316,2,0,L|361:184,1,37.5000014305115,0|0,3:0|0:0,0:0:0:0:
286,134,193491,1,0,0:0:0:0:
433,260,193665,1,0,3:0:0:0:
414,68,193840,1,0,3:0:0:0:
414,68,193927,1,0,3:0:0:0:
414,68,194014,86,0,P|390:120|426:179,1,112.500004291535,0|0,3:0|0:0,0:0:0:0:
478,314,194363,2,0,P|458:274|406:256,1,75.0000028610231,0|0,3:0|0:0,0:0:0:0:
320,271,194624,1,0,0:0:0:0:
310,277,194712,70,0,P|339:291|360:289,1,37.5000014305115,0|0,3:0|0:0,0:0:0:0:
444,251,194886,2,0,P|462:222|462:208,1,37.5000014305115,0|0,3:0|0:0,0:0:0:0:
409,95,195061,2,0,P|384:91|359:101,1,37.5000014305115,0|0,3:0|0:0,0:0:0:0:
337,178,195235,2,0,P|346:204|375:211,1,37.5000014305115,0|0,3:0|0:0,0:0:0:0:
473,73,195409,6,0,P|411:104|349:74,1,112.500004291535,0|0,3:0|0:0,0:0:0:0:
194,91,195758,2,0,P|230:81|308:123,1,112.500004291535,0|0,3:0|0:0,0:0:0:0:
327,198,196107,1,0,0:0:0:0:
172,235,196281,1,0,0:0:0:0:
286,284,196456,1,0,3:0:0:0:
296,121,196630,1,0,3:0:0:0:
149,310,196805,6,0,L|124:185,1,112.500004291535,0|0,3:0|0:0,0:0:0:0:
23,358,197154,2,0,L|48:233,1,112.500004291535,0|0,3:0|0:0,0:0:0:0:
218,175,197502,1,0,0:0:0:0:
54,172,197677,1,0,0:0:0:0:
93,69,197851,1,0,3:0:0:0:
126,296,198026,1,0,3:0:0:0:
158,106,198200,5,0,3:0:0:0:
416,146,198374,1,0,3:0:0:0:
368,66,198549,5,0,3:0:0:0:
218,175,198723,1,0,3:0:0:0:
308,145,198898,5,0,3:0:0:0:
50,79,199072,1,0,3:0:0:0:
64,198,199247,85,0,3:0:0:0:
302,58,199421,1,0,3:0:0:0:
227,5,199595,5,0,3:0:0:0:
208,326,199770,1,0,3:0:0:0:
305,305,199944,85,0,3:0:0:0:
80,59,200119,1,0,3:0:0:0:
64,198,200293,53,0,3:0:0:0:
75,213,200380,2,0,P|124:205|154:184,1,50,0|0,0:0|0:0,0:0:0:0:
313,73,200555,5,0,3:0:0:0:
302,58,200642,2,0,P|253:66|223:87,1,50,0|0,0:0|0:0,0:0:0:0:
137,211,200816,2,0,P|139:259|164:299,1,50,0|0,3:0|0:0,0:0:0:0:
372,260,200991,6,0,P|377:211|250:237,1,225.000008583069,0|0,3:0|0:0,0:0:0:0:
279,211,201340,6,0,P|243:158|182:138,1,112.500004291535,0|0,3:0|0:0,0:0:0:0:
58,181,201688,1,8,0:0:0:0:
173,363,201863,5,0,0:0:0:0:
179,333,201950,1,0,0:0:0:0:
176,303,202037,1,0,0:0:0:0:
160,277,202124,1,0,0:0:0:0:
114,263,202212,1,8,0:0:0:0:
266,316,202386,69,0,0:0:0:0:
293,305,202473,1,0,0:0:0:0:
315,285,202561,1,0,3:0:0:0:
331,259,202648,1,0,0:0:0:0:
324,199,202735,6,0,P|304:169|233:175,1,89.9999972534181,8|0,0:0|0:0,0:0:0:0:
360,105,203084,2,0,P|356:80|343:59,1,50,0|0,0:0|0:0,0:0:0:0:
253,161,203258,6,0,B|194:180|134:152|134:152|76:130|9:160,1,250,8|0,0:0|0:0,0:0:0:0:
63,233,203781,70,0,P|104:154|7:70,1,225.000008583069,0|0,3:0|0:0,0:0:0:0:
36,92,204130,6,0,P|94:89|151:61,1,112.500004291535,0|0,3:0|0:0,0:0:0:0:
242,37,204479,86,0,B|232:61|232:61|232:103,1,50,8|0,0:0|0:0,0:0:0:0:
333,196,204654,2,0,B|317:175|317:175|296:163,1,50,2|0,0:0|0:0,0:0:0:0:
194,181,204828,2,0,B|173:193|173:193|148:197,1,50,2|0,0:0|0:0,0:0:0:0:
130,350,205002,6,0,B|130:325|130:325|139:301,1,50,8|0,0:0|0:0,0:0:0:0:
16,209,205177,2,0,B|36:221|36:221|52:241,1,50,2|0,0:0|0:0,0:0:0:0:
258,319,205351,2,0,B|283:315|283:315|304:303,1,50,2|0,0:0|0:0,0:0:0:0:
377,173,205526,6,0,B|367:197|367:197|367:221,1,50,8|0,0:0|0:0,0:0:0:0:
443,349,205700,2,0,B|427:328|427:328|406:316,1,50,2|0,0:0|0:0,0:0:0:0:
248,163,205874,70,0,P|249:197|232:241,1,64.9999970245363
130,350,206049,2,0,P|114:313|114:273,1,80,8|0,0:0|0:0,0:0:0:0:
258,4,206223,1,0,3:0:0:0:
253,84,206311,1,0,3:0:0:0:
248,163,206398,1,0,3:0:0:0:
243,242,206485,1,0,3:0:0:0:
237,321,206572,6,0,P|285:335|358:313,1,112.500004291535,0|0,3:0|0:0,0:0:0:0:
432,373,206921,6,0,B|450:314|432:274|432:274|451:255|451:255|428:214|459:146,1,225.000008583069,0|0,3:0|0:0,0:0:0:0:
511,66,207270,1,8,0:0:0:0:
341,155,207444,69,0,0:0:0:0:
304,171,207531,1,0,0:0:0:0:
264,177,207619,1,0,0:0:0:0:
225,167,207706,1,0,0:0:0:0:
190,124,207793,1,8,0:0:0:0:
96,283,207967,5,0,0:0:0:0:
132,264,208055,1,0,0:0:0:0:
171,261,208142,1,0,3:0:0:0:
209,269,208229,1,0,0:0:0:0:
248,322,208316,1,8,0:0:0:0:
392,380,208491,6,0,L|382:293,1,50,0|0,0:0|0:0,0:0:0:0:
333,54,208665,2,0,L|341:128,1,75.0000028610231,0|0,3:0|0:0,0:0:0:0:
447,280,208840,2,0,B|513:314|545:237|503:177|420:228|420:228|370:258|292:261|217:201,1,375.000014305115,8|0,0:0|0:0,0:0:0:0:
180,282,209363,70,0,P|131:267|57:288,1,112.500004291535,0|0,3:0|0:0,0:0:0:0:
84,299,209712,6,0,B|123:251|86:199|42:194|42:194|80:164|83:136|65:93,1,225.000008583069,0|0,3:0|0:0,0:0:0:0:
197,95,210061,6,0,L|185:27,1,59.9999981689454,8|0,0:0|0:0,0:0:0:0:
216,207,210235,2,0,L|205:266,1,59.9999981689454,2|0,0:0|0:0,0:0:0:0:
299,127,210409,2,0,L|288:67,1,59.9999981689454,2|0,0:0|0:0,0:0:0:0:
411,145,210584,70,0,L|399:77,1,59.9999981689454,8|0,0:0|0:0,0:0:0:0:
341,233,210758,2,0,L|330:292,1,59.9999981689454,2|0,0:0|0:0,0:0:0:0:
512,160,210933,2,0,L|501:100,1,59.9999981689454,2|0,0:0|0:0,0:0:0:0:
216,207,211107,6,0,L|205:266,1,59.9999981689454,0|0,3:0|0:0,0:0:0:0:
299,127,211281,2,0,L|288:67,1,59.9999981689454,2|0,0:0|0:0,0:0:0:0:
216,286,211456,5,0,3:0:0:0:
227,307,211630,1,0,3:0:0:0:
242,327,211805,54,0,B|178:297|111:318|111:318|77:285|87:224,1,225.000008583069,0|0,3:0|0:0,0:0:0:0:
157,175,212154,6,0,P|164:118|147:55,1,112.500004291535,0|0,3:0|0:0,0:0:0:0:
109,42,212502,6,0,P|177:106|329:63,1,225.000008583069,0|0,3:0|0:0,0:0:0:0:
157,175,212851,1,8,0:0:0:0:
300,91,213026,5,0,0:0:0:0:
293,130,213113,1,0,0:0:0:0:
298,169,213200,1,0,0:0:0:0:
311,206,213287,1,0,0:0:0:0:
366,242,213375,1,0,3:0:0:0:
270,61,213549,69,0,0:0:0:0:
230,52,213636,1,0,0:0:0:0:
190,53,213723,1,0,3:0:0:0:
152,67,213811,1,0,0:0:0:0:
117,117,213898,1,8,0:0:0:0:
210,213,214072,2,0,P|218:173|214:149,1,50,8|0,0:0|0:0,0:0:0:0:
205,152,214247,70,0,P|204:241|222:304,1,119.999996337891,8|0,0:3|0:0,0:0:0:0:
111,191,214508,2,0,P|113:220|105:249,1,59.9999981689454,0|0,0:0|0:0,0:0:0:0:
224,341,214683,1,0,0:0:0:0:
205,329,214770,2,0,P|202:299|210:270,1,59.9999981689454,0|0,0:0|0:0,0:0:0:0:
330,155,214944,6,0,B|205:153|205:153|244:84|244:84|353:86,1,300.000011444092
205,153,215642,6,0,L|133:113,1,64.9999970245363,8|0,0:0|0:0,0:0:0:0:
77,261,215816,2,0,L|147:218,1,64.9999970245363,2|0,0:0|0:0,0:0:0:0:
45,96,215991,2,0,L|46:178,1,64.9999970245363,2|0,0:0|0:0,0:0:0:0:
151,236,216165,6,0,L|96:270,1,64.9999970245363,8|0,0:0|0:0,0:0:0:0:
31,149,216340,2,0,L|29:84,1,64.9999970245363,2|0,0:0|0:0,0:0:0:0:
167,88,216514,2,0,L|223:119,1,64.9999970245363,2|0,0:0|0:0,0:0:0:0:
318,258,216688,6,0,B|316:141|316:141|390:56,1,194.999991073609,8|0,0:0|0:0,0:0:0:0:
488,92,217037,1,0,3:0:0:0:
492,111,217124,1,0,0:0:0:0:
494,130,217212,2,0,L|492:206,1,64.9999970245363,0|0,0:0|0:0,0:0:0:0:
313,360,217386,1,0,0:0:0:0:
317,341,217473,1,0,0:0:0:0:
319,322,217561,2,0,L|317:246,1,64.9999970245363,8|0,0:0|0:0,0:0:0:0:
321,136,217735,70,0,B|269:154|269:154|202:140,1,112.500004291535,0|0,3:0|0:0,0:0:0:0:
234,114,218084,6,0,B|256:170|229:218|229:218|204:260|230:338,1,225.000008583069,0|0,3:0|0:0,0:0:0:0:
246,355,218433,70,0,L|328:357,2,75.0000028610231,8|0|0,0:0|0:0|0:0,0:0:0:0:
122,285,218956,86,0,L|40:287,1,75.0000028610231,8|0,0:0|0:0,0:0:0:0:
227,331,219305,2,0,P|227:355|238:377,1,37.5000014305115,0|0,0:0|0:0,0:0:0:0:
308,243,219479,2,0,L|390:245,2,75.0000028610231,8|0|0,0:0|0:0|0:0,0:0:0:0:
139,201,220002,2,0,L|57:203,1,75.0000028610231,8|0,0:0|0:0,0:0:0:0:
227,331,220264,2,0,P|227:355|216:377,1,37.5000014305115,0|0,0:0|0:0,0:0:0:0:
308,52,220526,22,0,P|336:130|241:234,1,225.000008583069,0|0,3:0|0:0,0:0:0:0:
231,208,220874,70,0,P|271:204|301:207,1,50,8|0,0:0|0:0,0:0:0:0:
372,187,221398,2,0,P|332:183|289:191,1,75,0|0,0:0|0:0,0:0:0:0:
280,204,221747,2,0,L|283:264,1,50,0|0,0:0|0:0,0:0:0:0:
282,253,222444,2,0,L|285:333,1,75.0000028610231,0|0,0:0|0:0,0:0:0:0:
221,188,222706,2,0,L|225:83,1,100
151,18,222967,5,0,3:0:0:0:
147,63,223055,1,0,3:0:0:0:
143,107,223142,1,0,3:0:0:0:
139,151,223229,1,0,3:0:0:0:
135,195,223316,6,0,L|150:325,1,112.500004291535,0|0,3:0|0:0,0:0:0:0:
228,198,223665,1,8,0:0:0:0:
84,351,223840,6,0,P|130:383|172:379,1,75.0000028610231,0|0,0:0|0:0,0:0:0:0:
284,327,224014,2,0,P|307:289|310:235,1,75.0000028610231,0|0,0:0|0:0,0:0:0:0:
60,175,224188,2,0,P|116:184|169:149,1,75.0000028610231,0|0,3:0|0:0,0:0:0:0:
259,85,224363,2,0,P|292:65|352:75,1,75.0000028610231,8|0,0:0|0:0,0:0:0:0:
469,139,224537,2,0,P|489:172|479:232,1,75.0000028610231,0|0,0:0|0:0,0:0:0:0:
415,349,224712,2,0,P|382:369|322:359,1,75.0000028610231,0|0,3:0|0:0,0:0:0:0:
302,177,224886,2,0,P|359:194|378:234,1,75.0000028610231,0|0,0:0|0:0,0:0:0:0:
99,246,225061,6,0,P|73:179|162:79,1,150.000005722046,8|0,0:0|0:0,0:0:0:0:
251,130,225409,1,0,3:0:0:0:
220,163,225497,1,0,0:0:0:0:
177,175,225584,1,0,3:0:0:0:
267,100,225758,70,0,P|299:133|291:206,1,112.500004291535,8|0,0:0|0:0,0:0:0:0:
350,294,226107,6,0,P|334:245|378:200,1,112.500004291535,0|0,3:0|0:0,0:0:0:0:
468,221,226456,1,8,0:0:0:0:
306,358,226630,6,0,P|270:365|235:354,1,75.0000028610231,0|0,0:0|0:0,0:0:0:0:
131,265,226805,2,0,P|108:229|107:185,1,75.0000028610231,0|0,0:0|0:0,0:0:0:0:
222,91,226979,2,0,P|259:107|312:101,1,75.0000028610231,0|0,3:0|0:0,0:0:0:0:
457,74,227154,2,0,P|425:67|379:80,1,75.0000028610231,8|0,0:0|0:0,0:0:0:0:
262,214,227328,2,0,P|262:271|285:299,1,75.0000028610231,0|0,0:0|0:0,0:0:0:0:
472,329,227502,1,0,3:0:0:0:
374,84,227677,69,0,0:0:0:0:
376,108,227764,1,0,0:0:0:0:
378,132,227851,1,8,0:0:0:0:
217,51,228026,1,0,0:0:0:0:
215,75,228113,1,0,3:0:0:0:
213,99,228200,2,0,L|209:153,1,50,0|0,0:0|0:0,0:0:0:0:
236,348,228374,1,0,3:0:0:0:
232,355,228549,6,0,B|184:395|149:338|174:290|259:301|282:259|242:199,1,225.000008583069,8|0,3:0|0:0,0:0:0:0:
115,149,228898,6,0,P|158:168|215:123,1,112.500004291535,0|0,3:0|0:0,0:0:0:0:
228,32,229247,1,8,0:0:0:0:
32,163,229421,70,0,P|48:212|72:228,1,75.0000028610231,0|0,0:0|0:0,0:0:0:0:
210,246,229595,2,0,P|254:234|277:206,1,75.0000028610231,0|0,0:0|0:0,0:0:0:0:
165,73,229770,2,0,P|138:111|134:138,1,75.0000028610231,0|0,3:0|0:0,0:0:0:0:
142,316,229944,2,0,P|180:343|207:347,1,75.0000028610231,8|0,0:0|0:0,0:0:0:0:
385,339,230119,2,0,P|412:301|416:274,1,75.0000028610231,0|0,0:0|0:0,0:0:0:0:
435,94,230293,2,0,P|381:115|340:104,1,75.0000028610231,0|0,3:0|0:0,0:0:0:0:
234,92,230467,2,0,P|180:71|139:82,1,75.0000028610231,0|0,0:0|0:0,0:0:0:0:
163,280,230642,6,0,P|204:218|150:128,1,150,8|0,0:0|0:0,0:0:0:0:
19,234,230991,1,0,3:0:0:0:
43,231,231078,1,0,0:0:0:0:
66,221,231165,1,0,3:0:0:0:
85,110,231340,6,0,P|78:156|119:208,1,112.500004291535,8|0,0:0|0:0,0:0:0:0:
228,195,231688,1,0,3:0:0:0:
178,30,231863,69,0,0:0:0:0:
174,59,231950,1,0,3:0:0:0:
170,88,232037,1,8,0:0:0:0:
334,71,232212,1,0,0:0:0:0:
338,100,232299,1,0,3:0:0:0:
342,129,232386,2,0,L|319:177,1,50,0|0,0:0|0:0,0:0:0:0:
442,245,232561,1,0,3:0:0:0:
115,212,232735,1,8,0:0:0:0:
246,327,232909,2,0,P|275:308|283:287,1,50,0|0,0:0|0:0,0:0:0:0:
251,117,233084,5,0,3:0:0:0:
430,245,233258,1,0,0:0:0:0:
435,215,233345,1,0,3:0:0:0:
440,185,233433,1,8,0:0:0:0:
251,117,233607,1,0,0:0:0:0:
279,122,233694,1,0,3:0:0:0:
307,134,233781,2,0,P|329:149|342:171,1,50,0|0,0:0|0:0,0:0:0:0:
221,321,233956,1,0,3:0:0:0:
4,249,234130,5,0,3:0:0:0:
64,298,234217,1,0,3:0:0:0:
141,285,234305,1,0,3:0:0:0:
196,228,234392,1,0,3:0:0:0:
173,156,234479,70,0,P|211:117|266:120,1,112.500004291535,0|0,3:0|0:0,0:0:0:0:
334,235,234828,1,8,0:0:0:0:
467,97,235002,6,0,P|421:65|379:69,1,75.0000028610231,0|0,0:0|0:0,0:0:0:0:
265,119,235176,2,0,P|242:157|243:211,1,75.0000028610231
491,273,235350,2,0,P|435:264|382:299,1,75.0000028610231,0|0,3:0|0:0,0:0:0:0:
292,363,235525,2,0,P|259:383|199:373,1,75.0000028610231,8|0,0:0|0:0,0:0:0:0:
82,309,235699,2,0,P|62:276|72:216,1,75.0000028610231,0|0,0:0|0:0,0:0:0:0:
136,99,235874,2,0,P|169:79|229:89,1,75.0000028610231,0|0,3:0|0:0,0:0:0:0:
293,274,236048,2,0,P|265:249|255:214,1,75.0000028610231,0|0,0:0|0:0,0:0:0:0:
320,117,236223,6,0,P|380:101|440:176,1,150,8|0,0:0|0:0,0:0:0:0:
385,294,236572,1,0,3:0:0:0:
382,264,236659,1,0,0:0:0:0:
380,233,236747,1,0,3:0:0:0:
462,320,236921,70,0,P|436:360|366:374,1,112.500004291535,8|0,0:0|0:0,0:0:0:0:
342,173,237270,6,0,L|329:300,1,112.500004291535,0|0,3:0|0:0,0:0:0:0:
246,352,237619,1,8,0:0:0:0:
205,214,237793,6,0,P|178:235|123:243,1,75.0000028610231,0|0,0:0|0:0,0:0:0:0:
11,174,237967,2,0,P|3:124|14:91,1,75.0000028610231,0|0,0:0|0:0,0:0:0:0:
128,26,238142,2,0,P|190:26|218:54,1,75.0000028610231,0|0,3:0|0:0,0:0:0:0:
276,149,238316,2,0,P|309:173|351:169,1,75.0000028610231,8|0,0:0|0:0,0:0:0:0:
477,131,238491,2,0,P|489:94|473:54,1,75.0000028610231,0|0,0:0|0:0,0:0:0:0:
182,106,238665,69,0,3:0:0:0:
272,232,238840,1,0,0:0:0:0:
270,202,238927,1,0,3:0:0:0:
268,172,239014,1,8,0:0:0:0:
153,289,239188,1,0,0:0:0:0:
157,259,239276,2,0,B|164:186|164:186|181:209,1,100,0|0,3:0|0:0,0:0:0:0:
242,302,239537,2,0,B|267:309|267:309|305:302,1,50,0|0,3:0|0:0,0:0:0:0:
411,271,239712,6,0,B|436:217|355:213|314:261|366:333|392:341|463:318|489:290,1,225.000008583069,8|0,3:0|0:0,0:0:0:0:
446,175,240061,6,0,P|397:158|330:184,1,112.500004291535,0|0,3:0|0:0,0:0:0:0:
290,304,240409,1,8,0:0:0:0:
437,359,240584,70,0,P|459:304|452:264,1,75.0000028610231,0|0,0:0|0:0,0:0:0:0:
446,175,240758,2,0,P|391:141|357:148,1,75.0000028610231,0|0,0:0|0:0,0:0:0:0:
279,143,240933,2,0,P|235:176|226:225,1,75.0000028610231,0|0,3:0|0:0,0:0:0:0:
211,307,241107,2,0,P|180:348|142:352,1,75.0000028610231,8|0,0:0|0:0,0:0:0:0:
48,318,241281,2,0,P|16:280|19:244,1,75.0000028610231,0|0,0:0|0:0,0:0:0:0:
28,95,241456,2,0,P|68:116|130:94,1,75.0000028610231,0|0,3:0|0:0,0:0:0:0:
236,68,241630,2,0,P|277:55|317:65,1,75.0000028610231,0|0,0:0|0:0,0:0:0:0:
444,168,241805,6,0,P|461:224|418:267,1,100,8|0,0:0|0:0,0:0:0:0:
311,257,242066,1,0,3:0:0:0:
302,236,242154,2,0,P|290:213|294:181,1,50,0|0,3:0|0:0,0:0:0:0:
401,89,242328,1,0,3:0:0:0:
380,314,242502,6,0,P|316:300|243:342,1,150,8|0,0:0|0:0,0:0:0:0:
115,244,242851,1,0,3:0:0:0:
122,248,243200,38,0,L|221:257,1,100,0|0,0:0|0:0,0:0:0:0:
128,261,243723,2,0,L|221:269,1,87.5,0|0,0:0|0:0,0:0:0:0:
289,282,244072,2,0,B|301:276|301:276|205:267,1,100,0|0,0:0|0:0,0:0:0:0:
214,267,244770,6,0,P|191:257|180:228,1,50,0|0,0:0|0:0,0:0:0:0:
177,154,245031,2,0,P|180:178|161:202,1,50,0|0,0:0|0:0,0:0:0:0:
53,212,245293,2,0,P|70:182|103:159,1,75,0|0,0:0|0:0,0:0:0:0:
166,200,245642,6,0,P|179:149|142:94,1,112.500004291535,0|0,3:0|0:0,0:0:0:0:
53,212,245991,1,8,0:0:0:0:
431,165,246165,5,0,0:0:0:0:
430,150,246252,1,0,0:0:0:0:
428,136,246340,2,0,L|352:111,1,75.0000028610231,0|0,0:0|0:0,0:0:0:0:
293,35,246514,2,0,P|265:73|257:111,1,75.0000028610231,0|0,3:0|0:0,0:0:0:0:
428,136,246688,1,8,0:0:0:0:
331,255,246863,6,0,P|303:217|295:179,1,75.0000028610231,0|0,0:0|0:0,0:0:0:0:
293,35,247037,2,0,P|331:7|369:-1,1,75.0000028610231,0|0,3:0|0:0,0:0:0:0:
94,80,247212,2,0,P|132:108|170:116,1,75.0000028610231,0|0,0:0|0:0,0:0:0:0:
261,255,247386,70,0,L|271:195,1,50,4|0,0:0|0:0,0:0:0:0:
172,268,247561,2,0,L|182:208,1,50,4|0,0:0|0:0,0:0:0:0:
83,281,247735,1,0,0:0:0:0:
87,256,247822,1,0,0:0:0:0:
91,231,247909,1,0,3:0:0:0:
208,71,248084,2,0,L|218:131,1,50,12|0,0:0|0:0,0:0:0:0:
119,58,248259,2,0,L|129:118,1,50,4|0,0:0|0:0,0:0:0:0:
305,133,248433,6,0,L|286:19,1,112.500004291535,0|0,3:0|0:0,0:0:0:0:
216,120,248781,1,8,0:0:0:0:
265,264,248956,6,0,P|258:217|246:200,1,64.9999970245363,0|0,0:0|0:0,0:0:0:0:
128,139,249130,2,0,P|81:146|64:158,1,64.9999970245363,0|0,0:0|0:0,0:0:0:0:
103,323,249305,1,0,3:0:0:0:
128,139,249479,70,0,P|180:152|208:150,1,75.0000028610231,8|0,0:0|0:0,0:0:0:0:
360,91,249654,2,0,P|412:78|440:80,1,75.0000028610231,0|0,0:0|0:0,0:0:0:0:
330,257,249828,6,0,L|325:160,1,50,0|0,3:0|0:0,0:0:0:0:
399,333,250002,1,0,0:0:0:0:
380,339,250090,1,0,3:0:0:0:
360,342,250177,2,0,P|314:344|300:339,1,50,8|0,0:0|0:0,0:0:0:0:
221,191,250351,1,0,0:0:0:0:
227,210,250439,1,0,3:0:0:0:
230,230,250526,2,0,P|232:276|227:290,1,50,0|0,3:0|0:0,0:0:0:0:
129,348,250700,2,0,P|83:350|69:345,1,50,0|0,3:0|0:0,0:0:0:0:
46,133,250874,6,0,B|94:69|94:69|142:133|142:133|94:197|94:197|110:293,1,300,8|0,0:3|0:0,0:0:0:0:
213,334,251223,70,0,L|187:204,1,112.500004291535,0|0,3:0|0:0,0:0:0:0:
129,348,251572,1,8,0:0:0:0:
262,154,251747,6,0,P|211:132|174:130,1,75.0000028610231,0|0,0:0|0:0,0:0:0:0:
117,6,251921,2,0,L|121:90,1,75.0000028610231,0|0,0:0|0:0,0:0:0:0:
0,125,252095,2,0,P|51:147|88:149,1,75.0000028610231,0|0,3:0|0:0,0:0:0:0:
256,91,252270,2,0,P|226:114|192:129,1,75.0000028610231,8|0,3:0|0:0,0:0:0:0:
224,349,252444,2,0,P|202:298|200:261,1,75.0000028610231,0|0,0:0|0:0,0:0:0:0:
220,157,252619,2,0,P|233:122|256:92,1,75.0000028610231,0|0,3:0|0:0,0:0:0:0:
388,251,252793,2,0,L|295:247,1,75.0000028610231,0|0,0:0|0:0,0:0:0:0:
92,268,252967,86,0,L|76:220,1,50,12|0,0:0|0:0,0:0:0:0:
17,322,253142,2,0,L|1:274,1,50,6|0,0:0|0:0,0:0:0:0:
167,214,253316,1,0,0:0:0:0:
167,214,253404,1,0,0:0:0:0:
167,214,253491,1,0,3:0:0:0:
6,96,253665,6,0,L|21:48,1,50,4|0,0:0|0:0,0:0:0:0:
81,150,253840,2,0,L|96:102,1,50,6|0,0:0|0:0,0:0:0:0:
162,307,254014,6,0,L|160:209,1,75.0000028610231,0|0,3:0|0:0,0:0:0:0:
241,159,254276,1,0,3:0:0:0:
262,157,254363,2,0,L|311:220,1,64.9999970245363,8|0,3:2|0:0,0:0:0:0:
447,132,254537,69,0,3:0:0:0:
438,151,254624,2,0,L|358:161,1,64.9999970245363,0|0,3:0|0:0,0:0:0:0:
367,323,254799,1,0,3:0:0:0:
355,306,254886,2,0,L|385:232,1,64.9999970245363,0|0,3:0|0:0,0:0:0:0:
262,157,255061,1,8,0:0:0:0:
438,151,255235,2,0,L|358:161,1,64.9999970245363,0|0,3:0|0:0,0:0:0:0:
262,157,255409,6,0,L|311:220,1,64.9999970245363,0|0,3:0|0:0,0:0:0:0:
379,340,255584,1,0,3:0:0:0:
370,324,255671,1,0,0:0:0:0:
355,306,255758,2,0,L|385:232,1,64.9999970245363,0|0,3:0|0:0,0:0:0:0:
262,157,255933,2,0,L|311:220,1,64.9999970245363,0|0,0:0|0:0,0:0:0:0:
438,151,256107,6,0,B|370:159|370:159|297:71,1,129.999994049073,0|0,0:0|0:0,0:0:0:0:
257,75,256369,1,0,3:0:0:0:
240,68,256456,2,0,P|182:111|212:233,1,194.999991073609,8|0,0:0|0:0,0:0:0:0:
208,203,256805,70,0,P|176:171|95:175,1,112.500004291535,0|0,3:0|0:0,0:0:0:0:
164,305,257154,1,8,0:0:0:0:
315,305,257328,6,0,P|335:273|344:237,1,75.0000028610231,0|0,0:0|0:0,0:0:0:0:
371,98,257502,2,0,P|361:61|341:30,1,75.0000028610231,0|0,0:0|0:0,0:0:0:0:
215,0,257677,2,8,P|180:15|153:41,1,75.0000028610231,0|0,3:0|0:0,0:0:0:0:
218,155,257851,2,0,P|208:191|188:222,1,75.0000028610231,8|0,0:0|0:0,0:0:0:0:
62,253,258026,2,8,P|27:237|0:211,1,75.0000028610231,0|0,0:0|0:0,0:0:0:0:
115,16,258200,2,8,P|149:31|176:57,1,75.0000028610231,0|0,3:0|0:0,0:0:0:0:
313,198,258374,2,8,P|347:182|374:156,1,75.0000028610231,0|0,0:0|0:0,0:0:0:0:
497,337,258549,6,0,L|489:287,1,50,12|0,0:0|0:0,0:0:0:0:
409,327,258724,2,0,L|401:277,1,50,4|0,0:0|0:0,0:0:0:0:
221,156,258898,1,0,0:0:0:0:
202,163,258985,1,0,0:0:0:0:
181,171,259072,1,0,0:0:0:0:
295,47,259247,70,0,L|302:96,1,50,4|0,0:0|0:0,0:0:0:0:
313,198,259421,2,0,L|320:247,1,50,4|0,0:0|0:0,0:0:0:0:
258,333,259595,6,0,P|329:314|388:336,1,112.500004291535,0|0,3:0|0:0,0:0:0:0:
460,355,259944,6,0,P|450:320|449:282,1,75.0000028610231,8|0,0:0|0:0,0:0:0:0:
509,124,260119,2,0,L|511:209,1,75.0000028610231,0|0,0:0|0:0,0:0:0:0:
292,216,260293,2,0,P|329:212|366:217,1,75.0000028610231,0|0,0:0|0:0,0:0:0:0:
258,333,260467,1,0,3:0:0:0:
154,48,260642,2,0,B|143:87|143:87|151:146,1,85.0000016212464,8|0,0:0|0:0,0:0:0:0:
244,227,260816,2,0,B|255:266|255:266|247:325,1,85.0000016212464,0|0,0:0|0:0,0:0:0:0:
159,229,260991,70,0,P|176:173|223:144,1,100,0|0,3:0|0:0,0:0:0:0:
359,132,261252,1,0,3:0:0:0:
345,153,261340,2,0,L|266:155,1,50,0|0,3:0|0:0,0:0:0:0:
78,125,261514,1,0,0:0:0:0:
86,107,261601,1,0,3:0:0:0:
94,89,261688,2,0,L|157:85,1,50,0|0,3:0|0:0,0:0:0:0:
295,154,261863,2,0,L|358:158,1,50,0|0,3:0|0:0,0:0:0:0:
485,142,262037,6,0,B|438:125|374:128|345:157|345:157|373:208|458:205,1,225.000008583069,8|0,3:0|0:0,0:0:0:0:
401,283,262386,6,0,P|342:267|302:231,1,112.500004291535,0|0,3:0|0:0,0:0:0:0:
267,133,262735,1,8,0:0:0:0:
79,248,262909,70,0,P|127:244|179:271,1,75.0000028610231,0|0,0:0|0:0,0:0:0:0:
429,355,263084,2,0,P|362:351|332:324,1,75.0000028610231,0|0,0:0|0:0,0:0:0:0:
93,208,263259,2,0,P|127:241|185:254,1,75.0000028610231,0|0,3:0|0:0,0:0:0:0:
290,262,263433,2,0,P|336:249|377:205,1,75.0000028610231,8|0,0:0|0:0,0:0:0:0:
512,116,263607,2,0,P|464:119|410:92,1,75.0000028610231,0|0,0:0|0:0,0:0:0:0:
322,25,263781,2,0,P|274:21|220:48,1,75.0000028610231,0|0,3:0|0:0,0:0:0:0:
74,115,263956,2,0,P|121:118|175:91,1,75.0000028610231,0|0,0:0|0:0,0:0:0:0:
276,200,264130,6,0,L|267:135,1,50,12|0,0:0|0:0,0:0:0:0:
369,220,264305,1,4,0:0:0:0:
364,193,264392,2,0,L|349:83,1,100,0|0,3:0|0:0,0:0:0:0:
497,242,264654,2,0,L|447:248,1,50,0|0,3:0|0:0,0:0:0:0:
309,289,264828,6,0,L|315:338,1,50,4|0,0:0|0:0,0:0:0:0:
218,310,265002,2,0,L|224:359,1,50,4|0,0:0|0:0,0:0:0:0:
182,198,265177,86,0,L|179:184,60,9.37500035762788
194,164,266572,6,0,L|282:148,1,75
405,124,266747,2,0,L|334:136,1,50,0|0,0:0|0:0,0:0:0:0:
193,126,266921,70,0,L|281:141,1,75,0|0,0:0|0:0,0:0:0:0:
405,161,267096,2,0,L|334:149,1,50,0|0,0:0|0:0,0:0:0:0:
193,126,267270,6,0,B|171:157|171:157|126:177,1,75
95,195,267444,2,0,P|79:162|80:124,1,75.0000028610231
79,124,267576,2,0,P|95:157|95:194,1,75.0000028610231
95,195,267706,2,0,P|79:162|80:124,1,75.0000028610231
79,124,267837,2,0,P|95:157|95:194,1,75.0000028610231
102,203,267967,6,0,P|149:189|215:209,1,112.500004291535,0|0,3:0|0:0,0:0:0:0:
318,267,268316,70,0,L|300:368,1,62.5,2|0,3:2|0:0,0:0:0:0:
377,179,268491,2,0,L|359:78,1,62.5,2|0,0:0|0:0,0:0:0:0:
308,277,268665,2,0,L|290:378,1,62.5,2|0,0:0|0:0,0:0:0:0:
351,102,268840,1,0,3:0:0:0:
407,267,269014,6,0,L|495:246,1,62.5,10|0,0:0|0:0,0:0:0:0:
280,189,269188,2,0,L|219:174,1,62.5,2|0,0:0|0:0,0:0:0:0:
424,277,269363,2,0,L|512:256,1,62.5,2|0,0:0|0:0,0:0:0:0:
206,184,269537,1,0,3:0:0:0:
370,107,269712,6,0,L|380:29,1,62.5,2|0,0:0|0:0,0:0:0:0:
242,44,269886,1,0,0:0:0:0:
234,67,269973,1,0,0:0:0:0:
226,91,270061,2,0,P|197:102|155:92,1,62.5,2|0,0:0|0:0,0:0:0:0:
25,64,270235,2,0,P|61:59|90:75,1,62.5,0|0,3:0|0:0,0:0:0:0:
137,222,270409,70,0,P|31:190|91:115,1,187.5,8|0,0:0|0:0,0:0:0:0:
226,91,270758,6,0,L|240:212,1,112.500004291535,0|0,3:0|0:0,0:0:0:0:
305,251,271107,6,0,L|396:262,1,62.5,10|0,0:0|0:0,0:0:0:0:
200,309,271281,2,0,L|109:320,1,62.5,2|0,0:0|0:0,0:0:0:0:
377,272,271456,69,2,0:0:0:0:
346,268,271543,1,0,0:0:0:0:
315,265,271630,2,0,L|324:328,1,62.5,0|0,3:0|0:0,0:0:0:0:
240,170,271805,6,0,L|319:160,1,62.5,10|0,0:0|0:0,0:0:0:0:
137,222,271979,2,0,L|58:212,1,62.5,2|0,0:0|0:0,0:0:0:0:
307,147,272154,5,2,0:0:0:0:
275,150,272241,1,0,0:0:0:0:
244,154,272328,2,0,L|255:91,1,62.5,0|0,3:0|0:0,0:0:0:0:
377,60,272502,70,0,L|456:70,1,62.5,8|0,0:0|0:0,0:0:0:0:
274,8,272676,2,0,L|195:18,1,62.5,0|0,0:0|0:0,0:0:0:0:
134,108,272851,6,0,P|210:110|237:186,1,150.000005722046,0|0,0:0|0:0,0:0:0:0:
148,273,273113,1,0,3:0:0:0:
138,256,273200,86,0,B|121:251|121:215|157:207|174:231|174:231|208:273|265:263|276:247,1,187.5,8|0,3:0|0:0,0:0:0:0:
328,127,273549,6,0,P|276:126|238:178,1,112.500004291535,0|0,3:0|0:0,0:0:0:0:
138,256,273898,6,0,L|47:267,1,62.5,10|0,0:0|0:0,0:0:0:0:
243,314,274072,2,0,L|334:325,1,62.5,2|0,0:0|0:0,0:0:0:0:
65,277,274247,69,0,0:0:0:0:
96,273,274334,1,0,0:0:0:0:
128,270,274421,2,0,L|119:333,1,62.5,0|0,3:0|0:0,0:0:0:0:
228,236,274596,6,0,L|307:246,1,62.5,10|0,0:0|0:0,0:0:0:0:
125,184,274770,2,0,L|46:194,1,62.5,0|0,0:0|0:0,0:0:0:0:
295,259,274945,5,2,0:0:0:0:
263,256,275032,1,0,0:0:0:0:
232,252,275119,2,0,L|243:315,1,62.5,0|0,0:0|0:0,0:0:0:0:
228,132,275293,70,0,L|307:122,1,62.5,8|0,0:0|0:0,0:0:0:0:
125,184,275467,2,0,L|46:174,1,62.5,0|0,0:0|0:0,0:0:0:0:
215,94,275642,6,0,P|285:49|338:62,1,75.0000028610231,0|0,0:0|0:0,0:0:0:0:
430,83,275816,1,0,3:0:0:0:
426,136,275904,1,0,3:0:0:0:
429,195,275991,6,0,B|388:182|388:182|297:204|297:204|366:228,1,187.5,8|0,0:0|0:0,0:0:0:0:
415,306,276340,70,0,L|429:194,1,112.500004291535,0|0,3:0|0:0,0:0:0:0:
416,164,276688,1,8,0:0:0:0:
216,90,276863,6,0,L|258:81,1,37.5000014305115,0|0,3:0|0:0,0:0:0:0:
123,142,277037,2,0,L|165:151,1,37.5000014305115,0|0,3:0|0:0,0:0:0:0:
45,79,277212,1,8,0:0:0:0:
240,125,277386,6,0,L|268:93,1,37.5000014305115,0|0,3:0|0:0,0:0:0:0:
195,221,277560,2,0,L|234:203,1,37.5000014305115,0|0,3:0|3:0,0:0:0:0:
95,216,277735,1,8,0:0:0:0:
279,138,277910,70,0,L|283:95,1,37.5000014305115,0|0,3:0|0:0,0:0:0:0:
299,242,278084,2,0,L|320:204,1,37.5000014305115,0|0,3:0|0:0,0:0:0:0:
215,297,278259,1,8,0:0:0:0:
314,125,278433,5,0,3:0:0:0:
306,138,278520,1,0,3:0:0:0:
302,156,278607,1,0,3:0:0:0:
308,177,278694,1,0,3:0:0:0:
325,196,278781,5,0,3:0:0:0:
353,205,278869,1,0,3:0:0:0:
385,194,278956,1,0,3:0:0:0:
413,170,279043,1,0,3:0:0:0:
431,133,279130,70,0,P|392:112|328:142,1,112.500004291535,0|0,3:0|0:0,0:0:0:0:
290,219,279479,6,0,L|387:190,1,62.5,10|0,0:0|0:0,0:0:0:0:
193,241,279654,2,0,L|96:212,1,62.5,2|0,0:0|0:0,0:0:0:0:
309,232,279828,2,0,L|406:203,1,62.5,2|0,0:0|0:0,0:0:0:0:
125,205,280002,1,0,3:0:0:0:
241,302,280177,6,0,L|234:372,1,62.5,10|0,0:0|0:0,0:0:0:0:
258,144,280351,2,0,L|251:74,1,62.5,2|0,0:0|0:0,0:0:0:0:
229,288,280526,2,0,L|222:358,1,62.5,2|0,0:0|0:0,0:0:0:0:
265,70,280700,1,0,3:0:0:0:
324,241,280874,70,0,L|402:231,1,62.5,10|0,0:0|0:0,0:0:0:0:
194,132,281048,1,0,0:0:0:0:
169,135,281135,1,0,0:0:0:0:
147,148,281223,2,0,P|136:177|146:219,1,62.5,2|0,0:0|0:0,0:0:0:0:
329,299,281397,2,0,P|334:263|318:234,1,62.5,0|0,3:0|0:0,0:0:0:0:
123,309,281572,6,0,P|169:276|156:224,1,112.500004291535,8|0,3:0|0:0,0:0:0:0:
253,184,281921,6,0,P|316:155|371:176,1,112.500004291535,0|0,3:0|0:0,0:0:0:0:
420,262,282270,70,0,L|517:291,1,62.5,10|0,0:0|0:0,0:0:0:0:
323,240,282445,2,0,L|226:269,1,62.5,2|0,0:0|0:0,0:0:0:0:
439,249,282619,2,0,L|536:278,1,62.5,2|0,0:0|0:0,0:0:0:0:
248,247,282793,1,0,3:0:0:0:
402,169,282967,6,0,L|381:81,1,62.5,10|0,0:0|0:0,0:0:0:0:
357,307,283141,2,0,L|342:367,1,62.5,2|0,0:0|0:0,0:0:0:0:
412,152,283316,2,0,L|391:64,1,62.5,2|0,0:0|0:0,0:0:0:0:
352,381,283490,1,0,3:0:0:0:
425,243,283665,6,0,L|497:223,1,62.5,2|0,0:0|0:0,0:0:0:0:
294,202,283840,2,0,L|222:182,1,62.5,2|0,0:0|0:0,0:0:0:0:
429,227,284014,69,0,3:0:0:0:
449,203,284101,1,0,3:0:0:0:
459,173,284188,1,0,3:0:0:0:
459,141,284276,1,0,3:0:0:0:
442,93,284363,6,0,B|423:42|332:33|272:73|272:73|303:168|401:115,1,300,8|0,3:0|0:0,0:0:0:0:
485,226,284712,6,0,P|441:209|371:231,1,112.500004291535,0|0,3:0|0:0,0:0:0:0:
231,265,285061,70,0,L|140:276,1,62.5,8|0,0:0|0:0,0:0:0:0:
336,323,285235,2,0,L|427:334,1,62.5,0|0,0:0|0:0,0:0:0:0:
158,286,285410,5,0,0:0:0:0:
189,282,285497,1,0,0:0:0:0:
221,279,285584,2,0,L|212:342,1,62.5,0|0,3:0|0:0,0:0:0:0:
278,177,285758,6,0,L|251:84,1,62.5,8|0,0:0|0:0,0:0:0:0:
353,262,285933,2,0,L|326:355,1,62.5,0|0,0:0|0:0,0:0:0:0:
238,103,286107,69,0,0:0:0:0:
247,133,286194,1,0,0:0:0:0:
254,162,286281,2,0,L|192:189,1,62.5,0|0,3:0|0:0,0:0:0:0:
354,261,286456,6,0,L|425:277,1,62.5,8|0,0:0|0:0,0:0:0:0:
239,329,286630,2,0,L|168:345,1,62.5,0|0,0:0|0:0,0:0:0:0:
404,257,286805,5,0,3:0:0:0:
373,250,286892,1,0,3:0:0:0:
343,242,286979,1,0,3:0:0:0:
318,252,287066,1,0,3:0:0:0:
301,275,287154,86,0,P|218:301|209:184,1,187.5,8|0,3:0|0:0,0:0:0:0:
227,85,287502,54,0,B|264:123|262:177|262:177|230:169|220:139,1,150,0|0,3:0|0:0,0:0:0:0:
144,102,287851,1,8,0:0:0:0:
41,230,288026,1,0,0:0:0:0:
64,222,288113,1,0,0:0:0:0:
88,217,288200,1,0,0:0:0:0:
112,216,288287,1,0,0:0:0:0:
162,235,288374,6,0,P|180:272|176:309,1,50,0|0,0:0|0:0,0:0:0:0:
297,243,288549,85,0,0:0:0:0:
285,209,288636,1,0,0:0:0:0:
288,174,288723,1,0,0:0:0:0:
300,140,288811,1,0,0:0:0:0:
342,101,288898,6,0,P|382:106|431:148,1,100,0|0,0:0|0:0,0:0:0:0:
398,273,289159,2,0,P|380:234|382:218,1,50,0|0,0:0|0:0,0:0:0:0:
477,290,289334,1,0,0:0:0:0:
475,304,289421,86,0,P|410:357|358:342,1,100,0|0,0:0|0:0,0:0:0:0:
308,190,289683,1,0,0:0:0:0:
326,171,289770,2,0,P|348:155|376:152,1,50,4|4,0:3|0:3,0:0:0:0:
258,300,289944,21,0,3:0:0:0:
199,252,290031,1,0,3:0:0:0:
174,180,290119,1,0,3:0:0:0:
184,105,290206,1,0,3:0:0:0:
268,77,290293,5,4,0:1:0:0:
331,341,301456,53,0,0:0:0:0:
216,257,302154,2,0,L|204:181,1,59.9999981689454,0|0,0:0|0:0,0:0:0:0:
331,341,302852,1,0,0:0:0:0:
216,257,303549,1,0,0:0:0:0:
331,341,304247,5,0,0:0:0:0:
331,341,304421,2,0,L|338:286,1,29.9999990844727,0|0,0:0|0:0,0:0:0:0:
225,267,304770,1,0,0:0:0:0:
216,257,304945,2,0,L|228:181,1,59.9999981689454,0|0,0:0|0:0,0:0:0:0:
331,341,305642,85,0,0:0:0:0:
331,341,305816,1,0,0:0:0:0:
216,257,305991,2,0,L|209:202,1,29.9999990844727,0|0,0:0|0:0,0:0:0:0:
264,155,306340,1,0,0:0:0:0:
264,155,306688,1,0,0:0:0:0:
147,329,307038,5,0,0:0:0:0:
264,224,307561,1,0,0:0:0:0:
273,214,307736,2,0,L|261:138,1,59.9999981689454,0|0,0:0|0:0,0:0:0:0:
255,142,308259,1,0,0:0:0:0:
147,329,308433,85,0,0:0:0:0:
314,280,309131,2,0,L|307:249,1,29.9999990844727,0|0,0:0|0:0,0:0:0:0:
228,206,309480,2,0,L|235:175,1,29.9999990844727,0|0,0:0|0:0,0:0:0:0:
147,329,309828,6,0,B|141:285|141:285|137:313,1,59.9999981689454,0|0,0:0|0:0,0:0:0:0:
67,328,310352,1,0,0:0:0:0:
156,332,310526,2,0,B|146:262,1,59.9999981689454,0|0,0:0|0:0,0:0:0:0:
67,328,311049,1,0,0:0:0:0:
258,341,311224,86,0,L|262:309,2,29.9999990844727
328,260,311747,2,0,L|324:228,2,29.9999990844727,0|0|0,0:0|0:0|0:0,0:0:0:0:
258,179,312270,38,0,L|265:122,1,52.4999983978272,0|0,0:0|0:0,0:0:0:0:
