osu file format v14

[General]
AudioFilename: audio.mp3
AudioLeadIn: 0
PreviewTime: 46875
Countdown: 1
SampleSet: Normal
StackLeniency: 0.7
Mode: 0
LetterboxInBreaks: 0
WidescreenStoryboard: 0

[Editor]
DistanceSpacing: 1.6
BeatDivisor: 4
GridSize: 16
TimelineZoom: 2.5

[Metadata]
Title:Serialy
TitleUnicode:Serialy
Artist:Teeraps
ArtistUnicode:Teeraps
Creator:dima21
Version:DiGiTaL
Source:
Tags:
BeatmapID:1968616
BeatmapSetID:942715

[Difficulty]
HPDrainRate:3.2
CircleSize:3.3
OverallDifficulty:8.7
ApproachRate:9.8
SliderMultiplier:2.49999990463257
SliderTickRate:1

[Events]
//Background and Video events
0,0,"can-t-stop-lovin-you-by-c85.jpg",0,0
//Break Periods
//Storyboard Layer 0 (Background)
//Storyboard Layer 1 (Fail)
//Storyboard Layer 2 (Pass)
//Storyboard Layer 3 (Foreground)
//Storyboard Sound Samples

[TimingPoints]
9675,300,4,1,0,32,1,0
31875,-83.3333333333333,4,1,0,32,0,0
38475,-142.857142857143,4,1,0,32,0,0
47475,-71.4285714285714,4,1,0,32,0,0
48075,-62.5,4,1,0,32,0,1
57675,-55.5555555555556,4,1,0,32,0,1
66075,-166.666666666667,4,1,0,32,0,0

[HitObjects]
321,138,9375,6,0,B|326:202|326:202|311:289,1,124.999995231628
122,283,9675,2,0,B|117:219|117:219|132:132,2,124.999995231628
237,371,10125,5,0,0:0:0:0:
325,261,10275,2,0,B|335:201|335:201|330:137,1,124.999995231628
116,161,10575,2,0,B|105:220|105:220|110:284,1,124.999995231628
235,357,10875,5,0,0:0:0:0:
361,369,11025,1,0,0:0:0:0:
310,259,11175,1,0,0:0:0:0:
232,348,11325,1,0,0:0:0:0:
374,375,11475,2,0,B|426:334|426:334|464:255,1,124.999995231628
263,131,11775,5,0,0:0:0:0:
449,259,11925,1,0,0:0:0:0:
255,124,12075,2,0,B|203:165|203:165|165:244,1,124.999995231628
332,195,12375,6,0,P|360:123|324:59,1,124.999995231628
109,43,12675,1,0,0:0:0:0:
251,130,12825,1,0,0:0:0:0:
60,155,12975,1,0,0:0:0:0:
246,19,13125,1,0,0:0:0:0:
48,166,13275,6,0,P|44:238|68:293,2,124.999995231628
258,37,13725,1,0,0:0:0:0:
39,169,13875,2,0,P|35:241|59:296,1,124.999995231628
229,324,14175,5,0,0:0:0:0:
68,304,14325,1,0,0:0:0:0:
234,332,14475,2,0,B|299:348|299:348|386:326,1,124.999995231628
174,190,14775,5,0,0:0:0:0:
174,190,14925,1,0,0:0:0:0:
436,134,15075,2,0,B|371:118|371:118|284:140,1,124.999995231628
362,327,15375,5,0,0:0:0:0:
306,129,15525,1,0,0:0:0:0:
355,333,15675,2,0,B|299:348|299:348|234:332,1,124.999995231628
68,304,15975,5,0,0:0:0:0:
229,324,16125,1,0,0:0:0:0:
54,289,16275,2,0,P|33:230|39:169,1,124.999995231628
116,23,16575,5,0,0:0:0:0:
120,30,16725,1,0,0:0:0:0:
122,219,16875,2,0,P|160:234|123:210,1,124.999995231628
247,256,17175,2,0,P|247:189|187:114,1,124.999995231628
110,38,17475,5,0,0:0:0:0:
98,44,17625,1,0,0:0:0:0:
216,127,17775,5,0,0:0:0:0:
74,177,17925,1,0,0:0:0:0:
261,144,18075,5,0,0:0:0:0:
114,297,18225,1,0,0:0:0:0:
312,141,18375,5,0,0:0:0:0:
220,360,18525,1,0,0:0:0:0:
357,105,18675,5,0,0:0:0:0:
381,378,18825,1,0,0:0:0:0:
357,105,18975,5,0,0:0:0:0:
357,105,19125,1,0,0:0:0:0:
292,231,19275,6,0,P|206:244|163:227,1,124.999995231628
236,103,19575,2,0,P|296:88|356:104,1,124.999995231628
407,253,19875,1,0,0:0:0:0:
407,263,19950,1,0,0:0:0:0:
408,271,20025,2,0,L|405:345,1,62.4999976158143
297,363,20175,6,0,L|299:223,1,124.999995231629
156,99,20475,6,0,L|154:239,1,124.999995231629
304,218,20775,1,0,0:0:0:0:
146,241,20925,1,0,0:0:0:0:
308,204,21075,6,0,B|376:186|376:186|463:205,1,124.999995231629
430,366,21375,2,0,B|362:384|362:384|275:365,1,124.999995231629
139,248,21675,2,0,B|121:180|121:180|140:93,1,124.999995231629
316,48,21975,5,0,0:0:0:0:
286,209,22125,1,0,0:0:0:0:
130,260,22275,2,0,P|-6:249|-45:214,1,124.999995231629
283,197,22575,5,0,0:0:0:0:
283,197,22725,1,0,0:0:0:0:
168,33,22875,5,0,0:0:0:0:
352,110,23025,1,0,0:0:0:0:
158,159,23175,1,0,0:0:0:0:
284,4,23325,1,0,0:0:0:0:
158,159,23475,2,0,L|160:288,1,124.999995231629
257,359,23775,5,0,0:0:0:0:
256,345,23850,1,0,0:0:0:0:
256,331,23925,2,0,L|255:225,1,62.4999976158143
234,112,24075,6,0,P|206:85|98:91,1,124.999995231629
47,257,24375,2,0,P|75:284|183:278,1,124.999995231629
264,256,24675,5,0,0:0:0:0:
157,292,24825,1,0,0:0:0:0:
299,278,24975,5,0,0:0:0:0:
157,292,25125,1,0,0:0:0:0:
325,320,25275,5,0,0:0:0:0:
163,299,25425,1,0,0:0:0:0:
361,358,25575,5,0,0:0:0:0:
163,299,25725,1,0,0:0:0:0:
441,358,25875,6,0,P|483:306|479:231,1,124.999995231629
390,250,26175,2,0,P|398:292|401:255,1,124.999995231629
420,168,26475,2,0,P|353:171|289:253,1,124.999995231629
244,376,26775,5,0,0:0:0:0:
248,383,26925,1,0,0:0:0:0:
296,213,27075,5,0,0:0:0:0:
163,299,27225,1,0,0:0:0:0:
315,127,27375,5,0,0:0:0:0:
164,175,27525,1,0,0:0:0:0:
449,176,27675,5,0,0:0:0:0:
298,128,27825,1,0,0:0:0:0:
450,300,27975,5,0,0:0:0:0:
317,214,28125,1,0,0:0:0:0:
181,296,28275,2,0,B|117:315|117:315|33:291,1,124.999995231629
153,59,28575,5,0,0:0:0:0:
48,292,28725,1,0,0:0:0:0:
158,73,28875,5,0,0:0:0:0:
163,77,29025,1,0,0:0:0:0:
295,325,29175,5,0,0:0:0:0:
299,334,29325,1,0,0:0:0:0:
151,66,29475,2,0,B|95:50|95:50|31:69,1,124.999995231629
277,129,29775,5,0,0:0:0:0:
299,334,29925,1,0,0:0:0:0:
466,213,30075,5,0,0:0:0:0:
277,129,30225,2,0,B|248:189|248:189|255:247,1,124.999995231629
466,213,30525,5,0,0:0:0:0:
277,129,30675,2,0,B|221:113|221:113|157:132,1,124.999995231629
48,240,30975,5,0,0:0:0:0:
48,240,31050,1,0,0:0:0:0:
48,240,31125,1,0,0:0:0:0:
160,141,31275,5,0,0:0:0:0:
99,335,31425,1,0,0:0:0:0:
197,66,31575,5,0,0:0:0:0:
258,260,31725,1,0,0:0:0:0:
196,54,31875,2,0,P|89:86|67:145,1,149.999989700318
266,250,32175,5,0,0:0:0:0:
53,234,32325,1,0,0:0:0:0:
299,133,32475,5,0,0:0:0:0:
129,320,32625,1,0,0:0:0:0:
190,42,32775,5,0,0:0:0:0:
405,228,32925,1,0,0:0:0:0:
190,42,33075,2,0,B|120:79|120:79|83:164,1,149.999989700318
305,344,33375,6,0,B|375:307|375:307|412:222,1,149.999989700318
100,157,33675,5,0,0:0:0:0:
100,157,33825,1,0,0:0:0:0:
405,228,33975,5,0,0:0:0:0:
405,228,34125,1,0,0:0:0:0:
131,237,34275,5,0,0:0:0:0:
358,121,34425,1,0,0:0:0:0:
214,331,34575,1,0,0:0:0:0:
240,77,34725,1,0,0:0:0:0:
344,309,34875,5,0,0:0:0:0:
229,81,35025,1,0,0:0:0:0:
344,309,35175,2,0,P|417:326|499:275,1,149.999989700318
222,86,35475,6,0,P|191:153|210:224,1,149.999989700318
405,228,35775,1,0,0:0:0:0:
405,228,35850,1,0,0:0:0:0:
405,228,35925,1,0,0:0:0:0:
218,234,36075,5,0,0:0:0:0:
386,133,36225,1,0,0:0:0:0:
222,86,36375,1,0,0:0:0:0:
464,169,36525,1,0,0:0:0:0:
219,91,36675,2,0,B|139:109|139:109|74:170,1,149.999989700318
229,242,36975,1,0,0:0:0:0:
77,161,37125,1,0,0:0:0:0:
310,163,37275,5,0,0:0:0:0:
72,180,37425,1,0,0:0:0:0:
308,29,37575,5,0,0:0:0:0:
134,280,37725,1,0,0:0:0:0:
321,35,37875,6,0,P|400:64|448:160,1,149.999989700318
423,255,38175,2,0,P|344:226|296:130,1,149.999989700318
205,86,38475,6,0,P|126:84|223:112,1,349.999975967408
71,253,39375,5,0,0:0:0:0:
71,253,39675,2,0,P|224:272|312:93,1,349.999975967408
422,12,40575,5,0,0:0:0:0:
432,16,40875,2,0,B|464:96|432:176|432:176|464:192|464:192|432:288|464:368,1,349.999975967408
299,95,41775,5,0,0:0:0:0:
299,95,42075,2,0,B|245:121|192:96|192:96|232:140|208:208|208:208|128:224|112:144,1,349.999975967408
38,27,42975,5,0,0:0:0:0:
38,27,43275,2,0,B|54:123|38:251|38:251|70:171|118:155,1,349.999975967408
304,96,44175,5,0,0:0:0:0:
304,96,44475,2,0,B|352:160|416:160|416:160|384:176|368:208|368:208|416:272|368:352,1,349.999975967408
34,354,45375,5,0,0:0:0:0:
41,345,45675,2,0,B|169:345|169:345|217:313|217:313|265:345|265:345|393:345,1,349.999975967408
160,208,46575,5,0,0:0:0:0:
160,208,46875,2,0,P|64:224|144:160,1,262.499981975556
288,256,47475,6,0,P|384:272|464:240,1,174.999987983704
368,64,47775,6,0,P|272:48|192:80,1,174.999987983704
160,208,48075,5,0,0:0:0:0:
90,30,48225,1,0,0:0:0:0:
92,269,48375,5,0,0:0:0:0:
162,91,48525,1,0,0:0:0:0:
302,321,48675,5,0,0:0:0:0:
232,143,48825,1,0,0:0:0:0:
363,250,48975,5,0,0:0:0:0:
172,219,49125,1,0,0:0:0:0:
363,250,49275,6,0,B|503:247|503:247|435:192,1,199.999992370606
231,130,49575,2,0,B|184:92|184:92|324:89,1,199.999992370606
467,115,49875,5,0,0:0:0:0:
412,336,50025,1,0,0:0:0:0:
255,122,50175,5,0,0:0:0:0:
310,343,50325,1,0,0:0:0:0:
188,60,50475,5,0,0:0:0:0:
133,281,50625,1,0,0:0:0:0:
79,102,50775,5,0,0:0:0:0:
242,260,50925,1,0,0:0:0:0:
40,210,51075,5,0,0:0:0:0:
258,147,51225,1,0,0:0:0:0:
133,281,51375,5,0,0:0:0:0:
188,60,51525,1,0,0:0:0:0:
375,224,51675,6,0,P|453:214|371:208,1,199.999992370606
273,174,51975,2,0,P|176:204|73:165,1,199.999992370606
38,49,52275,5,0,0:0:0:0:
129,292,52425,1,0,0:0:0:0:
308,80,52575,5,0,0:0:0:0:
217,324,52725,1,0,0:0:0:0:
206,39,52875,5,0,0:0:0:0:
297,282,53025,1,0,0:0:0:0:
462,83,53175,5,0,0:0:0:0:
371,326,53325,1,0,0:0:0:0:
205,125,53475,5,0,0:0:0:0:
462,83,53625,1,0,0:0:0:0:
139,179,53775,5,0,0:0:0:0:
396,221,53925,1,0,0:0:0:0:
142,187,54075,6,0,B|99:229|30:188|30:188|39:126|102:132,1,199.999992370606
270,175,54375,2,0,B|307:181|316:119|316:119|247:78|204:120,1,199.999992370606
80,342,54675,5,0,0:0:0:0:
141,49,54825,1,0,0:0:0:0:
278,315,54975,5,0,0:0:0:0:
217,22,55125,1,0,0:0:0:0:
350,369,55275,5,0,0:0:0:0:
411,76,55425,1,0,0:0:0:0:
126,170,55575,5,0,0:0:0:0:
350,369,55725,1,0,0:0:0:0:
95,87,55875,5,0,0:0:0:0:
373,197,56025,1,0,0:0:0:0:
18,32,56175,5,0,0:0:0:0:
317,40,56325,1,0,0:0:0:0:
93,93,56475,6,0,B|64:193|64:193|91:319,1,199.999992370606
214,208,56775,2,0,B|243:108|243:108|216:-18,1,199.999992370606
14,26,57075,5,0,0:0:0:0:
222,14,57225,1,0,0:0:0:0:
44,175,57375,5,0,0:0:0:0:
241,109,57525,1,0,0:0:0:0:
199,312,57675,5,0,0:0:0:0:
404,103,57825,1,0,0:0:0:0:
321,383,57975,5,0,0:0:0:0:
241,109,58125,1,0,0:0:0:0:
492,258,58275,5,0,0:0:0:0:
199,312,58425,1,0,0:0:0:0:
492,258,58575,5,0,0:0:0:0:
199,312,58725,1,0,0:0:0:0:
492,258,58875,6,0,B|484:134|484:134|398:22,1,224.999984550477
129,108,59175,2,0,B|137:232|137:232|223:344,1,224.999984550477
422,54,59475,5,0,0:0:0:0:
198,311,59625,1,0,0:0:0:0:
334,27,59775,5,0,0:0:0:0:
416,357,59925,1,0,0:0:0:0:
91,262,60075,5,0,0:0:0:0:
334,27,60225,1,0,0:0:0:0:
198,305,60375,5,0,0:0:0:0:
0,35,60525,1,0,0:0:0:0:
334,27,60675,5,0,0:0:0:0:
198,305,60825,1,0,0:0:0:0:
248,36,60975,5,0,0:0:0:0:
384,314,61125,1,0,0:0:0:0:
237,38,61275,6,0,B|163:4|113:66|113:66|150:149|241:94,1,224.999984550477
360,218,61575,2,0,B|441:217|461:294|461:294|394:354|333:267,1,224.999984550477
199,296,61875,5,0,0:0:0:0:
459,47,62025,1,0,0:0:0:0:
121,51,62175,5,0,0:0:0:0:
470,136,62325,1,0,0:0:0:0:
110,132,62475,5,0,0:0:0:0:
459,47,62625,1,0,0:0:0:0:
121,221,62775,5,0,0:0:0:0:
470,136,62925,1,0,0:0:0:0:
112,138,63075,5,0,0:0:0:0:
461,223,63225,1,0,0:0:0:0:
166,53,63375,5,0,0:0:0:0:
412,314,63525,1,0,0:0:0:0:
166,53,63675,6,0,P|20:104|36:208,1,224.999984550477
265,291,63975,2,0,B|208:234|208:234|174:223|174:223|163:189|163:189|72:98,1,224.999984550477
32,320,64275,5,0,0:0:0:0:
176,48,64425,1,0,0:0:0:0:
240,304,64575,5,0,0:0:0:0:
96,32,64725,1,0,0:0:0:0:
160,288,64875,5,0,0:0:0:0:
304,16,65025,1,0,0:0:0:0:
368,288,65175,5,0,0:0:0:0:
224,16,65325,1,0,0:0:0:0:
306,344,65475,5,0,0:0:0:0:
450,72,65625,1,0,0:0:0:0:
208,160,65775,5,0,0:0:0:0:
508,228,65925,1,0,0:0:0:0:
208,160,66075,6,0,P|80:272|240:224,1,449.999969100953
