osu file format v14

[General]
AudioFilename: audio.mp3
AudioLeadIn: 0
PreviewTime: 16000
Countdown: 0
SampleSet: Normal
StackLeniency: 0.7
Mode: 1
LetterboxInBreaks: 0
WidescreenStoryboard: 0

[Editor]
Bookmarks: 3200,16000,28800,41600,54400,67200,73600
DistanceSpacing: 0.8
BeatDivisor: 4
GridSize: 32
TimelineZoom: 1

[Metadata]
Title:Mean Bean Machine
TitleUnicode:Mean Bean Machine
Artist:Tee Lopes
ArtistUnicode:Tee Lopes
Creator:Supairo
Version:Futsuu
Source:Sonic Mania
Tags:Final of Puyo Puyo Remix Dr. Robotnik Two Player Mode Chemical Plant Zone Act 2 Boss SEGA
BeatmapID:1406236
BeatmapSetID:664397

[Difficulty]
HPDrainRate:7
CircleSize:5
OverallDifficulty:4
ApproachRate:5
SliderMultiplier:1.4
SliderTickRate:2

[Events]
//Background and Video events
0,0,"bg.png",0,0
//Break Periods
//Storyboard Layer 0 (Background)
//Storyboard Layer 1 (Fail)
//Storyboard Layer 2 (Pass)
//Storyboard Layer 3 (Foreground)
//Storyboard Sound Samples

[TimingPoints]
0,400,4,2,0,80,1,0
3200,-100,4,1,0,80,0,0
14800,-100,4,2,0,80,0,0
16000,-100,4,1,0,80,0,0
41600,-100,4,1,0,80,0,1
67200,-100,4,1,0,80,0,0
75200,-100,4,1,0,70,0,0
76800,-100,4,1,0,60,0,0
78400,-100,4,1,0,50,0,0
80000,-100,4,1,0,40,0,0
81600,-100,4,1,0,30,0,0
83200,-100,4,1,0,20,0,0

[HitObjects]
256,160,400,5,8,0:0:0:0:
256,160,1000,1,8,0:0:0:0:
256,160,1600,1,8,0:0:0:0:
256,160,2200,1,8,0:0:0:0:
256,160,2800,1,8,0:0:0:0:
256,224,3200,5,0,0:0:0:0:
256,160,3600,1,8,0:0:0:0:
256,224,4000,1,0,0:0:0:0:
256,160,4200,1,8,0:0:0:0:
256,160,4800,1,8,0:0:0:0:
256,224,5200,1,0,0:0:0:0:
256,160,5400,1,8,0:0:0:0:
256,160,6000,1,8,0:0:0:0:
256,160,6200,1,8,0:0:0:0:
256,224,6400,1,0,0:0:0:0:
256,160,6800,1,8,0:0:0:0:
256,224,7200,1,0,0:0:0:0:
256,160,7400,1,8,0:0:0:0:
256,160,8000,1,8,0:0:0:0:
256,224,8400,1,0,0:0:0:0:
256,160,8600,1,8,0:0:0:0:
256,160,9200,1,8,0:0:0:0:
256,160,9400,1,8,0:0:0:0:
256,224,9600,1,0,0:0:0:0:
256,160,10000,1,8,0:0:0:0:
256,224,10400,1,0,0:0:0:0:
256,160,10600,1,8,0:0:0:0:
256,160,11200,1,8,0:0:0:0:
256,224,11600,1,0,0:0:0:0:
256,160,11800,1,8,0:0:0:0:
256,160,12400,1,8,0:0:0:0:
256,160,12600,1,8,0:0:0:0:
256,224,12800,1,0,0:0:0:0:
256,160,13200,1,8,0:0:0:0:
256,224,13600,1,0,0:0:0:0:
256,160,13800,1,8,0:0:0:0:
256,160,14400,1,12,0:0:0:0:
256,224,16000,5,0,0:0:0:0:
256,160,16200,1,8,0:0:0:0:
256,160,16400,1,8,0:0:0:0:
256,160,16800,1,8,0:0:0:0:
256,160,17000,1,8,0:0:0:0:
256,160,17600,1,8,0:0:0:0:
256,160,18000,1,8,0:0:0:0:
256,160,18200,1,8,0:0:0:0:
256,160,18600,1,8,0:0:0:0:
256,224,18800,1,0,0:0:0:0:
256,224,19200,1,0,0:0:0:0:
256,160,19400,1,8,0:0:0:0:
256,160,19800,1,8,0:0:0:0:
256,160,20000,1,8,0:0:0:0:
256,160,20600,1,8,0:0:0:0:
256,224,21000,1,0,0:0:0:0:
256,160,21200,1,8,0:0:0:0:
256,224,21600,1,4,0:0:0:0:
256,224,22400,1,0,0:0:0:0:
256,160,22600,1,8,0:0:0:0:
256,160,22800,1,8,0:0:0:0:
256,160,23200,1,8,0:0:0:0:
256,160,23400,1,8,0:0:0:0:
256,160,24000,1,8,0:0:0:0:
256,160,24400,1,8,0:0:0:0:
256,160,24600,1,8,0:0:0:0:
256,160,25000,1,8,0:0:0:0:
256,224,25200,1,0,0:0:0:0:
256,224,25600,1,0,0:0:0:0:
256,160,25800,1,8,0:0:0:0:
256,160,26200,1,8,0:0:0:0:
256,160,26400,1,8,0:0:0:0:
256,160,27000,1,8,0:0:0:0:
256,224,27400,1,0,0:0:0:0:
256,160,27600,1,8,0:0:0:0:
256,224,28000,1,4,0:0:0:0:
256,224,28800,5,0,0:0:0:0:
256,160,29000,1,8,0:0:0:0:
256,224,29400,1,0,0:0:0:0:
256,160,29600,1,8,0:0:0:0:
256,224,30000,1,0,0:0:0:0:
256,160,30200,1,8,0:0:0:0:
256,224,30600,1,0,0:0:0:0:
256,160,30800,1,8,0:0:0:0:
256,160,31200,1,0,0:0:0:0:
256,160,31600,1,8,0:0:0:0:
256,224,32000,1,0,0:0:0:0:
256,160,32200,1,8,0:0:0:0:
256,224,32600,1,0,0:0:0:0:
256,160,32800,1,8,0:0:0:0:
256,224,33200,1,0,0:0:0:0:
256,160,33400,1,8,0:0:0:0:
256,224,33800,1,0,0:0:0:0:
256,160,34000,1,8,0:0:0:0:
256,160,34400,1,0,0:0:0:0:
256,160,34800,1,0,0:0:0:0:
256,224,35200,1,0,0:0:0:0:
256,160,35400,1,8,0:0:0:0:
256,224,35800,1,0,0:0:0:0:
256,160,36000,1,8,0:0:0:0:
256,224,36400,1,0,0:0:0:0:
256,160,36600,1,8,0:0:0:0:
256,224,37000,1,0,0:0:0:0:
256,160,37200,1,8,0:0:0:0:
256,160,37600,1,8,0:0:0:0:
256,160,38000,1,0,0:0:0:0:
256,224,38400,1,0,0:0:0:0:
256,160,38600,1,8,0:0:0:0:
256,224,39000,1,0,0:0:0:0:
256,160,39200,1,8,0:0:0:0:
256,224,39600,1,0,0:0:0:0:
256,160,39800,1,8,0:0:0:0:
256,224,40200,1,0,0:0:0:0:
256,160,40400,1,8,0:0:0:0:
256,160,40800,1,8,0:0:0:0:
256,160,41200,1,8,0:0:0:0:
256,224,41600,5,0,0:0:0:0:
256,224,41800,1,0,0:0:0:0:
256,160,42000,1,8,0:0:0:0:
256,224,42400,1,0,0:0:0:0:
256,160,42800,1,8,0:0:0:0:
256,224,43200,1,0,0:0:0:0:
256,160,43400,1,8,0:0:0:0:
256,224,43600,1,0,0:0:0:0:
256,160,44000,1,8,0:0:0:0:
256,224,44400,1,0,0:0:0:0:
256,224,44800,1,4,0:0:0:0:
256,224,45400,1,0,0:0:0:0:
256,160,45600,1,8,0:0:0:0:
256,160,45800,1,8,0:0:0:0:
256,224,46400,1,4,0:0:0:0:
256,224,47000,1,0,0:0:0:0:
256,160,47200,1,8,0:0:0:0:
256,160,47400,1,8,0:0:0:0:
256,160,48000,1,8,0:0:0:0:
256,224,48600,1,0,0:0:0:0:
256,160,48800,1,8,0:0:0:0:
256,224,49400,1,0,0:0:0:0:
256,160,49600,1,8,0:0:0:0:
256,224,50200,1,0,0:0:0:0:
256,160,50400,1,8,0:0:0:0:
256,224,51200,1,0,0:0:0:0:
256,160,51600,1,8,0:0:0:0:
256,224,52000,1,0,0:0:0:0:
256,160,52400,1,8,0:0:0:0:
256,224,52800,1,4,0:0:0:0:
256,224,54400,5,0,0:0:0:0:
256,224,54600,1,0,0:0:0:0:
256,160,54800,1,8,0:0:0:0:
256,224,55200,1,0,0:0:0:0:
256,160,55600,1,8,0:0:0:0:
256,224,56000,1,0,0:0:0:0:
256,224,56200,1,0,0:0:0:0:
256,160,56400,1,8,0:0:0:0:
256,224,56800,1,0,0:0:0:0:
256,160,57200,1,8,0:0:0:0:
256,160,57600,1,8,0:0:0:0:
256,224,57800,1,0,0:0:0:0:
256,224,58000,1,0,0:0:0:0:
256,160,58400,1,8,0:0:0:0:
256,224,58800,1,0,0:0:0:0:
256,160,59200,1,8,0:0:0:0:
256,160,59400,1,8,0:0:0:0:
256,224,59600,1,0,0:0:0:0:
256,160,60000,1,8,0:0:0:0:
256,160,60400,1,8,0:0:0:0:
256,224,60800,1,0,0:0:0:0:
256,224,61000,1,0,0:0:0:0:
256,160,61200,1,8,0:0:0:0:
256,160,61600,1,8,0:0:0:0:
256,160,62000,1,8,0:0:0:0:
256,160,62400,1,8,0:0:0:0:
256,224,62600,1,0,0:0:0:0:
256,160,62800,1,8,0:0:0:0:
256,224,63200,1,0,0:0:0:0:
256,160,63400,1,8,0:0:0:0:
256,224,63600,1,0,0:0:0:0:
256,160,64000,1,8,0:0:0:0:
256,224,64300,1,0,0:0:0:0:
256,160,64600,1,8,0:0:0:0:
256,224,64900,1,0,0:0:0:0:
256,160,65200,1,8,0:0:0:0:
256,224,65500,1,0,0:0:0:0:
256,160,65800,1,8,0:0:0:0:
256,224,66100,1,0,0:0:0:0:
32,32,66400,2,0,L|320:32,1,280
256,160,67400,5,12,0:0:0:0:
256,160,68000,1,12,0:0:0:0:
256,160,68600,1,12,0:0:0:0:
256,160,69000,1,12,0:0:0:0:
256,160,69600,1,12,0:0:0:0:
256,160,70200,1,12,0:0:0:0:
256,160,70600,1,12,0:0:0:0:
256,160,71200,1,12,0:0:0:0:
256,160,71800,1,12,0:0:0:0:
256,160,72200,1,12,0:0:0:0:
256,160,72800,1,12,0:0:0:0:
256,160,73400,1,12,0:0:0:0:
256,224,73600,5,0,0:0:0:0:
256,160,73800,1,8,0:0:0:0:
256,160,74000,1,8,0:0:0:0:
256,160,74400,1,8,0:0:0:0:
256,160,74600,1,8,0:0:0:0:
256,160,75200,1,8,0:0:0:0:
256,160,75600,1,8,0:0:0:0:
256,160,75800,1,8,0:0:0:0:
256,160,76200,1,8,0:0:0:0:
256,224,76400,1,0,0:0:0:0:
256,224,76800,1,0,0:0:0:0:
256,160,77000,1,8,0:0:0:0:
256,160,77400,1,8,0:0:0:0:
256,160,77600,1,8,0:0:0:0:
256,160,78200,1,8,0:0:0:0:
256,224,78600,1,0,0:0:0:0:
256,160,78800,1,8,0:0:0:0:
256,224,79200,1,4,0:0:0:0:
256,192,80000,12,0,83200,0:0:0:0:
