osu file format v14

[General]
AudioFilename: Hi-Spec Robo Go!.mp3
AudioLeadIn: 0
PreviewTime: -1
Countdown: 1
SampleSet: Normal
StackLeniency: 0.7
Mode: 0
LetterboxInBreaks: 0
WidescreenStoryboard: 1
SamplesMatchPlaybackRate: 1

[Editor]
DistanceSpacing: 0.8
BeatDivisor: 2
GridSize: 32
TimelineZoom: 1.2

[Metadata]
Title:Hi-Spec Robo Go!
TitleUnicode:Hi-Spec Robo Go!
Artist:Tee Lopes
ArtistUnicode:Tee Lopes
Creator:PSI Pikachu
Version:Light Hard (UNFINISHED)
Source:Sonic Mania
Tags:sonic mania hi spec robo go hard boiled heavies boss theme
BeatmapID:1838121
BeatmapSetID:686376

[Difficulty]
HPDrainRate:5
CircleSize:4
OverallDifficulty:4
ApproachRate:5
SliderMultiplier:1.4
SliderTickRate:1

[Events]
//Background and Video events
0,0,"bg.jpg",0,0
//Break Periods
2,40227,50032
//Storyboard Layer 0 (Background)
//Storyboard Layer 1 (Fail)
//Storyboard Layer 2 (Pass)
//Storyboard Layer 3 (Foreground)
//Storyboard Layer 4 (Overlay)
//Storyboard Sound Samples

[TimingPoints]
9,400.186753818449,4,1,0,100,1,0

[HitObjects]
64,192,1609,5,0,0:0:0:0:
64,256,1809,1,0,0:0:0:0:
160,256,2410,1,0,0:0:0:0:
160,192,2610,1,0,0:0:0:0:
256,192,3210,1,0,0:0:0:0:
320,160,3410,1,0,0:0:0:0:
384,128,3610,1,0,0:0:0:0:
448,96,3810,1,0,0:0:0:0:
384,32,4411,1,0,0:0:0:0:
256,32,4811,5,0,0:0:0:0:
192,32,5011,1,0,0:0:0:0:
192,160,5611,1,0,0:0:0:0:
256,160,5811,1,0,0:0:0:0:
256,64,6411,2,0,P|448:192|320:320,1,420
288,320,8012,5,0,0:0:0:0:
224,320,8212,1,0,0:0:0:0:
160,224,8613,1,0,0:0:0:0:
96,192,8813,1,0,0:0:0:0:
160,160,9013,1,0,0:0:0:0:
224,64,9613,5,0,0:0:0:0:
288,64,9813,1,0,0:0:0:0:
384,160,10213,1,0,0:0:0:0:
448,192,10413,1,0,0:0:0:0:
384,224,10613,1,0,0:0:0:0:
288,320,11214,5,0,0:0:0:0:
224,320,11414,1,0,0:0:0:0:
128,224,11814,1,0,0:0:0:0:
64,192,12014,1,0,0:0:0:0:
128,160,12214,1,0,0:0:0:0:
224,192,12814,2,0,L|384:192,4,140
96,224,14815,6,0,L|96:64,1,140
192,96,15616,1,0,0:0:0:0:
256,96,15816,1,0,0:0:0:0:
320,96,16016,1,0,0:0:0:0:
320,192,16416,5,0,0:0:0:0:
256,192,16616,1,0,0:0:0:0:
192,192,16816,1,0,0:0:0:0:
96,224,17217,1,0,0:0:0:0:
128,128,17617,6,0,P|128:64|192:64,1,140
320,160,18417,2,0,P|320:224|256:224,1,140
192,256,19217,5,0,0:0:0:0:
192,192,19418,1,0,0:0:0:0:
192,128,19618,1,0,0:0:0:0:
320,128,20018,1,0,0:0:0:0:
320,192,20218,1,0,0:0:0:0:
320,256,20418,1,0,0:0:0:0:
384,320,20818,6,0,L|192:320,3,140
192,320,22219,1,0,0:0:0:0:
192,256,22419,2,0,L|192:96,3,140
192,64,23820,1,0,0:0:0:0:
256,64,24020,2,0,L|416:64,3,140
448,160,25620,2,0,B|384:288|352:320|320:320|288:288|256:192|224:96|192:64|160:64|128:96|64:224,1,560
96,288,27621,5,0,0:0:0:0:
160,288,27821,1,0,0:0:0:0:
224,288,28022,1,0,0:0:0:0:
224,192,28422,1,0,0:0:0:0:
160,192,28622,1,0,0:0:0:0:
96,192,28822,1,0,0:0:0:0:
96,96,29222,1,0,0:0:0:0:
160,96,29422,1,0,0:0:0:0:
224,96,29622,1,0,0:0:0:0:
384,96,30023,2,0,P|448:160|416:224,1,140
416,288,30823,5,0,0:0:0:0:
352,288,31023,1,0,0:0:0:0:
288,288,31223,1,0,0:0:0:0:
288,192,31623,1,0,0:0:0:0:
352,192,31823,1,0,0:0:0:0:
416,192,32023,1,0,0:0:0:0:
416,96,32424,1,0,0:0:0:0:
352,96,32624,1,0,0:0:0:0:
288,96,32824,1,0,0:0:0:0:
183,56,33224,2,0,B|93:37|72:156,1,140
64,288,34224,5,0,0:0:0:0:
128,288,34425,2,0,L|288:288,1,140
320,288,35025,1,0,0:0:0:0:
384,288,35225,1,0,0:0:0:0:
384,128,35825,5,0,0:0:0:0:
320,128,36025,2,0,L|160:128,1,140
128,128,36626,1,0,0:0:0:0:
64,128,36826,1,0,0:0:0:0:
64,288,37426,5,0,0:0:0:0:
128,288,37626,2,0,L|288:288,1,140
320,288,38226,1,0,0:0:0:0:
384,288,38426,1,0,0:0:0:0:
384,160,39027,5,0,0:0:0:0:
256,64,39627,5,0,0:0:0:0:
256,128,39827,1,0,0:0:0:0:
256,192,40027,1,4,0:0:0:0:
256,192,51232,12,4,52833,0:0:0:0:
256,128,53433,5,0,0:0:0:0:
288,64,53634,1,0,0:0:0:0:
448,64,54234,1,0,0:0:0:0:
416,128,54434,1,0,0:0:0:0:
416,288,55034,1,0,0:0:0:0:
352,320,55234,1,0,0:0:0:0:
288,288,55434,1,0,0:0:0:0:
224,320,55634,1,0,0:0:0:0:
128,256,56035,1,0,0:0:0:0:
64,224,56235,1,0,0:0:0:0:
64,64,56835,1,0,0:0:0:0:
128,96,57035,1,0,0:0:0:0:
288,96,57635,2,0,L|448:96,4,140
