osu file format v14

[General]
AudioFilename: audio.mp3
AudioLeadIn: 0
PreviewTime: 52424
Countdown: 0
SampleSet: Normal
StackLeniency: 0.7
Mode: 1
LetterboxInBreaks: 0
WidescreenStoryboard: 1

[Editor]
DistanceSpacing: 0.8
BeatDivisor: 4
GridSize: 32
TimelineZoom: 1.5

[Metadata]
Title:Metallic Madness Zone Act 2
TitleUnicode:Metallic Madness Zone Act 2
Artist:Tee Lopes & Naofumi Hataya
ArtistUnicode:Tee Lopes & Naofumi Hataya
Creator:Invisible O
Version:Futsuu
Source:Sonic Mania
Tags:Sonic The Hedgehog Videogame Video Game Instrumental Jazz
BeatmapID:3988291
BeatmapSetID:1930095

[Difficulty]
HPDrainRate:9
CircleSize:5
OverallDifficulty:4
ApproachRate:5
SliderMultiplier:1.2
SliderTickRate:1

[Events]
//Background and Video events
0,0,"SANIC.png",0,80
//Break Periods
//Storyboard Layer 0 (Background)
//Storyboard Layer 1 (Fail)
//Storyboard Layer 2 (Pass)
//Storyboard Layer 3 (Foreground)
//Storyboard Layer 4 (Overlay)
//Storyboard Sound Samples

[TimingPoints]
187,419.58041958042,4,2,0,75,1,0
5008,-100,4,1,0,75,0,0
5113,-100,4,1,0,75,0,0
5217,-100,4,1,0,75,0,0
5847,-100,4,1,0,75,0,0
5952,-100,4,1,0,75,0,0
6057,-100,4,1,0,75,0,0
6266,-100,4,1,0,75,0,0
6371,-100,4,1,0,75,0,0
6476,-100,4,1,0,75,0,0
6581,-100,4,1,0,75,0,0
6686,-100,4,1,0,75,0,0
6791,-100,4,1,0,75,0,0
6896,-100,4,1,0,75,0,0
7002,-100,4,1,0,75,0,0
11721,-100,4,1,0,75,0,0
11826,-100,4,1,0,75,0,0
11931,-100,4,1,0,75,0,0
12036,-100,4,1,0,75,0,0
12141,-100,4,1,0,75,0,0
12245,-100,4,1,0,75,0,0
12350,-100,4,1,0,75,0,0
12455,-100,4,1,0,75,0,0
12560,-100,4,1,0,75,0,0
12665,-100,4,1,0,75,0,0
12770,-100,4,1,0,75,0,0
12875,-100,4,1,0,75,0,0
12980,-100,4,1,0,75,0,0
13085,-100,4,1,0,75,0,0
13189,-100,4,1,0,75,0,0
25357,-100,4,1,0,75,0,0
25462,-100,4,1,0,75,0,0
25567,-100,4,1,0,75,0,0
25672,-100,4,1,0,75,0,0
25777,-100,4,1,0,75,0,0
25882,-100,4,1,0,75,0,0
25987,-100,4,1,0,75,0,0
26092,-100,4,1,0,75,0,0
26196,-100,4,1,0,75,0,0
26301,-100,4,1,0,75,0,0
26406,-100,4,1,0,75,0,0
26511,-100,4,1,0,75,0,0
26616,-100,4,1,0,75,0,0
26721,-100,4,1,0,75,0,0
26826,-100,4,1,0,75,0,0
26931,-100,4,1,0,75,0,0
27036,-100,4,1,0,75,0,0
27665,-100,4,1,0,75,0,0
40568,-100,4,1,0,50,0,0
47177,-100,4,1,0,50,0,0
52423,-100,4,1,0,50,0,0
52633,-100,4,1,0,50,0,0
52738,-100,4,1,0,50,0,0
52843,-100,4,1,0,50,0,0
53053,-100,4,1,0,50,0,0
53158,-100,4,1,0,50,0,0
53262,-100,4,1,0,50,0,0
53472,-100,4,1,0,50,0,0
53577,-100,4,1,0,50,0,0
53682,-100,4,1,0,50,0,0
53893,-100,4,1,0,100,0,1
67319,-100,4,1,0,100,0,0
67520,-100,4,1,0,50,0,0
68989,-100,4,1,0,35,0,0
70667,-100,4,1,0,10,0,0

[HitObjects]
256,192,187,5,0,0:0:0:0:
256,192,816,1,0,0:0:0:0:
256,192,1445,1,8,0:0:0:0:
256,192,1865,1,0,0:0:0:0:
256,192,2494,1,0,0:0:0:0:
256,192,3124,1,8,0:0:0:0:
256,192,3333,1,8,0:0:0:0:
256,192,3543,1,0,0:0:0:0:
256,192,4173,1,0,0:0:0:0:
256,192,4802,1,8,0:0:0:0:
256,192,5012,1,0,0:0:0:0:
256,192,5221,1,8,0:0:0:0:
256,192,5851,1,0,0:0:0:0:
256,192,6061,1,8,0:0:0:0:
256,192,6480,1,8,0:0:0:0:
256,192,6690,1,8,0:0:0:0:
256,192,6900,1,4,0:0:0:0:
256,192,7739,1,8,0:0:0:0:
256,192,7949,1,0,0:0:0:0:
256,192,8159,1,8,0:0:0:0:
256,192,8368,1,8,0:0:0:0:
256,192,8578,1,0,0:0:0:0:
256,192,9417,1,8,0:0:0:0:
256,192,9627,1,8,0:0:0:0:
256,192,9837,1,0,0:0:0:0:
256,192,10047,1,0,0:0:0:0:
256,192,10256,1,8,0:0:0:0:
256,192,11096,1,0,0:0:0:0:
256,192,11305,1,0,0:0:0:0:
256,192,11515,1,8,0:0:0:0:
256,192,11725,1,8,0:0:0:0:
256,192,11935,1,0,0:0:0:0:
256,192,12354,1,0,0:0:0:0:
256,192,12564,1,8,0:0:0:0:
256,192,12774,1,0,0:0:0:0:
256,192,13193,1,8,0:0:0:0:
256,192,13403,1,8,0:0:0:0:
256,192,13613,1,0,0:0:0:0:
256,192,14452,1,0,0:0:0:0:
256,192,14662,1,0,0:0:0:0:
256,192,15082,1,8,0:0:0:0:
256,192,15291,1,0,0:0:0:0:
256,192,15711,1,8,0:0:0:0:
256,192,15921,1,0,0:0:0:0:
256,192,16131,1,8,0:0:0:0:
256,192,16550,1,0,0:0:0:0:
256,192,16760,1,8,0:0:0:0:
256,192,17180,1,0,0:0:0:0:
256,192,17389,1,0,0:0:0:0:
256,192,17809,1,0,0:0:0:0:
256,192,18019,1,0,0:0:0:0:
256,192,18228,1,8,0:0:0:0:
256,192,18648,1,0,0:0:0:0:
256,192,19068,1,8,0:0:0:0:
256,192,19277,1,0,0:0:0:0:
256,192,19487,1,8,0:0:0:0:
256,192,19697,1,8,0:0:0:0:
256,192,19907,1,0,0:0:0:0:
256,192,20746,1,0,0:0:0:0:
256,192,20956,1,8,0:0:0:0:
256,192,21166,1,0,0:0:0:0:
256,192,21375,1,0,0:0:0:0:
256,192,21585,1,8,0:0:0:0:
256,192,22005,1,0,0:0:0:0:
256,192,22424,1,8,0:0:0:0:
256,192,22844,1,0,0:0:0:0:
256,192,23054,1,0,0:0:0:0:
256,192,23263,1,8,0:0:0:0:
256,192,23683,1,0,0:0:0:0:
256,192,23893,1,8,0:0:0:0:
256,192,24103,1,0,0:0:0:0:
256,192,24522,1,8,0:0:0:0:
256,192,24732,1,0,0:0:0:0:
256,192,24942,1,8,0:0:0:0:
256,192,25361,1,0,0:0:0:0:
256,192,25571,1,0,0:0:0:0:
256,192,25781,1,8,0:0:0:0:
256,192,25991,1,8,0:0:0:0:
256,192,26200,1,0,0:0:0:0:
256,192,26620,1,8,0:0:0:0:
256,192,26830,1,8,0:0:0:0:
256,192,27040,1,4,0:0:0:0:
256,192,27879,1,8,0:0:0:0:
256,192,28298,1,8,0:0:0:0:
256,192,28718,1,0,0:0:0:0:
256,192,28928,1,8,0:0:0:0:
256,192,29138,1,0,0:0:0:0:
256,192,29452,1,0,0:0:0:0:
256,192,29872,1,0,0:0:0:0:
256,192,30187,1,8,0:0:0:0:
256,192,30396,1,0,0:0:0:0:
256,192,31235,1,0,0:0:0:0:
256,192,31655,1,0,0:0:0:0:
256,192,32075,1,8,0:0:0:0:
256,192,32389,1,0,0:0:0:0:
256,192,32704,1,8,0:0:0:0:
256,192,33019,1,0,0:0:0:0:
256,192,33333,1,8,0:0:0:0:
256,192,33753,1,4,0:0:0:0:
256,192,34592,1,8,0:0:0:0:
256,192,35011,1,8,0:0:0:0:
256,192,35431,1,0,0:0:0:0:
256,192,35641,1,8,0:0:0:0:
256,192,35851,1,0,0:0:0:0:
256,192,36165,1,0,0:0:0:0:
256,192,36585,1,0,0:0:0:0:
256,192,36900,1,8,0:0:0:0:
256,192,37109,1,0,0:0:0:0:
256,192,37948,1,0,0:0:0:0:
256,192,38368,1,0,0:0:0:0:
256,192,38788,1,8,0:0:0:0:
256,192,39102,1,0,0:0:0:0:
256,192,39417,1,8,0:0:0:0:
256,192,39732,1,0,0:0:0:0:
256,192,40046,1,8,0:0:0:0:
256,192,40466,1,4,0:0:0:0:
256,192,41305,1,0,0:0:0:0:
256,192,41725,1,8,0:0:0:0:
256,192,42145,1,0,0:0:0:0:
256,192,43823,1,0,0:0:0:0:
256,192,44662,1,8,0:0:0:0:
256,192,45501,1,0,0:0:0:0:
256,192,45711,1,0,0:0:0:0:
256,192,47180,1,0,0:0:0:0:
256,192,47389,1,0,0:0:0:0:
256,192,47599,1,0,0:0:0:0:
256,192,48019,1,8,0:0:0:0:
256,192,48438,1,8,0:0:0:0:
256,192,48858,1,0,0:0:0:0:
256,192,49068,1,0,0:0:0:0:
256,192,49277,1,0,0:0:0:0:
256,192,49697,1,8,0:0:0:0:
256,192,50117,1,8,0:0:0:0:
256,192,50536,1,0,0:0:0:0:
256,192,50746,1,0,0:0:0:0:
256,192,50956,1,0,0:0:0:0:
256,192,51375,1,8,0:0:0:0:
256,192,51795,1,8,0:0:0:0:
256,192,52214,1,0,0:0:0:0:
256,192,52634,1,8,0:0:0:0:
256,192,52844,1,8,0:0:0:0:
256,192,53054,1,0,0:0:0:0:
256,192,53263,1,0,0:0:0:0:
256,192,53473,1,8,0:0:0:0:
256,192,53893,1,4,0:0:0:0:
256,192,54732,1,0,0:0:0:0:
256,192,55361,1,8,0:0:0:0:
256,192,55571,1,0,0:0:0:0:
256,192,55781,1,8,0:0:0:0:
256,192,55991,1,8,0:0:0:0:
256,192,56410,1,0,0:0:0:0:
256,192,56620,1,8,0:0:0:0:
256,192,57040,1,0,0:0:0:0:
256,192,57249,1,8,0:0:0:0:
256,192,57564,1,0,0:0:0:0:
256,192,58508,1,0,0:0:0:0:
256,192,58823,1,8,0:0:0:0:
256,192,59138,1,0,0:0:0:0:
256,192,59347,1,8,0:0:0:0:
256,192,59767,1,0,0:0:0:0:
256,192,59977,1,8,0:0:0:0:
256,192,60187,1,0,0:0:0:0:
256,192,60501,1,8,0:0:0:0:
256,192,60816,1,0,0:0:0:0:
256,192,61026,1,8,0:0:0:0:
256,192,61340,1,0,0:0:0:0:
256,192,62075,1,0,0:0:0:0:
256,192,62284,1,8,0:0:0:0:
256,192,62704,1,0,0:0:0:0:
256,192,62914,1,0,0:0:0:0:
256,192,63124,1,8,0:0:0:0:
256,192,63543,1,8,0:0:0:0:
256,192,63963,1,0,0:0:0:0:
256,192,64173,1,0,0:0:0:0:
256,192,64382,1,8,0:0:0:0:
256,192,64697,1,0,0:0:0:0:
256,192,65117,1,0,0:0:0:0:
256,192,65431,1,0,0:0:0:0:
256,192,65641,1,8,0:0:0:0:
256,192,66061,1,8,0:0:0:0:
256,192,66270,1,8,0:0:0:0:
256,192,66480,1,0,0:0:0:0:
256,192,66900,1,0,0:0:0:0:
256,192,67110,1,0,0:0:0:0:
256,192,67319,1,12,0:0:0:0:
