osu file format v14

[General]
AudioFilename: audio.mp3
AudioLeadIn: 0
PreviewTime: 112160
Countdown: 0
SampleSet: Normal
StackLeniency: 0.7
Mode: 1
LetterboxInBreaks: 0
WidescreenStoryboard: 0

[Editor]
DistanceSpacing: 0.5
BeatDivisor: 4
GridSize: 32
TimelineZoom: 1.7

[Metadata]
Title:Lorikeet
TitleUnicode:ロリキート
Artist:Tedjimo Yomigy
ArtistUnicode:黄泉路テヂーモ
Creator:yassu-
Version:JuDa's Oni
Source:BMS
Tags:G2R2014 G2R後夜祭 flat design 魔界都市ニイガタ makaitoshi niigata JUDYDANNY tasuke912
BeatmapID:1145474
BeatmapSetID:539888

[Difficulty]
HPDrainRate:5
CircleSize:5
OverallDifficulty:5
ApproachRate:5
SliderMultiplier:1.4
SliderTickRate:1

[Events]
//Background and Video events
0,0,"maxresdefault.jpg",0,0
//Break Periods
//Storyboard Layer 0 (Background)
//Storyboard Layer 1 (Fail)
//Storyboard Layer 2 (Pass)
//Storyboard Layer 3 (Foreground)
//Storyboard Sound Samples

[TimingPoints]
2380,329.67032967033,7,1,0,75,1,0
2380,-100,7,1,0,75,0,0
11610,-100,7,1,0,85,0,0
18533,329.67032967033,4,1,0,85,1,0
21829,-100,4,1,0,30,0,0
33038,-100,4,1,0,70,0,0
36829,-100,6,1,0,40,0,0
40291,-100,4,1,0,70,0,0
40950,-100,4,1,0,80,0,0
63450,-100,4,1,0,70,0,0
65676,329.67032967033,4,1,0,70,1,0
66500,329.67032967033,3,1,0,70,1,0
68478,329.67032967033,6,1,0,40,1,0
71939,-100,6,1,0,70,0,0
72434,329.67032967033,3,1,0,70,1,0
74248,329.67032967033,3,1,0,70,1,0
75237,-100,4,1,0,78,0,0
78204,329.67032967033,4,1,0,78,1,0
80841,-100,4,1,0,75,0,0
102105,-100,4,1,0,55,0,0
109852,-100,4,1,0,80,0,0
112489,-100,4,1,0,90,0,1
141171,329.67032967033,7,1,0,80,1,0
158643,329.67032967033,3,1,0,85,1,0

[HitObjects]
192,128,2380,5,0,0:0:0:0:
160,32,2874,1,0,0:0:0:0:
160,64,3039,1,8,0:0:0:0:
160,64,3204,1,8,0:0:0:0:
160,64,3369,1,8,0:0:0:0:
160,64,3533,1,0,0:0:0:0:
160,64,3863,1,0,0:0:0:0:
160,64,4193,1,2,0:0:0:0:
160,64,4358,1,0,0:0:0:0:
160,64,4687,1,8,0:0:0:0:
160,64,5182,1,8,0:0:0:0:
160,64,5347,1,0,0:0:0:0:
160,64,5511,1,0,0:0:0:0:
160,64,5676,1,0,0:0:0:0:
160,64,5841,1,8,0:0:0:0:
160,64,6171,1,8,0:0:0:0:
160,64,6500,1,10,0:0:0:0:
160,64,6665,1,0,0:0:0:0:
160,64,6995,1,0,0:0:0:0:
160,64,7160,1,2,0:0:0:0:
192,0,7489,1,8,0:0:0:0:
192,0,7654,1,0,0:0:0:0:
160,64,7819,1,2,0:0:0:0:
160,32,7984,1,8,0:0:0:0:
192,0,8149,1,8,0:0:0:0:
192,0,8314,1,0,0:0:0:0:
160,64,8643,1,2,0:0:0:0:
160,32,8808,1,2,0:0:0:0:
160,64,8973,1,0,0:0:0:0:
160,32,9138,1,0,0:0:0:0:
192,0,9303,1,2,0:0:0:0:
192,0,9632,1,0,0:0:0:0:
160,64,9797,1,2,0:0:0:0:
160,64,9880,1,2,0:0:0:0:
160,64,9962,1,2,0:0:0:0:
160,64,10292,1,0,0:0:0:0:
160,64,10374,1,0,0:0:0:0:
160,64,10456,1,0,0:0:0:0:
160,64,10621,1,2,0:0:0:0:
160,64,10786,1,2,0:0:0:0:
160,64,11116,1,0,0:0:0:0:
160,64,11281,1,2,0:0:0:0:
160,32,11363,1,2,0:0:0:0:
160,64,11445,1,2,0:0:0:0:
160,64,11610,1,4,0:0:0:0:
192,96,11940,1,2,0:0:0:0:
192,64,12105,1,0,0:0:0:0:
192,32,12187,1,0,0:0:0:0:
192,32,12270,1,0,0:0:0:0:
160,0,12434,1,0,0:0:0:0:
192,96,12599,1,2,0:0:0:0:
192,96,12764,1,0,0:0:0:0:
192,32,13094,1,0,0:0:0:0:
192,96,13259,1,2,0:0:0:0:
192,96,13423,1,2,0:0:0:0:
192,64,13588,1,0,0:0:0:0:
192,32,13753,1,0,0:0:0:0:
192,96,13918,1,2,0:0:0:0:
192,0,14412,1,0,0:0:0:0:
192,96,14577,1,2,0:0:0:0:
192,96,14742,1,2,0:0:0:0:
192,64,14907,1,0,0:0:0:0:
192,32,15072,1,0,0:0:0:0:
192,32,15154,1,0,0:0:0:0:
192,0,15237,1,2,0:0:0:0:
192,96,15401,1,0,0:0:0:0:
192,32,15731,1,2,0:0:0:0:
192,96,15896,1,0,0:0:0:0:
192,64,16061,1,2,0:0:0:0:
192,96,16226,1,4,0:0:0:0:
192,96,16555,1,2,0:0:0:0:
192,64,16720,1,0,0:0:0:0:
192,32,16803,1,0,0:0:0:0:
192,32,16885,1,0,0:0:0:0:
160,0,17050,1,0,0:0:0:0:
192,96,17215,1,2,0:0:0:0:
192,96,17380,1,0,0:0:0:0:
192,32,17709,1,0,0:0:0:0:
192,96,17874,1,2,0:0:0:0:
192,96,18039,1,2,0:0:0:0:
192,64,18204,1,0,0:0:0:0:
192,32,18369,1,0,0:0:0:0:
192,96,18533,1,2,0:0:0:0:
192,0,19027,1,0,0:0:0:0:
192,0,19192,1,2,0:0:0:0:
192,96,19357,1,2,0:0:0:0:
192,96,19439,1,2,0:0:0:0:
192,96,19522,1,0,0:0:0:0:
192,96,19686,1,4,0:0:0:0:
128,64,20016,1,4,0:0:0:0:
192,96,20346,1,2,0:0:0:0:
160,96,20511,1,4,0:0:0:0:
128,32,20840,1,2,0:0:0:0:
128,64,21005,1,4,0:0:0:0:
192,96,21335,1,0,0:0:0:0:
160,96,21500,1,6,0:0:0:0:
128,64,22489,5,0,0:0:0:0:
160,32,23148,1,0,0:0:0:0:
160,32,23478,1,2,0:0:0:0:
128,64,23642,1,0,0:0:0:0:
160,32,24137,1,2,0:0:0:0:
160,32,24467,1,0,0:0:0:0:
160,32,24631,1,0,0:0:0:0:
160,32,24796,1,2,0:0:0:0:
160,64,24961,1,0,0:0:0:0:
160,64,25126,1,2,0:0:0:0:
160,64,25456,1,2,0:0:0:0:
160,64,25785,1,0,0:0:0:0:
160,64,26115,1,2,0:0:0:0:
128,64,26280,1,0,0:0:0:0:
128,64,26774,1,0,0:0:0:0:
160,32,26939,1,0,0:0:0:0:
128,64,27104,1,2,0:0:0:0:
160,64,27434,1,2,0:0:0:0:
160,64,27598,1,2,0:0:0:0:
128,64,27763,5,0,0:0:0:0:
224,32,28258,1,2,0:0:0:0:
160,64,28423,1,0,0:0:0:0:
128,64,28752,1,0,0:0:0:0:
160,64,28917,1,2,0:0:0:0:
160,64,29412,1,2,0:0:0:0:
160,64,29741,1,0,0:0:0:0:
160,64,29906,1,2,0:0:0:0:
160,64,30071,1,2,0:0:0:0:
160,64,30236,1,0,0:0:0:0:
128,64,30401,1,8,0:0:0:0:
160,64,30730,1,2,0:0:0:0:
160,64,30895,1,0,0:0:0:0:
128,64,31060,1,2,0:0:0:0:
128,64,31390,1,8,0:0:0:0:
128,64,31554,1,0,0:0:0:0:
128,64,32049,1,2,0:0:0:0:
128,64,32379,1,0,0:0:0:0:
128,64,32543,1,2,0:0:0:0:
128,64,32708,1,8,0:0:0:0:
128,64,32873,1,2,0:0:0:0:
128,64,33038,5,4,0:0:0:0:
128,64,33368,1,2,0:0:0:0:
128,64,33533,1,4,0:0:0:0:
128,64,33862,1,0,0:0:0:0:
128,64,34027,1,2,0:0:0:0:
128,64,34192,1,4,0:0:0:0:
128,64,34522,1,0,0:0:0:0:
128,64,34686,1,2,0:0:0:0:
128,64,35016,1,0,0:0:0:0:
128,64,35181,1,2,0:0:0:0:
160,32,35263,1,2,0:0:0:0:
160,32,35346,1,2,0:0:0:0:
128,64,35511,1,2,0:0:0:0:
128,64,35675,5,4,0:0:0:0:
128,64,36005,1,2,0:0:0:0:
128,64,36170,1,4,0:0:0:0:
128,64,36500,1,0,0:0:0:0:
128,64,36664,1,2,0:0:0:0:
128,64,36829,1,6,0:0:0:0:
128,64,38313,1,0,0:0:0:0:
128,64,38478,1,0,0:0:0:0:
128,64,38725,1,0,0:0:0:0:
128,64,38807,1,2,0:0:0:0:
128,64,38972,1,0,0:0:0:0:
128,64,39137,1,0,0:0:0:0:
128,64,39219,1,0,0:0:0:0:
128,64,39302,1,2,0:0:0:0:
128,64,39467,5,0,0:0:0:0:
128,64,39631,5,2,0:0:0:0:
128,64,39796,5,0,0:0:0:0:
128,64,39879,5,0,0:0:0:0:
128,64,39961,5,2,0:0:0:0:
128,32,40043,5,2,0:0:0:0:
128,64,40126,5,0,0:0:0:0:
128,64,40291,1,6,0:0:0:0:
128,64,40456,1,6,0:0:0:0:
128,64,40950,5,4,0:0:0:0:
128,64,41280,1,2,0:0:0:0:
128,64,41445,1,0,0:0:0:0:
128,64,41774,1,2,0:0:0:0:
128,64,41939,1,0,0:0:0:0:
160,32,42104,1,2,0:0:0:0:
128,64,42269,5,0,0:0:0:0:
128,64,42598,1,2,0:0:0:0:
128,64,42763,1,0,0:0:0:0:
128,64,43093,1,2,0:0:0:0:
128,64,43258,1,0,0:0:0:0:
128,64,43423,1,2,0:0:0:0:
128,64,43505,1,2,0:0:0:0:
128,64,43587,5,0,0:0:0:0:
128,64,43917,1,2,0:0:0:0:
128,64,44082,1,0,0:0:0:0:
128,32,44164,1,0,0:0:0:0:
128,32,44247,1,0,0:0:0:0:
160,32,44412,1,2,0:0:0:0:
160,32,44576,1,0,0:0:0:0:
160,32,44741,1,2,0:0:0:0:
128,64,44906,5,0,0:0:0:0:
128,64,45236,1,2,0:0:0:0:
128,64,45401,1,0,0:0:0:0:
160,0,45730,1,2,0:0:0:0:
128,64,45895,1,0,0:0:0:0:
128,64,46060,1,2,0:0:0:0:
160,32,46142,1,2,0:0:0:0:
128,64,46225,5,0,0:0:0:0:
160,32,46390,1,2,0:0:0:0:
128,64,46554,1,2,0:0:0:0:
128,64,46719,1,0,0:0:0:0:
160,0,47049,1,2,0:0:0:0:
160,32,47214,1,0,0:0:0:0:
160,32,47379,1,2,0:0:0:0:
160,32,47461,1,2,0:0:0:0:
128,64,47543,5,0,0:0:0:0:
160,32,47708,1,0,0:0:0:0:
128,64,47873,1,2,0:0:0:0:
128,64,48038,1,0,0:0:0:0:
128,64,48120,1,0,0:0:0:0:
128,64,48203,1,2,0:0:0:0:
128,64,48368,1,0,0:0:0:0:
128,64,48533,1,2,0:0:0:0:
128,64,48697,1,2,0:0:0:0:
128,64,48862,5,0,0:0:0:0:
128,64,49192,1,2,0:0:0:0:
128,64,49357,1,0,0:0:0:0:
160,32,49686,1,2,0:0:0:0:
160,32,49851,1,0,0:0:0:0:
128,64,50016,1,0,0:0:0:0:
160,32,50098,1,2,0:0:0:0:
128,64,50181,5,0,0:0:0:0:
160,32,50346,1,0,0:0:0:0:
128,64,50511,1,2,0:0:0:0:
128,64,50675,1,0,0:0:0:0:
128,64,50758,1,0,0:0:0:0:
128,64,50840,1,8,0:0:0:0:
128,64,51005,1,0,0:0:0:0:
128,64,51170,1,2,0:0:0:0:
128,64,51335,1,2,0:0:0:0:
128,64,51417,1,2,0:0:0:0:
128,64,51500,5,0,0:0:0:0:
160,32,51664,1,2,0:0:0:0:
128,64,51829,1,2,0:0:0:0:
128,64,51994,1,0,0:0:0:0:
128,64,52324,1,2,0:0:0:0:
128,64,52489,1,2,0:0:0:0:
160,32,52571,1,2,0:0:0:0:
128,64,52653,1,0,0:0:0:0:
128,64,52818,5,4,0:0:0:0:
160,32,53065,1,0,0:0:0:0:
128,64,53148,1,2,0:0:0:0:
128,64,53313,1,4,0:0:0:0:
128,64,53642,1,6,0:0:0:0:
128,64,53972,1,2,0:0:0:0:
128,64,54054,1,2,0:0:0:0:
128,64,54137,5,0,0:0:0:0:
160,32,54302,1,2,0:0:0:0:
128,64,54467,1,2,0:0:0:0:
128,64,54631,1,0,0:0:0:0:
160,32,54879,1,2,0:0:0:0:
128,64,54961,1,0,0:0:0:0:
128,64,55126,1,2,0:0:0:0:
160,32,55291,1,0,0:0:0:0:
160,32,55373,1,0,0:0:0:0:
128,64,55456,5,2,0:0:0:0:
160,32,55620,1,0,0:0:0:0:
128,64,55785,1,2,0:0:0:0:
128,64,55950,1,0,0:0:0:0:
160,64,56033,1,2,0:0:0:0:
128,64,56280,1,0,0:0:0:0:
128,64,56445,1,2,0:0:0:0:
128,64,56527,1,2,0:0:0:0:
128,64,56609,1,0,0:0:0:0:
128,64,56939,1,0,0:0:0:0:
128,64,57104,1,2,0:0:0:0:
128,64,57269,1,4,0:0:0:0:
128,64,57598,1,0,0:0:0:0:
128,64,57928,5,6,0:0:0:0:
128,64,58258,1,8,0:0:0:0:
128,64,58340,1,8,0:0:0:0:
128,64,58423,1,0,0:0:0:0:
160,32,58587,1,0,0:0:0:0:
160,64,58752,1,2,0:0:0:0:
128,64,58917,1,0,0:0:0:0:
160,32,59000,1,0,0:0:0:0:
128,64,59082,1,2,0:0:0:0:
160,64,59164,1,2,0:0:0:0:
128,64,59247,1,0,0:0:0:0:
128,64,59576,5,0,0:0:0:0:
128,64,59659,1,0,0:0:0:0:
128,64,59741,1,2,0:0:0:0:
128,64,59906,1,0,0:0:0:0:
160,32,60071,1,2,0:0:0:0:
128,64,60236,1,0,0:0:0:0:
128,64,60401,1,2,0:0:0:0:
160,32,60565,1,2,0:0:0:0:
160,32,60895,1,2,0:0:0:0:
160,32,60978,5,2,0:0:0:0:
160,32,61060,1,0,0:0:0:0:
128,64,61225,1,0,0:0:0:0:
128,32,61390,1,2,0:0:0:0:
128,64,61554,1,2,0:0:0:0:
128,64,61719,1,0,0:0:0:0:
128,64,61802,1,0,0:0:0:0:
128,64,61884,1,2,0:0:0:0:
128,64,62214,5,6,0:0:0:0:
128,64,62461,1,6,0:0:0:0:
128,64,62708,1,4,0:0:0:0:
128,64,62956,1,4,0:0:0:0:
128,64,63203,1,6,0:0:0:0:
128,64,63533,1,0,0:0:0:0:
128,64,63697,1,2,0:0:0:0:
128,64,63780,1,2,0:0:0:0:
128,64,63862,1,0,0:0:0:0:
128,64,64027,1,2,0:0:0:0:
128,64,64109,1,2,0:0:0:0:
128,64,64192,1,0,0:0:0:0:
128,64,64274,1,0,0:0:0:0:
128,64,64357,1,2,0:0:0:0:
128,64,64522,1,0,0:0:0:0:
128,64,64604,1,0,0:0:0:0:
128,64,64686,5,0,0:0:0:0:
160,0,65016,1,2,0:0:0:0:
128,64,65181,1,0,0:0:0:0:
128,64,65346,1,2,0:0:0:0:
128,64,65511,1,0,0:0:0:0:
128,64,65675,5,2,0:0:0:0:
128,64,65758,1,0,0:0:0:0:
128,64,65840,1,2,0:0:0:0:
128,64,66005,1,2,0:0:0:0:
128,64,66170,5,2,0:0:0:0:
160,0,66500,5,0,0:0:0:0:
160,0,66829,1,2,0:0:0:0:
128,96,66994,1,0,0:0:0:0:
128,64,67159,1,2,0:0:0:0:
160,32,67324,1,2,0:0:0:0:
160,0,67489,5,0,0:0:0:0:
160,32,67653,1,2,0:0:0:0:
160,32,67736,1,2,0:0:0:0:
160,32,67818,1,0,0:0:0:0:
160,32,67983,1,0,0:0:0:0:
160,32,68148,1,2,0:0:0:0:
160,32,68230,1,2,0:0:0:0:
160,32,68313,1,2,0:0:0:0:
160,32,68395,1,2,0:0:0:0:
160,32,68478,5,0,0:0:0:0:
160,32,68807,1,0,0:0:0:0:
160,32,69137,1,2,0:0:0:0:
160,32,69467,1,0,0:0:0:0:
160,32,69631,1,2,0:0:0:0:
160,32,69796,1,0,0:0:0:0:
160,32,70126,1,2,0:0:0:0:
160,32,70456,5,0,0:0:0:0:
192,0,70785,1,0,0:0:0:0:
160,32,71115,1,2,0:0:0:0:
160,32,71445,1,0,0:0:0:0:
160,32,71609,1,2,0:0:0:0:
160,32,71774,1,0,0:0:0:0:
160,32,71939,1,2,0:0:0:0:
160,32,72104,1,0,0:0:0:0:
160,32,72186,1,2,0:0:0:0:
160,32,72351,1,2,0:0:0:0:
160,32,72434,5,0,0:0:0:0:
160,32,72763,1,2,0:0:0:0:
160,32,72928,1,0,0:0:0:0:
160,32,73093,1,2,0:0:0:0:
160,32,73258,1,0,0:0:0:0:
160,32,73423,5,2,0:0:0:0:
160,32,73752,1,2,0:0:0:0:
160,32,73835,1,2,0:0:0:0:
160,32,73917,1,0,0:0:0:0:
160,32,74082,1,2,0:0:0:0:
160,32,74247,5,0,0:0:0:0:
160,32,74577,1,2,0:0:0:0:
160,32,74742,1,0,0:0:0:0:
160,32,74907,1,2,0:0:0:0:
160,0,75072,1,2,0:0:0:0:
160,32,75237,5,0,0:0:0:0:
160,32,75484,1,0,0:0:0:0:
160,32,75731,1,2,0:0:0:0:
160,32,75978,1,2,0:0:0:0:
160,32,76226,5,4,0:0:0:0:
160,32,76555,1,0,0:0:0:0:
160,32,76638,1,0,0:0:0:0:
160,32,76720,1,2,0:0:0:0:
160,32,77050,1,2,0:0:0:0:
160,32,77132,1,2,0:0:0:0:
160,32,77215,1,0,0:0:0:0:
160,32,77379,1,2,0:0:0:0:
160,32,77544,1,0,0:0:0:0:
160,32,77627,1,0,0:0:0:0:
160,32,77709,1,2,0:0:0:0:
160,32,77874,1,0,0:0:0:0:
160,32,78039,5,2,0:0:0:0:
160,32,78121,1,2,0:0:0:0:
160,32,78204,1,0,0:0:0:0:
160,32,78533,5,0,0:0:0:0:
160,32,78616,1,0,0:0:0:0:
160,32,78698,1,2,0:0:0:0:
160,32,79028,5,2,0:0:0:0:
160,32,79193,1,2,0:0:0:0:
160,32,79357,1,2,0:0:0:0:
160,32,79440,1,2,0:0:0:0:
160,32,79522,1,0,0:0:0:0:
160,32,79687,1,0,0:0:0:0:
160,32,79769,1,2,0:0:0:0:
160,32,79934,1,2,0:0:0:0:
160,32,80099,1,2,0:0:0:0:
160,32,80182,1,0,0:0:0:0:
160,32,80346,1,0,0:0:0:0:
160,32,80594,1,2,0:0:0:0:
160,32,80841,5,4,0:0:0:0:
224,64,81171,1,2,0:0:0:0:
192,64,81335,1,2,0:0:0:0:
192,64,81418,1,2,0:0:0:0:
160,64,81500,1,0,0:0:0:0:
192,64,81665,1,0,0:0:0:0:
192,64,81830,1,2,0:0:0:0:
192,64,81995,1,0,0:0:0:0:
192,64,82324,1,0,0:0:0:0:
192,64,82489,1,2,0:0:0:0:
160,64,82654,1,0,0:0:0:0:
160,64,82736,1,2,0:0:0:0:
192,64,82819,1,0,0:0:0:0:
192,64,82984,1,0,0:0:0:0:
192,64,83149,1,2,0:0:0:0:
192,64,83313,1,2,0:0:0:0:
96,64,83808,1,2,0:0:0:0:
160,64,84138,1,2,0:0:0:0:
192,32,84467,1,0,0:0:0:0:
192,32,84632,1,0,0:0:0:0:
192,32,84797,1,2,0:0:0:0:
192,32,84879,1,2,0:0:0:0:
192,32,84962,1,2,0:0:0:0:
192,32,85127,1,0,0:0:0:0:
192,32,85209,1,0,0:0:0:0:
160,0,85291,1,0,0:0:0:0:
160,0,85374,1,0,0:0:0:0:
160,0,85456,1,2,0:0:0:0:
160,0,85621,1,2,0:0:0:0:
160,0,85786,1,2,0:0:0:0:
192,64,85951,5,4,0:0:0:0:
192,32,86445,1,2,0:0:0:0:
160,32,86610,1,2,0:0:0:0:
160,32,86693,1,2,0:0:0:0:
192,32,86775,1,0,0:0:0:0:
192,32,86940,1,0,0:0:0:0:
192,32,87105,1,2,0:0:0:0:
192,32,87269,1,0,0:0:0:0:
192,32,87599,1,0,0:0:0:0:
192,32,87764,1,2,0:0:0:0:
160,32,87929,1,2,0:0:0:0:
192,32,88094,1,0,0:0:0:0:
192,32,88258,1,0,0:0:0:0:
192,32,88341,1,0,0:0:0:0:
192,32,88423,1,2,0:0:0:0:
160,32,88588,1,6,0:0:0:0:
160,32,88918,1,0,0:0:0:0:
160,32,89000,1,0,0:0:0:0:
160,32,89083,1,2,0:0:0:0:
192,32,89412,1,2,0:0:0:0:
192,32,89495,1,2,0:0:0:0:
192,32,89577,1,0,0:0:0:0:
192,32,89907,1,0,0:0:0:0:
192,32,89989,1,0,0:0:0:0:
192,32,90072,1,2,0:0:0:0:
192,32,90236,1,0,0:0:0:0:
192,32,90401,1,2,0:0:0:0:
192,0,90484,1,2,0:0:0:0:
192,32,90566,1,0,0:0:0:0:
192,32,90896,1,0,0:0:0:0:
192,32,91061,1,2,0:0:0:0:
192,32,91225,5,4,0:0:0:0:
192,32,91720,1,2,0:0:0:0:
160,32,91885,1,2,0:0:0:0:
192,32,92050,1,0,0:0:0:0:
160,0,92214,1,0,0:0:0:0:
160,0,92297,1,0,0:0:0:0:
192,32,92379,1,2,0:0:0:0:
160,32,92544,1,4,0:0:0:0:
160,32,92874,1,0,0:0:0:0:
192,32,93039,1,2,0:0:0:0:
160,0,93204,1,0,0:0:0:0:
160,0,93286,1,0,0:0:0:0:
192,32,93368,1,2,0:0:0:0:
160,0,93533,1,2,0:0:0:0:
160,0,93698,1,0,0:0:0:0:
160,32,93863,1,6,0:0:0:0:
160,32,94193,1,0,0:0:0:0:
160,32,94357,1,6,0:0:0:0:
160,32,94687,1,2,0:0:0:0:
160,32,94852,1,4,0:0:0:0:
160,32,95182,1,0,0:0:0:0:
160,32,95346,1,6,0:0:0:0:
160,32,95676,1,2,0:0:0:0:
160,32,95841,1,4,0:0:0:0:
160,32,96171,1,0,0:0:0:0:
160,32,96253,1,0,0:0:0:0:
192,32,96335,1,2,0:0:0:0:
160,0,96500,5,4,0:0:0:0:
256,32,96995,1,2,0:0:0:0:
224,32,97160,1,2,0:0:0:0:
224,0,97242,1,2,0:0:0:0:
192,32,97324,1,0,0:0:0:0:
192,32,97489,1,0,0:0:0:0:
192,32,97654,1,2,0:0:0:0:
192,0,97819,1,4,0:0:0:0:
192,0,98149,1,0,0:0:0:0:
192,0,98313,1,2,0:0:0:0:
192,0,98478,1,0,0:0:0:0:
192,0,98643,1,0,0:0:0:0:
192,0,98725,1,0,0:0:0:0:
192,0,98808,1,0,0:0:0:0:
192,0,98973,1,2,0:0:0:0:
192,0,99138,1,6,0:0:0:0:
192,0,99467,1,0,0:0:0:0:
192,0,99632,1,2,0:0:0:0:
192,0,99962,1,0,0:0:0:0:
192,0,100127,1,0,0:0:0:0:
192,0,100291,1,2,0:0:0:0:
160,32,100456,2,4,L|160:96,18,35
160,96,102599,1,2,0:0:0:0:
160,96,102929,1,2,0:0:0:0:
160,96,103094,1,0,0:0:0:0:
160,32,103423,1,2,0:0:0:0:
160,64,103588,1,2,0:0:0:0:
160,64,103753,1,0,0:0:0:0:
160,64,104083,1,2,0:0:0:0:
160,64,104247,1,2,0:0:0:0:
160,64,104577,1,0,0:0:0:0:
160,64,105236,1,2,0:0:0:0:
160,64,105566,1,2,0:0:0:0:
160,64,105731,1,0,0:0:0:0:
160,32,106061,1,0,0:0:0:0:
160,64,106225,1,2,0:0:0:0:
160,64,106390,1,0,0:0:0:0:
192,0,106720,1,2,0:0:0:0:
160,64,107214,1,0,0:0:0:0:
160,64,107874,1,2,0:0:0:0:
160,64,108204,1,2,0:0:0:0:
160,64,108368,1,0,0:0:0:0:
192,0,108698,1,0,0:0:0:0:
160,64,108863,5,2,0:0:0:0:
160,64,109028,1,0,0:0:0:0:
192,64,109852,5,0,0:0:0:0:
192,64,109934,1,0,0:0:0:0:
192,64,110017,1,2,0:0:0:0:
192,64,110099,1,2,0:0:0:0:
192,64,110182,1,2,0:0:0:0:
192,64,110346,1,0,0:0:0:0:
192,32,110429,1,0,0:0:0:0:
192,64,110511,1,2,0:0:0:0:
192,64,110676,1,2,0:0:0:0:
192,64,110841,1,0,0:0:0:0:
192,64,110923,1,0,0:0:0:0:
192,64,111006,1,2,0:0:0:0:
160,32,111088,1,2,0:0:0:0:
192,64,111171,1,2,0:0:0:0:
192,64,111335,1,0,0:0:0:0:
160,32,111418,1,0,0:0:0:0:
160,32,111500,1,2,0:0:0:0:
192,64,111665,1,2,0:0:0:0:
192,64,111830,1,0,0:0:0:0:
192,64,111995,1,2,0:0:0:0:
192,64,112077,1,2,0:0:0:0:
192,64,112160,1,0,0:0:0:0:
192,64,112489,5,4,0:0:0:0:
192,128,112819,1,2,0:0:0:0:
192,96,112984,1,0,0:0:0:0:
192,96,113066,1,2,0:0:0:0:
128,128,113149,1,0,0:0:0:0:
160,128,113313,1,0,0:0:0:0:
160,128,113478,1,2,0:0:0:0:
160,64,113643,1,2,0:0:0:0:
160,128,113973,1,0,0:0:0:0:
160,128,114138,1,2,0:0:0:0:
160,96,114302,1,0,0:0:0:0:
160,128,114385,1,0,0:0:0:0:
160,64,114467,1,2,0:0:0:0:
160,128,114632,1,0,0:0:0:0:
160,128,114797,1,2,0:0:0:0:
160,128,114962,1,2,0:0:0:0:
160,128,115044,1,2,0:0:0:0:
160,128,115127,1,0,0:0:0:0:
160,128,115456,1,2,0:0:0:0:
160,96,115621,1,0,0:0:0:0:
160,96,115704,1,2,0:0:0:0:
160,128,115786,1,0,0:0:0:0:
160,128,115951,1,0,0:0:0:0:
160,128,116116,1,2,0:0:0:0:
160,128,116280,1,0,0:0:0:0:
160,96,116363,1,0,0:0:0:0:
160,64,116445,1,2,0:0:0:0:
160,64,116610,1,0,0:0:0:0:
160,64,116775,1,2,0:0:0:0:
160,64,116940,1,2,0:0:0:0:
160,64,117105,1,0,0:0:0:0:
160,64,117187,1,2,0:0:0:0:
160,64,117269,1,0,0:0:0:0:
160,128,117434,1,2,0:0:0:0:
160,128,117517,1,2,0:0:0:0:
160,128,117599,1,2,0:0:0:0:
160,128,117764,1,4,0:0:0:0:
160,128,118094,1,2,0:0:0:0:
192,96,118258,1,0,0:0:0:0:
192,96,118341,1,2,0:0:0:0:
160,128,118423,1,0,0:0:0:0:
160,128,118588,1,0,0:0:0:0:
160,128,118753,1,2,0:0:0:0:
160,128,118918,1,0,0:0:0:0:
160,128,119247,1,0,0:0:0:0:
160,128,119412,1,2,0:0:0:0:
160,128,119577,1,0,0:0:0:0:
160,96,119660,1,0,0:0:0:0:
160,96,119742,1,0,0:0:0:0:
160,128,119907,1,0,0:0:0:0:
160,128,120072,1,2,0:0:0:0:
160,128,120236,1,2,0:0:0:0:
160,128,120401,1,4,0:0:0:0:
160,128,120731,1,2,0:0:0:0:
160,96,120896,1,0,0:0:0:0:
160,64,120978,1,0,0:0:0:0:
160,128,121061,1,2,0:0:0:0:
160,128,121225,1,0,0:0:0:0:
160,96,121390,1,2,0:0:0:0:
160,128,121555,1,0,0:0:0:0:
160,64,121885,1,0,0:0:0:0:
160,128,122050,1,2,0:0:0:0:
160,128,122214,1,0,0:0:0:0:
160,96,122297,1,0,0:0:0:0:
160,96,122379,1,2,0:0:0:0:
160,96,122544,1,0,0:0:0:0:
160,128,122627,1,0,0:0:0:0:
160,128,122709,1,2,0:0:0:0:
160,128,122791,1,2,0:0:0:0:
160,128,122874,1,2,0:0:0:0:
160,128,123039,1,4,0:0:0:0:
160,128,123368,1,2,0:0:0:0:
160,96,123533,1,0,0:0:0:0:
160,96,123616,1,2,0:0:0:0:
160,128,123698,1,0,0:0:0:0:
160,128,123863,1,0,0:0:0:0:
160,128,124028,1,2,0:0:0:0:
160,128,124193,1,0,0:0:0:0:
160,96,124357,1,2,0:0:0:0:
160,64,124605,1,2,0:0:0:0:
160,32,124687,1,0,0:0:0:0:
160,128,124852,1,0,0:0:0:0:
160,96,125017,1,2,0:0:0:0:
160,128,125182,1,0,0:0:0:0:
160,64,125264,1,0,0:0:0:0:
160,128,125346,1,2,0:0:0:0:
160,96,125511,1,2,0:0:0:0:
160,64,125594,1,2,0:0:0:0:
160,128,125676,1,0,0:0:0:0:
160,128,126006,1,2,0:0:0:0:
160,96,126171,1,0,0:0:0:0:
160,128,126335,1,2,0:0:0:0:
160,128,126418,1,2,0:0:0:0:
160,96,126500,1,0,0:0:0:0:
160,128,126583,1,0,0:0:0:0:
160,128,126665,1,2,0:0:0:0:
160,96,126830,1,0,0:0:0:0:
160,128,127160,1,0,0:0:0:0:
160,128,127324,1,2,0:0:0:0:
160,128,127489,1,0,0:0:0:0:
160,96,127572,1,0,0:0:0:0:
160,96,127654,1,2,0:0:0:0:
160,128,127819,1,0,0:0:0:0:
160,128,127984,1,2,0:0:0:0:
160,128,128066,1,2,0:0:0:0:
160,96,128149,1,2,0:0:0:0:
160,96,128313,5,4,0:0:0:0:
160,128,128643,1,2,0:0:0:0:
192,96,128808,1,0,0:0:0:0:
192,96,128890,1,2,0:0:0:0:
192,96,128973,1,0,0:0:0:0:
160,128,129138,1,0,0:0:0:0:
160,128,129302,1,2,0:0:0:0:
160,96,129467,1,0,0:0:0:0:
160,64,129797,1,0,0:0:0:0:
160,64,129962,1,2,0:0:0:0:
160,128,130127,1,0,0:0:0:0:
160,96,130209,1,0,0:0:0:0:
160,96,130291,1,2,0:0:0:0:
160,64,130456,1,2,0:0:0:0:
160,64,130539,1,2,0:0:0:0:
160,128,130621,1,0,0:0:0:0:
160,96,130786,1,2,0:0:0:0:
160,128,130951,1,0,0:0:0:0:
192,96,131280,1,2,0:0:0:0:
192,96,131445,1,0,0:0:0:0:
160,128,131610,1,2,0:0:0:0:
160,96,131693,1,2,0:0:0:0:
160,96,131775,1,0,0:0:0:0:
160,96,131940,1,2,0:0:0:0:
160,64,132105,1,0,0:0:0:0:
160,128,132434,1,0,0:0:0:0:
160,64,132599,1,2,0:0:0:0:
160,96,132764,1,0,0:0:0:0:
160,64,132846,1,2,0:0:0:0:
160,64,132929,1,0,0:0:0:0:
160,128,133094,1,0,0:0:0:0:
160,128,133258,1,2,0:0:0:0:
160,128,133341,1,2,0:0:0:0:
160,128,133423,1,2,0:0:0:0:
160,128,133588,1,4,0:0:0:0:
160,128,133918,1,2,0:0:0:0:
160,96,134083,1,0,0:0:0:0:
160,64,134165,1,2,0:0:0:0:
160,128,134247,1,0,0:0:0:0:
160,128,134412,1,0,0:0:0:0:
160,128,134577,1,2,0:0:0:0:
160,128,134742,1,2,0:0:0:0:
160,64,134824,1,2,0:0:0:0:
160,64,134907,1,0,0:0:0:0:
160,128,135072,1,0,0:0:0:0:
160,128,135236,1,2,0:0:0:0:
160,128,135401,1,0,0:0:0:0:
160,96,135484,1,0,0:0:0:0:
160,96,135566,1,2,0:0:0:0:
160,128,135731,1,0,0:0:0:0:
160,128,135896,1,2,0:0:0:0:
160,128,136006,1,2,0:0:0:0:
160,96,136116,1,2,0:0:0:0:
160,128,136225,1,0,0:0:0:0:
160,128,136555,1,2,0:0:0:0:
160,96,136720,1,0,0:0:0:0:
160,128,136885,1,2,0:0:0:0:
160,128,137050,1,0,0:0:0:0:
160,128,137132,1,0,0:0:0:0:
160,128,137214,1,2,0:0:0:0:
160,96,137379,1,0,0:0:0:0:
160,128,137709,1,0,0:0:0:0:
160,128,137874,1,2,0:0:0:0:
160,128,138039,1,0,0:0:0:0:
160,128,138204,1,2,0:0:0:0:
160,128,138286,1,2,0:0:0:0:
160,128,138368,1,0,0:0:0:0:
160,128,138451,1,0,0:0:0:0:
160,128,138533,1,2,0:0:0:0:
160,128,138698,1,2,0:0:0:0:
160,128,138863,1,4,0:0:0:0:
160,64,139193,1,0,0:0:0:0:
160,128,139357,1,6,0:0:0:0:
160,64,139687,1,2,0:0:0:0:
160,128,139852,1,4,0:0:0:0:
160,64,140182,1,0,0:0:0:0:
160,128,140346,1,6,0:0:0:0:
160,64,140676,1,0,0:0:0:0:
160,64,140758,1,0,0:0:0:0:
160,128,140841,1,2,0:0:0:0:
160,128,141006,1,2,0:0:0:0:
160,128,141171,1,4,0:0:0:0:
160,64,141500,1,2,0:0:0:0:
160,32,141665,1,2,0:0:0:0:
192,0,141747,1,2,0:0:0:0:
192,0,141830,1,0,0:0:0:0:
192,0,141995,1,0,0:0:0:0:
192,0,142160,1,2,0:0:0:0:
192,0,142324,1,0,0:0:0:0:
192,0,142654,1,0,0:0:0:0:
192,0,142819,1,2,0:0:0:0:
192,0,142984,1,0,0:0:0:0:
192,0,143066,1,0,0:0:0:0:
192,0,143149,1,0,0:0:0:0:
192,0,143313,1,0,0:0:0:0:
192,0,143478,1,2,0:0:0:0:
160,64,143808,1,0,0:0:0:0:
192,0,143973,1,0,0:0:0:0:
192,0,144138,1,2,0:0:0:0:
192,0,144302,1,2,0:0:0:0:
192,0,144467,1,0,0:0:0:0:
192,0,144632,1,2,0:0:0:0:
192,0,144962,1,2,0:0:0:0:
192,0,145127,1,0,0:0:0:0:
192,0,145291,1,2,0:0:0:0:
192,32,145374,1,2,0:0:0:0:
192,0,145456,1,0,0:0:0:0:
192,32,145621,1,2,0:0:0:0:
192,0,145786,5,4,0:0:0:0:
192,0,146116,1,2,0:0:0:0:
192,0,146280,1,2,0:0:0:0:
192,0,146363,1,2,0:0:0:0:
192,0,146445,1,0,0:0:0:0:
192,0,146610,1,0,0:0:0:0:
192,0,146775,1,2,0:0:0:0:
192,0,146940,1,0,0:0:0:0:
192,0,147269,1,0,0:0:0:0:
160,32,147434,1,2,0:0:0:0:
192,0,147599,1,0,0:0:0:0:
192,0,147681,1,0,0:0:0:0:
160,0,147764,1,0,0:0:0:0:
192,32,147929,1,0,0:0:0:0:
160,0,148094,1,2,0:0:0:0:
160,32,148423,1,0,0:0:0:0:
192,32,148588,1,0,0:0:0:0:
160,0,148753,1,2,0:0:0:0:
192,32,148918,1,2,0:0:0:0:
160,0,149083,1,0,0:0:0:0:
192,32,149247,1,2,0:0:0:0:
192,32,149330,1,2,0:0:0:0:
160,0,149412,1,0,0:0:0:0:
192,32,149577,1,2,0:0:0:0:
160,0,149742,1,0,0:0:0:0:
160,0,149824,1,0,0:0:0:0:
160,0,149907,1,2,0:0:0:0:
160,0,149989,1,2,0:0:0:0:
160,0,150072,1,0,0:0:0:0:
192,32,150236,1,2,0:0:0:0:
160,0,150401,1,4,0:0:0:0:
224,32,150731,1,2,0:0:0:0:
192,32,150896,1,2,0:0:0:0:
192,0,150978,1,2,0:0:0:0:
160,0,151061,1,0,0:0:0:0:
192,32,151225,1,0,0:0:0:0:
160,0,151390,1,2,0:0:0:0:
192,32,151555,1,0,0:0:0:0:
160,32,151885,1,0,0:0:0:0:
192,0,152050,1,2,0:0:0:0:
160,32,152214,1,0,0:0:0:0:
160,0,152297,1,0,0:0:0:0:
192,0,152379,1,0,0:0:0:0:
160,32,152544,1,0,0:0:0:0:
192,0,152709,1,2,0:0:0:0:
160,32,153039,1,0,0:0:0:0:
192,0,153203,1,0,0:0:0:0:
160,32,153368,1,2,0:0:0:0:
192,0,153533,1,2,0:0:0:0:
160,32,153698,1,0,0:0:0:0:
192,0,153863,1,2,0:0:0:0:
160,32,154192,1,2,0:0:0:0:
192,0,154357,1,0,0:0:0:0:
160,32,154522,1,2,0:0:0:0:
192,0,154687,1,2,0:0:0:0:
160,0,154769,1,2,0:0:0:0:
192,0,154852,1,2,0:0:0:0:
160,32,155017,1,4,0:0:0:0:
192,0,155346,1,2,0:0:0:0:
160,32,155511,1,2,0:0:0:0:
160,32,155594,1,2,0:0:0:0:
192,0,155676,1,0,0:0:0:0:
160,32,155841,1,0,0:0:0:0:
192,0,156006,1,2,0:0:0:0:
160,32,156171,1,0,0:0:0:0:
192,0,156500,1,0,0:0:0:0:
160,32,156665,1,2,0:0:0:0:
192,0,156830,1,0,0:0:0:0:
160,0,156912,1,0,0:0:0:0:
160,0,156995,1,0,0:0:0:0:
192,32,157160,1,0,0:0:0:0:
160,0,157324,1,2,0:0:0:0:
160,32,157654,1,0,0:0:0:0:
160,32,157819,1,0,0:0:0:0:
192,0,157984,1,2,0:0:0:0:
160,32,158149,1,2,0:0:0:0:
160,32,158231,1,2,0:0:0:0:
192,0,158313,1,0,0:0:0:0:
192,0,158396,1,0,0:0:0:0:
160,32,158478,1,0,0:0:0:0:
160,32,158643,1,0,0:0:0:0:
192,0,158807,1,2,0:0:0:0:
192,0,159137,1,2,0:0:0:0:
160,32,159302,1,4,0:0:0:0:
192,0,159632,1,2,0:0:0:0:
160,32,159796,1,4,0:0:0:0:
192,0,160126,1,2,0:0:0:0:
160,32,160291,1,4,0:0:0:0:
192,0,160456,1,0,0:0:0:0:
192,0,160621,1,2,0:0:0:0:
160,32,160785,1,4,0:0:0:0:
192,0,161115,1,2,0:0:0:0:
160,32,161280,1,4,0:0:0:0:
192,0,161445,1,0,0:0:0:0:
192,0,161610,1,2,0:0:0:0:
160,32,161774,1,4,0:0:0:0:
128,64,161939,1,2,0:0:0:0:
192,0,162104,1,2,0:0:0:0:
160,32,162269,1,4,0:0:0:0:
192,0,162599,1,4,0:0:0:0:
160,32,162763,1,4,0:0:0:0:
