osu file format v14

[General]
AudioFilename: audio.mp3
AudioLeadIn: 0
PreviewTime: 112160
Countdown: 0
SampleSet: Normal
StackLeniency: 0.7
Mode: 1
LetterboxInBreaks: 0
WidescreenStoryboard: 0

[Editor]
DistanceSpacing: 0.5
BeatDivisor: 4
GridSize: 32
TimelineZoom: 2

[Metadata]
Title:Lorikeet
TitleUnicode:ロリキート
Artist:Tedjimo Yomigy
ArtistUnicode:黄泉路テヂーモ
Creator:yassu-
Version:Inner Oni
Source:BMS
Tags:G2R2014 G2R後夜祭 flat design 魔界都市ニイガタ makaitoshi niigata JUDYDANNY tasuke912
BeatmapID:1144904
BeatmapSetID:539888

[Difficulty]
HPDrainRate:5
CircleSize:5
OverallDifficulty:6
ApproachRate:5
SliderMultiplier:1.4
SliderTickRate:1

[Events]
//Background and Video events
0,0,"maxresdefault.jpg",0,0
//Break Periods
//Storyboard Layer 0 (Background)
//Storyboard Layer 1 (Fail)
//Storyboard Layer 2 (Pass)
//Storyboard Layer 3 (Foreground)
//Storyboard Sound Samples

[TimingPoints]
2380,329.67032967033,7,1,0,75,1,0
2380,-100,7,1,0,75,0,0
11610,-100,7,1,0,85,0,0
18533,329.67032967033,4,1,0,85,1,0
21829,-100,4,1,0,30,0,0
33038,-100,4,1,0,70,0,0
36829,-100,6,1,0,40,0,0
40291,-100,4,1,0,70,0,0
40950,-100,4,1,0,80,0,0
63450,-100,4,1,0,70,0,0
65676,329.67032967033,4,1,0,70,1,0
66500,329.67032967033,3,1,0,70,1,0
68478,329.67032967033,6,1,0,40,1,0
71939,-100,6,1,0,70,0,0
72434,329.67032967033,3,1,0,70,1,0
74248,329.67032967033,3,1,0,70,1,0
75237,-100,4,1,0,78,0,0
78204,329.67032967033,4,1,0,78,1,0
80841,-100,4,1,0,75,0,0
101940,-100,4,1,0,55,0,0
109852,-100,4,1,0,80,0,0
112489,-100,4,1,0,90,0,1
141171,329.67032967033,7,1,0,80,1,0
158643,329.67032967033,3,1,0,85,1,0

[HitObjects]
256,192,2380,5,0,0:0:0:0:
256,192,2874,1,2,0:0:0:0:
256,192,3039,1,0,0:0:0:0:
256,192,3204,1,0,0:0:0:0:
256,192,3369,1,2,0:0:0:0:
256,192,3533,1,0,0:0:0:0:
256,192,3863,1,0,0:0:0:0:
256,192,4193,1,2,0:0:0:0:
256,192,4358,1,0,0:0:0:0:
256,192,4687,1,2,0:0:0:0:
256,192,5182,1,2,0:0:0:0:
256,192,5347,1,0,0:0:0:0:
256,192,5511,1,2,0:0:0:0:
256,192,5676,1,0,0:0:0:0:
256,192,5841,1,2,0:0:0:0:
256,192,6171,1,2,0:0:0:0:
256,192,6500,1,0,0:0:0:0:
256,192,6665,1,2,0:0:0:0:
256,192,6995,1,0,0:0:0:0:
256,192,7160,1,0,0:0:0:0:
256,192,7489,1,2,0:0:0:0:
256,192,7572,1,2,0:0:0:0:
256,192,7654,1,0,0:0:0:0:
256,192,7819,1,0,0:0:0:0:
256,192,7984,1,2,0:0:0:0:
256,192,8149,1,2,0:0:0:0:
256,192,8314,1,0,0:0:0:0:
256,192,8478,1,0,0:0:0:0:
256,192,8643,1,2,0:0:0:0:
256,192,8973,1,0,0:0:0:0:
256,192,9138,1,0,0:0:0:0:
256,192,9303,1,2,0:0:0:0:
256,192,9467,1,2,0:0:0:0:
256,192,9632,1,0,0:0:0:0:
256,192,9715,1,0,0:0:0:0:
256,192,9797,1,0,0:0:0:0:
256,192,9880,1,0,0:0:0:0:
256,192,9962,1,2,0:0:0:0:
256,192,10127,1,0,0:0:0:0:
256,192,10292,1,2,0:0:0:0:
256,192,10347,1,2,0:0:0:0:
256,192,10401,1,2,0:0:0:0:
256,192,10456,1,0,0:0:0:0:
256,192,10621,1,2,0:0:0:0:
256,192,10786,1,2,0:0:0:0:
256,192,10869,1,0,0:0:0:0:
256,192,10951,1,0,0:0:0:0:
256,192,11116,1,0,0:0:0:0:
256,192,11281,1,2,0:0:0:0:
256,192,11363,1,2,0:0:0:0:
256,192,11445,1,2,0:0:0:0:
256,192,11528,1,2,0:0:0:0:
256,192,11610,1,0,0:0:0:0:
256,192,11858,1,0,0:0:0:0:
256,192,11940,1,2,0:0:0:0:
256,192,12105,1,2,0:0:0:0:
256,192,12187,1,2,0:0:0:0:
256,192,12270,1,0,0:0:0:0:
256,192,12434,1,0,0:0:0:0:
256,192,12599,1,2,0:0:0:0:
256,192,12764,1,0,0:0:0:0:
256,192,12847,1,0,0:0:0:0:
256,192,12929,1,2,0:0:0:0:
256,192,13094,1,0,0:0:0:0:
256,192,13259,1,2,0:0:0:0:
256,192,13423,1,2,0:0:0:0:
256,192,13588,1,0,0:0:0:0:
256,192,13753,1,0,0:0:0:0:
256,192,13836,1,0,0:0:0:0:
256,192,13918,1,2,0:0:0:0:
256,192,14165,1,2,0:0:0:0:
256,192,14248,1,0,0:0:0:0:
256,192,14412,1,0,0:0:0:0:
256,192,14495,1,0,0:0:0:0:
256,192,14577,1,2,0:0:0:0:
256,192,14742,1,2,0:0:0:0:
256,192,14907,1,0,0:0:0:0:
256,192,15072,1,2,0:0:0:0:
256,192,15154,1,2,0:0:0:0:
256,192,15237,1,0,0:0:0:0:
256,192,15401,1,2,0:0:0:0:
256,192,15566,1,0,0:0:0:0:
256,192,15731,1,0,0:0:0:0:
256,192,15896,1,2,0:0:0:0:
256,192,16061,1,2,0:0:0:0:
256,192,16143,1,2,0:0:0:0:
256,192,16226,1,0,0:0:0:0:
256,192,16473,1,0,0:0:0:0:
256,192,16555,1,2,0:0:0:0:
256,192,16720,1,2,0:0:0:0:
256,192,16803,1,2,0:0:0:0:
256,192,16885,1,0,0:0:0:0:
256,192,17050,1,0,0:0:0:0:
256,192,17215,1,2,0:0:0:0:
256,192,17380,1,0,0:0:0:0:
256,192,17462,1,0,0:0:0:0:
256,192,17544,1,2,0:0:0:0:
256,192,17709,1,0,0:0:0:0:
256,192,17874,1,2,0:0:0:0:
256,192,18039,1,2,0:0:0:0:
256,192,18204,1,0,0:0:0:0:
256,192,18369,1,0,0:0:0:0:
256,192,18451,1,0,0:0:0:0:
256,192,18533,1,2,0:0:0:0:
256,192,18780,1,2,0:0:0:0:
256,192,18862,1,0,0:0:0:0:
256,192,19027,1,0,0:0:0:0:
256,192,19109,1,0,0:0:0:0:
256,192,19192,1,2,0:0:0:0:
256,192,19274,1,2,0:0:0:0:
256,192,19357,1,2,0:0:0:0:
256,192,19439,1,2,0:0:0:0:
256,192,19522,1,0,0:0:0:0:
256,192,19686,1,6,0:0:0:0:
256,192,19851,1,0,0:0:0:0:
256,192,20016,1,6,0:0:0:0:
256,192,20346,1,0,0:0:0:0:
256,192,20511,1,6,0:0:0:0:
256,192,20840,1,0,0:0:0:0:
256,192,21005,1,6,0:0:0:0:
256,192,21335,1,0,0:0:0:0:
256,192,21500,1,6,0:0:0:0:
256,192,22489,1,0,0:0:0:0:
256,192,23478,1,2,0:0:0:0:
256,192,23642,1,0,0:0:0:0:
256,192,24631,1,2,0:0:0:0:
256,192,24796,1,0,0:0:0:0:
256,192,24961,1,0,0:0:0:0:
256,192,25126,1,2,0:0:0:0:
256,192,25291,1,2,0:0:0:0:
256,192,25456,1,2,0:0:0:0:
256,192,26115,1,2,0:0:0:0:
256,192,26280,1,0,0:0:0:0:
256,192,26774,1,2,0:0:0:0:
256,192,26939,1,2,0:0:0:0:
256,192,27104,1,0,0:0:0:0:
256,192,27269,1,0,0:0:0:0:
256,192,27434,1,2,0:0:0:0:
256,192,27598,1,2,0:0:0:0:
256,192,27763,1,0,0:0:0:0:
256,192,28258,1,2,0:0:0:0:
256,192,28752,1,0,0:0:0:0:
256,192,28917,1,2,0:0:0:0:
256,192,29412,1,0,0:0:0:0:
256,192,29906,1,2,0:0:0:0:
256,192,30071,1,2,0:0:0:0:
256,192,30236,1,0,0:0:0:0:
256,192,30401,1,2,0:0:0:0:
256,192,30565,1,2,0:0:0:0:
256,192,30730,1,0,0:0:0:0:
256,192,30895,1,2,0:0:0:0:
256,192,31060,1,0,0:0:0:0:
256,192,31225,1,0,0:0:0:0:
256,192,31390,1,2,0:0:0:0:
256,192,31554,1,0,0:0:0:0:
256,192,32049,1,0,0:0:0:0:
256,192,32214,1,2,0:0:0:0:
256,192,32379,1,2,0:0:0:0:
256,192,32543,1,0,0:0:0:0:
256,192,32708,1,0,0:0:0:0:
256,192,32873,1,2,0:0:0:0:
256,192,33038,1,4,0:0:0:0:
256,192,33285,1,2,0:0:0:0:
256,192,33368,1,2,0:0:0:0:
256,192,33533,1,4,0:0:0:0:
256,192,33697,1,2,0:0:0:0:
256,192,33862,1,2,0:0:0:0:
256,192,34027,1,2,0:0:0:0:
256,192,34192,1,4,0:0:0:0:
256,192,34522,1,2,0:0:0:0:
256,192,34686,1,4,0:0:0:0:
256,192,35016,1,0,0:0:0:0:
256,192,35181,1,2,0:0:0:0:
256,192,35263,1,2,0:0:0:0:
256,192,35346,1,2,0:0:0:0:
256,192,35428,1,2,0:0:0:0:
256,192,35675,1,4,0:0:0:0:
256,192,35923,1,2,0:0:0:0:
256,192,36005,1,2,0:0:0:0:
256,192,36170,1,4,0:0:0:0:
256,192,36335,1,2,0:0:0:0:
256,192,36500,1,2,0:0:0:0:
256,192,36664,1,0,0:0:0:0:
256,192,36829,2,0,L|288:160,14,35
256,192,38313,1,0,0:0:0:0:
256,192,38478,1,0,0:0:0:0:
256,192,38725,1,0,0:0:0:0:
256,192,38807,1,2,0:0:0:0:
256,192,38972,1,2,0:0:0:0:
256,192,39137,1,0,0:0:0:0:
256,192,39192,1,0,0:0:0:0:
256,192,39247,1,0,0:0:0:0:
256,192,39302,1,2,0:0:0:0:
256,192,39467,1,2,0:0:0:0:
256,192,39549,1,0,0:0:0:0:
256,192,39631,1,2,0:0:0:0:
256,192,39714,1,2,0:0:0:0:
256,192,39796,1,0,0:0:0:0:
256,192,39879,1,0,0:0:0:0:
256,192,39961,1,2,0:0:0:0:
256,192,40126,1,2,0:0:0:0:
256,192,40291,1,0,0:0:0:0:
256,192,40456,1,0,0:0:0:0:
256,192,40950,1,4,0:0:0:0:
256,192,41115,1,0,0:0:0:0:
256,192,41280,1,2,0:0:0:0:
256,192,41445,1,0,0:0:0:0:
256,192,41692,1,0,0:0:0:0:
256,192,41774,1,2,0:0:0:0:
256,192,41939,1,0,0:0:0:0:
256,192,42104,1,2,0:0:0:0:
256,192,42269,1,0,0:0:0:0:
256,192,42434,1,0,0:0:0:0:
256,192,42598,1,2,0:0:0:0:
256,192,42763,1,0,0:0:0:0:
256,192,43011,1,0,0:0:0:0:
256,192,43093,1,2,0:0:0:0:
256,192,43258,1,0,0:0:0:0:
256,192,43423,1,2,0:0:0:0:
256,192,43587,1,0,0:0:0:0:
256,192,43752,1,0,0:0:0:0:
256,192,43835,1,2,0:0:0:0:
256,192,44000,1,0,0:0:0:0:
256,192,44082,1,2,0:0:0:0:
256,192,44247,1,2,0:0:0:0:
256,192,44412,1,2,0:0:0:0:
256,192,44576,1,0,0:0:0:0:
256,192,44741,1,2,0:0:0:0:
256,192,44824,1,2,0:0:0:0:
256,192,44906,1,0,0:0:0:0:
256,192,45071,1,0,0:0:0:0:
256,192,45236,1,2,0:0:0:0:
256,192,45401,1,0,0:0:0:0:
256,192,45483,1,0,0:0:0:0:
256,192,45648,1,0,0:0:0:0:
256,192,45730,1,2,0:0:0:0:
256,192,45813,1,2,0:0:0:0:
256,192,45895,1,0,0:0:0:0:
256,192,46060,1,2,0:0:0:0:
256,192,46225,1,0,0:0:0:0:
256,192,46390,1,0,0:0:0:0:
256,192,46472,1,0,0:0:0:0:
256,192,46554,1,2,0:0:0:0:
256,192,46719,1,0,0:0:0:0:
256,192,46967,1,0,0:0:0:0:
256,192,47049,1,2,0:0:0:0:
256,192,47214,1,0,0:0:0:0:
256,192,47379,1,2,0:0:0:0:
256,192,47461,1,2,0:0:0:0:
256,192,47543,1,0,0:0:0:0:
256,192,47626,1,2,0:0:0:0:
256,192,47708,1,0,0:0:0:0:
256,192,47791,1,0,0:0:0:0:
256,192,47873,1,2,0:0:0:0:
256,192,47956,1,2,0:0:0:0:
256,192,48038,1,0,0:0:0:0:
256,192,48120,1,2,0:0:0:0:
256,192,48203,1,0,0:0:0:0:
256,192,48285,1,2,0:0:0:0:
256,192,48368,1,2,0:0:0:0:
256,192,48450,1,0,0:0:0:0:
256,192,48533,1,2,0:0:0:0:
256,192,48697,1,2,0:0:0:0:
256,192,48862,1,0,0:0:0:0:
256,192,49027,1,0,0:0:0:0:
256,192,49109,1,0,0:0:0:0:
256,192,49192,1,2,0:0:0:0:
256,192,49357,1,2,0:0:0:0:
256,192,49522,1,0,0:0:0:0:
256,192,49604,1,2,0:0:0:0:
256,192,49769,1,2,0:0:0:0:
256,192,49934,1,2,0:0:0:0:
256,192,50016,1,0,0:0:0:0:
256,192,50098,1,2,0:0:0:0:
256,192,50181,1,0,0:0:0:0:
256,192,50346,1,2,0:0:0:0:
256,192,50511,1,0,0:0:0:0:
256,192,50593,1,2,0:0:0:0:
256,192,50758,1,2,0:0:0:0:
256,192,50923,1,2,0:0:0:0:
256,192,51005,1,0,0:0:0:0:
256,192,51087,1,0,0:0:0:0:
256,192,51170,1,2,0:0:0:0:
256,192,51252,1,2,0:0:0:0:
256,192,51335,1,2,0:0:0:0:
256,192,51417,1,2,0:0:0:0:
256,192,51500,1,0,0:0:0:0:
256,192,51664,1,2,0:0:0:0:
256,192,51829,1,2,0:0:0:0:
256,192,51994,1,0,0:0:0:0:
256,192,52241,1,0,0:0:0:0:
256,192,52324,1,2,0:0:0:0:
256,192,52489,1,2,0:0:0:0:
256,192,52571,1,2,0:0:0:0:
256,192,52653,1,2,0:0:0:0:
256,192,52818,1,4,0:0:0:0:
256,192,52983,1,0,0:0:0:0:
256,192,53148,1,2,0:0:0:0:
256,192,53313,1,4,0:0:0:0:
256,192,53642,1,4,0:0:0:0:
256,192,53972,1,2,0:0:0:0:
256,192,54054,1,2,0:0:0:0:
256,192,54137,1,0,0:0:0:0:
256,192,54302,1,0,0:0:0:0:
256,192,54467,1,2,0:0:0:0:
256,192,54549,1,0,0:0:0:0:
256,192,54631,1,0,0:0:0:0:
256,192,54714,1,2,0:0:0:0:
256,192,54879,1,0,0:0:0:0:
256,192,54961,1,2,0:0:0:0:
256,192,55043,1,2,0:0:0:0:
256,192,55126,1,0,0:0:0:0:
256,192,55208,1,0,0:0:0:0:
256,192,55291,1,2,0:0:0:0:
256,192,55373,1,0,0:0:0:0:
256,192,55456,1,2,0:0:0:0:
256,192,55620,1,0,0:0:0:0:
256,192,55703,1,0,0:0:0:0:
256,192,55785,1,2,0:0:0:0:
256,192,55868,1,0,0:0:0:0:
256,192,56033,1,2,0:0:0:0:
256,192,56115,1,0,0:0:0:0:
256,192,56197,1,0,0:0:0:0:
256,192,56280,1,2,0:0:0:0:
256,192,56445,1,2,0:0:0:0:
256,192,56527,1,2,0:0:0:0:
256,192,56609,1,0,0:0:0:0:
256,192,56939,1,4,0:0:0:0:
256,192,57104,1,4,0:0:0:0:
256,192,57269,1,4,0:0:0:0:
256,192,57598,1,6,0:0:0:0:
256,192,57928,1,4,0:0:0:0:
256,192,58175,1,2,0:0:0:0:
256,192,58258,1,2,0:0:0:0:
256,192,58340,1,0,0:0:0:0:
256,192,58423,1,0,0:0:0:0:
256,192,58505,1,2,0:0:0:0:
256,192,58587,1,2,0:0:0:0:
256,192,58670,1,0,0:0:0:0:
256,192,58752,1,0,0:0:0:0:
256,192,58835,1,0,0:0:0:0:
256,192,58917,1,2,0:0:0:0:
256,192,59000,1,2,0:0:0:0:
256,192,59082,1,0,0:0:0:0:
256,192,59164,1,0,0:0:0:0:
256,192,59247,1,2,0:0:0:0:
256,192,59412,1,0,0:0:0:0:
256,192,59576,1,0,0:0:0:0:
256,192,59659,1,0,0:0:0:0:
256,192,59741,1,2,0:0:0:0:
256,192,59824,1,0,0:0:0:0:
256,192,59906,1,0,0:0:0:0:
256,192,59989,1,2,0:0:0:0:
256,192,60071,1,2,0:0:0:0:
256,192,60153,1,0,0:0:0:0:
256,192,60236,1,2,0:0:0:0:
256,192,60401,1,2,0:0:0:0:
256,192,60565,1,0,0:0:0:0:
256,192,60648,1,2,0:0:0:0:
256,192,60730,1,0,0:0:0:0:
256,192,60813,1,2,0:0:0:0:
256,192,60895,1,2,0:0:0:0:
256,192,60978,1,0,0:0:0:0:
256,192,61060,1,2,0:0:0:0:
256,192,61225,1,0,0:0:0:0:
256,192,61307,1,2,0:0:0:0:
256,192,61390,1,0,0:0:0:0:
256,192,61472,1,0,0:0:0:0:
256,192,61554,1,2,0:0:0:0:
256,192,61719,1,2,0:0:0:0:
256,192,61802,1,2,0:0:0:0:
256,192,61884,1,0,0:0:0:0:
256,192,62214,1,6,0:0:0:0:
256,192,62461,1,4,0:0:0:0:
256,192,62708,1,6,0:0:0:0:
256,192,62956,1,4,0:0:0:0:
256,192,63203,1,4,0:0:0:0:
256,192,63450,1,0,0:0:0:0:
256,192,63533,1,2,0:0:0:0:
256,192,63697,1,2,0:0:0:0:
256,192,63780,1,0,0:0:0:0:
256,192,63862,1,0,0:0:0:0:
256,192,64027,1,0,0:0:0:0:
256,192,64109,1,2,0:0:0:0:
256,192,64192,1,2,0:0:0:0:
256,192,64274,1,2,0:0:0:0:
256,192,64357,1,0,0:0:0:0:
256,192,64439,1,0,0:0:0:0:
256,192,64522,1,0,0:0:0:0:
256,192,64686,1,0,0:0:0:0:
256,192,64851,1,2,0:0:0:0:
256,192,65016,1,2,0:0:0:0:
256,192,65181,1,0,0:0:0:0:
256,192,65346,1,2,0:0:0:0:
256,192,65511,1,2,0:0:0:0:
256,192,65675,1,0,0:0:0:0:
256,192,65758,1,2,0:0:0:0:
256,192,65840,1,0,0:0:0:0:
256,192,65923,1,2,0:0:0:0:
256,192,66005,1,0,0:0:0:0:
256,192,66088,1,2,0:0:0:0:
256,192,66335,1,2,0:0:0:0:
256,192,66500,1,0,0:0:0:0:
256,192,66664,1,2,0:0:0:0:
256,192,66829,1,2,0:0:0:0:
256,192,66994,1,0,0:0:0:0:
256,192,67159,1,2,0:0:0:0:
256,192,67324,1,2,0:0:0:0:
256,192,67489,1,0,0:0:0:0:
256,192,67653,1,2,0:0:0:0:
256,192,67736,1,2,0:0:0:0:
256,192,67818,1,0,0:0:0:0:
256,192,67983,1,2,0:0:0:0:
256,192,68065,1,2,0:0:0:0:
256,192,68148,1,0,0:0:0:0:
256,192,68230,1,2,0:0:0:0:
256,192,68313,1,2,0:0:0:0:
256,192,68395,1,2,0:0:0:0:
256,192,68478,1,0,0:0:0:0:
256,192,68807,1,0,0:0:0:0:
256,192,69137,1,2,0:0:0:0:
256,192,69467,1,0,0:0:0:0:
256,192,69631,1,0,0:0:0:0:
256,192,69796,1,0,0:0:0:0:
256,192,70126,1,2,0:0:0:0:
256,192,70456,1,0,0:0:0:0:
256,192,70785,1,0,0:0:0:0:
256,192,71115,1,2,0:0:0:0:
256,192,71445,1,0,0:0:0:0:
256,192,71609,1,0,0:0:0:0:
256,192,71774,1,0,0:0:0:0:
256,192,71939,1,2,0:0:0:0:
256,192,72104,1,2,0:0:0:0:
256,192,72186,1,2,0:0:0:0:
256,192,72351,1,2,0:0:0:0:
256,192,72434,1,0,0:0:0:0:
256,192,72598,1,2,0:0:0:0:
256,192,72763,1,2,0:0:0:0:
256,192,72846,1,2,0:0:0:0:
256,192,72928,1,0,0:0:0:0:
256,192,73010,1,0,0:0:0:0:
256,192,73093,1,0,0:0:0:0:
256,192,73175,1,0,0:0:0:0:
256,192,73258,1,2,0:0:0:0:
256,192,73423,1,0,0:0:0:0:
256,192,73587,1,2,0:0:0:0:
256,192,73752,1,2,0:0:0:0:
256,192,73835,1,2,0:0:0:0:
256,192,73917,1,0,0:0:0:0:
256,192,74082,1,2,0:0:0:0:
256,192,74247,1,0,0:0:0:0:
256,192,74330,1,2,0:0:0:0:
256,192,74412,1,2,0:0:0:0:
256,192,74495,1,2,0:0:0:0:
256,192,74577,1,2,0:0:0:0:
256,192,74632,1,2,0:0:0:0:
256,192,74687,1,2,0:0:0:0:
256,192,74742,1,0,0:0:0:0:
256,192,74907,1,2,0:0:0:0:
256,192,75237,1,4,0:0:0:0:
256,192,75484,1,4,0:0:0:0:
256,192,75731,1,4,0:0:0:0:
256,192,75978,1,4,0:0:0:0:
256,192,76226,1,6,0:0:0:0:
256,192,76390,1,2,0:0:0:0:
256,192,76473,1,2,0:0:0:0:
256,192,76555,1,0,0:0:0:0:
256,192,76720,1,6,0:0:0:0:
256,192,76885,1,2,0:0:0:0:
256,192,76967,1,2,0:0:0:0:
256,192,77050,1,0,0:0:0:0:
256,192,77215,1,6,0:0:0:0:
256,192,77379,1,0,0:0:0:0:
256,192,77462,1,2,0:0:0:0:
256,192,77544,1,0,0:0:0:0:
256,192,77709,1,6,0:0:0:0:
256,192,77874,1,0,0:0:0:0:
256,192,77956,1,2,0:0:0:0:
256,192,78039,1,0,0:0:0:0:
256,192,78204,1,6,0:0:0:0:
256,192,78368,1,0,0:0:0:0:
256,192,78533,1,0,0:0:0:0:
256,192,78616,1,0,0:0:0:0:
256,192,78698,1,2,0:0:0:0:
256,192,78863,1,0,0:0:0:0:
256,192,79028,1,0,0:0:0:0:
256,192,79110,1,2,0:0:0:0:
256,192,79193,1,2,0:0:0:0:
256,192,79357,1,2,0:0:0:0:
256,192,79440,1,2,0:0:0:0:
256,192,79687,1,0,0:0:0:0:
256,192,79769,1,0,0:0:0:0:
256,192,79934,1,0,0:0:0:0:
256,192,80099,1,0,0:0:0:0:
256,192,80182,1,2,0:0:0:0:
256,192,80346,1,0,0:0:0:0:
256,192,80594,1,0,0:0:0:0:
256,192,80841,1,4,0:0:0:0:
256,192,81006,1,0,0:0:0:0:
256,192,81171,1,2,0:0:0:0:
256,192,81418,1,0,0:0:0:0:
256,192,81500,1,0,0:0:0:0:
256,192,81665,1,0,0:0:0:0:
256,192,81830,1,2,0:0:0:0:
256,192,81995,1,0,0:0:0:0:
256,192,82160,1,2,0:0:0:0:
256,192,82324,1,0,0:0:0:0:
256,192,82489,1,2,0:0:0:0:
256,192,82654,1,2,0:0:0:0:
256,192,82819,1,0,0:0:0:0:
256,192,82984,1,0,0:0:0:0:
256,192,83149,1,2,0:0:0:0:
256,192,83231,1,2,0:0:0:0:
256,192,83313,1,2,0:0:0:0:
256,192,83561,5,0,0:0:0:0:
256,192,83643,1,0,0:0:0:0:
256,192,83725,1,2,0:0:0:0:
256,192,83808,1,2,0:0:0:0:
256,192,83890,1,0,0:0:0:0:
256,192,83973,1,0,0:0:0:0:
256,192,84055,1,2,0:0:0:0:
256,192,84138,1,2,0:0:0:0:
256,192,84220,1,2,0:0:0:0:
256,192,84302,1,0,0:0:0:0:
256,192,84385,1,0,0:0:0:0:
256,192,84467,1,2,0:0:0:0:
256,192,84550,1,2,0:0:0:0:
256,192,84632,1,0,0:0:0:0:
256,192,84714,1,0,0:0:0:0:
256,192,84797,1,2,0:0:0:0:
256,192,84879,1,2,0:0:0:0:
256,192,84962,1,2,0:0:0:0:
256,192,85044,1,2,0:0:0:0:
256,192,85127,1,0,0:0:0:0:
256,192,85209,1,0,0:0:0:0:
256,192,85291,1,0,0:0:0:0:
256,192,85374,1,0,0:0:0:0:
256,192,85456,1,2,0:0:0:0:
256,192,85539,1,0,0:0:0:0:
256,192,85621,1,2,0:0:0:0:
256,192,85786,1,2,0:0:0:0:
256,192,85951,1,4,0:0:0:0:
256,192,86280,1,0,0:0:0:0:
256,192,86363,1,0,0:0:0:0:
256,192,86445,1,2,0:0:0:0:
256,192,86693,1,0,0:0:0:0:
256,192,86775,1,0,0:0:0:0:
256,192,86940,1,0,0:0:0:0:
256,192,87105,1,2,0:0:0:0:
256,192,87269,1,2,0:0:0:0:
256,192,87434,1,0,0:0:0:0:
256,192,87599,1,0,0:0:0:0:
256,192,87764,1,2,0:0:0:0:
256,192,87929,1,2,0:0:0:0:
256,192,88011,1,0,0:0:0:0:
256,192,88094,1,0,0:0:0:0:
256,192,88176,1,0,0:0:0:0:
256,192,88258,1,2,0:0:0:0:
256,192,88341,1,0,0:0:0:0:
256,192,88423,1,2,0:0:0:0:
256,192,88588,1,2,0:0:0:0:
256,192,88918,1,0,0:0:0:0:
256,192,89083,1,2,0:0:0:0:
256,192,89412,1,2,0:0:0:0:
256,192,89495,1,2,0:0:0:0:
256,192,89577,1,0,0:0:0:0:
256,192,89907,1,0,0:0:0:0:
256,192,89989,1,0,0:0:0:0:
256,192,90072,1,2,0:0:0:0:
256,192,90236,1,2,0:0:0:0:
256,192,90401,1,2,0:0:0:0:
256,192,90484,1,2,0:0:0:0:
256,192,90566,1,0,0:0:0:0:
256,192,90731,1,0,0:0:0:0:
256,192,90896,1,2,0:0:0:0:
256,192,91061,1,2,0:0:0:0:
256,192,91225,1,4,0:0:0:0:
256,192,91555,1,0,0:0:0:0:
256,192,91638,1,0,0:0:0:0:
256,192,91720,1,2,0:0:0:0:
256,192,91967,1,0,0:0:0:0:
256,192,92050,1,0,0:0:0:0:
256,192,92214,1,0,0:0:0:0:
256,192,92379,1,2,0:0:0:0:
256,192,92544,1,4,0:0:0:0:
256,192,92874,1,0,0:0:0:0:
256,192,92956,1,0,0:0:0:0:
256,192,93039,1,2,0:0:0:0:
256,192,93204,1,2,0:0:0:0:
256,192,93286,1,2,0:0:0:0:
256,192,93368,1,0,0:0:0:0:
256,192,93451,1,2,0:0:0:0:
256,192,93533,1,0,0:0:0:0:
256,192,93616,1,0,0:0:0:0:
256,192,93698,1,2,0:0:0:0:
256,192,93863,1,2,0:0:0:0:
256,192,94193,1,0,0:0:0:0:
256,192,94357,1,2,0:0:0:0:
256,192,94687,1,2,0:0:0:0:
256,192,94852,1,0,0:0:0:0:
256,192,95017,1,2,0:0:0:0:
256,192,95346,1,2,0:0:0:0:
256,192,95676,1,2,0:0:0:0:
256,192,95841,1,0,0:0:0:0:
256,192,96171,1,0,0:0:0:0:
256,192,96335,1,2,0:0:0:0:
256,192,96500,1,4,0:0:0:0:
256,192,96830,1,0,0:0:0:0:
256,192,96995,1,2,0:0:0:0:
256,192,97160,1,0,0:0:0:0:
256,192,97324,1,0,0:0:0:0:
256,192,97489,1,0,0:0:0:0:
256,192,97654,1,2,0:0:0:0:
256,192,97819,1,4,0:0:0:0:
256,192,98149,1,0,0:0:0:0:
256,192,98231,1,0,0:0:0:0:
256,192,98313,1,2,0:0:0:0:
256,192,98478,1,2,0:0:0:0:
256,192,98643,1,0,0:0:0:0:
256,192,98808,1,0,0:0:0:0:
256,192,98973,1,2,0:0:0:0:
256,192,99138,1,4,0:0:0:0:
256,192,99467,1,0,0:0:0:0:
256,192,99632,1,2,0:0:0:0:
256,192,99797,1,0,0:0:0:0:
256,192,99962,1,2,0:0:0:0:
256,192,100127,1,0,0:0:0:0:
256,192,100291,1,2,0:0:0:0:
256,192,100456,1,4,0:0:0:0:
256,192,100786,5,0,0:0:0:0:
256,192,100868,1,0,0:0:0:0:
256,192,100951,1,2,0:0:0:0:
256,192,101033,1,2,0:0:0:0:
256,192,101116,1,2,0:0:0:0:
256,192,101198,1,2,0:0:0:0:
256,192,101280,1,2,0:0:0:0:
256,192,101363,1,2,0:0:0:0:
256,192,101445,1,2,0:0:0:0:
256,192,101528,1,2,0:0:0:0:
256,192,101610,1,2,0:0:0:0:
256,192,101693,1,2,0:0:0:0:
256,192,101775,1,2,0:0:0:0:
256,192,101857,1,2,0:0:0:0:
256,192,101940,1,0,0:0:0:0:
256,192,103094,1,0,0:0:0:0:
256,192,103423,1,2,0:0:0:0:
256,192,103588,1,2,0:0:0:0:
256,192,103753,1,0,0:0:0:0:
256,192,104083,1,0,0:0:0:0:
256,192,104247,1,2,0:0:0:0:
256,192,104577,1,0,0:0:0:0:
256,192,105731,1,0,0:0:0:0:
256,192,106061,1,0,0:0:0:0:
256,192,106225,1,0,0:0:0:0:
256,192,106390,1,2,0:0:0:0:
256,192,106720,1,2,0:0:0:0:
256,192,107214,1,0,0:0:0:0:
256,192,108368,5,0,0:0:0:0:
256,192,108698,5,2,0:0:0:0:
256,192,108863,1,2,0:0:0:0:
256,192,109028,1,0,0:0:0:0:
256,192,109522,5,0,0:0:0:0:
256,192,109687,1,0,0:0:0:0:
256,192,109852,1,6,0:0:0:0:
256,192,110017,1,0,0:0:0:0:
256,192,110099,1,0,0:0:0:0:
256,192,110182,1,0,0:0:0:0:
256,192,110346,1,6,0:0:0:0:
256,192,110511,1,0,0:0:0:0:
256,192,110594,1,0,0:0:0:0:
256,192,110676,1,0,0:0:0:0:
256,192,110841,1,6,0:0:0:0:
256,192,111006,1,0,0:0:0:0:
256,192,111088,1,0,0:0:0:0:
256,192,111171,1,2,0:0:0:0:
256,192,111335,1,6,0:0:0:0:
256,192,111500,1,0,0:0:0:0:
256,192,111583,1,0,0:0:0:0:
256,192,111665,1,2,0:0:0:0:
256,192,111830,1,6,0:0:0:0:
256,192,111995,1,2,0:0:0:0:
256,192,112077,1,2,0:0:0:0:
256,192,112160,1,0,0:0:0:0:
256,192,112489,1,4,0:0:0:0:
256,192,112654,1,0,0:0:0:0:
256,192,112819,1,2,0:0:0:0:
256,192,113066,1,0,0:0:0:0:
256,192,113149,1,0,0:0:0:0:
256,192,113313,1,0,0:0:0:0:
256,192,113478,1,2,0:0:0:0:
256,192,113643,1,0,0:0:0:0:
256,192,113890,5,2,0:0:0:0:
256,192,113973,1,0,0:0:0:0:
256,192,114138,1,2,0:0:0:0:
256,192,114302,1,0,0:0:0:0:
256,192,114385,1,0,0:0:0:0:
256,192,114467,1,2,0:0:0:0:
256,192,114550,1,2,0:0:0:0:
256,192,114632,1,0,0:0:0:0:
256,192,114797,1,2,0:0:0:0:
256,192,114962,1,2,0:0:0:0:
256,192,115127,1,0,0:0:0:0:
256,192,115291,1,0,0:0:0:0:
256,192,115456,1,2,0:0:0:0:
256,192,115704,1,0,0:0:0:0:
256,192,115786,1,0,0:0:0:0:
256,192,115951,1,0,0:0:0:0:
256,192,116116,1,2,0:0:0:0:
256,192,116280,1,0,0:0:0:0:
256,192,116445,1,2,0:0:0:0:
256,192,116555,1,0,0:0:0:0:
256,192,116665,1,0,0:0:0:0:
256,192,116775,1,2,0:0:0:0:
256,192,116885,1,0,0:0:0:0:
256,192,116995,1,0,0:0:0:0:
256,192,117105,1,2,0:0:0:0:
256,192,117214,1,2,0:0:0:0:
256,192,117324,1,0,0:0:0:0:
256,192,117434,1,2,0:0:0:0:
256,192,117599,1,2,0:0:0:0:
256,192,117682,1,2,0:0:0:0:
256,192,117764,1,0,0:0:0:0:
256,192,117929,1,0,0:0:0:0:
256,192,118094,1,2,0:0:0:0:
256,192,118341,1,0,0:0:0:0:
256,192,118423,1,0,0:0:0:0:
256,192,118588,1,2,0:0:0:0:
256,192,118753,1,2,0:0:0:0:
256,192,118918,1,0,0:0:0:0:
256,192,119165,5,2,0:0:0:0:
256,192,119247,1,0,0:0:0:0:
256,192,119330,1,0,0:0:0:0:
256,192,119412,1,2,0:0:0:0:
256,192,119495,1,2,0:0:0:0:
256,192,119577,1,0,0:0:0:0:
256,192,119742,1,0,0:0:0:0:
256,192,119907,1,2,0:0:0:0:
256,192,120072,1,2,0:0:0:0:
256,192,120236,1,0,0:0:0:0:
256,192,120319,1,2,0:0:0:0:
256,192,120401,1,0,0:0:0:0:
256,192,120566,1,0,0:0:0:0:
256,192,120731,1,2,0:0:0:0:
256,192,120896,1,2,0:0:0:0:
256,192,120978,1,0,0:0:0:0:
256,192,121061,1,0,0:0:0:0:
256,192,121225,1,0,0:0:0:0:
256,192,121390,1,2,0:0:0:0:
256,192,121555,1,0,0:0:0:0:
256,192,121802,1,0,0:0:0:0:
256,192,121885,5,0,0:0:0:0:
256,192,122050,1,2,0:0:0:0:
256,192,122214,1,0,0:0:0:0:
256,192,122297,1,2,0:0:0:0:
256,192,122379,1,0,0:0:0:0:
256,192,122462,1,0,0:0:0:0:
256,192,122544,1,2,0:0:0:0:
256,192,122627,1,0,0:0:0:0:
256,192,122709,1,2,0:0:0:0:
256,192,122791,1,2,0:0:0:0:
256,192,122874,1,2,0:0:0:0:
256,192,123039,5,4,0:0:0:0:
256,192,123204,1,0,0:0:0:0:
256,192,123368,1,2,0:0:0:0:
256,192,123616,1,2,0:0:0:0:
256,192,123698,1,0,0:0:0:0:
256,192,123863,1,0,0:0:0:0:
256,192,124028,1,2,0:0:0:0:
256,192,124110,1,0,0:0:0:0:
256,192,124193,1,0,0:0:0:0:
256,192,124357,1,2,0:0:0:0:
256,192,124440,1,0,0:0:0:0:
256,192,124522,1,0,0:0:0:0:
256,192,124605,1,2,0:0:0:0:
256,192,124687,1,0,0:0:0:0:
256,192,124769,1,0,0:0:0:0:
256,192,124852,1,2,0:0:0:0:
256,192,125017,1,0,0:0:0:0:
256,192,125099,1,0,0:0:0:0:
256,192,125182,1,2,0:0:0:0:
256,192,125236,1,0,0:0:0:0:
256,192,125291,1,0,0:0:0:0:
256,192,125346,1,2,0:0:0:0:
256,192,125511,1,0,0:0:0:0:
256,192,125676,1,2,0:0:0:0:
256,192,125841,1,0,0:0:0:0:
256,192,125923,1,2,0:0:0:0:
256,192,126006,1,2,0:0:0:0:
256,192,126088,1,0,0:0:0:0:
256,192,126171,1,2,0:0:0:0:
256,192,126253,1,0,0:0:0:0:
256,192,126335,1,2,0:0:0:0:
256,192,126418,1,2,0:0:0:0:
256,192,126500,1,0,0:0:0:0:
256,192,126583,1,0,0:0:0:0:
256,192,126665,1,2,0:0:0:0:
256,192,126830,1,0,0:0:0:0:
256,192,127077,1,0,0:0:0:0:
256,192,127160,1,2,0:0:0:0:
256,192,127324,1,0,0:0:0:0:
256,192,127407,1,0,0:0:0:0:
256,192,127489,1,2,0:0:0:0:
256,192,127572,1,0,0:0:0:0:
256,192,127654,1,2,0:0:0:0:
256,192,127736,1,2,0:0:0:0:
256,192,127819,1,0,0:0:0:0:
256,192,127901,1,0,0:0:0:0:
256,192,127984,1,2,0:0:0:0:
256,192,128066,1,0,0:0:0:0:
256,192,128149,1,2,0:0:0:0:
256,192,128231,1,2,0:0:0:0:
256,192,128313,1,0,0:0:0:0:
256,192,128478,1,2,0:0:0:0:
256,192,128561,1,0,0:0:0:0:
256,192,128643,1,2,0:0:0:0:
256,192,128725,1,2,0:0:0:0:
256,192,128808,1,0,0:0:0:0:
256,192,128890,1,2,0:0:0:0:
256,192,128973,1,0,0:0:0:0:
256,192,129055,1,0,0:0:0:0:
256,192,129138,1,2,0:0:0:0:
256,192,129220,1,0,0:0:0:0:
256,192,129302,1,2,0:0:0:0:
256,192,129467,1,2,0:0:0:0:
256,192,129632,1,0,0:0:0:0:
256,192,129714,1,0,0:0:0:0:
256,192,129797,1,2,0:0:0:0:
256,192,129879,1,0,0:0:0:0:
256,192,129962,1,2,0:0:0:0:
256,192,130044,1,2,0:0:0:0:
256,192,130127,1,0,0:0:0:0:
256,192,130209,1,2,0:0:0:0:
256,192,130291,1,0,0:0:0:0:
256,192,130374,1,0,0:0:0:0:
256,192,130456,1,2,0:0:0:0:
256,192,130539,1,0,0:0:0:0:
256,192,130621,1,2,0:0:0:0:
256,192,130704,1,2,0:0:0:0:
256,192,130786,1,0,0:0:0:0:
256,192,130868,1,2,0:0:0:0:
256,192,130951,1,0,0:0:0:0:
256,192,131061,1,2,0:0:0:0:
256,192,131171,1,0,0:0:0:0:
256,192,131280,1,2,0:0:0:0:
256,192,131390,1,0,0:0:0:0:
256,192,131500,1,0,0:0:0:0:
256,192,131610,1,2,0:0:0:0:
256,192,131720,1,0,0:0:0:0:
256,192,131830,1,2,0:0:0:0:
256,192,131940,1,0,0:0:0:0:
256,192,132063,1,2,0:0:0:0:
256,192,132187,1,2,0:0:0:0:
256,192,132434,1,0,0:0:0:0:
256,192,132517,1,0,0:0:0:0:
256,192,132599,1,2,0:0:0:0:
256,192,132682,1,0,0:0:0:0:
256,192,132846,1,0,0:0:0:0:
256,192,132929,1,2,0:0:0:0:
256,192,133011,1,0,0:0:0:0:
256,192,133094,1,0,0:0:0:0:
256,192,133176,1,2,0:0:0:0:
256,192,133258,1,0,0:0:0:0:
256,192,133341,1,0,0:0:0:0:
256,192,133423,1,2,0:0:0:0:
256,192,133588,1,0,0:0:0:0:
256,192,133671,1,0,0:0:0:0:
256,192,133753,1,2,0:0:0:0:
256,192,133835,1,0,0:0:0:0:
256,192,133918,1,2,0:0:0:0:
256,192,134000,1,2,0:0:0:0:
256,192,134083,1,0,0:0:0:0:
256,192,134165,1,2,0:0:0:0:
256,192,134247,1,0,0:0:0:0:
256,192,134330,1,2,0:0:0:0:
256,192,134412,1,2,0:0:0:0:
256,192,134495,1,0,0:0:0:0:
256,192,134577,1,2,0:0:0:0:
256,192,134660,1,2,0:0:0:0:
256,192,134742,1,0,0:0:0:0:
256,192,134824,1,2,0:0:0:0:
256,192,134907,1,0,0:0:0:0:
256,192,134989,1,0,0:0:0:0:
256,192,135072,1,2,0:0:0:0:
256,192,135154,1,0,0:0:0:0:
256,192,135236,1,2,0:0:0:0:
256,192,135319,1,2,0:0:0:0:
256,192,135401,1,0,0:0:0:0:
256,192,135484,1,2,0:0:0:0:
256,192,135566,1,0,0:0:0:0:
256,192,135649,1,0,0:0:0:0:
256,192,135731,1,2,0:0:0:0:
256,192,135813,1,0,0:0:0:0:
256,192,135896,1,2,0:0:0:0:
256,192,136006,1,2,0:0:0:0:
256,192,136116,1,2,0:0:0:0:
256,192,136225,1,0,0:0:0:0:
256,192,136308,1,0,0:0:0:0:
256,192,136390,1,2,0:0:0:0:
256,192,136473,1,0,0:0:0:0:
256,192,136555,1,2,0:0:0:0:
256,192,136638,1,2,0:0:0:0:
256,192,136720,1,0,0:0:0:0:
256,192,136802,1,2,0:0:0:0:
256,192,136885,1,0,0:0:0:0:
256,192,136995,1,0,0:0:0:0:
256,192,137105,1,2,0:0:0:0:
256,192,137214,1,0,0:0:0:0:
256,192,137324,1,0,0:0:0:0:
256,192,137434,1,2,0:0:0:0:
256,192,137544,1,0,0:0:0:0:
256,192,137599,1,2,0:0:0:0:
256,192,137654,1,2,0:0:0:0:
256,192,137709,1,0,0:0:0:0:
256,192,137791,1,0,0:0:0:0:
256,192,137874,1,2,0:0:0:0:
256,192,137956,1,0,0:0:0:0:
256,192,138039,1,2,0:0:0:0:
256,192,138121,1,2,0:0:0:0:
256,192,138204,1,0,0:0:0:0:
256,192,138286,1,0,0:0:0:0:
256,192,138368,1,2,0:0:0:0:
256,192,138451,1,0,0:0:0:0:
256,192,138533,1,2,0:0:0:0:
256,192,138616,1,2,0:0:0:0:
256,192,138698,1,0,0:0:0:0:
256,192,138863,1,6,0:0:0:0:
256,192,139028,1,2,0:0:0:0:
256,192,139110,1,0,0:0:0:0:
256,192,139193,1,2,0:0:0:0:
256,192,139357,1,6,0:0:0:0:
256,192,139522,1,2,0:0:0:0:
256,192,139605,1,0,0:0:0:0:
256,192,139687,1,2,0:0:0:0:
256,192,139852,1,6,0:0:0:0:
256,192,140017,1,2,0:0:0:0:
256,192,140099,1,0,0:0:0:0:
256,192,140182,1,0,0:0:0:0:
256,192,140346,1,6,0:0:0:0:
256,192,140511,1,2,0:0:0:0:
256,192,140594,1,0,0:0:0:0:
256,192,140676,1,0,0:0:0:0:
256,192,140841,1,6,0:0:0:0:
256,192,141006,1,6,0:0:0:0:
256,192,141171,1,4,0:0:0:0:
256,192,141418,1,0,0:0:0:0:
256,192,141500,1,2,0:0:0:0:
256,192,141665,1,2,0:0:0:0:
256,192,141747,1,2,0:0:0:0:
256,192,141830,1,0,0:0:0:0:
256,192,141912,1,2,0:0:0:0:
256,192,141995,1,0,0:0:0:0:
256,192,142077,1,0,0:0:0:0:
256,192,142160,1,2,0:0:0:0:
256,192,142324,1,0,0:0:0:0:
256,192,142407,1,0,0:0:0:0:
256,192,142489,1,2,0:0:0:0:
256,192,142654,1,2,0:0:0:0:
256,192,142736,1,0,0:0:0:0:
256,192,142819,1,2,0:0:0:0:
256,192,142984,1,2,0:0:0:0:
256,192,143149,1,0,0:0:0:0:
256,192,143313,1,2,0:0:0:0:
256,192,143396,1,2,0:0:0:0:
256,192,143478,1,0,0:0:0:0:
256,192,143725,1,2,0:0:0:0:
256,192,143808,1,0,0:0:0:0:
256,192,143973,1,0,0:0:0:0:
256,192,144055,1,0,0:0:0:0:
256,192,144138,1,2,0:0:0:0:
256,192,144220,1,0,0:0:0:0:
256,192,144302,1,2,0:0:0:0:
256,192,144385,1,2,0:0:0:0:
256,192,144467,1,0,0:0:0:0:
256,192,144632,1,2,0:0:0:0:
256,192,144714,1,2,0:0:0:0:
256,192,144797,1,0,0:0:0:0:
256,192,144962,1,0,0:0:0:0:
256,192,145044,1,2,0:0:0:0:
256,192,145127,1,0,0:0:0:0:
256,192,145291,1,2,0:0:0:0:
256,192,145456,1,0,0:0:0:0:
256,192,145621,1,0,0:0:0:0:
256,192,145703,1,0,0:0:0:0:
256,192,145786,1,2,0:0:0:0:
256,192,146033,1,0,0:0:0:0:
256,192,146116,1,2,0:0:0:0:
256,192,146280,1,2,0:0:0:0:
256,192,146363,1,2,0:0:0:0:
256,192,146445,1,0,0:0:0:0:
256,192,146528,1,2,0:0:0:0:
256,192,146610,1,0,0:0:0:0:
256,192,146692,1,0,0:0:0:0:
256,192,146775,1,2,0:0:0:0:
256,192,146940,1,0,0:0:0:0:
256,192,147022,1,0,0:0:0:0:
256,192,147105,1,2,0:0:0:0:
256,192,147269,1,2,0:0:0:0:
256,192,147352,1,0,0:0:0:0:
256,192,147434,1,2,0:0:0:0:
256,192,147599,1,2,0:0:0:0:
256,192,147764,1,0,0:0:0:0:
256,192,147929,1,2,0:0:0:0:
256,192,148011,1,2,0:0:0:0:
256,192,148094,1,0,0:0:0:0:
256,192,148341,1,2,0:0:0:0:
256,192,148423,1,0,0:0:0:0:
256,192,148588,1,0,0:0:0:0:
256,192,148671,1,0,0:0:0:0:
256,192,148753,1,2,0:0:0:0:
256,192,148835,1,0,0:0:0:0:
256,192,148918,1,2,0:0:0:0:
256,192,149000,1,2,0:0:0:0:
256,192,149083,1,0,0:0:0:0:
256,192,149247,1,2,0:0:0:0:
256,192,149330,1,2,0:0:0:0:
256,192,149412,1,0,0:0:0:0:
256,192,149577,1,2,0:0:0:0:
256,192,149742,1,0,0:0:0:0:
256,192,149907,1,0,0:0:0:0:
256,192,149989,1,0,0:0:0:0:
256,192,150072,1,2,0:0:0:0:
256,192,150154,1,2,0:0:0:0:
256,192,150236,1,2,0:0:0:0:
256,192,150319,1,2,0:0:0:0:
256,192,150401,1,0,0:0:0:0:
256,192,150731,1,2,0:0:0:0:
256,192,150978,1,2,0:0:0:0:
256,192,151061,1,0,0:0:0:0:
256,192,151225,1,0,0:0:0:0:
256,192,151390,1,2,0:0:0:0:
256,192,151555,1,0,0:0:0:0:
256,192,151802,1,2,0:0:0:0:
256,192,151885,1,0,0:0:0:0:
256,192,152050,1,2,0:0:0:0:
256,192,152214,1,2,0:0:0:0:
256,192,152379,1,0,0:0:0:0:
256,192,152544,1,2,0:0:0:0:
256,192,152627,1,2,0:0:0:0:
256,192,152709,1,0,0:0:0:0:
256,192,152956,1,0,0:0:0:0:
256,192,153039,1,2,0:0:0:0:
256,192,153203,1,0,0:0:0:0:
256,192,153368,1,2,0:0:0:0:
256,192,153533,1,2,0:0:0:0:
256,192,153616,1,2,0:0:0:0:
256,192,153698,1,0,0:0:0:0:
256,192,153863,1,2,0:0:0:0:
256,192,154028,1,0,0:0:0:0:
256,192,154192,1,2,0:0:0:0:
256,192,154357,1,2,0:0:0:0:
256,192,154522,1,0,0:0:0:0:
256,192,154687,1,2,0:0:0:0:
256,192,154852,1,0,0:0:0:0:
256,192,154934,1,0,0:0:0:0:
256,192,155017,1,2,0:0:0:0:
256,192,155346,1,2,0:0:0:0:
256,192,155594,1,2,0:0:0:0:
256,192,155676,1,0,0:0:0:0:
256,192,155841,1,0,0:0:0:0:
256,192,156006,1,2,0:0:0:0:
256,192,156171,1,0,0:0:0:0:
256,192,156418,1,2,0:0:0:0:
256,192,156500,1,0,0:0:0:0:
256,192,156665,1,2,0:0:0:0:
256,192,156830,1,2,0:0:0:0:
256,192,156995,1,0,0:0:0:0:
256,192,157160,1,2,0:0:0:0:
256,192,157242,1,2,0:0:0:0:
256,192,157324,1,0,0:0:0:0:
256,192,157572,1,0,0:0:0:0:
256,192,157654,1,2,0:0:0:0:
256,192,157819,1,0,0:0:0:0:
256,192,157984,1,2,0:0:0:0:
256,192,158149,1,0,0:0:0:0:
256,192,158231,1,0,0:0:0:0:
256,192,158313,1,0,0:0:0:0:
256,192,158396,1,0,0:0:0:0:
256,192,158478,1,2,0:0:0:0:
256,192,158643,1,0,0:0:0:0:
256,192,158807,1,2,0:0:0:0:
256,192,158972,1,0,0:0:0:0:
256,192,159055,1,0,0:0:0:0:
256,192,159137,1,2,0:0:0:0:
256,192,159302,1,6,0:0:0:0:
256,192,159467,1,2,0:0:0:0:
256,192,159549,1,0,0:0:0:0:
256,192,159632,1,0,0:0:0:0:
256,192,159796,1,6,0:0:0:0:
256,192,159961,1,0,0:0:0:0:
256,192,160044,1,0,0:0:0:0:
256,192,160126,1,2,0:0:0:0:
256,192,160291,1,6,0:0:0:0:
256,192,160456,1,2,0:0:0:0:
256,192,160538,1,0,0:0:0:0:
256,192,160621,1,0,0:0:0:0:
256,192,160785,1,6,0:0:0:0:
256,192,160950,1,0,0:0:0:0:
256,192,161033,1,0,0:0:0:0:
256,192,161115,1,2,0:0:0:0:
256,192,161280,1,6,0:0:0:0:
256,192,161445,1,2,0:0:0:0:
256,192,161527,1,0,0:0:0:0:
256,192,161610,1,0,0:0:0:0:
256,192,161774,1,6,0:0:0:0:
256,192,161939,1,0,0:0:0:0:
256,192,162022,1,0,0:0:0:0:
256,192,162104,1,2,0:0:0:0:
256,192,162269,1,6,0:0:0:0:
256,192,162434,1,2,0:0:0:0:
256,192,162599,1,4,0:0:0:0:
256,192,162763,1,4,0:0:0:0:
