osu file format v14

[General]
AudioFilename: audio.mp3
AudioLeadIn: 0
PreviewTime: 112160
Countdown: 0
SampleSet: Normal
StackLeniency: 0.7
Mode: 1
LetterboxInBreaks: 0
WidescreenStoryboard: 0

[Editor]
DistanceSpacing: 0.5
BeatDivisor: 4
GridSize: 32
TimelineZoom: 1.5

[Metadata]
Title:Lorikeet
TitleUnicode:ロリキート
Artist:Tedjimo Yomigy
ArtistUnicode:黄泉路テヂーモ
Creator:yassu-
Version:Futsuu
Source:BMS
Tags:G2R2014 G2R後夜祭 flat design 魔界都市ニイガタ makaitoshi niigata JUDYDANNY tasuke912
BeatmapID:1145794
BeatmapSetID:539888

[Difficulty]
HPDrainRate:6
CircleSize:5
OverallDifficulty:4
ApproachRate:5
SliderMultiplier:1.4
SliderTickRate:1

[Events]
//Background and Video events
0,0,"maxresdefault.jpg",0,0
//Break Periods
//Storyboard Layer 0 (Background)
//Storyboard Layer 1 (Fail)
//Storyboard Layer 2 (Pass)
//Storyboard Layer 3 (Foreground)
//Storyboard Sound Samples

[TimingPoints]
2380,329.67032967033,7,1,0,75,1,0
2380,-100,7,1,0,75,0,0
11610,-100,7,1,0,85,0,0
18533,329.67032967033,4,1,0,85,1,0
21829,-100,4,1,0,30,0,0
33038,-100,4,1,0,70,0,0
36829,-100,6,1,0,40,0,0
40291,-100,4,1,0,70,0,0
40950,-100,4,1,0,80,0,0
63450,-100,4,1,0,70,0,0
65676,329.67032967033,4,1,0,70,1,0
66500,329.67032967033,3,1,0,70,1,0
68478,329.67032967033,6,1,0,40,1,0
71939,-100,6,1,0,70,0,0
72434,329.67032967033,3,1,0,70,1,0
74248,329.67032967033,3,1,0,70,1,0
75237,-100,4,1,0,78,0,0
78204,329.67032967033,4,1,0,78,1,0
80841,-100,4,1,0,75,0,0
101940,-100,4,1,0,55,0,0
109852,-100,4,1,0,80,0,0
112489,-100,4,1,0,90,0,1
141171,329.67032967033,7,1,0,80,1,0
158643,329.67032967033,3,1,0,85,1,0

[HitObjects]
256,192,2380,5,0,0:0:0:0:
256,192,3698,1,0,0:0:0:0:
256,192,4358,1,0,0:0:0:0:
256,192,4687,1,2,0:0:0:0:
256,192,6006,1,2,0:0:0:0:
256,192,6665,1,2,0:0:0:0:
256,192,6995,1,0,0:0:0:0:
256,192,7654,1,0,0:0:0:0:
256,192,8314,1,0,0:0:0:0:
256,192,8643,1,2,0:0:0:0:
256,192,8973,1,0,0:0:0:0:
256,192,9303,1,2,0:0:0:0:
256,192,9962,1,2,0:0:0:0:
256,192,10292,1,0,0:0:0:0:
256,192,10621,1,2,0:0:0:0:
256,192,11116,1,0,0:0:0:0:
256,192,11281,1,2,0:0:0:0:
256,192,11610,1,4,0:0:0:0:
256,192,12270,1,0,0:0:0:0:
256,192,12599,1,2,0:0:0:0:
256,192,12764,1,0,0:0:0:0:
256,192,13094,1,0,0:0:0:0:
256,192,13423,1,2,0:0:0:0:
256,192,13588,1,0,0:0:0:0:
256,192,13918,1,2,0:0:0:0:
256,192,14577,1,2,0:0:0:0:
256,192,14742,1,0,0:0:0:0:
256,192,15072,1,2,0:0:0:0:
256,192,15401,1,2,0:0:0:0:
256,192,15896,1,2,0:0:0:0:
256,192,16226,1,4,0:0:0:0:
256,192,16885,1,0,0:0:0:0:
256,192,17215,1,2,0:0:0:0:
256,192,17380,1,0,0:0:0:0:
256,192,17709,1,0,0:0:0:0:
256,192,18039,1,2,0:0:0:0:
256,192,18204,1,0,0:0:0:0:
256,192,18533,1,2,0:0:0:0:
256,192,19192,1,2,0:0:0:0:
256,192,19357,1,2,0:0:0:0:
256,192,19686,1,4,0:0:0:0:
256,192,20016,1,4,0:0:0:0:
256,192,20511,1,4,0:0:0:0:
256,192,21005,1,4,0:0:0:0:
256,192,21500,1,6,0:0:0:0:
256,192,22489,1,0,0:0:0:0:
256,192,23642,1,2,0:0:0:0:
256,192,25126,1,0,0:0:0:0:
256,192,26280,1,0,0:0:0:0:
256,192,27763,1,0,0:0:0:0:
256,192,28917,1,2,0:0:0:0:
256,192,30401,1,2,0:0:0:0:
256,192,31554,1,0,0:0:0:0:
256,192,33038,5,4,0:0:0:0:
256,192,33533,1,4,0:0:0:0:
256,192,34192,1,4,0:0:0:0:
256,192,34686,1,6,0:0:0:0:
256,192,35016,1,0,0:0:0:0:
256,192,35675,1,4,0:0:0:0:
256,192,36170,1,4,0:0:0:0:
256,192,36829,2,0,L|288:160,14,35
256,192,38313,12,0,39961,0:0:0:0:
256,192,40291,5,0,0:0:0:0:
256,192,40456,1,0,0:0:0:0:
256,192,40950,1,4,0:0:0:0:
256,192,41445,1,0,0:0:0:0:
256,192,41939,1,2,0:0:0:0:
256,192,42269,1,0,0:0:0:0:
256,192,42763,1,0,0:0:0:0:
256,192,43093,1,2,0:0:0:0:
256,192,43423,1,2,0:0:0:0:
256,192,43587,1,0,0:0:0:0:
256,192,43917,1,2,0:0:0:0:
256,192,44082,1,0,0:0:0:0:
256,192,44576,1,2,0:0:0:0:
256,192,44906,1,0,0:0:0:0:
256,192,45236,1,2,0:0:0:0:
256,192,45401,1,0,0:0:0:0:
256,192,45895,1,2,0:0:0:0:
256,192,46060,1,0,0:0:0:0:
256,192,46225,1,0,0:0:0:0:
256,192,46554,1,2,0:0:0:0:
256,192,46719,1,0,0:0:0:0:
256,192,47214,1,2,0:0:0:0:
256,192,47543,1,0,0:0:0:0:
256,192,47873,1,2,0:0:0:0:
256,192,48038,1,0,0:0:0:0:
256,192,48368,1,2,0:0:0:0:
256,192,48697,1,2,0:0:0:0:
256,192,48862,1,0,0:0:0:0:
256,192,49192,5,0,0:0:0:0:
256,192,49357,5,0,0:0:0:0:
256,192,49851,1,2,0:0:0:0:
256,192,50181,1,0,0:0:0:0:
256,192,50511,1,2,0:0:0:0:
256,192,50675,1,2,0:0:0:0:
256,192,51170,1,2,0:0:0:0:
256,192,51335,1,2,0:0:0:0:
256,192,51500,1,0,0:0:0:0:
256,192,51829,1,2,0:0:0:0:
256,192,51994,1,0,0:0:0:0:
256,192,52324,1,2,0:0:0:0:
256,192,52653,1,2,0:0:0:0:
256,192,52818,1,4,0:0:0:0:
256,192,53642,1,4,0:0:0:0:
256,192,54137,1,4,0:0:0:0:
256,192,54467,1,2,0:0:0:0:
256,192,54631,1,0,0:0:0:0:
256,192,55126,1,2,0:0:0:0:
256,192,55456,1,0,0:0:0:0:
256,192,55785,1,2,0:0:0:0:
256,192,56115,1,2,0:0:0:0:
256,192,56280,1,2,0:0:0:0:
256,192,56609,1,4,0:0:0:0:
256,192,57269,1,4,0:0:0:0:
256,192,57928,1,4,0:0:0:0:
256,192,58258,1,2,0:0:0:0:
256,192,58423,1,0,0:0:0:0:
256,192,58752,1,2,0:0:0:0:
256,192,58917,1,0,0:0:0:0:
256,192,59247,1,0,0:0:0:0:
256,192,59741,1,2,0:0:0:0:
256,192,60071,1,0,0:0:0:0:
256,192,60236,1,2,0:0:0:0:
256,192,60565,1,0,0:0:0:0:
256,192,61060,1,2,0:0:0:0:
256,192,61225,1,0,0:0:0:0:
256,192,61554,1,2,0:0:0:0:
256,192,61884,1,4,0:0:0:0:
256,192,62461,1,6,0:0:0:0:
256,192,63203,1,4,0:0:0:0:
256,192,64686,1,0,0:0:0:0:
256,192,65016,1,2,0:0:0:0:
256,192,65181,1,0,0:0:0:0:
256,192,65511,1,2,0:0:0:0:
256,192,65675,1,0,0:0:0:0:
256,192,66170,1,2,0:0:0:0:
256,192,66500,1,0,0:0:0:0:
256,192,66664,1,2,0:0:0:0:
256,192,66994,1,0,0:0:0:0:
256,192,67159,1,2,0:0:0:0:
256,192,67489,1,0,0:0:0:0:
256,192,67818,1,0,0:0:0:0:
256,192,68148,1,0,0:0:0:0:
256,192,68313,1,2,0:0:0:0:
256,192,68478,1,0,0:0:0:0:
256,192,69137,1,2,0:0:0:0:
256,192,70126,1,2,0:0:0:0:
256,192,70456,1,0,0:0:0:0:
256,192,71115,1,2,0:0:0:0:
256,192,71774,1,0,0:0:0:0:
256,192,72104,1,2,0:0:0:0:
256,192,72434,1,0,0:0:0:0:
256,192,72763,1,2,0:0:0:0:
256,192,72928,1,0,0:0:0:0:
256,192,73258,1,2,0:0:0:0:
256,192,73423,1,0,0:0:0:0:
256,192,73917,1,0,0:0:0:0:
256,192,74247,1,0,0:0:0:0:
256,192,74412,1,2,0:0:0:0:
256,192,74742,1,0,0:0:0:0:
256,192,74907,1,2,0:0:0:0:
256,192,75237,1,0,0:0:0:0:
256,192,75731,1,0,0:0:0:0:
256,192,76226,12,0,77874,0:0:0:0:
256,192,78204,5,6,0:0:0:0:
256,192,78698,1,0,0:0:0:0:
256,192,79193,5,0,0:0:0:0:
256,192,79357,1,2,0:0:0:0:
256,192,79687,1,0,0:0:0:0:
256,192,80182,1,6,0:0:0:0:
256,192,80841,1,4,0:0:0:0:
256,192,81171,1,2,0:0:0:0:
256,192,81500,1,0,0:0:0:0:
256,192,81830,1,2,0:0:0:0:
256,192,82489,1,2,0:0:0:0:
256,192,82819,1,0,0:0:0:0:
256,192,83149,1,2,0:0:0:0:
256,192,83313,1,2,0:0:0:0:
256,192,83808,1,2,0:0:0:0:
256,192,84138,1,2,0:0:0:0:
256,192,84467,2,0,L|192:192,14,35
256,192,85951,1,4,0:0:0:0:
256,192,86445,1,2,0:0:0:0:
256,192,86775,1,0,0:0:0:0:
256,192,87105,1,2,0:0:0:0:
256,192,87764,1,2,0:0:0:0:
256,192,88094,1,0,0:0:0:0:
256,192,88423,1,0,0:0:0:0:
256,192,88588,1,2,0:0:0:0:
256,192,89083,1,2,0:0:0:0:
256,192,89577,1,0,0:0:0:0:
256,192,90072,1,2,0:0:0:0:
256,192,90566,1,0,0:0:0:0:
256,192,91061,1,2,0:0:0:0:
256,192,91225,1,4,0:0:0:0:
256,192,92050,1,0,0:0:0:0:
256,192,92379,1,2,0:0:0:0:
256,192,92544,1,4,0:0:0:0:
256,192,93039,1,2,0:0:0:0:
256,192,93368,1,0,0:0:0:0:
256,192,93698,1,0,0:0:0:0:
256,192,93863,1,2,0:0:0:0:
256,192,94357,1,2,0:0:0:0:
256,192,94852,1,0,0:0:0:0:
256,192,95346,1,2,0:0:0:0:
256,192,95841,1,0,0:0:0:0:
256,192,96335,1,2,0:0:0:0:
256,192,96500,1,4,0:0:0:0:
256,192,97324,1,0,0:0:0:0:
256,192,97654,1,2,0:0:0:0:
256,192,97819,1,4,0:0:0:0:
256,192,98313,1,2,0:0:0:0:
256,192,98643,1,0,0:0:0:0:
256,192,98973,1,2,0:0:0:0:
256,192,99138,1,4,0:0:0:0:
256,192,99632,1,2,0:0:0:0:
256,192,99962,1,2,0:0:0:0:
256,192,100291,1,2,0:0:0:0:
256,192,100456,1,4,0:0:0:0:
256,192,100786,2,4,L|224:160,14,35
256,192,103094,1,0,0:0:0:0:
256,192,104577,1,2,0:0:0:0:
256,192,105731,1,0,0:0:0:0:
256,192,107214,1,2,0:0:0:0:
256,192,108368,5,0,0:0:0:0:
256,192,109028,1,0,0:0:0:0:
256,192,109852,1,6,0:0:0:0:
256,192,110346,1,6,0:0:0:0:
256,192,110841,1,4,0:0:0:0:
256,192,111335,1,6,0:0:0:0:
256,192,111830,1,6,0:0:0:0:
256,192,112160,1,0,0:0:0:0:
256,192,112489,5,4,0:0:0:0:
256,192,113149,1,0,0:0:0:0:
256,192,113478,1,2,0:0:0:0:
256,192,113643,1,0,0:0:0:0:
256,192,113973,1,0,0:0:0:0:
256,192,114138,1,2,0:0:0:0:
256,192,114467,1,0,0:0:0:0:
256,192,114632,1,0,0:0:0:0:
256,192,114797,1,2,0:0:0:0:
256,192,115127,1,0,0:0:0:0:
256,192,115786,1,0,0:0:0:0:
256,192,116116,1,2,0:0:0:0:
256,192,116445,1,0,0:0:0:0:
256,192,116610,1,2,0:0:0:0:
256,192,116775,1,2,0:0:0:0:
256,192,117105,1,0,0:0:0:0:
256,192,117434,5,2,0:0:0:0:
256,192,117599,1,2,0:0:0:0:
256,192,117764,1,0,0:0:0:0:
256,192,118423,1,0,0:0:0:0:
256,192,118753,1,2,0:0:0:0:
256,192,118918,1,0,0:0:0:0:
256,192,119412,1,2,0:0:0:0:
256,192,119742,1,0,0:0:0:0:
256,192,119907,1,2,0:0:0:0:
256,192,120072,1,2,0:0:0:0:
256,192,120401,1,0,0:0:0:0:
256,192,121061,1,0,0:0:0:0:
256,192,121390,1,2,0:0:0:0:
256,192,121555,1,0,0:0:0:0:
256,192,121885,1,0,0:0:0:0:
256,192,122050,1,2,0:0:0:0:
256,192,122379,1,0,0:0:0:0:
256,192,122709,1,2,0:0:0:0:
256,192,123039,5,4,0:0:0:0:
256,192,123698,1,0,0:0:0:0:
256,192,124028,1,2,0:0:0:0:
256,192,124193,1,2,0:0:0:0:
256,192,124357,1,0,0:0:0:0:
256,192,124687,1,2,0:0:0:0:
256,192,125017,1,0,0:0:0:0:
256,192,125182,1,2,0:0:0:0:
256,192,125346,1,2,0:0:0:0:
256,192,125676,1,0,0:0:0:0:
256,192,126335,1,0,0:0:0:0:
256,192,126665,1,2,0:0:0:0:
256,192,126830,1,0,0:0:0:0:
256,192,127324,1,2,0:0:0:0:
256,192,127654,1,0,0:0:0:0:
256,192,127984,5,2,0:0:0:0:
256,192,128149,1,2,0:0:0:0:
256,192,128313,1,0,0:0:0:0:
256,192,128973,1,0,0:0:0:0:
256,192,129302,1,2,0:0:0:0:
256,192,129467,1,0,0:0:0:0:
256,192,129797,1,0,0:0:0:0:
256,192,129962,1,2,0:0:0:0:
256,192,130291,1,0,0:0:0:0:
256,192,130456,1,0,0:0:0:0:
256,192,130621,1,2,0:0:0:0:
256,192,130951,1,0,0:0:0:0:
256,192,131610,1,0,0:0:0:0:
256,192,131940,1,2,0:0:0:0:
256,192,132105,1,0,0:0:0:0:
256,192,132434,1,0,0:0:0:0:
256,192,132599,1,2,0:0:0:0:
256,192,132929,1,0,0:0:0:0:
256,192,133258,1,2,0:0:0:0:
256,192,133588,1,4,0:0:0:0:
256,192,134247,1,0,0:0:0:0:
256,192,134577,1,2,0:0:0:0:
256,192,134742,1,0,0:0:0:0:
256,192,135072,1,0,0:0:0:0:
256,192,135236,1,2,0:0:0:0:
256,192,135566,1,0,0:0:0:0:
256,192,135896,1,2,0:0:0:0:
256,192,136061,1,2,0:0:0:0:
256,192,136225,1,0,0:0:0:0:
256,192,136885,1,0,0:0:0:0:
256,192,137214,1,2,0:0:0:0:
256,192,137379,1,0,0:0:0:0:
256,192,137709,1,0,0:0:0:0:
256,192,137874,1,2,0:0:0:0:
256,192,138204,1,0,0:0:0:0:
256,192,138533,1,0,0:0:0:0:
256,192,138863,5,6,0:0:0:0:
256,192,139357,1,4,0:0:0:0:
256,192,139852,1,4,0:0:0:0:
256,192,140346,1,6,0:0:0:0:
256,192,140841,1,0,0:0:0:0:
256,192,141171,1,6,0:0:0:0:
256,192,141665,1,2,0:0:0:0:
256,192,141830,1,0,0:0:0:0:
256,192,142160,1,2,0:0:0:0:
256,192,142324,1,0,0:0:0:0:
256,192,142654,1,0,0:0:0:0:
256,192,142984,1,2,0:0:0:0:
256,192,143149,1,0,0:0:0:0:
256,192,143478,1,0,0:0:0:0:
256,192,143973,1,0,0:0:0:0:
256,192,144138,1,2,0:0:0:0:
256,192,144302,1,0,0:0:0:0:
256,192,144632,1,2,0:0:0:0:
256,192,144962,1,2,0:0:0:0:
256,192,145456,1,2,0:0:0:0:
256,192,145786,1,4,0:0:0:0:
256,192,146280,1,2,0:0:0:0:
256,192,146445,1,0,0:0:0:0:
256,192,146775,1,2,0:0:0:0:
256,192,146940,1,0,0:0:0:0:
256,192,147269,1,0,0:0:0:0:
256,192,147599,1,2,0:0:0:0:
256,192,147764,1,0,0:0:0:0:
256,192,148094,1,0,0:0:0:0:
256,192,148588,1,2,0:0:0:0:
256,192,148753,1,0,0:0:0:0:
256,192,148918,1,2,0:0:0:0:
256,192,149247,1,2,0:0:0:0:
256,192,149577,1,2,0:0:0:0:
256,192,150072,1,2,0:0:0:0:
256,192,150401,1,4,0:0:0:0:
256,192,151061,1,0,0:0:0:0:
256,192,151390,1,2,0:0:0:0:
256,192,151555,1,0,0:0:0:0:
256,192,151885,1,0,0:0:0:0:
256,192,152214,1,2,0:0:0:0:
256,192,152379,1,0,0:0:0:0:
256,192,152709,1,2,0:0:0:0:
256,192,153368,1,2,0:0:0:0:
256,192,153533,1,0,0:0:0:0:
256,192,153863,1,2,0:0:0:0:
256,192,154192,1,2,0:0:0:0:
256,192,154687,1,2,0:0:0:0:
256,192,155017,1,4,0:0:0:0:
256,192,155676,1,0,0:0:0:0:
256,192,156006,1,2,0:0:0:0:
256,192,156171,1,0,0:0:0:0:
256,192,156500,1,0,0:0:0:0:
256,192,156830,1,2,0:0:0:0:
256,192,156995,1,0,0:0:0:0:
256,192,157324,1,2,0:0:0:0:
256,192,157984,1,0,0:0:0:0:
256,192,158149,1,2,0:0:0:0:
256,192,158478,1,0,0:0:0:0:
256,192,158807,1,0,0:0:0:0:
256,192,159302,1,6,0:0:0:0:
256,192,159796,1,4,0:0:0:0:
256,192,160291,1,6,0:0:0:0:
256,192,160785,1,4,0:0:0:0:
256,192,161280,1,6,0:0:0:0:
256,192,161774,1,4,0:0:0:0:
256,192,162269,1,6,0:0:0:0:
256,192,162599,5,4,0:0:0:0:
256,192,162763,1,4,0:0:0:0:
