osu file format v14

[General]
AudioFilename: audio.mp3
AudioLeadIn: 0
PreviewTime: 258145
Countdown: 1
SampleSet: Normal
StackLeniency: 0.7
Mode: 0
LetterboxInBreaks: 0
WidescreenStoryboard: 0

[Editor]
Bookmarks: 145,7195,11995,16795,81745,83245,88045,91795,100945,120145,127045,127345,146545,158545,163345,182545,184045,188695,198445,201745,220945,223045,240145,259345,278545,297745,313345
DistanceSpacing: 1
BeatDivisor: 4
GridSize: 8
TimelineZoom: 2.499999

[Metadata]
Title:Sleeping Forest
TitleUnicode:Sleeping Forest
Artist:TeddyLoid feat. Bonjour Suzuki
ArtistUnicode:TeddyLoid feat. Bonjour Suzuki
Creator:Zunv
Version:Insane
Source:
Tags:
BeatmapID:1373111
BeatmapSetID:648125

[Difficulty]
HPDrainRate:7
CircleSize:4
OverallDifficulty:7
ApproachRate:9
SliderMultiplier:1.4
SliderTickRate:1

[Events]
//Background and Video events
0,0,"Konachan.com - 238051 flowers forest grass long_hair original pointed_ears scenic smile_(qd4nsvik) tree white_hair.jpg",0,0
//Break Periods
//Storyboard Layer 0 (Background)
//Storyboard Layer 1 (Fail)
//Storyboard Layer 2 (Pass)
//Storyboard Layer 3 (Foreground)
//Storyboard Sound Samples

[TimingPoints]
145,600,4,1,0,65,1,0
17245,-66.6666666666667,4,1,0,40,0,0
18145,-100,4,1,0,100,0,0
19645,-100,4,1,0,85,0,0
28945,-100,4,1,0,90,0,0
33745,-62.5,4,1,0,95,0,0
37345,-200,4,1,0,75,0,0
37945,-100,4,1,0,75,0,0
38545,-50,4,1,0,100,0,0
38995,-50,4,1,0,85,0,0
46945,-100,4,1,0,85,0,0
47545,-66.6666666666667,4,1,0,85,0,0
48145,-50,4,1,0,100,0,0
48445,-50,4,1,0,85,0,0
60145,-66.6666666666667,4,1,0,40,0,0
61345,-100,4,1,0,100,0,0
62995,-100,4,1,0,65,0,0
81745,-100,4,1,0,85,0,1
82345,-50,4,1,0,85,0,1
100945,-100,4,1,0,100,0,0
101245,-100,4,1,0,65,0,0
109945,-76.9230769230769,4,1,0,65,0,0
110545,-62.5,4,1,0,100,0,0
110845,-62.5,4,1,0,65,0,0
111145,-76.9230769230769,4,1,0,75,0,0
112945,-76.9230769230769,4,1,0,85,0,0
115345,-50,4,1,0,95,0,0
137095,-100,4,1,0,65,0,0
138145,-66.6666666666667,4,1,0,65,0,0
138745,-50,4,1,0,95,0,0
160945,-66.6666666666667,4,1,0,40,0,0
162145,-100,4,1,0,40,0,0
163345,-200,4,1,0,40,0,0
163945,-200,4,1,0,40,0,0
165145,-100,4,1,0,40,0,0
165745,-200,4,1,0,40,0,0
167545,-100,4,1,0,40,0,0
168145,-200,4,1,0,40,0,0
169945,-100,4,1,0,40,0,0
170545,-200,4,1,0,40,0,0
172345,-100,4,1,0,40,0,0
172945,-200,4,1,0,40,0,0
174745,-100,4,1,0,40,0,0
175345,-200,4,1,0,40,0,0
177145,-100,4,1,0,40,0,0
177745,-200,4,1,0,40,0,0
179545,-100,4,1,0,40,0,0
180145,-200,4,1,0,40,0,0
181945,-200,4,1,0,85,0,0
182545,-50,4,1,0,85,0,1
201745,-100,4,1,0,100,0,0
202045,-100,4,1,0,65,0,0
210145,-71.4285714285714,4,1,0,65,0,0
210745,-55.5555555555556,4,1,0,65,0,0
211345,-50,4,1,0,100,0,0
211645,-71.4285714285714,4,1,0,65,0,0
211945,-71.4285714285714,4,1,0,75,0,0
213745,-71.4285714285714,4,1,0,85,0,0
216145,-50,4,1,0,95,0,0
220945,-125,4,1,0,60,0,0
223345,-83.3333333333333,4,1,0,75,0,0
225745,-71.4285714285714,4,1,0,85,0,0
228145,-83.3333333333333,4,1,0,75,0,0
230545,-125,4,1,0,60,0,0
232945,-83.3333333333333,4,1,0,75,0,0
235345,-71.4285714285714,4,1,0,85,0,0
238945,-133.333333333333,4,1,0,70,0,0
240145,-47.6190476190476,4,1,0,85,0,0
257095,-100,4,1,0,65,0,0
259345,-33.3333333333333,4,1,0,100,0,1
267745,-50,4,1,0,100,0,1
268345,-40,4,1,0,100,0,1
268945,-33.3333333333333,4,1,0,100,0,1
276295,-100,4,1,0,100,0,1
277345,-200,4,1,0,100,0,1
277945,-100,4,1,0,100,0,1
278545,-50,4,1,0,100,0,0
278695,-50,4,1,0,85,0,0
286945,-100,4,1,0,75,0,0
288145,-50,4,1,0,85,0,0
292945,-66.6666666666667,4,1,0,75,0,0
295345,-66.6666666666667,4,1,0,65,0,0
296545,-100,4,1,0,100,0,0
298945,-100,4,1,0,100,0,0
299245,-100,4,1,0,65,0,0
308545,-100,4,1,0,45,0,0

[Colours]
Combo1 : 0,64,0
Combo2 : 0,202,0
Combo3 : 0,128,128
Combo4 : 0,255,255

[HitObjects]
208,109,145,5,0,0:0:0:0:
197,326,445,2,0,L|195:361,1,35
137,250,745,2,0,P|150:217|171:189,1,70,8|0,0:0|0:0,0:0:0:0:
341,166,1345,2,0,L|375:168,1,35
167,102,1645,2,0,L|132:100,1,35
243,42,1945,2,0,P|276:55|304:76,1,70,8|0,0:0|0:0,0:0:0:0:
341,166,2395,1,0,0:0:0:0:
447,45,2545,5,0,0:0:0:0:
412,42,2845,2,0,L|377:40,1,35
471,151,3145,2,0,P|491:179|504:211,1,70,8|0,0:0|0:0,0:0:0:0:
382,259,3745,2,0,L|384:293,1,35
305,110,4045,2,0,L|303:75,1,35
246,186,4345,2,0,P|259:218|280:246,1,70,8|0,0:0|0:0,0:0:0:0:
200,14,4945,5,0,0:0:0:0:
197,253,5245,2,0,L|199:288,1,35
261,167,5545,2,0,P|248:135|227:107,1,70,8|0,0:0|0:0,0:0:0:0:
52,170,6145,2,0,L|18:172,1,35
226,106,6445,2,0,L|261:104,1,35
149,46,6745,2,0,P|116:58|88:79,1,70,8|0,0:0|0:0,0:0:0:0:
17,172,7195,1,0,0:0:0:0:
175,167,7345,6,0,L|209:165,1,35
88,78,7645,2,0,L|86:43,1,35
17,172,7945,2,0,P|30:204|51:232,1,70,8|0,0:0|0:0,0:0:0:0:
298,178,8545,2,0,L|332:180,1,35
124,114,8845,2,0,L|89:112,1,35
200,54,9145,2,0,P|232:66|260:87,1,70,8|0,0:0|0:0,0:0:0:0:
351,244,9745,5,0,0:0:0:0:
376,35,10045,2,0,L|378:0,1,35
436,111,10345,2,0,P|423:143|402:171,1,70,8|0,0:0|0:0,0:0:0:0:
214,271,10945,2,0,L|179:269,1,35
388,335,11244,2,0,L|422:337,1,35
351,244,11545,2,0,P|322:223|290:210,1,70,8|0,0:0|0:0,0:0:0:0:
214,271,11995,1,0,0:0:0:0:
240,113,12145,5,0,0:0:0:0:
205,116,12445,2,0,L|170:118,1,35
290,210,12745,2,0,P|322:197|350:176,1,70,8|0,0:0|0:0,0:0:0:0:
346,282,13345,2,0,L|344:316,1,35
410,108,13645,2,0,L|412:73,1,35
470,185,13945,2,0,P|457:217|436:245,1,70,8|0,0:0|0:0,0:0:0:0:
259,341,14545,5,0,0:0:0:0:
325,168,14845,2,0,L|327:134,1,35
213,224,15145,2,0,P|186:245|153:257,1,70,8|0,0:0|0:0,0:0:0:0:
125,113,15745,2,0,L|123:79,1,35
82,339,16045,2,0,L|80:373,1,35
222,126,16345,2,0,P|251:105|283:92,1,70,8|0,0:0|0:0,0:0:0:0:
444,135,16945,5,0,0:0:0:0:
369,129,17245,6,0,L|342:126,3,26.2500010013581
402,202,17545,2,0,L|403:220,11,17.500000667572
444,135,18145,6,0,L|448:75,1,35
475,230,18445,2,0,P|436:284|358:274,1,140
354,84,19345,6,0,L|358:184,1,70,4|0,0:0|0:0,0:0:0:0:
370,315,19945,2,0,L|367:249,1,35
454,141,20245,1,0,0:0:0:0:
268,212,20545,1,0,0:0:0:0:
283,227,20845,2,0,L|277:184,1,35
376,198,21145,2,0,L|349:163,1,35
454,141,21445,2,0,L|413:124,1,35
213,166,21745,6,0,L|277:192,1,70
82,271,22345,2,0,L|49:284,2,35
245,205,22945,2,0,L|278:192,1,35
225,350,23245,2,0,L|208:390,1,35
365,317,23545,1,0,0:0:0:0:
327,324,23695,2,0,L|309:326,2,17.5
453,299,23995,1,0,0:0:0:0:
167,213,24145,5,0,0:0:0:0:
252,224,24295,1,0,0:0:0:0:
268,140,24445,5,0,0:0:0:0:
332,193,24595,1,0,0:0:0:0:
333,75,24745,2,0,P|299:53|243:49,1,70
92,89,25345,2,0,L|31:97,1,35
232,133,25645,2,0,L|293:141,1,35
146,232,25945,2,0,L|138:293,1,35
151,148,26245,1,0,0:0:0:0:
239,0,26545,6,0,L|243:34,1,35
287,199,26995,1,0,0:0:0:0:
293,164,27146,2,0,L|297:129,1,35
348,0,27445,2,0,L|352:34,1,35
379,234,27745,2,0,L|383:268,1,35
437,102,28195,1,0,0:0:0:0:
442,67,28345,2,0,L|446:32,1,35
477,219,28645,2,0,L|481:253,1,35
366,137,28945,6,0,P|328:123|274:131,1,70,4|0,0:0|0:0,0:0:0:0:
97,177,29545,1,0,0:0:0:0:
131,182,29695,2,0,L|165:186,1,35
29,219,29995,1,0,0:0:0:0:
283,212,30145,2,0,L|249:216,1,35
14,297,30445,2,0,L|48:301,1,35
334,294,30745,1,0,0:0:0:0:
328,328,30895,2,0,L|326:345,2,17.5
252,283,31195,5,0,0:0:0:0:
243,316,31345,2,0,P|238:351|247:385,1,70
212,98,31945,1,0,0:0:0:0:
206,132,32095,2,0,L|202:166,1,35
181,252,32395,1,0,0:0:0:0:
137,96,32545,2,0,L|133:62,1,35
99,223,32845,2,0,L|95:257,1,35
64,115,33145,1,0,0:0:0:0:
56,80,33295,2,0,L|51:51,2,17.5
87,201,33595,1,0,0:0:0:0:
132,61,33745,6,0,L|139:5,1,56
245,95,34045,2,0,L|224:43,1,56
336,68,34345,2,0,P|333:133|289:181,1,112
127,343,34945,1,0,0:0:0:0:
245,95,35245,1,0,0:0:0:0:
284,324,35545,2,0,L|291:379,1,56
207,220,35845,1,0,0:0:0:0:
421,325,36145,5,0,0:0:0:0:
321,172,36295,1,0,0:0:0:0:
296,200,36595,1,0,0:0:0:0:
396,47,36745,1,0,0:0:0:0:
421,148,37045,1,0,0:0:0:0:
321,172,37345,6,0,L|265:164,1,52.5
141,201,37945,6,0,L|258:184,1,105
116,179,38545,6,0,P|50:147|-7:251,1,210,6|0,0:0|0:0,0:0:0:0:
110,344,39145,2,0,B|94:272|94:272|56:218,1,140
27,306,39595,1,0,0:0:0:0:
116,179,39745,2,0,P|182:149|247:211,1,140
334,272,40195,1,0,0:0:0:0:
369,267,40345,2,0,L|440:256,1,70
175,221,40645,2,0,L|185:292,1,70
303,202,40945,6,0,B|313:128|313:128|297:64,1,140
232,134,41395,1,0,0:0:0:0:
388,107,41545,2,0,B|457:95|457:95|444:181,1,140
338,209,41995,1,0,0:0:0:0:
303,202,42145,2,0,L|234:192,1,70
86,146,42445,2,0,L|155:136,1,70
318,92,42745,1,0,0:0:0:0:
353,100,42895,2,0,L|389:107,2,35
235,80,43195,5,0,0:0:0:0:
201,70,43345,2,0,B|153:64|153:64|96:72|96:72|52:66,1,140
95,0,43795,1,0,0:0:0:0:
153,137,43945,2,0,P|218:150|276:103,1,140
378,27,44395,1,0,0:0:0:0:
412,32,44545,2,0,L|483:43,1,70
342,97,44845,2,0,L|271:108,1,70
153,137,45145,1,0,0:0:0:0:
188,18,45295,1,0,0:0:0:0:
328,225,45445,2,0,L|399:214,1,70
491,357,45745,5,0,0:0:0:0:
311,327,45895,1,0,0:0:0:0:
335,314,46195,1,0,0:0:0:0:
155,344,46345,1,0,0:0:0:0:
62,209,46645,2,0,L|52:278,1,70
219,183,46945,6,0,L|229:252,1,70
300,201,47395,1,0,0:0:0:0:
160,130,47545,6,0,P|138:176|151:225,1,105.000004005432
234,307,47995,1,0,0:0:0:0:
245,138,48145,6,0,P|221:67|145:44,1,140,6|0,0:0|0:0,0:0:0:0:
151,226,48745,6,0,L|161:295,1,70
245,138,49045,2,0,L|255:69,1,70
243,304,49345,2,0,P|203:366|111:362,1,140
161,295,49795,1,0,0:0:0:0:
307,365,49945,2,0,L|376:355,1,70
512,303,50245,2,0,L|443:293,1,70
243,234,50545,6,0,B|317:223|317:223|376:195,1,140
289,149,50995,1,0,0:0:0:0:
473,207,51145,2,0,L|483:138,1,70
377,0,51445,2,0,L|387:69,1,70
376,195,51745,2,0,B|382:243|382:243|374:300|374:300|380:344,1,140
453,297,52195,1,0,0:0:0:0:
298,329,52345,1,0,0:0:0:0:
263,333,52495,2,0,L|228:339,2,35
256,147,52795,5,0,0:0:0:0:
249,181,52945,2,0,B|234:249|234:249|321:239,1,140
192,45,53545,2,0,L|182:114,1,70
161,268,53845,2,0,L|151:199,1,70
236,319,54145,2,0,P|173:359|103:340,1,140
161,268,54595,1,0,0:0:0:0:
26,371,54745,1,0,0:0:0:0:
256,192,54895,12,4,57745,0:0:0:0:
265,96,60145,6,0,L|229:108,7,26.2500010013581
275,187,60745,2,0,L|276:207,11,17.500000667572
342,133,61345,6,0,L|383:146,1,35
347,235,61645,2,0,P|313:272|229:267,1,140
159,115,62545,6,0,L|165:225,1,105,4|0,0:0|0:0,0:0:0:0:
177,330,63145,1,0,0:0:0:0:
245,59,63445,2,0,L|239:169,1,105
267,287,64045,2,0,L|272:221,1,35
322,134,64345,1,0,0:0:0:0:
170,233,64645,1,0,0:0:0:0:
484,234,64945,6,0,L|374:240,1,105
269,252,65545,1,0,0:0:0:0:
437,330,65845,2,0,L|333:325,1,105
177,297,66445,2,0,L|243:292,1,35
340,242,66745,1,0,0:0:0:0:
242,52,67045,1,0,0:0:0:0:
245,87,67195,1,0,0:0:0:0:
248,122,67345,6,0,L|254:232,1,105,4|0,0:0|0:0,0:0:0:0:
266,337,67945,1,0,0:0:0:0:
334,66,68245,2,0,L|328:176,1,105
381,328,68845,2,0,L|386:262,1,35
436,175,69145,1,0,0:0:0:0:
143,338,69445,1,0,0:0:0:0:
276,333,69745,6,0,L|386:327,1,105
491,316,70345,1,0,0:0:0:0:
220,248,70645,2,0,L|330:254,1,105
482,201,71245,2,0,L|416:196,1,35
333,149,71545,1,0,0:0:0:0:
364,384,71845,1,0,0:0:0:0:
367,349,71995,1,0,0:0:0:0:
370,314,72145,6,0,L|376:204,1,105,4|0,0:0|0:0,0:0:0:0:
388,99,72745,1,0,0:0:0:0:
268,285,73045,2,0,L|262:175,1,105
315,23,73645,2,0,L|320:89,1,35
370,176,73945,1,0,0:0:0:0:
196,75,74245,1,0,0:0:0:0:
496,96,74545,6,0,L|386:102,1,105
281,113,75145,1,0,0:0:0:0:
450,187,75445,2,0,L|340:181,1,105
188,234,76045,2,0,L|254:239,1,35
341,289,76345,1,0,0:0:0:0:
79,339,76645,1,0,0:0:0:0:
114,336,76795,1,0,0:0:0:0:
149,333,76945,6,0,L|259:327,1,105,4|0,0:0|0:0,0:0:0:0:
364,315,77545,1,0,0:0:0:0:
300,65,77845,2,0,L|306:175,1,105
253,327,78445,2,0,L|248:261,1,35
198,174,78745,1,0,0:0:0:0:
372,275,79045,1,0,0:0:0:0:
192,69,79345,6,0,L|198:179,1,105
209,284,79945,1,0,0:0:0:0:
101,119,80245,2,0,L|95:229,1,105
148,381,80845,2,0,L|153:315,1,35
203,228,81145,1,0,0:0:0:0:
488,349,81445,1,0,0:0:0:0:
453,352,81595,1,0,0:0:0:0:
418,355,81745,2,0,L|349:359,1,70,4|0,0:0|0:0,0:0:0:0:
428,200,82195,5,0,0:0:0:0:
368,268,82345,2,0,L|299:264,1,70
122,255,82645,2,0,P|182:217|188:127,1,140
106,165,83095,1,0,0:0:0:0:
323,115,83245,1,0,0:0:0:0:
147,49,83395,1,0,0:0:0:0:
280,226,83545,1,0,0:0:0:0:
106,165,83695,1,0,0:0:0:0:
196,153,83845,2,0,L|192:222,1,70
32,266,84145,6,0,P|48:200|107:165,1,140,4|0,0:0|0:0,0:0:0:0:
301,151,84595,1,0,0:0:0:0:
335,148,84745,2,0,L|404:144,1,70,2|2,0:0|0:0,0:0:0:0:
313,242,85045,2,0,P|246:225|211:167,1,140,2|0,0:0|0:0,0:0:0:0:
301,151,85495,1,0,0:0:0:0:
121,166,85645,2,0,L|52:170,1,70,2|0,0:0|0:0,0:0:0:0:
224,0,85945,2,0,L|220:69,1,70
211,188,86245,1,0,0:0:0:0:
314,56,86395,1,0,0:0:0:0:
125,68,86545,6,0,P|66:103|50:169,1,140,4|0,0:0|0:0,0:0:0:0:
59,281,86995,1,0,0:0:0:0:
62,315,87145,2,0,L|66:384,1,70
141,158,87445,2,0,P|199:193|215:259,1,140
125,248,87895,1,0,0:0:0:0:
290,310,88045,2,0,L|359:314,1,70
159,330,88345,1,0,0:0:0:0:
296,219,88495,2,0,B|328:198|364:202|364:202|329:192|311:162,1,140
221,173,88945,6,0,P|237:107|296:72,1,140,6|0,0:0|0:0,0:0:0:0:
301,322,89395,1,0,0:0:0:0:
297,288,89545,2,0,L|293:219,1,70,2|2,0:0|0:0,0:0:0:0:
107,170,89845,2,0,P|138:231|203:252,1,140,2|0,0:0|0:0,0:0:0:0:
389,234,90295,1,0,0:0:0:0:
202,90,90445,2,0,L|198:159,1,70,2|0,0:0|0:0,0:0:0:0:
58,292,90745,2,0,L|62:361,2,70
0,167,91195,1,0,0:0:0:0:
203,252,91345,6,0,P|243:307|232:374,1,140,4|0,0:0|0:0,0:0:0:0:
96,203,91795,1,0,0:0:0:0:
98,168,91945,2,0,L|102:99,1,70
303,128,92245,2,0,P|248:169|181:158,1,140
227,79,92695,1,0,0:0:0:0:
307,255,92845,1,0,0:0:0:0:
380,79,92995,1,0,0:0:0:0:
288,284,93145,1,0,0:0:0:0:
483,175,93295,1,0,0:0:0:0:
296,166,93445,2,0,L|365:170,1,70
267,253,93745,6,0,P|213:210|207:142,1,140,4|0,0:0|0:0,0:0:0:0:
340,0,94195,1,0,0:0:0:0:
339,34,94345,2,0,L|335:103,1,70,2|2,0:0|0:0,0:0:0:0:
190,266,94645,2,0,P|172:201|207:142,1,140,2|0,0:0|0:0,0:0:0:0:
264,214,95095,1,0,0:0:0:0:
148,0,95245,2,0,L|152:69,1,70,2|0,0:0|0:0,0:0:0:0:
89,294,95545,2,0,L|93:225,1,70
131,98,95845,1,0,0:0:0:0:
9,175,95995,1,0,0:0:0:0:
190,266,96145,6,0,P|257:273|310:229,1,140,4|0,0:0|0:0,0:0:0:0:
477,314,96595,1,0,0:0:0:0:
442,313,96745,2,0,L|373:309,1,70
353,101,97046,2,0,P|405:145|409:214,1,140
323,188,97495,1,0,0:0:0:0:
506,168,97645,1,0,0:0:0:0:
264,117,97795,1,0,0:0:0:0:
353,101,97945,1,0,0:0:0:0:
111,152,98095,1,0,0:0:0:0:
171,10,98245,2,0,L|175:79,1,70
319,229,98545,6,0,P|267:184|263:116,1,140,6|0,0:0|0:0,0:0:0:0:
453,134,98995,1,0,0:0:0:0:
419,138,99145,2,0,L|350:142,1,70,2|2,0:0|0:0,0:0:0:0:
383,336,99445,2,2,P|373:269|319:229,1,140,2|0,0:0|0:0,0:0:0:0:
295,317,99895,1,0,0:0:0:0:
349,142,100045,2,2,L|353:73,1,70,2|0,0:0|0:0,0:0:0:0:
240,191,100345,2,0,L|244:260,1,70
126,309,100645,2,0,L|153:372,1,70
367,270,100945,6,0,P|358:235|386:182,1,70,4|0,0:0|0:0,0:0:0:0:
512,157,101545,1,0,0:0:0:0:
407,15,101845,1,0,0:0:0:0:
477,252,102145,2,0,L|482:334,1,70
438,101,102745,1,0,0:0:0:0:
333,243,103045,1,0,0:0:0:0:
201,23,103345,6,0,B|230:65|230:65|280:88,2,105,4|0|0,0:0|0:0|0:0,0:0:0:0:
269,198,104545,2,0,L|265:135,1,35
185,223,104995,1,0,0:0:0:0:
188,258,105145,2,0,P|205:295|265:324,1,105
150,85,105745,6,0,P|136:55|88:32,1,70,4|0,0:0|0:0,0:0:0:0:
76,107,106195,1,0,0:0:0:0:
77,145,106345,2,0,L|79:179,1,35
135,327,106645,2,0,L|137:292,1,35
148,195,106945,1,0,0:0:0:0:
218,252,107245,1,0,0:0:0:0:
232,162,107545,1,0,0:0:0:0:
328,216,107845,2,0,L|293:218,1,35
395,292,108145,6,0,B|423:250|423:250|427:195,2,105,4|0|0,0:0|0:0|0:0,0:0:0:0:
266,122,109345,6,0,P|264:71|306:14,1,105
332,212,109945,6,0,P|282:238|205:224,1,136.499993751526
377,110,110545,6,0,P|422:144|440:219,1,112,4|0,0:0|0:0,0:0:0:0:
332,212,110995,5,0,0:0:0:0:
294,211,111145,2,0,L|236:207,1,45.4999979171754
176,77,111445,2,0,L|180:135,1,45.4999979171754
211,293,111745,2,0,L|153:289,1,45.4999979171754
93,159,112045,2,0,L|97:217,1,45.4999979171754
128,375,112345,2,0,L|70:371,1,45.4999979171754
10,241,112645,2,0,L|14:299,1,45.4999979171754
93,159,112945,6,0,B|85:83|85:83|36:16,2,136.499993751526,4|0|0,0:0|0:0|0:0,0:0:0:0:
265,323,114145,2,0,P|319:272|380:273,1,136.499993751526
332,170,114745,2,0,P|261:147|231:94,1,136.499993751526
166,188,115345,2,0,P|182:260|150:313,1,140,4|0,0:0|0:0,0:0:0:0:
92,242,115795,5,0,0:0:0:0:
91,204,115945,2,0,L|86:134,1,70
46,33,116245,2,0,L|116:38,1,70
182,112,116545,2,0,P|248:142|307:123,1,140
441,13,117145,1,0,0:0:0:0:
256,192,117295,12,0,119845,0:0:0:0:
299,225,120145,6,0,P|286:288|347:365,1,140,4|0,0:0|0:0,0:0:0:0:
370,187,120745,2,0,L|363:105,1,70
396,0,121045,1,0,0:0:0:0:
381,7,121345,1,0,0:0:0:0:
128,50,121645,2,0,L|197:55,1,70
433,111,121945,2,0,L|363:116,1,70
128,172,122245,2,0,L|197:177,1,70
56,113,122545,6,0,P|36:175|89:258,1,140
132,384,123145,2,0,L|139:302,1,70
197,177,123445,1,0,0:0:0:0:
212,184,123745,1,0,0:0:0:0:
439,318,124045,1,0,0:0:0:0:
404,319,124195,1,0,0:0:0:0:
369,320,124345,1,0,0:0:0:0:
334,322,124495,2,0,L|268:324,2,35
378,233,124795,1,0,0:0:0:0:
190,382,124945,2,0,L|197:300,1,70,4|0,0:0|0:0,0:0:0:0:
112,283,125245,2,0,L|141:219,1,70
70,160,125545,6,0,P|130:127|201:147,1,140
304,265,126145,2,0,L|309:334,1,70
345,121,126445,1,0,0:0:0:0:
421,310,126745,2,0,L|414:228,1,70
459,46,127045,1,0,0:0:0:0:
444,53,127345,1,0,0:0:0:0:
303,108,127495,1,0,0:0:0:0:
310,93,127795,1,0,0:0:0:0:
365,234,127945,1,0,0:0:0:0:
317,78,128245,1,0,0:0:0:0:
281,300,128545,6,0,P|336:339|404:330,1,140
358,249,128995,1,0,0:0:0:0:
203,346,129145,6,0,P|136:361|75:329,1,140
381,161,129745,6,0,P|372:93|411:36,1,140,4|0,0:0|0:0,0:0:0:0:
186,112,130345,2,0,L|193:194,1,70
160,299,130645,1,0,0:0:0:0:
74,214,130795,1,0,0:0:0:0:
276,266,130945,1,0,0:0:0:0:
60,315,131245,2,0,L|55:384,1,70
163,209,131545,2,0,L|158:140,1,70
44,0,131845,2,0,L|49:69,1,70
252,233,132145,6,0,P|210:286|143:299,1,140
365,207,132745,2,0,L|372:125,1,70
430,0,133045,1,0,0:0:0:0:
457,94,133195,1,0,0:0:0:0:
310,29,133345,6,0,P|242:41|200:94,1,140
289,120,133795,1,0,0:0:0:0:
111,69,133945,1,0,0:0:0:0:
77,60,134095,2,0,L|17:46,2,35
132,164,134395,1,0,0:0:0:0:
206,25,134545,2,0,L|199:107,1,70,4|0,0:0|0:0,0:0:0:0:
289,120,134845,2,0,L|260:184,1,70
332,242,135145,6,0,P|272:275|201:255,1,140
260,183,135595,1,0,0:0:0:0:
132,315,135745,2,0,L|127:384,1,70
168,173,136045,1,0,0:0:0:0:
282,384,136345,2,0,L|275:302,1,70
222,98,136645,1,0,0:0:0:0:
237,91,136945,1,4,0:0:0:0:
332,242,137095,6,0,L|338:162,1,70
132,315,137545,1,0,0:0:0:0:
342,62,137845,1,0,0:0:0:0:
245,255,138145,6,0,P|284:313|372:320,1,157.500006008148
229,157,138745,6,0,P|147:234|193:338,1,210
350,142,139345,6,0,L|344:211,1,70,4|0,0:0|0:0,0:0:0:0:
403,330,139645,2,0,L|408:260,1,70
238,312,139945,2,0,L|168:318,1,70
133,321,140245,1,0,0:0:0:0:
408,260,140395,1,0,0:0:0:0:
182,236,140545,2,0,L|112:230,1,70
0,188,140845,1,0,0:0:0:0:
93,113,140995,1,0,0:0:0:0:
18,304,141145,2,0,L|12:373,1,70
182,236,141445,2,0,L|187:166,1,70
103,283,141745,6,0,P|162:327|244:304,1,140
256,303,142195,1,0,0:0:0:0:
324,166,142345,2,0,L|330:236,1,70
334,270,142645,1,0,0:0:0:0:
407,190,142795,1,0,0:0:0:0:
433,362,142945,2,0,L|438:292,1,70
457,117,143245,1,0,0:0:0:0:
461,82,143395,1,0,0:0:0:0:
299,165,143545,1,0,0:0:0:0:
264,168,143695,2,0,L|218:171,2,35
407,190,143995,1,0,0:0:0:0:
287,14,144145,6,0,L|292:83,1,70
200,106,144445,2,0,L|228:169,1,70
325,169,144745,2,0,P|290:243|203:264,1,140
205,270,145195,1,0,0:0:0:0:
151,61,145345,1,0,0:0:0:0:
101,347,145645,2,0,L|95:277,1,70
228,169,145945,2,0,L|158:163,1,70
123,161,146245,1,0,0:0:0:0:
406,206,146545,5,0,0:0:0:0:
268,242,146695,2,0,L|337:247,1,70
228,169,146995,1,0,0:0:0:0:
411,136,147145,2,0,L|406:205,1,70
395,308,147445,1,0,0:0:0:0:
268,242,147595,1,0,0:0:0:0:
502,132,147745,2,0,P|458:57|377:50,1,140
411,136,148195,1,0,0:0:0:0:
459,215,148345,2,0,P|372:220|322:156,1,140
303,66,148945,6,0,P|347:140|312:214,1,140,4|0,0:0|0:0,0:0:0:0:
320,219,149395,1,0,0:0:0:0:
161,261,149545,2,0,L|230:266,1,70
448,295,149845,2,0,L|378:300,1,70
65,317,150145,1,0,0:0:0:0:
142,131,150445,1,0,0:0:0:0:
153,98,150595,1,0,0:0:0:0:
208,233,150745,1,0,0:0:0:0:
219,266,150895,1,0,0:0:0:0:
325,130,151045,2,0,L|255:135,1,70
374,51,151345,6,0,P|418:125|386:200,1,140
390,204,151795,1,0,0:0:0:0:
507,384,151945,2,0,L|512:314,1,70
390,204,152245,1,0,0:0:0:0:
392,238,152395,1,0,0:0:0:0:
395,273,152545,2,0,L|400:342,1,70
306,236,152845,1,0,0:0:0:0:
485,284,152995,1,0,0:0:0:0:
248,314,153145,1,0,0:0:0:0:
213,317,153295,2,0,L|167:320,2,35
395,273,153595,1,0,0:0:0:0:
178,319,153745,6,0,L|183:249,1,70
91,227,154045,2,0,L|119:163,1,70
216,164,154345,2,0,P|181:90|94:69,1,140
119,163,154795,1,0,0:0:0:0:
286,0,154945,2,0,L|281:69,1,70
227,349,155245,2,0,L|221:279,1,70
322,186,155545,1,0,0:0:0:0:
216,164,155695,1,0,0:0:0:0:
327,301,155845,2,0,L|396:306,1,70
115,257,156145,5,0,0:0:0:0:
225,83,156295,1,0,0:0:0:0:
227,117,156445,2,0,L|232:186,1,70
69,169,156745,2,0,L|138:174,1,70
326,204,157045,2,0,L|331:134,1,70
264,279,157345,1,0,0:0:0:0:
214,14,157645,6,0,L|220:84,1,70
232,200,157945,1,0,0:0:0:0:
112,80,158095,1,0,0:0:0:0:
254,195,158245,1,0,0:0:0:0:
90,85,158395,1,0,0:0:0:0:
378,141,158545,1,4,0:0:0:0:
265,96,160945,6,0,L|229:108,7,26.2500010013581
282,222,161545,2,0,L|283:240,11,17.500000667572
178,219,162145,2,0,L|172:287,1,35
345,149,162445,2,0,P|377:225|320:311,1,175
485,108,163345,2,0,B|486:143|486:143|471:190,1,70,4|0,0:0|0:0,0:0:0:0:
425,303,164245,2,0,L|422:268,1,35
331,369,164845,1,0,0:0:0:0:
241,227,165145,6,0,L|283:224,2,35
214,307,165745,6,0,P|174:280|159:249,1,70
168,108,166645,2,0,L|173:178,1,70
21,106,167545,6,0,L|23:63,2,35
168,108,168145,2,0,B|132:106|132:106|99:116,1,70
223,187,169045,2,0,L|188:184,1,35
272,99,169645,1,0,0:0:0:0:
96,77,169945,6,0,L|98:111,2,35
15,50,170545,6,0,P|32:19|60:0,1,70
213,7,171445,2,0,L|144:11,1,70
271,120,172345,6,0,L|236:117,2,35
317,269,172945,2,0,B|318:233|318:233|303:186,1,70
240,305,173845,2,0,L|237:339,1,35
363,312,174445,1,0,0:0:0:0:
228,228,174745,6,0,L|193:226,2,35
262,150,175345,6,0,P|290:169|307:200,1,70
286,351,176245,2,0,L|290:282,1,70
126,321,177145,6,0,L|160:319,2,35
42,186,177745,2,0,B|43:221|43:221|63:266,1,70
31,379,178645,2,0,L|33:344,1,35
151,227,179245,1,0,0:0:0:0:
231,381,179545,6,0,L|196:379,2,35
264,306,180145,6,0,P|292:325|309:356,1,70
320,165,181045,2,0,L|316:234,1,70
384,282,181795,1,0,0:0:0:0:
239,180,181945,1,8,0:0:0:0:
440,40,182245,1,0,0:0:0:0:
442,75,182395,1,0,0:0:0:0:
445,110,182545,6,0,L|449:179,1,70,4|0,0:0|0:0,0:0:0:0:
310,213,182845,2,0,L|306:282,1,70
445,315,183145,2,0,L|449:384,1,70
365,133,183445,2,0,P|300:116|234:152,1,140
310,213,183895,1,0,0:0:0:0:
164,81,184045,1,0,0:0:0:0:
218,243,184195,1,0,0:0:0:0:
237,147,184345,1,0,0:0:0:0:
175,330,184495,1,0,0:0:0:0:
340,329,184645,2,0,L|271:325,1,70
87,195,184945,6,0,B|92:263|92:263|58:326,1,140,4|0,0:0|0:0,0:0:0:0:
7,245,185395,1,0,0:0:0:0:
236,147,185545,2,0,L|167:151,1,70,2|2,0:0|0:0,0:0:0:0:
0,120,185845,1,2,0:0:0:0:
87,195,185995,1,0,0:0:0:0:
111,13,186145,2,0,L|107:82,1,70
92,265,186445,2,0,L|88:196,1,70,2|0,0:0|0:0,0:0:0:0:
0,80,186745,1,0,0:0:0:0:
166,151,186895,2,0,L|235:147,1,70
416,92,187195,1,0,0:0:0:0:
236,37,187345,6,0,L|167:41,1,70,4|0,0:0|0:0,0:0:0:0:
239,216,187645,2,0,L|235:147,1,70
129,265,187945,2,0,L|133:334,1,70
342,229,188245,2,0,B|376:227|376:227|430:209|430:209|479:207,1,140
420,330,188695,1,0,0:0:0:0:
359,73,188845,2,0,L|355:142,1,70
457,113,189145,1,0,0:0:0:0:
263,144,189295,2,0,L|194:148,1,70
84,85,189595,1,0,0:0:0:0:
354,142,189745,6,0,P|329:205|268:236,1,140,6|0,0:0|0:0,0:0:0:0:
263,144,190195,1,0,0:0:0:0:
265,331,190345,1,2,0:0:0:0:
374,289,190495,1,2,0:0:0:0:
156,327,190645,2,0,P|107:278|104:209,1,140,2|0,0:0|0:0,0:0:0:0:
191,241,191095,1,0,0:0:0:0:
15,193,191245,2,0,L|11:124,1,70,2|0,0:0|0:0,0:0:0:0:
243,146,191545,2,0,L|174:150,1,70
97,105,191845,1,0,0:0:0:0:
289,52,191995,1,0,0:0:0:0:
191,241,192145,6,0,B|166:308|166:308|183:386,1,140,4|0,0:0|0:0,0:0:0:0:
261,315,192595,1,0,0:0:0:0:
123,165,192745,2,0,L|119:96,1,70
308,189,193045,2,0,P|259:237|190:240,1,140
222,149,193495,1,0,0:0:0:0:
158,332,193645,1,0,0:0:0:0:
95,256,193795,1,0,0:0:0:0:
314,332,193945,1,0,0:0:0:0:
377,256,194095,1,0,0:0:0:0:
478,353,194245,2,0,L|409:349,1,70
499,229,194545,6,0,B|474:162|474:162|488:95,1,140,4|0,0:0|0:0,0:0:0:0:
394,247,194995,1,0,0:0:0:0:
238,120,195145,2,0,L|307:124,1,70,2|2,0:0|0:0,0:0:0:0:
488,94,195445,1,2,0:0:0:0:
328,29,195595,1,0,0:0:0:0:
389,177,195745,2,0,L|393:246,1,70
286,384,196045,2,0,L|290:315,1,70,2|0,0:0|0:0,0:0:0:0:
389,177,196345,1,0,0:0:0:0:
220,247,196495,2,0,L|151:251,1,70
238,120,196795,1,0,0:0:0:0:
91,315,196945,6,0,L|95:384,1,70,4|0,0:0|0:0,0:0:0:0:
147,154,197245,2,0,L|151:85,1,70
191,344,197545,2,0,L|260:348,1,70
375,265,197845,2,0,B|300:293|300:236|215:265,1,140
260,348,198295,1,0,0:0:0:0:
345,121,198445,2,0,L|341:190,1,70
449,141,198745,1,0,0:0:0:0:
236,156,198895,2,0,L|167:160,1,70
62,126,199195,1,0,0:0:0:0:
340,190,199345,6,0,P|338:114|286:57,1,140,6|0,0:0|0:0,0:0:0:0:
236,156,199795,1,0,0:0:0:0:
443,223,199945,2,0,L|512:227,1,70,2|2,0:0|0:0,0:0:0:0:
275,261,200245,2,0,P|206:263|149:224,1,140,2|0,0:0|0:0,0:0:0:0:
107,128,200695,1,0,0:0:0:0:
93,313,200845,2,0,L|89:382,1,70,2|0,0:0|0:0,0:0:0:0:
236,156,201145,2,0,L|232:87,1,70
365,221,201445,2,0,L|337:157,1,70
494,286,201745,5,4,0:0:0:0:
394,384,202045,2,0,L|326:378,1,35
417,285,202345,2,0,L|426:371,1,70
325,256,202945,2,0,P|349:214|392:195,1,70
296,348,203545,2,0,P|256:323|232:283,1,70
337,335,203995,1,0,0:0:0:0:
380,348,204145,6,0,B|436:340|436:340|477:311,2,105,4|0|0,0:0|0:0|0:0,0:0:0:0:
159,323,205345,1,0,0:0:0:0:
117,318,205495,1,0,0:0:0:0:
346,274,205795,1,0,0:0:0:0:
388,269,205945,2,0,P|442:263|494:214,1,105
304,279,206545,6,0,P|266:273|234:242,1,70,4|0,0:0|0:0,0:0:0:0:
302,187,206995,1,0,0:0:0:0:
301,146,207145,2,0,L|299:111,1,35
236,24,207445,2,0,L|234:58,1,35
171,220,207745,2,0,L|169:185,1,35
105,57,208045,2,0,L|106:91,1,35
42,219,208345,1,0,0:0:0:0:
205,218,208645,2,0,L|170:219,1,35
305,105,208945,6,0,B|345:79|345:79|402:74,2,105,4|0|0,0:0|0:0|0:0,0:0:0:0:
196,188,210145,6,0,P|136:184|96:89,1,146.999995513916
214,220,210745,6,0,P|220:305|151:390,1,188.999994232178
233,189,211345,6,0,P|266:151|357:149,1,140,4|0,0:0|0:0,0:0:0:0:
434,216,211795,5,0,0:0:0:0:
399,219,211945,2,0,L|314:228,1,48.9999985046387
179,114,212245,2,0,L|171:47,1,48.9999985046387
233,189,212545,2,0,L|163:196,1,48.9999985046387
27,83,212845,2,0,L|19:15,1,48.9999985046387
81,158,213145,2,0,L|2:166,1,48.9999985046387
206,284,213445,2,0,L|215:375,1,48.9999985046387
279,134,213745,6,0,B|353:126|353:126|418:80,2,146.999995513916
146,148,214945,2,0,L|-5:163,1,146.999995513916
152,227,215545,2,0,L|303:242,1,146.999995513916
279,134,216145,2,0,P|244:81|289:18,1,140
368,157,216595,5,0,0:0:0:0:
371,192,216745,2,0,L|380:283,1,70
243,384,217045,2,0,L|252:292,1,70
180,211,217345,2,0,P|95:234|22:180,1,140
279,134,217945,1,0,0:0:0:0:
256,192,218095,12,0,220645,0:0:0:0:
323,23,220945,6,0,B|298:28|256:52|240:88|235:110|251:138|280:158|314:120|314:120|348:82|377:102|393:129|388:151|372:188|330:212|306:217,1,392,4|0,0:0|0:0,0:0:0:0:
250,215,223345,6,0,B|258:247|250:279|226:295|186:295|162:279|154:247|162:215|162:215|138:223|114:215|98:199|90:175|98:151|114:135|138:119|154:95|154:63|130:31|106:7|66:-9|26:-9|10:15|-6:47|10:79|26:103|79:87,1,587.999982055665,4|0,0:0|0:0,0:0:0:0:
31,164,225745,6,0,B|29:189|32:213|43:239|58:260|73:273|94:281|94:281|100:301|110:318|127:335|146:350|167:360|196:369|229:364|257:355|284:341|305:309|305:309|318:341|345:356|380:376|414:360|441:341|453:317|455:285|440:252|404:237|376:250|370:298,1,685.999979064942,4|0,0:0|0:0,0:0:0:0:
311,237,228145,6,0,B|297:235|281:237|249:245|242:258|251:274|250:284|233:294|205:295|175:299|159:276|160:253|150:224|150:224|101:217|89:186|92:154|101:131|124:116|152:112|177:117|194:126|211:137|219:146|262:161|291:145|308:116|308:80|299:60|274:39|242:40|225:58,1,587.999982055665,4|0,0:0|0:0,0:0:0:0:
348,168,230545,6,0,B|363:179|385:195|399:219|395:254|386:285|364:294|347:314|307:313|307:313|293:332|277:347|260:355|240:363|216:366|191:368|166:360|140:345,1,392,4|0,0:0|0:0,0:0:0:0:
312,236,232945,2,0,B|275:241|252:248|241:264|249:283|239:294|218:288|168:345|137:281|125:231|61:210|68:165|101:135|157:122|209:135|237:166|242:211|228:245|210:271|103:292|73:289|49:267|51:196,1,587.999982055665
311,235,235345,6,0,B|332:241|356:239|374:229|390:215|399:202|408:182|412:162|409:140|400:121|381:100|363:86|340:87|319:85|291:87|266:94|266:94|242:100|215:94|194:72|188:44|195:24|204:0|225:-15|252:-26|272:-16|295:-5|309:7|318:23|320:45|310:60|297:84|295:117|301:137|326:161,1,685.999979064942,4|0,0:0|0:0,0:0:0:0:
386,211,238945,6,0,P|420:213|461:206,1,52.5000020027161
136,163,239395,2,0,P|101:160|60:167,1,52.5000020027161
262,275,239845,2,0,L|258:234,1,26.2500010013581
216,361,240145,6,0,P|292:368|350:316,1,146.999995513916,4|0,0:0|0:0,0:0:0:0:
389,0,240745,2,0,L|396:73,1,73.4999977569581
407,168,241045,1,0,0:0:0:0:
489,67,241195,1,0,0:0:0:0:
448,289,241345,2,0,L|437:384,1,73.4999977569581
358,253,241645,5,0,0:0:0:0:
337,255,241795,1,0,0:0:0:0:
394,53,241945,1,0,0:0:0:0:
415,55,242095,1,0,0:0:0:0:
253,127,242245,1,0,0:0:0:0:
232,129,242395,1,0,0:0:0:0:
429,187,242545,6,0,P|454:256|423:325,1,146.999995513916
346,382,242995,1,0,0:0:0:0:
190,235,243145,2,0,L|263:242,1,73.4999977569581
358,253,243445,1,0,0:0:0:0:
253,340,243595,1,0,0:0:0:0:
327,89,243745,2,0,L|320:163,1,73.4999977569581
423,74,244045,1,0,0:0:0:0:
229,110,244195,1,0,0:0:0:0:
358,253,244345,1,0,0:0:0:0:
324,257,244495,2,0,L|260:263,2,36.749998878479
457,240,244795,1,0,0:0:0:0:
134,308,244945,6,0,L|208:316,1,73.4999977569581,4|0,0:0|0:0,0:0:0:0:
46,224,245245,1,0,0:0:0:0:
26,222,245395,1,0,0:0:0:0:
265,138,245545,2,0,P|197:163|130:136,1,146.999995513916
71,44,245995,1,0,0:0:0:0:
134,308,246145,2,0,L|141:381,1,73.4999977569581
265,138,246445,2,0,L|272:64,1,73.4999977569581
155,182,246745,1,0,0:0:0:0:
168,78,246895,1,0,0:0:0:0:
242,245,247045,2,0,L|249:318,1,73.4999977569581
344,220,247345,5,0,0:0:0:0:
155,182,247495,2,0,L|81:175,1,73.4999977569581
258,160,247795,1,0,0:0:0:0:
138,368,247945,2,0,L|212:361,1,73.4999977569581
7,265,248245,2,0,L|81:258,1,73.4999977569581
176,179,248545,2,0,P|133:118|151:48,1,146.999995513916
219,103,248995,1,0,0:0:0:0:
167,258,249145,2,0,P|135:325|66:345,1,146.999995513916
80,258,249595,1,0,0:0:0:0:
240,226,249745,6,0,P|316:233|374:181,1,146.999995513916,4|0,0:0|0:0,0:0:0:0:
287,141,250195,1,0,0:0:0:0:
512,266,250345,2,0,L|439:259,1,73.4999977569581
240,226,250645,1,0,0:0:0:0:
372,94,250795,1,0,0:0:0:0:
337,365,250945,2,0,L|330:291,1,73.4999977569581
287,141,251245,5,0,0:0:0:0:
285,120,251395,1,0,0:0:0:0:
225,275,251545,1,0,0:0:0:0:
223,296,251695,1,0,0:0:0:0:
427,245,251845,1,0,0:0:0:0:
448,243,251995,1,0,0:0:0:0:
155,217,252145,6,0,P|111:159|120:88,1,146.999995513916
192,6,252595,1,0,0:0:0:0:
155,217,252745,2,0,L|148:290,1,73.4999977569581
138,380,253045,1,0,0:0:0:0:
247,269,253195,1,0,0:0:0:0:
58,326,253345,2,0,L|65:252,1,73.4999977569581
147,290,253645,1,0,0:0:0:0:
0,197,253795,1,0,0:0:0:0:
179,191,253945,1,0,0:0:0:0:
183,157,254095,2,0,L|189:93,2,36.749998878479
147,290,254395,1,0,0:0:0:0:
301,116,254545,6,0,L|294:43,1,73.4999977569581
406,186,254845,1,0,0:0:0:0:
404,206,254995,1,0,0:0:0:0:
289,375,255145,2,0,P|264:307|291:241,1,146.999995513916
406,186,255595,1,0,0:0:0:0:
174,180,255745,2,0,L|101:187,1,73.4999977569581
361,309,256045,2,0,L|435:316,1,73.4999977569581
308,219,256345,1,0,0:0:0:0:
490,236,256495,1,0,0:0:0:0:
398,112,256645,2,0,L|405:185,1,73.4999977569581
273,26,256945,5,4,0:0:0:0:
135,73,257095,6,0,P|172:82|227:81,1,70
363,30,257545,1,0,0:0:0:0:
308,219,257845,1,0,0:0:0:0:
286,125,258145,2,0,P|235:155|214:201,1,105
315,104,258745,2,0,P|314:44|285:3,1,105
286,125,259345,6,0,P|234:125|190:97,1,105.000004005432,4|0,0:0|0:0,0:0:0:0:
98,0,259645,1,0,0:0:0:0:
120,272,259945,2,0,L|132:152,1,105.000004005432
189,5,260245,1,0,0:0:0:0:
82,90,260395,1,0,0:0:0:0:
390,135,260545,2,0,L|270:122,1,105.000004005432
130,167,260845,5,0,0:0:0:0:
105,170,260995,1,0,0:0:0:0:
342,23,261145,1,0,0:0:0:0:
345,48,261295,1,0,0:0:0:0:
282,149,261445,1,0,0:0:0:0:
285,124,261595,1,0,0:0:0:0:
432,361,261745,6,0,L|444:241,1,105.000004005432,4|0,0:0|0:0,0:0:0:0:
295,228,262045,2,0,L|282:108,1,105.000004005432
5,336,262345,2,0,L|109:346,1,105.000004005432
260,343,262645,1,0,0:0:0:0:
182,282,262795,1,0,0:0:0:0:
358,364,262945,2,0,L|462:353,1,105.000004005432
381,272,263245,1,0,0:0:0:0:
356,244,263395,1,0,0:0:0:0:
405,61,263545,1,0,0:0:0:0:
380,89,263695,2,0,L|327:94,2,52.5000020027161
497,128,263995,1,0,0:0:0:0:
236,28,264145,6,0,L|246:132,1,105.000004005432,4|0,0:0|0:0,0:0:0:0:
88,110,264445,2,0,L|134:204,1,105.000004005432
358,270,264745,2,0,L|253:259,1,105.000004005432
134,204,265045,1,0,0:0:0:0:
164,297,265195,1,0,0:0:0:0:
246,132,265345,1,0,0:0:0:0:
33,384,265645,2,0,L|23:280,1,105.000004005432
134,204,265945,2,0,L|144:99,1,105.000004005432
155,1,266245,1,0,0:0:0:0:
15,155,266545,5,4,0:0:0:0:
234,59,266695,1,0,0:0:0:0:
209,71,266995,1,0,0:0:0:0:
305,290,267145,2,0,L|315:185,1,105.000004005432
332,84,267445,1,0,0:0:0:0:
415,153,267595,1,0,0:0:0:0:
221,202,267745,6,0,P|140:203|91:153,1,140
179,115,268195,1,0,0:0:0:0:
275,283,268345,6,0,P|344:324|443:298,1,175
366,208,268795,1,0,0:0:0:0:
180,350,268945,6,0,P|99:351|42:241,1,210.000008010865,4|0,0:0|0:0,0:0:0:0:
100,125,269395,1,0,0:0:0:0:
180,350,269545,2,0,L|190:245,1,105.000004005432
250,122,269845,1,0,0:0:0:0:
283,214,269995,1,0,0:0:0:0:
168,60,270145,2,0,L|178:164,1,105.000004005432
451,128,270445,2,0,L|347:139,1,105.000004005432
167,259,270745,1,0,0:0:0:0:
238,334,270895,1,0,0:0:0:0:
173,104,271045,1,0,0:0:0:0:
102,179,271195,1,0,0:0:0:0:
332,114,271345,6,0,L|321:9,1,105.000004005432,4|0,0:0|0:0,0:0:0:0:
247,205,271645,2,0,L|351:215,1,105.000004005432
434,46,271945,1,0,0:0:0:0:
464,178,272095,1,0,0:0:0:0:
321,9,272245,1,0,0:0:0:0:
351,215,272395,1,0,0:0:0:0:
512,106,272545,2,0,L|407:116,1,105.000004005432
271,122,272845,1,0,0:0:0:0:
334,46,272995,1,0,0:0:0:0:
351,215,273145,1,0,0:0:0:0:
347,252,273295,2,0,L|341:304,2,52.5000020027161
342,131,273595,1,0,0:0:0:0:
48,189,273745,6,0,L|152:178,1,105.000004005432,4|0,0:0|0:0,0:0:0:0:
130,337,274045,2,0,L|224:290,1,105.000004005432
290,67,274345,2,0,L|279:171,1,105.000004005432
292,326,274645,1,0,0:0:0:0:
217,216,274795,1,0,0:0:0:0:
428,338,274945,1,0,0:0:0:0:
209,141,275245,1,0,0:0:0:0:
292,326,275545,2,0,L|187:315,1,105.000004005432
286,246,275845,1,0,0:0:0:0:
457,345,276145,5,4,0:0:0:0:
391,163,276295,2,0,L|387:241,1,70
334,347,276745,1,0,0:0:0:0:
501,107,277045,1,0,0:0:0:0:
195,240,277345,6,0,L|252:243,1,52.5
182,168,277945,6,0,P|142:190|126:263,1,105
279,149,278545,6,0,L|267:37,1,70,4|0,0:0|0:0,0:0:0:0:
247,243,278845,2,0,L|258:354,1,70
356,208,279145,2,0,P|375:150|329:65,1,140
279,149,279595,1,0,0:0:0:0:
423,277,279745,2,0,P|359:305|290:278,1,140
356,208,280195,1,0,0:0:0:0:
203,308,280345,2,0,L|91:319,1,70
0,232,280645,2,0,L|69:236,1,70
295,283,280945,6,0,P|360:304|423:277,1,140
356,208,281395,1,0,0:0:0:0:
203,308,281545,2,0,L|207:377,1,70
112,285,281845,1,0,0:0:0:0:
246,238,281995,1,0,0:0:0:0:
111,382,282145,2,0,P|45:356|16:288,1,140
38,172,282595,1,0,0:0:0:0:
203,308,282745,1,0,0:0:0:0:
226,313,282895,2,0,L|282:321,2,35
112,285,283195,1,0,0:0:0:0:
351,291,283345,6,0,L|347:222,1,70,4|0,0:0|0:0,0:0:0:0:
446,205,283645,2,0,L|418:141,1,70
290,97,283945,2,0,P|264:162|196:191,1,140
194,94,284395,1,0,0:0:0:0:
203,287,284545,2,0,P|139:263|109:202,1,140
204,191,284995,1,0,0:0:0:0:
67,326,285145,1,0,0:0:0:0:
42,331,285295,2,0,L|-14:339,2,35
150,363,285595,1,0,0:0:0:0:
109,202,285745,5,0,0:0:0:0:
221,259,285895,1,0,0:0:0:0:
202,232,286195,1,0,0:0:0:0:
145,344,286345,1,0,0:0:0:0:
309,327,286645,2,0,L|240:323,1,70
398,284,286945,6,0,P|431:288|467:280,1,70
358,210,287395,1,0,0:0:0:0:
236,248,287545,2,0,P|203:252|167:244,1,70,0|0,0:3|0:3,0:3:0:0:
275,174,287995,1,0,0:0:0:0:
306,315,288145,6,0,L|298:384,1,70,4|0,0:0|0:0,0:0:0:0:
171,374,288445,2,0,L|101:381,1,70
112,164,288745,2,0,P|76:213|93:308,1,140
167,244,289195,1,0,0:0:0:0:
45,94,289345,2,0,P|109:66|178:93,1,140
112,164,289795,1,0,0:0:0:0:
255,142,289945,2,0,L|367:131,1,70
458,218,290245,2,0,L|389:214,1,70
420,118,290545,6,0,P|475:77|488:10,1,140
395,25,290995,1,0,0:0:0:0:
458,218,291145,2,0,L|462:287,1,70
512,384,291445,1,0,0:0:0:0:
352,264,291595,1,0,0:0:0:0:
192,384,291745,2,0,P|260:381|308:332,1,140
338,179,292195,1,0,0:0:0:0:
129,311,292345,1,0,0:0:0:0:
106,316,292495,2,0,L|49:324,2,35
222,292,292795,1,0,0:0:0:0:
77,208,292945,6,0,P|38:166|32:116,1,105.000004005432,4|0,0:0|0:0,0:0:0:0:
195,169,293545,2,0,L|274:174,1,52.5000020027161
415,223,293845,2,0,L|336:228,1,52.5000020027161
265,280,294145,1,0,0:0:0:0:
428,93,294445,1,0,0:0:0:0:
355,325,294745,2,0,P|325:367|232:376,1,105.000004005432
312,141,295345,5,0,0:0:0:0:
265,280,295495,1,0,0:0:0:0:
236,249,295795,1,0,0:0:0:0:
375,296,295945,1,0,0:0:0:0:
208,220,296245,1,0,0:0:0:0:
396,326,296545,2,0,P|364:368|291:378,1,105
395,203,297145,1,0,0:0:0:0:
256,192,297295,12,0,298645,0:0:0:0:
208,109,298945,5,4,0:0:0:0:
281,242,299245,2,0,L|283:277,1,35
360,164,299545,2,0,P|347:131|326:103,1,70,8|0,0:0|0:0,0:0:0:0:
480,208,300145,2,0,L|445:206,1,35
281,242,300445,2,0,L|316:240,1,35
203,163,300745,2,0,P|170:176|142:197,1,70,8|0,0:0|0:0,0:0:0:0:
83,272,301195,1,0,0:0:0:0:
290,156,301345,5,0,0:0:0:0:
246,243,301645,2,0,L|281:241,1,35
143,305,301945,2,0,P|110:292|82:271,1,70,8|0,0:0|0:0,0:0:0:0:
150,55,302545,2,0,L|152:89,1,35
243,223,302845,2,0,B|217:219|211:161|211:161|168:193|143:172,1,140
86,104,303595,1,0,0:0:0:0:
71,316,303745,6,0,L|73:281,1,35,4|0,0:0|0:0,0:0:0:0:
243,223,304045,2,0,L|245:258,1,35
305,120,304345,2,0,P|292:87|271:59,1,70,8|0,0:0|0:0,0:0:0:0:
86,104,304945,2,0,L|52:102,1,35
179,149,305245,2,0,L|214:151,1,35
83,227,305545,2,0,P|62:254|50:287,1,70,8|0,0:0|0:0,0:0:0:0:
28,374,305995,1,0,0:0:0:0:
2,186,306145,6,0,L|0:152,1,35
52,322,306445,2,0,L|50:287,1,35
81,143,306745,2,0,P|89:109|87:75,1,70,8|0,0:0|0:0,0:0:0:0:
189,170,307345,2,0,L|223:172,1,35
223,257,307645,2,0,B|241:273|284:242|284:242|291:299|316:303,1,140
408,284,308395,1,0,0:0:0:0:
223,172,308545,6,0,L|225:137,1,35,4|0,0:0|0:0,0:0:0:0:
301,52,308845,2,0,L|299:17,1,35
201,40,309145,2,0,L|166:38,2,35
311,143,309745,2,0,L|346:145,1,35
431,221,310045,2,0,L|466:219,1,35
443,121,310345,2,0,L|445:86,2,35
423,320,310795,1,0,0:0:0:0:
311,143,310945,6,0,P|279:157|245:165,1,70
149,161,311395,1,0,0:0:0:0:
289,263,311545,2,0,L|324:261,1,35
409,185,311845,2,0,L|444:187,1,35
421,285,312145,2,0,L|423:320,1,35
347,384,312445,2,0,B|323:380|316:323|316:323|273:355|255:338,1,140
190,264,313195,1,0,0:0:0:0:
422,319,313345,1,0,0:0:0:0:
