osu file format v14

[General]
AudioFilename: audio.mp3
AudioLeadIn: 0
PreviewTime: 63998
Countdown: 0
SampleSet: Soft
StackLeniency: 0.7
Mode: 0
LetterboxInBreaks: 0
WidescreenStoryboard: 0

[Editor]
Bookmarks: 10748,21415,32082,42748,53415,58748,74748,86748
DistanceSpacing: 0.8
BeatDivisor: 4
GridSize: 4
TimelineZoom: 1.150002

[Metadata]
Title:Pipo Password
TitleUnicode:Pipo Password
Artist:TeddyLoid feat. Bonjour Suzuki
ArtistUnicode:TeddyLoid feat. ボンジュール鈴木
Creator:Revialink
Version:Easy
Source:宇宙パトロールルル子
Tags:space uchuu patrol luluco ending ed tv size tvsize pata-mon _kotachi_
BeatmapID:1161527
BeatmapSetID:548459

[Difficulty]
HPDrainRate:3
CircleSize:3
OverallDifficulty:3
ApproachRate:3
SliderMultiplier:1.1
SliderTickRate:1

[Events]
//Background and Video events
0,0,"maxresdefault.jpg",0,0
Video,-260,"music.avi"
//Break Periods
//Storyboard Layer 0 (Background)
//Storyboard Layer 1 (Fail)
//Storyboard Layer 2 (Pass)
//Storyboard Layer 3 (Foreground)
//Storyboard Sound Samples

[TimingPoints]
82,666.666666666667,4,2,1,60,1,0
21415,-100,4,2,2,60,0,0
32082,-100,4,2,1,60,0,0
42748,-100,4,2,2,60,0,0
43415,-100,4,2,1,60,0,0
64082,-100,4,2,1,70,0,1
65415,-100,4,2,2,70,0,1
65582,-100,4,2,1,70,0,1
68082,-100,4,2,2,70,0,1
68248,-100,4,2,1,70,0,1
70748,-100,4,2,2,70,0,1
70915,-100,4,2,1,70,0,1
73415,-100,4,2,2,70,0,1
73582,-100,4,2,1,70,0,1
76082,-100,4,2,2,70,0,1
76248,-100,4,2,1,70,0,1
78748,-100,4,2,2,70,0,1
78915,-100,4,2,1,70,0,1
81415,-100,4,2,2,70,0,1
81582,-100,4,2,1,70,0,1
82748,-100,4,2,2,40,0,0
85415,-100,4,2,0,5,0,0

[Colours]
Combo1 : 255,128,0
Combo2 : 162,81,81
Combo3 : 255,255,60
Combo4 : 51,153,255

[HitObjects]
438,242,10748,6,0,L|457:134,2,110,6|8|0,0:0|0:0|0:0,0:0:0:0:
418,326,12748,2,0,P|360:334|290:322,1,110,8|2,0:0|0:0,0:0:0:0:
227,295,14082,1,8,0:0:0:0:
142,270,14748,2,0,L|106:322,2,55,0|2|8,0:0|0:0|0:0,0:0:0:0:
192,196,16082,5,2,0:0:0:0:
276,164,16748,2,0,P|320:136|340:84,1,110,8|0,0:0|0:0,0:0:0:0:
252,80,18082,1,8,0:0:0:0:
175,37,18748,2,0,P|156:144|224:244,1,220
292,272,20748,1,8,0:0:0:0:
364,220,21415,6,0,B|418:254|468:219|468:219|456:167|456:167|472:111,1,220,4|2,0:0|0:0,0:0:0:0:
448,28,23415,1,0,0:0:0:0:
359,36,24082,2,0,B|300:54|251:30|251:30|199:49|199:49|138:20,1,220,0|2,0:0|0:0,0:0:0:0:
72,66,26082,1,0,0:0:0:0:
135,126,26748,6,0,B|181:157|181:157|236:156|236:156|236:226|318:251,1,220,0|2,0:0|0:0,0:0:0:0:
326,160,28748,1,0,0:0:0:0:
390,220,29415,2,0,P|363:301|229:314,1,220,0|2,0:0|0:0,0:0:0:0:
164,163,32082,6,0,B|207:95|296:116|296:116|380:140,1,220,2|0,0:0|0:0,0:0:0:0:
390,220,34082,1,0,0:0:0:0:
321,275,34748,2,0,P|291:304|278:199,1,220,2|0,0:0|0:0,0:0:0:0:
255,112,36748,1,0,0:0:0:0:
233,26,37415,6,0,B|164:56|91:31|91:31|121:65|113:123,1,220,2|0,0:0|0:0,0:0:0:0:
26,97,39415,1,0,0:0:0:0:
61,177,40082,2,0,B|96:228|85:282|85:282|137:313|194:263,1,220,2|0,0:0|0:0,0:0:0:0:
203,186,42082,1,8,0:0:0:0:
156,112,42748,5,4,0:0:0:0:
247,109,43415,2,0,B|279:105|299:85|299:85|371:93,1,110,8|0,0:0|0:0,0:0:0:0:
440,84,44748,1,8,0:0:0:0:
472,168,45415,2,0,B|492:228|444:228|480:296,2,110,2|8|0,0:0|0:0|0:0,0:0:0:0:
389,198,47415,1,8,0:0:0:0:
302,214,48082,6,0,L|178:234,1,110,2|8,0:0|0:0,0:0:0:0:
212,316,49415,2,0,L|88:336,1,110,0|8,0:0|0:0,0:0:0:0:
16,344,50748,2,0,B|8:276|74:251,1,110,2|8,0:0|0:0,0:0:0:0:
148,224,52082,2,0,B|204:202|197:136,1,110,2|8,0:0|0:0,0:0:0:0:
148,64,53415,6,0,B|198:30|249:64,2,110,12|8|0,0:0|0:0|0:0,0:0:0:0:
199,136,55415,1,8,0:0:0:0:
249,209,56082,2,0,B|195:243|144:208,2,110,12|8|0,0:0|0:0|0:0,0:0:0:0:
297,135,58082,1,8,0:0:0:0:
256,192,58748,12,4,61415,0:0:0:0:
92,100,64082,6,0,L|80:212,1,110,6|8,0:0|0:0,0:0:0:0:
132,280,65415,1,2,0:0:0:0:
216,252,66082,1,8,0:0:0:0:
296,292,66748,2,0,B|324:292|324:292|348:280|348:280|376:288|424:280,1,110,2|8,0:0|0:0,0:0:0:0:
476,236,68082,2,0,P|479:182|463:115,1,110,2|8,0:0|0:0,0:0:0:0:
450,41,69415,6,0,P|396:43|338:41,1,110,2|8,0:0|0:0,0:0:0:0:
254,37,70748,2,0,P|245:96|250:155,1,110,2|8,0:0|0:0,0:0:0:0:
331,176,72082,1,2,0:0:0:0:
296,256,72748,1,8,0:0:0:0:
214,222,73415,2,0,L|155:229,2,55,2|2|8,0:0|0:0|0:0,0:0:0:0:
296,256,74748,6,0,P|352:261|403:223,1,110,6|8,0:0|0:0,0:0:0:0:
331,176,76082,1,2,0:0:0:0:
317,89,76748,1,8,0:0:0:0:
239,47,77415,2,0,B|211:47|211:47|187:59|187:59|159:51|111:59,1,110,2|8,0:0|0:0,0:0:0:0:
48,84,78748,2,0,P|36:144|76:200,1,110,2|8,0:0|0:0,0:0:0:0:
120,248,80082,6,0,P|176:244|228:276,1,110,2|8,0:0|0:0,0:0:0:0:
288,328,81415,2,0,L|332:216,1,110,2|8,0:0|0:0,0:0:0:0:
359,143,82748,6,0,B|305:71|356:13|405:27|422:42|422:42|427:47|427:47|434:44|434:44|461:33|532:39|540:166|419:138|419:240,1,440,6|0,0:0|0:0,0:0:0:0:
