osu file format v14

[General]
AudioFilename: Pipo Password.mp3
AudioLeadIn: 0
PreviewTime: 149558
Countdown: 0
SampleSet: Soft
StackLeniency: 0.7
Mode: 0
LetterboxInBreaks: 0
WidescreenStoryboard: 1

[Editor]
DistanceSpacing: 1.6
BeatDivisor: 4
GridSize: 4
TimelineZoom: 1

[Metadata]
Title:Pipo Password
TitleUnicode:Pipo Password
Artist:TeddyLoid feat. Bonjour Suzuki
ArtistUnicode:TeddyLoid feat. ボンジュール鈴木
Creator:Chaoslitz
Version:Sharlo's Hard
Source:宇宙パトロールルル子
Tags:sahuang Sharlo VINXIS deetz space patrol uchuu luluco ending ed
BeatmapID:1047560
BeatmapSetID:478789

[Difficulty]
HPDrainRate:5
CircleSize:4
OverallDifficulty:6
ApproachRate:7
SliderMultiplier:2
SliderTickRate:1

[Events]
//Background and Video events
0,0,"sb/luluco.jpg",0,0
//Break Periods
2,107258,116824
2,192591,202158
//Storyboard Layer 0 (Background)
//Storyboard Layer 1 (Fail)
//Storyboard Layer 2 (Pass)
//Storyboard Layer 3 (Foreground)
//Storyboard Sound Samples

[TimingPoints]
11058,666.666666666667,4,2,3,50,1,0
19058,-100,4,2,3,50,0,0
20224,-100,4,2,2,50,0,0
21724,-100,4,2,1,80,0,0
25724,-100,4,2,2,80,0,0
25891,-100,4,2,1,80,0,0
32391,-100,4,2,2,60,0,0
32724,-100,4,2,2,60,0,0
41724,-100,4,2,2,60,0,0
43058,-100,4,2,1,60,0,0
43391,-100,4,2,4,60,0,0
52391,-100,4,2,1,60,0,0
53058,-100,4,2,1,60,0,0
53724,-100,4,2,2,60,0,0
54391,-100,4,2,1,70,0,0
64391,-100,4,2,2,70,0,0
65058,-100,4,2,1,70,0,0
67058,-100,4,2,2,70,0,0
67724,-100,4,2,1,70,0,0
69724,-100,4,2,2,70,0,0
70391,-100,4,2,1,70,0,0
72391,-100,4,2,1,70,0,0
73558,-100,4,2,2,70,0,0
75058,-100,4,2,1,80,0,1
93724,-100,4,2,2,80,0,1
96391,-100,4,2,1,80,0,0
100391,-100,4,2,2,80,0,0
100558,-100,4,2,1,80,0,0
107058,-100,4,2,2,60,0,0
107391,-100,4,2,2,60,0,0
116391,-100,4,2,2,60,0,0
117724,-100,4,2,1,60,0,0
117725,-100,4,2,1,60,0,0
118058,-100,4,2,4,60,0,0
127058,-100,4,2,1,60,0,0
127724,-100,4,2,1,60,0,0
128391,-100,4,2,2,70,0,0
129058,-100,4,2,1,70,0,0
139058,-100,4,2,2,70,0,0
139725,-100,4,2,1,70,0,0
141725,-100,4,2,2,70,0,0
142391,-100,4,2,1,70,0,0
144391,-100,4,2,2,70,0,0
145058,-100,4,2,1,70,0,0
147058,-100,4,2,1,70,0,0
148225,-100,4,2,2,70,0,0
149724,-100,4,2,1,80,0,1
168391,-100,4,2,2,80,0,1
169558,-100,4,2,2,80,0,1
171058,-100,4,2,4,70,0,0
171724,-100,4,2,1,70,0,0
171891,-100,4,2,4,70,0,0
173058,-100,4,2,1,70,0,0
173224,-100,4,2,4,70,0,0
174391,-100,4,2,1,70,0,0
174558,-100,4,2,4,70,0,0
175724,-100,4,2,1,70,0,0
175891,-100,4,2,4,70,0,0
177058,-100,4,2,1,70,0,0
177224,-100,4,2,4,70,0,0
178391,-100,4,2,1,70,0,0
178558,-100,4,2,4,70,0,0
179724,-100,4,2,1,70,0,0
179891,-100,4,2,4,70,0,0
181058,-100,4,2,1,70,0,0
181224,-100,4,2,4,70,0,0
182391,-100,4,2,1,70,0,0
182558,-100,4,2,4,70,0,0
183724,-100,4,2,1,70,0,0
183891,-100,4,2,4,70,0,0
185058,-100,4,2,1,70,0,0
185224,-100,4,2,4,70,0,0
186391,-100,4,2,1,70,0,0
186558,-100,4,2,4,70,0,0
189058,-100,4,2,1,70,0,0
189224,-100,4,2,4,70,0,0
192391,-100,4,2,2,50,0,0
201724,-100,4,2,2,50,0,0
203058,-100,4,2,1,50,0,0
211058,-166.666666666667,4,2,2,50,0,0
212224,-100,4,2,2,100,0,0
213724,-100,4,2,1,80,0,1
232391,-100,4,2,2,80,0,1
235058,-100,4,2,1,80,0,0
239057,-100,4,2,2,80,0,0
239224,-100,4,2,1,80,0,0
245724,-100,4,2,2,60,0,0
245891,-100,4,2,1,60,0,0
249724,-100,4,2,2,60,0,0
249891,-100,4,2,1,60,0,0
252391,-100,4,2,2,60,0,0
253724,-100,4,2,2,60,0,0
255058,-100,4,2,2,50,0,0
256391,-100,4,2,2,40,0,0
257724,-100,4,2,2,30,0,0
259058,-100,4,2,2,20,0,0

[Colours]
Combo1 : 214,172,220
Combo2 : 178,213,241
Combo3 : 255,120,166
Combo4 : 254,241,129

[HitObjects]
124,280,11058,5,4,0:0:0:0:
124,280,11724,2,0,L|132:176,1,100,0|0,0:0|0:0,0:0:0:0:
140,100,12224,1,0,0:0:0:0:
204,148,12391,2,0,P|231:154|272:156,1,50,0|0,0:0|0:0,0:0:0:0:
328,127,12724,2,0,P|342:107|360:89,2,50,2|0|0,0:0|0:0|0:0,0:0:0:0:
318,206,13224,1,2,0:0:0:0:
320,288,13391,2,0,L|270:284,1,50,0|0,0:0|0:0,0:0:0:0:
396,308,13724,6,0,P|448:304|492:320,2,100,4|0|0,0:0|0:0|0:0,0:0:0:0:
320,336,14558,1,0,0:0:0:0:
252,296,14724,2,0,L|255:246,1,50,2|0,0:0|0:0,0:0:0:0:
180,332,15058,2,0,L|183:381,2,50,2|0|0,0:0|0:0|0:0,0:0:0:0:
172,252,15558,1,2,0:0:0:0:
172,252,15724,2,0,P|112:244|60:272,1,100,0|2,0:0|0:0,0:0:0:0:
8,112,16391,6,0,L|112:100,1,100,4|0,0:0|0:0,0:0:0:0:
168,156,16891,1,0,0:0:0:0:
244,188,17058,2,0,L|252:116,1,50,0|0,0:0|0:0,0:0:0:0:
317,50,17391,2,0,L|320:100,1,50,0|0,0:0|0:0,0:0:0:0:
380,152,17724,2,0,P|404:158|448:160,1,50,2|0,0:0|0:0,0:0:0:0:
496,112,18058,1,0,0:0:0:0:
496,112,18224,2,0,P|480:160|508:216,1,100,2|0,0:0|0:0,0:0:0:0:
484,284,18724,2,0,P|459:290|416:292,1,50,2|0,0:0|0:0,0:0:0:0:
356,276,19058,5,4,0:0:0:0:
244,188,20224,1,4,0:0:0:0:
356,276,20558,1,8,0:0:0:0:
292,324,20724,2,0,L|200:316,1,74.9999999999999,8|0,0:0|0:0,0:0:0:0:
184,300,21058,2,0,P|152:300|120:312,1,50,8|8,0:0|0:0,0:0:0:0:
60,340,21391,1,4,0:3:0:0:
132,384,21558,1,4,0:3:0:0:
140,224,21724,6,0,L|144:108,1,99.9999999999999,4|0,0:0|0:0,0:0:0:0:
208,76,22224,1,0,0:0:0:0:
208,76,22391,2,0,L|280:84,1,50,8|0,0:0|0:0,0:0:0:0:
312,140,22724,2,0,P|344:140|384:132,1,50,0|2,0:0|0:0,0:0:0:0:
432,172,23058,2,0,P|440:128|412:76,1,99.9999999999999,0|2,0:0|0:0,0:0:0:0:
364,220,23558,1,0,0:0:0:0:
364,220,23724,2,0,L|376:284,1,50,8|0,0:0|0:0,0:0:0:0:
437,348,24058,2,0,P|441:324|448:300,1,50,0|2,0:0|0:0,0:0:0:0:
356,348,24391,6,0,P|312:368|252:352,2,99.9999999999999,2|0|8,0:0|0:0|0:0,0:0:0:0:
373,269,25224,1,0,0:0:0:0:
432,324,25391,1,0,0:0:0:0:
300,292,25558,1,2,0:0:0:0:
316,212,25724,2,0,P|356:192|424:204,1,99.9999999999999,2|2,0:0|0:0,0:0:0:0:
468,252,26224,1,0,0:0:0:0:
468,252,26391,2,0,L|476:152,1,99.9999999999999,8|0,0:0|0:0,0:0:0:0:
436,84,26891,1,2,0:0:0:0:
368,128,27058,6,0,P|320:112|264:128,1,99.9999999999999,2|0,0:0|0:0,0:0:0:0:
196,100,27558,2,0,P|197:132|204:168,1,50,2|8,0:0|0:0,0:0:0:0:
75,252,28058,2,0,P|76:276|79:301,1,50,0|2,0:0|0:0,0:0:0:0:
128,368,28391,1,2,0:0:0:0:
128,368,28558,1,0,0:0:0:0:
192,324,28724,2,0,L|304:332,2,99.9999999999999,2|8|0,0:0|0:0|0:0,0:0:0:0:
148,256,29558,1,2,0:0:0:0:
148,256,29724,6,0,L|88:260,1,50,2|0,0:0|0:0,0:0:0:0:
216,212,30058,2,0,L|200:108,1,99.9999999999999,0|8,0:0|0:0,0:0:0:0:
228,36,30558,2,0,P|266:66|280:114,1,99.9999999999999,2|2,0:0|0:0,0:0:0:0:
292,191,31058,2,0,P|314:148|359:127,1,99.9999999999999,2|2,0:0|0:0,0:0:0:0:
372,208,31558,2,0,L|364:312,1,99.9999999999999,0|2,0:0|0:0,0:0:0:0:
443,381,32058,2,0,L|440:332,1,50,0|2,0:0|0:0,0:0:0:0:
488,268,32391,5,4,0:0:0:0:
488,268,32724,2,0,L|496:152,2,99.9999999999999,2|2|2,0:0|0:0|0:0,0:0:0:0:
439,331,33558,1,0,0:0:0:0:
364,307,33724,2,0,P|308:300|264:324,2,99.9999999999999,2|0|2,0:0|0:0|0:0,0:0:0:0:
455,175,34724,2,0,L|458:224,1,50
380,228,35058,6,0,L|376:172,1,50,0|0,0:0|0:0,0:0:0:0:
312,128,35391,1,2,0:0:0:0:
312,128,35558,1,2,0:0:0:0:
264,192,35724,2,0,P|216:208|160:188,1,99.9999999999999,2|2,0:0|0:0,0:0:0:0:
104,152,36224,1,0,0:0:0:0:
104,152,36391,2,0,L|112:44,2,99.9999999999999,2|2|2,0:0|0:0|0:0,0:0:0:0:
40,204,37224,1,0,0:0:0:0:
40,204,37391,2,0,P|47:236|52:272,1,50,0|0,0:0|0:0,0:0:0:0:
36,332,37724,5,0,0:0:0:0:
36,332,38058,2,0,L|-20:328,1,50,2|0,0:0|0:0,0:0:0:0:
112,308,38391,1,0,0:0:0:0:
112,308,38724,2,0,L|161:304,1,50,2|0,0:0|0:0,0:0:0:0:
236,340,39058,2,0,P|213:303|229:237,1,99.9999999999999,2|2,0:0|0:0,0:0:0:0:
260,92,39724,2,0,P|282:128|266:194,1,99.9999999999999,2|2,0:0|0:0,0:0:0:0:
196,172,40224,1,0,0:0:0:0:
144,232,40391,5,0,0:0:0:0:
144,232,40724,2,0,L|72:224,1,50,0|0,0:0|0:0,0:0:0:0:
32,176,41058,2,0,P|36:147|48:116,1,50,0|0,0:0|0:0,0:0:0:0:
176,40,41558,2,0,P|183:63|186:88,1,50,0|2,0:0|0:0,0:0:0:0:
300,204,42058,2,0,P|348:220|412:208,1,99.9999999999999,0|0,0:0|0:0,0:0:0:0:
452,156,42558,1,0,0:0:0:0:
440,76,42724,2,0,P|432:48|416:20,1,50,0|0,0:0|0:0,0:0:0:0:
360,80,43058,5,2,0:0:0:0:
360,80,43391,2,0,L|304:84,1,50,2|0,0:0|0:0,0:0:0:0:
247,135,43724,2,0,P|296:132|340:160,1,99.9999999999999,2|2,0:0|0:0,0:0:0:0:
276,208,44224,1,8,0:0:0:0:
210,293,44391,2,0,L|204:244,1,50,2|0,0:0|0:0,0:0:0:0:
172,172,44724,2,0,P|144:168|112:168,1,50,10|0,0:0|0:0,0:0:0:0:
56,120,45058,2,0,P|28:124|-8:140,2,50,2|0|0,0:0|0:0|0:0,0:0:0:0:
48,200,45558,1,8,0:0:0:0:
128,88,45724,5,8,0:0:0:0:
128,88,46058,2,0,L|120:28,1,50,2|0,0:0|0:0,0:0:0:0:
208,100,46391,2,0,P|252:84|320:104,1,99.9999999999999,2|2,0:0|0:0,0:0:0:0:
378,120,46891,2,0,L|371:182,1,50,8|0,0:0|0:0,0:0:0:0:
342,244,47224,1,0,0:0:0:0:
280,296,47391,1,10,0:0:0:0:
280,296,47558,1,0,0:0:0:0:
214,219,47724,2,0,L|264:216,1,50,2|0,0:0|0:0,0:0:0:0:
356,328,48058,2,0,P|368:352|372:376,1,50,0|0,0:0|0:0,0:0:0:0:
216,348,48391,5,8,0:0:0:0:
216,348,48724,2,0,L|108:340,1,99.9999999999999,2|0,0:0|0:0,0:0:0:0:
64,280,49224,2,0,P|96:264|168:276,1,99.9999999999999,2|8,0:0|0:0,0:0:0:0:
200,200,49724,2,0,L|188:140,1,50,2|0,0:0|0:0,0:0:0:0:
268,160,50058,2,0,L|249:61,2,99.9999999999999,10|2|2,0:0|0:0|0:0,0:0:0:0:
272,240,50891,1,8,0:0:0:0:
340,200,51058,5,8,0:0:0:0:
340,200,52391,1,2,0:0:0:0:
344,280,52558,1,0,0:0:0:0:
300,348,52724,2,0,P|349:336|399:344,1,99.9999999999999,0|8,0:0|0:0,0:0:0:0:
473,368,53224,2,0,L|481:308,1,50
483,237,53558,1,0,0:0:0:0:
483,237,53724,6,0,L|469:136,2,100,4|0|8,0:0|0:0|0:0,0:0:0:0:
408,264,54558,1,0,0:0:0:0:
408,264,54724,2,0,L|400:208,1,50,0|2,0:0|0:0,0:0:0:0:
356,148,55058,2,0,B|320:140|292:152|256:148,1,99.9999999999999,0|2,0:0|0:0,0:0:0:0:
184,112,55558,1,0,0:0:0:0:
124,164,55724,2,0,L|136:224,1,50,8|0,0:0|0:0,0:0:0:0:
152,292,56058,1,0,0:0:0:0:
106,357,56224,1,0,0:0:0:0:
106,357,56391,6,0,P|77:317|80:264,1,99.9999999999999,2|0,0:0|0:0,0:0:0:0:
0,148,57058,2,0,L|16:40,1,99.9999999999999,8|0,0:0|0:0,0:0:0:0:
84,88,57558,2,0,P|132:100|184:84,1,99.9999999999999,2|2,0:0|0:0,0:0:0:0:
244,40,58058,1,2,0:0:0:0:
244,40,58391,2,0,L|304:36,1,50,8|0,0:0|0:0,0:0:0:0:
401,95,58724,2,0,L|352:92,1,50,0|0,0:0|0:0,0:0:0:0:
276,116,59058,6,0,L|284:228,2,99.9999999999999,2|0|8,0:0|0:0|0:0,0:0:0:0:
404,216,60058,2,0,P|395:243|392:276,1,50,0|2,0:0|0:0,0:0:0:0:
448,320,60391,2,0,L|340:328,2,99.9999999999999,0|0|8,0:0|0:0|0:0,0:0:0:0:
296,264,61391,2,0,L|240:268,1,50,0|0,0:0|0:0,0:0:0:0:
204,336,61724,6,0,P|156:348|104:328,1,99.9999999999999,2|0,0:0|0:0,0:0:0:0:
48,280,62224,2,0,L|56:220,1,50,0|8,0:0|0:0,0:0:0:0:
4,168,62558,2,0,P|56:152|112:172,1,99.9999999999999,0|2,0:0|0:0,0:0:0:0:
132,236,63058,2,0,P|158:239|184:236,2,50,0|2|2,0:0|0:0|0:0,0:0:0:0:
72,88,63724,2,0,L|84:32,1,50,8|0,0:0|0:0,0:0:0:0:
156,12,64058,1,0,0:0:0:0:
156,12,64224,1,0,0:0:0:0:
186,86,64391,6,0,P|182:115|173:157,2,50,8|0|0,0:0|0:0|0:0,0:0:0:0:
243,30,64891,1,0,3:0:0:0:
321,46,65058,1,8,0:0:0:0:
321,46,65391,2,0,L|317:110,1,50,0|0,3:0|0:0,0:0:0:0:
372,216,65724,2,0,P|368:192|362:168,1,50,0|0,0:0|3:0,0:0:0:0:
280,168,66058,2,0,P|272:224|272:284,1,99.9999999999999,0|8,3:0|0:0,0:0:0:0:
292,344,66558,1,0,0:0:0:0:
292,344,66724,1,0,0:0:0:0:
372,328,66891,2,0,L|400:336,2,25,0|0|8,0:0|0:0|0:0,0:0:0:0:
212,324,67391,6,0,L|152:328,1,50,0|0,0:0|3:0,0:0:0:0:
92,288,67724,2,0,P|40:300|-8:272,2,99.9999999999999,8|0|0,0:0|3:0|0:0,0:0:0:0:
52,220,68558,1,0,3:0:0:0:
52,220,68724,2,0,P|52:168|56:120,1,99.9999999999999,0|8,3:0|0:0,0:0:0:0:
196,40,69391,1,0,0:0:0:0:
208,120,69558,2,0,L|200:156,2,25,0|0|8,0:0|0:0|0:0,0:0:0:0:
272,72,69891,5,0,0:0:0:0:
272,72,70058,2,0,P|302:72|332:80,1,50,0|0,0:0|3:0,0:0:0:0:
438,82,70391,2,0,P|415:92|396:107,1,50,8|0,0:0|0:0,0:0:0:0:
332,156,70724,2,0,P|352:204|340:264,1,99.9999999999999,0|0,0:0|3:0,0:0:0:0:
292,312,71224,1,0,3:0:0:0:
292,312,71391,2,0,L|243:322,1,50,0|0,3:0|3:0,0:0:0:0:
372,328,71724,2,0,P|393:334|420:338,1,50,8|8,0:0|0:0,0:0:0:0:
480,284,72058,2,0,P|478:259|472:228,1,50,8|8,0:0|0:0,0:0:0:0:
444,160,72391,5,2,0:0:0:0:
444,160,73558,2,0,B|396:152|396:152|336:164,1,99.9999999999999,4|8,0:0|0:0,0:0:0:0:
312,236,74058,2,0,P|268:244|224:224,1,74.9999999999999,8|0,0:0|0:0,0:0:0:0:
204,216,74391,2,0,L|212:280,1,50,8|8,0:0|0:0,0:0:0:0:
156,324,74724,1,4,3:0:0:0:
156,324,74891,1,4,3:0:0:0:
120,212,75058,6,0,L|128:112,2,99.9999999999999,4|0|8,0:0|0:0|0:0,0:0:0:0:
84,284,75891,1,0,0:0:0:0:
156,324,76058,2,0,L|220:316,1,50,0|2,0:0|0:0,0:0:0:0:
284,304,76391,2,0,P|328:328|392:324,1,99.9999999999999,0|2,0:0|0:0,0:0:0:0:
448,288,76891,1,0,0:0:0:0:
448,288,77058,2,0,L|457:238,1,50,8|0,0:0|0:0,0:0:0:0:
392,192,77391,2,0,L|384:128,1,50,0|2,0:0|0:0,0:0:0:0:
428,76,77724,6,0,P|380:92|320:80,1,99.9999999999999,2|0,0:0|0:0,0:0:0:0:
268,40,78224,1,0,0:0:0:0:
163,118,78391,2,0,P|211:107|260:120,1,99.9999999999999,8|0,0:0|0:0,0:0:0:0:
328,164,78891,1,2,0:0:0:0:
324,244,79058,1,0,0:0:0:0:
324,244,79224,1,2,0:0:0:0:
400,132,79391,2,0,L|464:128,1,50,2|0,0:0|0:0,0:0:0:0:
396,212,79724,1,8,0:0:0:0:
328,164,79891,1,0,0:0:0:0:
256,200,80058,2,0,L|206:203,1,50,0|0,0:0|0:0,0:0:0:0:
140,156,80391,6,0,P|88:144|32:172,1,99.9999999999999,2|0,0:0|0:0,0:0:0:0:
96,228,80891,1,0,0:0:0:0:
164,272,81058,2,0,P|198:237|205:214,1,50,8|0,0:0|0:0,0:0:0:0:
220,159,81391,2,0,L|216:109,1,50,0|2,0:0|0:0,0:0:0:0:
297,49,81724,2,0,L|294:99,1,50
370,127,82058,2,0,L|366:176,1,50,2|0,0:0|0:0,0:0:0:0:
293,257,82391,2,0,L|288:208,1,50,8|0,0:0|0:0,0:0:0:0:
206,203,82724,1,0,0:0:0:0:
206,203,82891,1,2,0:0:0:0:
216,284,83058,6,0,L|221:333,1,50,2|0,0:0|0:0,0:0:0:0:
297,358,83391,1,0,0:0:0:0:
448,248,83724,1,8,0:0:0:0:
448,248,83891,2,0,P|400:232|352:247,1,99.9999999999999,0|2,0:0|0:0,0:0:0:0:
400,312,84391,1,0,0:0:0:0:
400,312,84558,1,2,0:0:0:0:
448,248,84724,2,0,L|440:188,1,50,2|0,0:0|0:0,0:0:0:0:
404,128,85058,2,0,P|356:116|300:128,1,99.9999999999999,8|0,0:0|0:0,0:0:0:0:
152,160,85724,6,0,L|160:60,2,99.9999999999999,4|0|8,0:0|0:0|0:0,0:0:0:0:
88,212,86558,1,0,0:0:0:0:
87,212,86724,2,0,P|63:216|38:218,1,50,0|2,0:0|0:0,0:0:0:0:
164,244,87058,2,0,P|208:268|272:260,1,99.9999999999999,0|2,0:0|0:0,0:0:0:0:
328,232,87558,1,0,0:0:0:0:
328,232,87724,2,0,P|333:210|337:182,1,50,8|0,0:0|0:0,0:0:0:0:
268,140,88058,2,0,L|256:76,1,50,0|2,0:0|0:0,0:0:0:0:
340,100,88391,6,0,P|389:106|436:90,1,99.9999999999999,2|0,0:0|0:0,0:0:0:0:
488,28,88891,1,0,0:0:0:0:
488,28,89058,2,0,P|480:80|476:129,1,99.9999999999999,8|0,0:0|0:0,0:0:0:0:
480,208,89558,1,2,0:0:0:0:
480,208,89724,1,0,0:0:0:0:
408,172,89891,1,2,0:0:0:0:
356,232,90058,1,2,0:0:0:0:
396,304,90224,2,0,L|392:353,1,50,0|8,0:0|0:0,0:0:0:0:
476,288,90558,1,0,0:0:0:0:
356,232,90724,2,0,P|328:232|306:235,1,50,0|0,0:0|0:0,0:0:0:0:
177,304,91058,6,0,P|224:320|271:308,1,99.9999999999999,2|0,0:0|0:0,0:0:0:0:
228,240,91558,1,0,0:0:0:0:
264,168,91724,2,0,B|260:136|260:136|264:104|264:104|260:68,1,99.9999999999999,8|0,0:0|0:0,0:0:0:0:
260,68,92224,1,2,0:0:0:0:
188,36,92391,2,0,L|184:85,1,50,0|0,0:0|0:0,0:0:0:0:
108,116,92724,2,0,L|112:168,1,50,2|0,0:0|0:0,0:0:0:0:
225,203,93058,2,0,P|211:183|191:167,1,50,8|0,0:0|0:0,0:0:0:0:
152,236,93391,1,0,0:0:0:0:
111,165,93558,1,2,0:0:0:0:
260,120,93724,5,4,0:0:0:0:
260,120,96391,6,0,B|180:116|180:116|196:96,1,99.9999999999999,4|0,0:0|0:0,0:0:0:0:
160,28,96891,1,0,0:0:0:0:
160,28,97058,2,0,L|110:32,1,50,8|0,0:0|0:0,0:0:0:0:
100,112,97391,2,0,L|50:106,1,50,0|2,0:0|0:0,0:0:0:0:
156,172,97724,2,0,P|178:215|171:264,1,99.9999999999999,0|2,0:0|0:0,0:0:0:0:
100,228,98224,1,0,0:0:0:0:
100,228,98391,2,0,L|92:288,1,50,8|0,0:0|0:0,0:0:0:0:
144,340,98724,2,0,P|169:344|200:340,1,50,0|2,0:0|0:0,0:0:0:0:
252,284,99058,6,0,P|296:264|356:280,2,99.9999999999999,2|0|8,0:0|0:0|0:0,0:0:0:0:
304,344,99891,1,0,0:0:0:0:
428,276,100058,1,0,0:0:0:0:
384,344,100224,1,2,0:0:0:0:
388,204,100391,2,0,L|392:92,1,99.9999999999999,2|2,0:0|0:0,0:0:0:0:
452,48,100891,1,0,0:0:0:0:
376,28,101058,2,0,P|332:52|316:108,1,99.9999999999999,8|0,0:0|0:0,0:0:0:0:
391,104,101558,1,2,0:0:0:0:
348,172,101724,6,0,P|304:148|252:152,1,99.9999999999999,2|0,0:0|0:0,0:0:0:0:
199,208,102224,2,0,P|200:240|207:276,1,50,2|8,0:0|0:0,0:0:0:0:
83,161,102724,2,0,P|86:136|86:111,1,50,0|2,0:0|0:0,0:0:0:0:
87,29,103058,1,2,0:0:0:0:
87,29,103224,1,0,0:0:0:0:
168,40,103391,2,0,B|220:44|220:44|280:32,2,99.9999999999999,2|8|0,0:0|0:0|0:0,0:0:0:0:
164,120,104224,1,2,0:0:0:0:
164,120,104391,6,0,L|216:124,1,50,2|0,0:0|0:0,0:0:0:0:
292,112,104724,2,0,P|312:152|304:212,1,99.9999999999999,0|8,0:0|0:0,0:0:0:0:
348,276,105224,2,0,P|303:255|254:265,1,99.9999999999999,0|2,0:0|0:0,0:0:0:0:
240,344,105724,2,0,P|197:322|176:277,1,99.9999999999999,2|2,0:0|0:0,0:0:0:0:
124,216,106224,2,0,B|88:228|88:228|44:204|0:232,1,100,0|2,0:0|0:0,0:0:0:0:
48,296,106724,2,0,L|51:345,1,50,0|2,0:0|0:0,0:0:0:0:
175,276,107058,5,4,0:0:0:0:
175,276,117724,5,2,0:0:0:0:
175,276,118058,2,0,L|176:224,1,50,2|0,0:0|0:0,0:0:0:0:
252,200,118391,2,0,P|232:160|244:100,1,99.9999999999999,2|2,0:0|0:0,0:0:0:0:
312,144,118891,1,8,0:0:0:0:
376,96,119058,2,0,L|370:47,1,50,2|0,0:0|0:0,0:0:0:0:
440,144,119391,2,0,P|464:144|489:148,1,50,10|0,0:0|0:0,0:0:0:0:
464,224,119724,2,0,P|473:248|480:272,2,50,2|0|0,0:0|0:0|0:0,0:0:0:0:
388,204,120224,1,8,0:0:0:0:
388,204,120391,5,8,0:0:0:0:
276,320,120724,2,0,L|226:320,1,50,2|0,0:0|0:0,0:0:0:0:
157,276,121058,2,0,P|143:323|161:369,1,100,2|2,0:0|0:0,0:0:0:0:
228,240,121558,1,2,0:0:0:0:
228,240,121725,2,0,L|220:140,1,99.9999999999999,10|0,0:0|0:0,0:0:0:0:
152,100,122224,1,0,0:0:0:0:
88,148,122391,2,0,L|38:151,1,50,2|0,0:0|0:0,0:0:0:0:
20,228,122724,2,0,L|70:225,1,50,0|0,0:0|0:0,0:0:0:0:
148,208,123058,5,8,0:0:0:0:
148,208,123391,2,0,L|136:320,1,99.9999999999999,2|0,0:0|0:0,0:0:0:0:
216,284,123891,2,0,L|204:396,1,99.9999999999999,0|8,0:0|0:0,0:0:0:0:
284,372,124391,2,0,L|291:303,1,50,2|0,0:0|0:0,0:0:0:0:
340,260,124724,2,0,P|384:244|448:260,2,99.9999999999999,10|2|2,0:0|0:0|0:0,0:0:0:0:
268,220,125558,1,8,0:0:0:0:
276,140,125724,5,8,0:0:0:0:
276,140,126891,1,0,0:0:0:0:
276,140,127224,1,0,0:0:0:0:
228,76,127391,2,0,P|272:60|328:80,1,99.9999999999999,0|8,0:0|0:0,0:0:0:0:
400,80,127891,2,0,P|404:54|408:20,1,50,0|0,0:0|0:0,0:0:0:0:
348,180,128391,6,0,L|360:288,2,99.9999999999999,4|0|8,0:0|0:0|0:0,0:0:0:0:
276,140,129224,1,0,0:0:0:0:
276,140,129391,2,0,P|269:165|268:192,1,50,0|2,0:0|0:0,0:0:0:0:
280,268,129724,2,0,B|230:280|229:254|180:268,1,100,0|2,0:0|0:0,0:0:0:0:
120,320,130224,1,0,0:0:0:0:
104,240,130391,2,0,L|92:184,1,50,8|0,0:0|0:0,0:0:0:0:
112,112,130724,1,0,0:0:0:0:
44,68,130891,1,0,0:0:0:0:
44,68,131058,6,0,P|84:36|140:36,1,99.9999999999999,2|0,0:0|0:0,0:0:0:0:
280,88,131724,2,0,P|241:119|192:122,1,99.9999999999999,8|0,0:0|0:0,0:0:0:0:
112,112,132224,2,0,B|113:153|113:153|128:184|116:216,1,99.9999999999999,2|2,0:0|0:0,0:0:0:0:
60,264,132724,1,2,0:0:0:0:
60,264,133058,2,0,L|120:260,1,50,8|0,0:0|0:0,0:0:0:0:
148,332,133391,2,0,L|208:328,1,50,0|0,0:0|0:0,0:0:0:0:
252,272,133724,6,0,P|300:292|352:276,2,99.9999999999999,2|0|8,0:0|0:0|0:0,0:0:0:0:
192,122,134724,2,0,P|195:97|203:73,1,50,0|2,0:0|0:0,0:0:0:0:
272,116,135058,2,0,L|371:108,2,99.9999999999999,0|0|8,0:0|0:0|0:0,0:0:0:0:
332,264,136058,2,0,L|381:260,1,50,0|0,0:0|0:0,0:0:0:0:
444,312,136391,6,0,P|459:265|447:217,1,99.9999999999999,2|0,0:0|0:0,0:0:0:0:
448,136,136891,2,0,L|452:72,1,50,0|8,0:0|0:0,0:0:0:0:
388,36,137224,2,0,P|339:24|293:40,1,99.9999999999999,0|2,0:0|0:0,0:0:0:0:
272,116,137724,2,0,L|284:172,2,50,0|2|2,0:0|0:0|0:0,0:0:0:0:
208,264,138391,2,0,L|220:208,1,50,8|0,0:0|0:0,0:0:0:0:
196,140,138724,1,0,0:0:0:0:
196,140,138891,1,0,0:0:0:0:
140,196,139058,6,0,P|116:200|88:200,2,50,8|0|0,0:0|0:0|0:0,0:0:0:0:
196,140,139558,1,0,3:0:0:0:
164,272,139724,1,8,0:0:0:0:
164,272,140058,2,0,P|166:305|172:332,1,50,0|0,3:0|0:0,0:0:0:0:
104,368,140391,2,0,L|52:360,1,50,0|0,0:0|3:0,0:0:0:0:
169,321,140724,2,0,L|272:308,1,99.9999999999999,0|8,3:0|0:0,0:0:0:0:
320,372,141224,1,0,0:0:0:0:
320,372,141391,1,0,0:0:0:0:
376,312,141558,2,0,L|404:320,2,25,0|0|8,0:0|0:0|0:0,0:0:0:0:
328,160,142058,6,0,L|324:104,1,50,0|0,0:0|3:0,0:0:0:0:
360,36,142391,2,0,L|480:24,2,99.9999999999999,8|0|0,0:0|3:0|0:0,0:0:0:0:
280,44,143224,1,0,3:0:0:0:
280,44,143391,2,0,P|230:39|180:40,1,99.9999999999999,0|8,3:0|0:0,0:0:0:0:
72,156,144058,1,0,0:0:0:0:
72,156,144224,2,0,L|64:192,2,25,0|0|8,0:0|0:0|0:0,0:0:0:0:
144,192,144558,5,0,0:0:0:0:
144,192,144724,2,0,P|174:192|204:200,1,50,0|0,0:0|0:0,0:0:0:0:
258,246,145058,2,0,P|235:256|216:272,1,50,8|0,0:0|0:0,0:0:0:0:
186,345,145391,2,0,P|235:351|276:323,1,99.9999999999999,0|0,0:0|3:0,0:0:0:0:
336,272,145891,1,0,3:0:0:0:
336,272,146058,2,0,L|336:216,1,50,0|0,3:0|3:0,0:0:0:0:
387,159,146391,2,0,P|412:166|436:170,1,50,8|8,0:0|0:0,0:0:0:0:
308,144,146724,2,0,L|300:88,1,50,8|8,0:0|0:0,0:0:0:0:
256,208,147058,5,2,0:0:0:0:
256,208,148224,2,0,B|208:220|208:220|148:212,1,99.9999999999999,4|8,0:0|0:0,0:0:0:0:
96,164,148724,2,0,P|88:120|100:76,1,74.9999999999999,8|0,0:0|0:0,0:0:0:0:
116,56,149058,2,0,L|180:48,1,50,8|8,0:0|0:0,0:0:0:0:
285,98,149391,2,0,L|236:92,1,50,4|4,3:0|3:0,0:0:0:0:
352,52,149724,6,0,P|364:108|344:152,2,99.9999999999999,4|0|8,0:0|0:0|0:0,0:0:0:0:
285,98,150558,1,0,0:0:0:0:
276,176,150724,2,0,L|288:232,1,50,0|2,0:0|0:0,0:0:0:0:
212,256,151058,2,0,L|208:356,1,99.9999999999999,0|2,0:0|0:0,0:0:0:0:
284,328,151558,1,0,0:0:0:0:
284,328,151724,2,0,P|312:332|340:340,1,50,8|0,0:0|0:0,0:0:0:0:
412,352,152058,2,0,L|404:288,1,50,0|2,0:0|0:0,0:0:0:0:
456,244,152391,6,0,P|411:223|364:236,1,100,2|0,0:0|0:0,0:0:0:0:
286,224,152891,1,0,0:0:0:0:
286,224,153058,2,0,L|295:118,1,99.9999999999999,8|0,0:0|0:0,0:0:0:0:
348,64,153558,1,2,0:0:0:0:
268,48,153724,1,0,0:0:0:0:
268,48,153891,1,2,0:0:0:0:
376,144,154058,2,0,L|440:140,1,50,2|0,0:0|0:0,0:0:0:0:
488,92,154391,1,8,0:0:0:0:
500,172,154558,1,0,0:0:0:0:
436,220,154724,2,0,L|386:223,1,50,0|0,0:0|0:0,0:0:0:0:
312,192,155058,6,0,P|260:180|204:208,1,99.9999999999999,2|0,0:0|0:0,0:0:0:0:
268,260,155558,1,0,0:0:0:0:
268,260,155724,1,8,0:0:0:0:
208,312,155891,2,0,B|172:304|172:304|144:312|144:312|104:312,1,99.9999999999999,0|2,0:0|0:0,0:0:0:0:
48,260,156391,2,0,L|40:200,1,50,0|0,0:0|0:0,0:0:0:0:
108,164,156724,2,0,L|112:115,1,50,2|0,0:0|0:0,0:0:0:0:
35,31,157058,2,0,L|40:80,1,50,8|0,0:0|0:0,0:0:0:0:
168,56,157391,1,0,0:0:0:0:
168,56,157558,1,2,0:0:0:0:
224,112,157724,6,0,P|252:112|284:104,1,50,2|0,0:0|0:0,0:0:0:0:
352,124,158058,1,0,0:0:0:0:
448,248,158391,1,8,0:0:0:0:
448,248,158558,2,0,P|400:232|352:247,1,99.9999999999999,0|2,0:0|0:0,0:0:0:0:
400,312,159058,1,0,0:0:0:0:
400,312,159224,1,2,0:0:0:0:
320,320,159391,2,0,L|252:308,1,50,2|0,0:0|0:0,0:0:0:0:
204,356,159724,2,0,P|192:312|212:260,1,99.9999999999999,8|0,0:0|0:0,0:0:0:0:
312,136,160391,6,0,L|412:144,2,99.9999999999999,4|0|8,0:0|0:0|0:0,0:0:0:0:
260,76,161224,1,0,0:0:0:0:
260,76,161391,2,0,P|233:79|204:76,1,50,0|2,0:0|0:0,0:0:0:0:
144,126,161724,2,0,P|183:157|232:156,1,99.9999999999999,0|2,0:0|0:0,0:0:0:0:
288,212,162224,1,0,0:0:0:0:
288,212,162391,2,0,P|285:238|288:268,1,50,8|0,0:0|0:0,0:0:0:0:
223,353,162724,2,0,L|216:304,1,50,0|2,0:0|0:0,0:0:0:0:
168,240,163058,6,0,P|119:234|72:250,1,99.9999999999999,2|0,0:0|0:0,0:0:0:0:
32,320,163558,1,0,0:0:0:0:
32,320,163724,2,0,P|40:268|44:219,1,99.9999999999999,8|0,0:0|0:0,0:0:0:0:
28,140,164224,1,2,0:0:0:0:
28,140,164391,1,0,0:0:0:0:
108,124,164558,1,2,0:0:0:0:
124,204,164724,1,2,0:0:0:0:
108,124,164891,2,0,L|112:75,1,50,0|8,0:0|0:0,0:0:0:0:
192,120,165224,1,0,0:0:0:0:
260,160,165391,2,0,P|288:159|316:152,1,50
348,84,165724,6,0,P|395:100|442:88,1,99.9999999999999,2|0,0:0|0:0,0:0:0:0:
400,20,166224,1,0,0:0:0:0:
400,20,166391,1,8,0:0:0:0:
320,8,166558,2,0,B|288:12|288:12|256:8|256:8|220:12,1,99.9999999999999,0|2,0:0|0:0,0:0:0:0:
180,80,167058,2,0,L|176:129,1,50,0|0,0:0|0:0,0:0:0:0:
261,223,167391,2,0,P|247:203|228:188,1,50,2|0,0:0|0:0,0:0:0:0:
152,208,167724,2,0,L|148:257,1,50,8|0,0:0|0:0,0:0:0:0:
144,340,168058,1,0,0:0:0:0:
144,340,168224,1,2,0:0:0:0:
261,223,168391,5,4,0:0:0:0:
261,223,169558,2,0,L|376:216,1,99.9999999999999,4|8,0:0|0:0,0:0:0:0:
430,290,170058,2,0,L|356:296,1,74.9999999999999,8|0,0:0|0:0,0:0:0:0:
316,300,170391,2,0,P|308:324|304:356,1,50,8|8,0:0|0:0,0:0:0:0:
172,308,170724,1,2,0:0:0:0:
228,368,170891,1,2,0:0:0:0:
180,228,171058,6,0,P|120:216|76:240,1,99.9999999999999,4|0,0:0|0:0,0:0:0:0:
16,272,171558,1,8,0:0:0:0:
16,272,171724,2,0,L|4:220,1,50,8|0,0:0|0:0,0:0:0:0:
52,156,172058,2,0,L|60:104,1,50,2|2,0:0|0:0,0:0:0:0:
136,88,172391,2,0,P|179:66|228:73,1,99.9999999999999,8|0,0:0|0:0,0:0:0:0:
368,148,173058,2,0,L|380:208,1,50,8|0,0:0|0:0,0:0:0:0:
352,271,173391,2,0,P|327:274|302:270,1,50,2|8,0:0|0:0,0:0:0:0:
432,260,173724,6,0,P|452:304|436:364,2,99.9999999999999,10|0|8,0:0|0:0|0:0,0:0:0:0:
377,197,174558,1,0,0:0:0:0:
456,180,174724,1,2,0:0:0:0:
476,104,174891,1,10,0:0:0:0:
476,104,175058,2,0,L|464:56,2,50,0|8|8,0:0|0:0|0:0,0:0:0:0:
400,124,175558,1,0,0:0:0:0:
400,124,175724,2,0,P|352:144|292:128,1,99.9999999999999,8|0,0:0|0:0,0:0:0:0:
344,64,176224,1,0,0:0:0:0:
264,64,176391,6,0,P|220:40|168:44,1,99.9999999999999,8|0,0:0|0:0,0:0:0:0:
140,116,176891,2,0,P|141:148|148:184,1,50,8|8,0:0|0:0,0:0:0:0:
176,324,177391,2,0,P|179:299|179:274,1,50,0|0,0:0|0:0,0:0:0:0:
108,236,177724,2,0,B|61:245|61:245|4:244,1,99.9999999999999,0|8,0:0|0:0,0:0:0:0:
143,165,178391,2,0,B|189:155|189:155|241:159,1,99.9999999999999,8|0,0:0|0:0,0:0:0:0:
280,228,178891,1,8,0:0:0:0:
280,228,179058,6,0,L|332:232,1,50,8|0,0:0|0:0,0:0:0:0:
422,145,179391,2,0,P|405:163|392:184,1,50,0|0,0:0|0:0,0:0:0:0:
404,264,179724,2,0,P|419:291|428:320,1,50,8|2,0:0|0:0,0:0:0:0:
344,320,180058,2,0,L|320:360,3,25,2|2|2|0,0:0|0:0|0:0|0:0,0:0:0:0:
296,360,180391,2,0,P|264:360|224:352,2,50,0|8|8,0:0|0:0|0:0,0:0:0:0:
276,200,181058,1,8,0:0:0:0:
276,200,181224,1,2,0:0:0:0:
296,124,181391,1,2,0:0:0:0:
228,84,181558,1,2,0:0:0:0:
100,116,181724,6,0,B|88:132|88:132|168:136,1,99.9999999999999,4|0,0:0|0:0,0:0:0:0:
196,212,182224,1,8,0:0:0:0:
196,212,182391,2,0,P|188:243|188:268,1,50,8|0,0:0|0:0,0:0:0:0:
240,324,182724,2,0,L|290:330,1,50,0|8,0:0|0:0,0:0:0:0:
364,364,183058,2,0,P|407:342|456:349,1,99.9999999999999,0|8,0:0|0:0,0:0:0:0:
488,276,183558,1,0,0:0:0:0:
488,276,183724,2,0,L|480:220,1,50,8|0,0:0|0:0,0:0:0:0:
484,148,184058,2,0,P|459:150|434:146,1,50,0|8,0:0|0:0,0:0:0:0:
298,86,184391,6,0,P|343:66|392:76,2,99.9999999999999,10|0|8,0:0|0:0|0:0,0:0:0:0:
232,232,185391,1,0,0:0:0:0:
232,232,185558,1,8,0:0:0:0:
216,152,185724,2,0,L|220:96,2,50,0|8|8,0:0|0:0|0:0,0:0:0:0:
224,312,186391,2,0,P|178:294|155:251,1,99.9999999999999,8|0,0:0|0:0,0:0:0:0:
140,172,186891,1,0,0:0:0:0:
140,92,187058,6,0,B|136:56|156:24|156:24|124:0,1,99.9999999999999,8|2,0:0|0:0,0:0:0:0:
56,32,187558,1,0,0:0:0:0:
32,108,187724,2,0,L|-8:108,2,25,2|2|2,0:0|0:0|0:0,0:0:0:0:
92,160,188058,2,0,P|91:184|88:209,1,50,0|8,0:0|0:0,0:0:0:0:
44,276,188391,2,0,P|96:260|148:280,1,99.9999999999999,0|8,0:0|0:0,0:0:0:0:
192,332,188891,1,0,0:0:0:0:
192,332,189058,2,0,P|196:283|208:224,1,99.9999999999999,8|0,0:0|0:0,0:0:0:0:
244,164,189558,1,8,0:0:0:0:
92,160,189724,5,12,0:0:0:0:
92,160,192391,5,4,0:0:0:0:
92,160,203058,6,0,B|108:196|108:196|96:332,1,150,8|0,0:0|0:0,0:0:0:0:
172,336,203724,2,0,L|184:216,1,100,0|8,3:0|0:0,0:0:0:0:
292,120,204391,2,0,L|356:116,2,50,0|8|8,0:0|0:0|0:0,0:0:0:0:
384,252,205058,2,0,L|448:248,1,50,0|0,3:0|0:0,0:0:0:0:
464,324,205391,2,0,L|404:328,1,50,0|0,0:0|0:0,0:0:0:0:
336,320,205724,6,0,P|308:284|308:220,1,100,8|0,0:0|0:0,0:0:0:0:
360,176,206224,1,0,0:0:0:0:
360,176,206391,2,0,L|496:168,1,100,0|8,3:0|0:0,0:0:0:0:
400,20,207058,1,0,0:0:0:0:
400,20,207224,1,8,0:0:0:0:
404,100,207391,2,0,L|348:104,1,50,8|0,0:0|0:0,0:0:0:0:
276,80,207724,2,0,P|251:74|224:72,1,50,0|0,3:0|0:0,0:0:0:0:
152,104,208058,1,0,0:0:0:0:
152,104,208224,1,0,0:0:0:0:
84,148,208391,6,0,L|34:153,1,50,8|0,0:0|0:0,0:0:0:0:
156,184,208724,2,0,P|152:217|144:260,1,50,8|0,0:0|0:0,0:0:0:0:
84,280,209058,2,0,L|34:274,1,50,8|0,0:0|0:0,0:0:0:0:
156,316,209391,2,0,L|205:310,1,50,8|0,0:0|0:0,0:0:0:0:
284,296,209724,1,8,0:0:0:0:
260,372,209891,1,8,0:0:0:0:
228,236,210058,2,0,L|232:184,1,50,8|8,0:0|0:0,0:0:0:0:
288,128,210391,1,8,0:0:0:0:
360,164,210558,1,8,0:0:0:0:
397,237,210724,2,0,P|372:242|348:244,1,50,8|8,0:0|0:0,0:0:0:0:
228,236,211058,6,0,B|184:232|184:232|156:244|156:244|96:240,1,119.999996337891,4|0,0:0|0:0,0:0:0:0:
260,52,212224,6,0,B|312:56|312:56|357:41,1,100,4|8,0:0|0:0,0:0:0:0:
412,100,212724,2,0,P|452:100|488:116,1,75,8|0,0:0|0:0,0:0:0:0:
476,152,213058,2,0,L|492:216,1,50,8|8,0:0|0:0,0:0:0:0:
472,280,213391,1,4,3:0:0:0:
360,216,213558,1,4,3:0:0:0:
300,266,213724,6,0,P|342:291|391:287,2,100,4|0|8,0:0|0:0|0:0,0:0:0:0:
288,188,214558,1,0,0:0:0:0:
288,188,214891,1,0,0:0:0:0:
220,148,215058,2,0,L|100:156,1,100,2|0,0:0|0:0,0:0:0:0:
60,208,215558,1,0,0:0:0:0:
60,208,215724,2,0,L|51:258,1,50,8|0,0:0|0:0,0:0:0:0:
122,353,216058,2,0,L|116:304,1,50,0|0,0:0|0:0,0:0:0:0:
148,232,216391,6,0,P|196:216|256:228,1,99.9999999999999,0|0,0:0|0:0,0:0:0:0:
388,292,217058,2,0,P|340:303|291:290,1,99.9999999999999,8|0,0:0|0:0,0:0:0:0:
232,144,217724,2,0,L|220:88,1,50,2|0,0:0|0:0,0:0:0:0:
268,32,218057,1,0,0:0:0:0:
268,32,218224,1,0,0:0:0:0:
138,26,218391,2,0,P|163:23|188:24,1,50,8|0,0:0|0:0,0:0:0:0:
300,104,218723,1,0,0:0:0:0:
164,188,219058,6,0,L|52:180,2,100,0|0|8,0:0|0:0|0:0,0:0:0:0:
244,172,219891,1,0,0:0:0:0:
220,248,220058,2,0,P|211:278|208:304,1,50,0|0,0:0|0:0,0:0:0:0:
288,288,220391,2,0,P|336:276|388:296,1,100,2|0,0:0|0:0,0:0:0:0:
476,160,221058,2,0,P|471:132|464:112,1,50,8|0,0:0|0:0,0:0:0:0:
412,52,221391,1,0,0:0:0:0:
412,52,221558,1,0,0:0:0:0:
292,119,221724,6,0,P|339:136|388:128,1,100,0|0,0:0|0:0,0:0:0:0:
248,52,222391,1,8,0:0:0:0:
248,52,222558,2,0,P|200:36|152:51,1,99.9999999999999,0|0,0:0|0:0,0:0:0:0:
92,100,223058,1,2,0:0:0:0:
92,100,223391,2,0,L|42:93,1,50,0|0,0:0|0:0,0:0:0:0:
168,128,223724,2,0,P|156:180|156:240,1,100,8|0,0:0|0:0,0:0:0:0:
248,356,224391,6,0,P|300:368|372:368,1,100,4|0,0:0|0:0,0:0:0:0:
432,236,225058,1,8,0:0:0:0:
479,171,225224,1,0,0:0:0:0:
432,106,225391,1,0,0:0:0:0:
355,131,225558,1,0,0:0:0:0:
355,211,225724,2,0,L|284:208,1,50,2|0,0:0|0:0,0:0:0:0:
264,276,226058,2,0,L|201:273,1,50,0|0,0:0|0:0,0:0:0:0:
152,224,226391,2,0,P|157:202|161:174,1,50,8|0,0:0|0:0,0:0:0:0:
104,120,226724,2,0,P|100:85|92:56,1,50,0|0,0:0|0:0,0:0:0:0:
40,16,227058,6,0,P|89:22|136:0,1,100,0|0,0:0|0:0,0:0:0:0:
196,52,227558,1,0,0:0:0:0:
196,52,227724,2,0,P|248:44|304:72,1,100,8|0,0:0|0:0,0:0:0:0:
332,132,228224,1,0,0:0:0:0:
388,72,228391,2,0,L|380:20,2,50,2|0|0,0:0|0:0|0:0,0:0:0:0:
312,212,229058,2,0,L|308:261,1,50,8|0,0:0|0:0,0:0:0:0:
424,320,229391,1,0,0:0:0:0:
388,248,229558,1,0,0:0:0:0:
296,340,229724,6,0,P|248:352|201:336,1,99.9999999999999,0|0,0:0|0:0,0:0:0:0:
164,264,230224,1,0,0:0:0:0:
164,264,230391,2,0,L|114:269,1,50,8|0,0:0|0:0,0:0:0:0:
220,208,230724,2,0,B|236:176|216:136|216:136|192:140,1,100,0|2,0:0|0:0,0:0:0:0:
112,140,231224,1,0,0:0:0:0:
64,204,231391,2,0,P|39:210|-16:200,1,50,0|0,0:0|0:0,0:0:0:0:
32,132,231724,5,8,0:0:0:0:
112,140,231890,1,0,0:0:0:0:
152,72,232058,1,0,0:0:0:0:
152,212,232224,1,0,0:0:0:0:
32,132,232391,5,4,0:0:0:0:
32,132,235058,6,0,P|80:152|136:136,1,100,4|0,0:0|0:0,0:0:0:0:
188,92,235558,1,0,0:0:0:0:
188,92,235724,2,0,P|217:85|256:84,1,50,8|0,0:0|0:0,0:0:0:0:
337,150,236058,2,0,P|312:148|288:143,1,50,0|2,0:0|0:0,0:0:0:0:
396,96,236391,2,0,P|416:144|404:192,1,100,0|2,0:0|0:0,0:0:0:0:
264,268,237058,2,0,L|276:332,1,50,8|0,0:0|0:0,0:0:0:0:
340,360,237391,2,0,P|344:336|351:312,1,50,0|2,0:0|0:0,0:0:0:0:
416,268,237724,6,0,P|460:248|520:264,2,99.9999999999999,2|0|8,0:0|0:0|0:0,0:0:0:0:
404,372,238558,1,0,0:0:0:0:
468,328,238724,1,0,0:0:0:0:
351,311,238891,1,2,0:0:0:0:
308,244,239058,2,0,L|244:244,2,50,2|2|2,0:0|0:0|0:0,0:0:0:0:
452,176,239724,1,8,0:0:0:0:
452,176,240058,2,0,L|428:120,1,50,0|0,0:0|0:0,0:0:0:0:
368,80,240391,6,0,B|320:96|320:96|260:92,2,100,2|0|8,0:0|0:0|0:0,0:0:0:0:
444,52,241224,1,0,0:0:0:0:
432,130,241391,1,0,0:0:0:0:
432,130,241558,1,2,0:0:0:0:
380,4,241724,1,2,0:0:0:0:
220,32,242058,2,0,L|148:28,1,50,2|0,0:0|0:0,0:0:0:0:
140,104,242391,2,0,L|68:100,1,50,8|0,0:0|0:0,0:0:0:0:
64,176,242724,2,0,L|14:173,1,50,0|2,0:0|0:0,0:0:0:0:
144,184,243058,6,0,P|176:228|164:292,2,100,2|0|8,0:0|0:0|0:0,0:0:0:0:
100,248,243891,2,0,P|100:296|140:340,1,100,0|2,0:0|0:0,0:0:0:0:
212,344,244391,2,0,B|248:340|284:352|284:352|292:336|304:328,1,100,2|2,0:0|0:0,0:0:0:0:
380,320,244891,1,0,0:0:0:0:
380,320,245058,2,0,L|372:264,1,50,8|2,0:0|0:0,0:0:0:0:
312,220,245391,2,0,L|316:168,1,50,0|2,0:0|0:0,0:0:0:0:
424,56,245724,6,0,B|504:60|504:60|488:80,1,99.9999999999999,4|0,0:0|0:0,0:0:0:0:
380,124,246224,1,0,0:0:0:0:
308,92,246391,2,0,B|228:88|228:88|244:68,1,99.9999999999999,8|0,0:0|0:0,0:0:0:0:
104,156,247057,2,0,P|82:113|89:64,1,99.9999999999999,0|0,0:0|0:0,0:0:0:0:
160,100,247557,1,0,0:0:0:0:
160,100,247724,2,0,P|176:123|184:144,1,50,8|0,0:0|0:0,0:0:0:0:
156,220,248057,2,0,P|149:249|148:280,1,50,0|0,0:0|0:0,0:0:0:0:
228,260,248391,6,0,P|280:244|336:264,2,100,0|0|8,0:0|0:0|0:0,0:0:0:0:
196,332,249224,1,0,0:0:0:0:
147,269,249391,1,0,0:0:0:0:
280,324,249557,1,0,0:0:0:0:
322,255,249724,2,0,L|326:143,1,99.9999999999999,2|0,0:0|0:0,0:0:0:0:
428,32,250391,2,0,L|431:131,1,99.9999999999999,8|0,0:0|0:0,0:0:0:0:
308,236,251058,6,0,P|283:239|258:239,1,50,0|0,0:0|0:0,0:0:0:0:
212,176,251391,2,0,P|208:151|208:126,1,50,0|0,0:0|0:0,0:0:0:0:
176,297,251724,2,0,P|179:272|179:248,1,50,8|0,0:0|0:0,0:0:0:0:
132,184,252058,5,0,0:0:0:0:
132,184,252224,1,0,0:0:0:0:
48,52,252391,2,0,P|94:36|141:50,1,100,2|0,0:0|0:0,0:0:0:0:
96,112,252891,1,0,0:0:0:0:
52,180,253058,2,0,L|-8:188,1,50,2|0,0:0|0:0,0:0:0:0:
88,252,253391,1,0,0:0:0:0:
88,252,253558,1,2,0:0:0:0:
212,188,253724,5,4,0:0:0:0:
256,192,253891,12,0,259058,0:0:0:0:
