osu file format v14

[General]
AudioFilename: audio.mp3
AudioLeadIn: 0
PreviewTime: 64325
Countdown: 0
SampleSet: Soft
StackLeniency: 0.7
Mode: 0
LetterboxInBreaks: 0
WidescreenStoryboard: 0

[Editor]
Bookmarks: 21825,32492
DistanceSpacing: 1
BeatDivisor: 8
GridSize: 16
TimelineZoom: 0.9999998

[Metadata]
Title:Pipo Password
TitleUnicode:Pipo Password
Artist:TeddyLoid feat. Bonjour Suzuki
ArtistUnicode:TeddyLoid feat. ボンジュール鈴木
Creator:Ayaice
Version:M a r v o l l o's Tears
Source:宇宙パトロールルル子
Tags:ending ed tv size
BeatmapID:1510717
BeatmapSetID:708876

[Difficulty]
HPDrainRate:6
CircleSize:4
OverallDifficulty:7.5
ApproachRate:9.3
SliderMultiplier:2.2
SliderTickRate:1

[Events]
//Background and Video events
0,0,"background.png",0,0
Video,160,"video.avi"
//Break Periods
2,22025,31938
//Storyboard Layer 0 (Background)
//Storyboard Layer 1 (Fail)
//Storyboard Layer 2 (Pass)
//Storyboard Layer 3 (Foreground)
//Storyboard Sound Samples

[TimingPoints]
8492,666.666666666667,4,2,2,100,1,0
8492,-100,4,2,2,20,0,0
9658,-100,4,2,2,50,0,0
11158,-100,4,2,2,70,0,0
21825,-100,4,2,2,50,0,0
32492,-100,4,2,2,50,0,0
42492,-600,4,2,2,70,0,0
43158,-100,4,2,2,70,0,0
61825,-1200,4,2,2,20,0,0
62992,-100,4,2,2,50,0,0
64492,-80,4,2,2,70,0,1
74492,-600,4,2,2,70,0,1
74992,-100,4,2,2,70,0,0
75158,-80,4,2,2,70,0,1
83158,-133.333333333334,4,2,2,50,0,0
87492,-100,4,2,2,5,0,0

[Colours]
Combo1 : 255,0,0
Combo2 : 128,128,128
Combo3 : 192,192,192

[HitObjects]
356,276,9658,6,0,P|352:238|339:191,1,55,2|0,0:0|0:0,0:0:0:0:
256,104,9992,1,4,0:0:0:0:
268,256,10158,1,2,0:0:0:0:
372,120,10325,2,0,P|368:96|364:80,1,27.5,0|0,0:0|0:0,0:0:0:0:
376,68,10492,5,4,0:0:0:0:
136,108,10658,1,2,0:0:0:0:
376,68,10825,1,0,0:0:0:0:
136,108,10991,1,4,0:0:0:0:
368,232,11158,22,0,P|392:220|424:192,1,55,12|0,0:0|0:0,0:0:0:0:
480,96,11492,1,0,0:0:0:0:
512,184,11658,1,0,0:0:0:0:
368,232,11825,2,0,P|344:224|312:216,1,55,2|2,0:0|0:0,0:0:0:0:
440,296,12158,1,2,0:0:0:0:
404,168,12325,1,2,0:0:0:0:
312,312,12492,6,0,P|312:341|320:372,1,55,2|4,0:0|0:0,0:0:0:0:
372,236,12825,1,2,0:0:0:0:
224,268,12992,1,2,0:0:0:0:
372,236,13158,1,2,0:0:0:0:
224,268,13325,1,0,0:0:0:0:
396,340,13492,1,2,0:0:0:0:
188,376,13658,1,0,0:0:0:0:
284,176,13825,22,0,P|283:149|276:116,1,55,12|0,0:0|0:0,0:0:0:0:
132,52,14158,2,0,P|126:78|125:106,1,55,0|0,0:0|0:0,0:0:0:0:
224,268,14492,1,2,0:0:0:0:
208,136,14658,1,2,0:0:0:0:
144,320,14825,1,2,0:0:0:0:
284,176,14992,1,0,0:0:0:0:
64,284,15158,5,2,0:0:0:0:
304,256,15325,1,0,0:0:0:0:
64,284,15492,1,2,0:0:0:0:
304,256,15659,1,4,0:0:0:0:
125,106,15825,2,0,P|125:78|132:52,1,55,2|0,0:0|0:0,0:0:0:0:
297,201,16158,2,0,P|303:227|303:255,1,55,2|2,0:0|0:0,0:0:0:0:
244,152,16492,22,0,P|286:154|364:156,1,110,8|0,0:0|0:0,0:0:0:0:
464,204,16992,1,0,0:0:0:0:
332,296,17158,2,0,P|304:288|280:272,1,55,2|2,0:0|0:0,0:0:0:0:
184,200,17492,1,2,0:0:0:0:
232,344,17658,1,0,0:0:0:0:
361,210,17825,6,0,P|356:182|353:154,1,55,0|4,0:0|0:0,0:0:0:0:
208,48,18158,1,2,0:0:0:0:
353,155,18325,1,0,0:0:0:0:
208,48,18492,1,0,0:0:0:0:
353,155,18659,1,0,0:0:0:0:
180,120,18825,1,0,0:0:0:0:
416,80,18992,1,0,0:0:0:0:
268,288,19158,22,0,P|264:320|268:352,1,55,12|0,0:0|0:0,0:0:0:0:
376,216,19492,2,0,P|370:189|359:163,1,55,0|4,0:0|0:0,0:0:0:0:
204,108,19825,1,2,0:0:0:0:
264,220,19992,1,4,0:0:0:0:
268,52,20158,1,2,0:0:0:0:
188,196,20325,1,0,0:0:0:0:
344,112,20492,5,2,0:0:0:0:
112,144,20658,1,4,0:0:0:0:
344,112,20825,1,2,0:0:0:0:
112,144,20991,1,0,0:0:0:0:
304,296,21158,2,0,P|296:256|292:240,1,55,2|4,0:0|0:0,0:0:0:0:
205,53,21492,2,0,P|203:80|203:107,1,55,2|4,0:0|0:0,0:0:0:0:
116,328,21825,21,12,0:0:0:0:
262,352,32492,6,0,P|257:295|250:240,1,110,12|2,0:0|0:0,0:0:0:0:
303,154,32992,1,4,0:0:0:0:
378,260,33158,2,0,P|334:254|258:254,1,110,2|2,0:0|0:0,0:0:0:0:
130,346,33658,1,4,0:0:0:0:
169,134,33825,22,0,P|172:192|175:249,2,110,2|2|2,0:0|0:0|0:0,0:0:0:0:
100,269,34658,2,0,P|145:259|160:257,1,55,0|0,0:0|0:0,0:0:0:0:
291,337,34992,1,2,0:0:0:0:
375,190,35158,6,0,P|359:137|346:77,1,110,12|0,0:0|0:0,0:0:0:0:
316,239,35658,1,0,0:0:0:0:
444,141,35825,2,0,P|428:88|415:28,1,110,2|2,0:0|0:0,0:0:0:0:
316,239,36325,1,0,0:0:0:0:
444,141,36492,21,2,0:0:0:0:
255,193,36658,1,4,0:0:0:0:
482,294,36825,2,0,P|477:257|472:232,1,55,2|0,0:0|0:0,0:0:0:0:
263,138,37158,2,0,P|258:165|254:192,1,55,2|0,0:0|0:0,0:0:0:0:
361,344,37492,2,0,P|361:310|353:283,1,55,2|4,0:0|0:0,0:0:0:0:
247,122,37825,6,0,P|192:123|135:113,1,110,12|0,0:0|0:0,0:0:0:0:
54,78,38325,1,0,0:0:0:0:
92,200,38492,2,0,P|98:267|102:317,1,110,2|2,0:0|0:0,0:0:0:0:
175,202,38992,1,0,0:0:0:0:
306,349,39158,22,0,P|332:348|360:344,1,55,2|4,0:0|0:0,0:0:0:0:
383,208,39492,2,0,P|357:207|329:203,1,55,2|0,0:0|0:0,0:0:0:0:
474,361,39825,2,0,P|466:302|460:249,1,110,2|2,0:0|0:0,0:0:0:0:
481,137,40325,1,0,0:0:0:0:
317,278,40492,6,0,B|201:322|221:234|101:278,2,220,8|0|2,0:0|0:0|0:0,0:0:0:0:
409,187,41992,1,0,0:0:0:0:
253,141,42158,2,0,P|252:170|258:198,1,55,0|4,0:0|0:0,0:0:0:0:
373,69,42492,6,0,L|345:66,1,27.5,4|4,0:0|0:0,0:0:0:0:
124,248,43158,6,0,P|181:260|258:187,1,165,12|4,0:0|0:0,0:0:0:0:
161,112,43825,2,0,P|164:140|167:175,1,55,2|0,0:0|0:0,0:0:0:0:
240,327,44158,1,2,0:0:0:0:
293,116,44325,1,0,0:0:0:0:
166,166,44492,6,0,P|136:166|106:160,1,55,2|4,0:0|0:0,0:0:0:0:
240,327,44825,2,0,P|267:322|294:322,1,55,2|0,0:0|0:0,0:0:0:0:
99,260,45158,2,0,P|153:255|214:249,1,110,0|2,0:0|0:0,0:0:0:0:
340,191,45658,1,4,0:0:0:0:
150,112,45825,22,0,P|92:110|32:105,1,110,2|2,0:0|0:0,0:0:0:0:
102,35,46325,1,0,0:0:0:0:
220,141,46492,2,0,P|217:168|208:260,1,110,2|2,0:0|0:0,0:0:0:0:
336,348,46992,1,0,0:0:0:0:
319,252,47158,5,0,0:0:0:0:
112,319,47325,1,6,0:0:0:0:
360,360,47492,2,0,P|390:358|424:353,1,55,2|0,0:0|0:0,0:0:0:0:
319,252,47825,2,0,P|260:251|198:251,1,110,2|12,0:0|0:0,0:0:0:0:
279,333,48325,1,0,0:0:0:0:
368,175,48492,22,0,P|357:121|347:64,1,110,12|0,0:0|0:0,0:0:0:0:
289,186,48992,1,0,0:0:0:0:
431,276,49158,2,0,L|497:266,1,55,2|0,0:0|0:0,0:0:0:0:
300,346,49492,1,2,0:0:0:0:
368,175,49658,1,0,0:0:0:0:
390,359,49825,6,0,L|326:349,1,55,2|4,0:0|0:0,0:0:0:0:
234,194,50158,2,0,L|298:184,1,55,2|0,0:0|0:0,0:0:0:0:
183,350,50492,2,0,P|145:358|72:335,1,110,4|2,0:0|0:0,0:0:0:0:
3,231,50992,1,0,0:0:0:0:
127,105,51158,22,0,P|132:161|137:220,1,110,4|2,0:0|0:0,0:0:0:0:
77,339,51658,1,0,0:0:0:0:
6,203,51825,2,0,P|10:148|15:93,1,110,2|2,0:0|0:0,0:0:0:0:
73,263,52325,1,0,0:0:0:0:
7,375,52492,5,2,0:0:0:0:
200,344,52658,1,0,0:0:0:0:
73,263,52825,2,0,P|73:300|77:323,1,55,0|0,0:0|0:0,0:0:0:0:
192,191,53158,2,0,P|189:133|173:77,1,110,2|2,0:0|0:0,0:0:0:0:
77,42,53658,1,0,0:0:0:0:
83,231,53825,22,0,P|132:219|193:213,1,110,12|2,0:0|0:0,0:0:0:0:
315,276,54325,1,4,0:0:0:0:
179,356,54492,2,0,P|178:331|182:301,1,55,2|0,0:0|0:0,0:0:0:0:
80,176,54825,2,0,P|83:203|82:230,1,55,2|0,0:0|0:0,0:0:0:0:
145,93,55158,5,0,0:0:0:0:
0,177,55325,1,0,0:0:0:0:
234,228,55492,2,0,P|265:221|294:215,1,55,0|0,0:0|0:0,0:0:0:0:
94,309,55825,2,0,P|63:302|34:296,1,55,0|0,0:0|0:0,0:0:0:0:
193,365,56158,1,0,0:0:0:0:
150,241,56325,1,0,0:0:0:0:
329,334,56492,22,0,P|277:333|212:347,1,110,8|0,0:0|0:0,0:0:0:0:
341,262,56992,1,0,0:0:0:0:
239,136,57158,2,0,P|239:172|241:197,1,55,2|0,0:0|0:0,0:0:0:0:
193,365,57492,2,0,P|194:337|194:310,1,55,2|0,0:0|0:0,0:0:0:0:
123,186,57825,5,2,0:0:0:0:
327,248,57992,1,0,0:0:0:0:
88,295,58158,2,0,P|59:289|35:284,1,55,2|0,0:0|0:0,0:0:0:0:
273,259,58492,2,0,P|299:253|326:247,1,55,2|0,0:0|0:0,0:0:0:0:
193,365,58825,1,2,0:0:0:0:
230,171,58992,1,0,0:0:0:0:
53,353,59158,22,0,P|76:349|107:343,1,55,12|0,0:0|0:0,0:0:0:0:
230,171,59492,2,0,P|207:167|176:161,1,55,2|0,0:0|0:0,0:0:0:0:
56,261,59825,2,0,P|50:234|45:206,1,55,2|0,0:0|0:0,0:0:0:0:
227,341,60159,2,0,P|231:313|237:286,1,55,2|0,0:0|0:0,0:0:0:0:
352,101,60492,5,2,0:0:0:0:
98,145,60658,1,2,0:0:0:0:
352,101,60825,1,2,0:0:0:0:
98,145,60991,1,2,0:0:0:0:
418,190,61158,1,2,0:0:0:0:
272,54,61325,1,2,0:0:0:0:
339,255,61492,1,2,0:0:0:0:
352,101,61658,1,12,0:0:0:0:
142,266,61825,6,0,L|146:298,1,33,0|0,0:0|0:0,0:0:0:0:
169,322,62992,6,0,P|186:322|226:317,1,55,2|0,0:0|0:0,0:0:0:0:
393,141,63325,1,4,0:0:0:0:
223,317,63492,2,0,P|216:289|218:257,1,55,2|0,0:0|0:0,0:0:0:0:
230,238,63742,1,0,0:0:0:0:
230,238,63825,1,4,0:0:0:0:
60,359,63992,1,2,0:0:0:0:
317,285,64158,1,0,0:0:0:0:
17,225,64325,1,4,0:0:0:0:
380,55,64492,6,0,P|377:92|364:140,1,68.75,12|2,0:0|0:0,0:0:0:0:
230,238,64825,2,0,P|222:204|219:170,1,68.75,2|2,0:0|0:0,0:0:0:0:
302,329,65158,2,0,P|235:317|154:303,1,137.5,2|2,0:0|0:0,0:0:0:0:
342,255,65658,1,2,0:0:0:0:
162,113,65825,22,0,P|160:78|159:43,1,68.75,2|0,0:0|0:0,0:0:0:0:
49,187,66158,2,0,P|47:221|46:255,1,68.75,2|2,0:0|0:0,0:0:0:0:
172,124,66492,2,0,P|170:89|169:54,1,68.75,2|2,0:0|0:0,0:0:0:0:
64,201,66825,1,2,0:0:0:0:
267,151,66992,1,2,0:0:0:0:
140,344,67158,6,0,P|138:311|127:266,1,68.75,12|0,0:0|0:0,0:0:0:0:
276,83,67492,2,0,P|268:116|266:150,1,68.75,0|4,0:0|0:0,0:0:0:0:
413,326,67825,2,0,P|407:252|400:158,1,137.5,2|2,0:0|0:0,0:0:0:0:
467,55,68325,1,0,0:0:0:0:
266,150,68492,21,2,0:0:0:0:
467,55,68658,1,0,0:0:0:0:
266,150,68825,2,0,P|226:147|191:130,1,68.75,2|0,0:0|0:0,0:0:0:0:
37,262,69158,2,0,P|68:249|103:247,1,68.75,2|0,0:0|0:0,0:0:0:0:
265,348,69492,2,0,P|259:304|255:268,1,68.75,2|4,0:0|0:0,0:0:0:0:
119,44,69825,6,0,P|118:81|114:128,1,68.75,12|0,0:0|0:0,0:0:0:0:
37,262,70158,2,0,P|34:227|33:193,1,68.75,0|4,0:0|0:0,0:0:0:0:
190,109,70492,2,0,P|224:106|258:105,1,68.75,2|0,0:0|0:0,0:0:0:0:
391,187,70825,1,2,0:0:0:0:
271,29,70992,1,0,0:0:0:0:
226,220,71158,22,0,P|227:253|235:297,1,68.75,2|0,0:0|0:0,0:0:0:0:
391,187,71492,2,0,P|396:153|397:118,1,68.75,0|4,0:0|0:0,0:0:0:0:
320,304,71825,2,0,L|388:310,1,68.75,2|0,0:0|0:0,0:0:0:0:
250,234,72158,1,2,0:0:0:0:
313,383,72325,1,2,0:0:0:0:
381,234,72492,6,0,P|374:195|356:160,1,68.75,12|4,0:0|0:0,0:0:0:0:
187,119,72825,2,0,P|173:150|167:184,1,68.75,2|4,0:0|0:0,0:0:0:0:
272,76,73158,2,0,P|201:66|125:57,1,137.5,2|0,0:0|0:0,0:0:0:0:
325,19,73658,1,0,0:0:0:0:
219,183,73825,21,0,0:0:0:0:
325,19,73992,1,0,0:0:0:0:
363,265,74158,2,0,P|316:265|282:251,1,68.75,2|0,0:0|0:0,0:0:0:0:
166,356,74492,22,0,L|194:353,1,27.5,8|0,0:0|0:0,0:0:0:0:
422,218,75158,6,0,P|425:166|419:127,1,68.75,12|0,0:0|0:0,0:0:0:0:
259,43,75492,2,0,P|259:77|266:111,1,68.75,2|4,0:0|0:0,0:0:0:0:
125,261,75825,2,0,P|130:201|132:103,1,137.5,2|2,0:0|0:0,0:0:0:0:
37,32,76325,1,0,0:0:0:0:
10,211,76492,6,0,P|19:270|30:299,1,68.75,2|0,0:0|0:0,0:0:0:0:
227,345,76825,2,0,P|235:311|238:277,1,68.75,2|0,0:0|0:0,0:0:0:0:
132,123,77158,2,0,P|130:192|125:261,1,137.5,2|2,0:0|0:0,0:0:0:0:
50,128,77658,1,4,0:0:0:0:
213,59,77825,22,0,P|262:56|303:62,1,68.75,12|0,0:0|0:0,0:0:0:0:
374,195,78158,2,0,P|339:194|305:187,1,68.75,2|0,0:0|0:0,0:0:0:0:
468,68,78492,2,0,P|475:140|486:232,1,137.5,2|2,0:0|0:0,0:0:0:0:
387,318,78992,1,4,0:0:0:0:
317,208,79158,5,2,0:0:0:0:
503,338,79325,1,0,0:0:0:0:
245,361,79492,2,0,P|208:359|151:343,1,68.75,2|0,0:0|0:0,0:0:0:0:
17,290,79825,2,0,P|50:283|84:281,1,68.75,2|0,0:0|0:0,0:0:0:0:
239,229,80158,1,2,0:0:0:0:
121,154,80325,1,0,0:0:0:0:
177,352,80492,22,0,P|180:302|177:270,1,68.75,12|0,0:0|0:0,0:0:0:0:
296,156,80825,2,0,P|337:183|367:196,1,68.75,0|4,0:0|0:0,0:0:0:0:
412,352,81158,2,0,P|367:374|340:393,1,68.75,2|0,0:0|0:0,0:0:0:0:
379,274,81492,1,2,0:0:0:0:
510,381,81658,1,0,0:0:0:0:
364,267,81825,6,0,P|355:221|353:185,1,68.75,2|0,0:0|0:0,0:0:0:0:
195,47,82158,2,0,P|191:81|184:114,1,68.75,2|4,0:0|0:0,0:0:0:0:
35,263,82492,1,2,0:0:0:0:
9,153,82658,1,0,0:0:0:0:
121,265,82825,1,2,0:0:0:0:
343,173,82992,1,0,0:0:0:0:
89,130,83158,6,0,B|127:211|212:202|259:122|259:122|316:39|421:46|501:146|455:245|394:291|302:263,1,660.000025177003,12|0,0:0|0:0,0:0:0:0:
