osu file format v14

[General]
AudioFilename: audio.mp3
AudioLeadIn: 0
PreviewTime: 64325
Countdown: 1
SampleSet: Soft
StackLeniency: 0.7
Mode: 0
LetterboxInBreaks: 0
WidescreenStoryboard: 0

[Editor]
DistanceSpacing: 2
BeatDivisor: 4
GridSize: 4
TimelineZoom: 1

[Metadata]
Title:Pipo Password
TitleUnicode:Pipo Password
Artist:TeddyLoid feat. Bonjour Suzuki
ArtistUnicode:TeddyLoid feat. ボンジュール鈴木
Creator:Ayaice
Version:Hard
Source:宇宙パトロールルル子
Tags:ending ed tv size
BeatmapID:1498678
BeatmapSetID:708876

[Difficulty]
HPDrainRate:4.5
CircleSize:4
OverallDifficulty:5
ApproachRate:8
SliderMultiplier:1.4
SliderTickRate:1

[Events]
//Background and Video events
0,0,"background.png",0,0
Video,160,"video.avi"
//Break Periods
//Storyboard Layer 0 (Background)
//Storyboard Layer 1 (Fail)
//Storyboard Layer 2 (Pass)
//Storyboard Layer 3 (Foreground)
//Storyboard Sound Samples

[TimingPoints]
8492,666.666666666667,4,2,2,100,1,0
8492,-100,4,2,2,20,0,0
9658,-100,4,2,2,50,0,0
11158,-100,4,2,2,70,0,0
21825,-100,4,2,2,50,0,0
32492,-100,4,2,2,50,0,0
42492,-100,4,2,2,70,0,0
61825,-100,4,2,2,20,0,0
62992,-100,4,2,2,50,0,0
64492,-80,4,2,2,70,0,1
74992,-100,4,2,2,70,0,0
75158,-80,4,2,2,70,0,1
83158,-100,4,2,2,50,0,0
87492,-100,4,2,2,5,0,0

[Colours]
Combo1 : 192,192,192
Combo2 : 128,128,128

[HitObjects]
72,40,9658,6,0,P|64:80|72:112,1,70,4|2,0:0|0:0,0:0:0:0:
128,148,10158,2,0,P|136:184|128:220,1,70,4|2,0:0|0:0,0:0:0:0:
68,252,10658,2,0,P|60:292|68:324,1,70,4|2,0:0|0:0,0:0:0:0:
132,348,11158,6,0,L|252:344,1,105,8|4,0:0|0:0,0:0:0:0:
304,324,11825,1,2,0:0:0:0:
440,360,12158,1,4,0:0:0:0:
512,240,12492,2,0,P|516:192|508:148,1,70,2|2,0:0|0:0,0:0:0:0:
440,52,13158,1,2,0:0:0:0:
300,76,13492,1,4,0:0:0:0:
164,36,13825,6,0,P|80:56|60:88,1,105,8|4,0:0|0:0,0:0:0:0:
32,124,14492,1,2,0:0:0:0:
48,264,14825,1,0,0:0:0:0:
164,340,15158,2,0,L|248:336,1,70
352,260,15825,1,0,0:0:0:0:
352,260,16158,1,0,0:0:0:0:
472,332,16492,6,0,P|488:272|472:200,1,105
452,164,17158,1,4,0:0:0:0:
344,76,17492,1,4,0:0:0:0:
208,116,17825,2,0,L|120:112,1,70,2|2,0:0|0:0,0:0:0:0:
36,208,18492,1,2,0:0:0:0:
128,316,18825,1,4,0:0:0:0:
216,208,19158,6,0,B|228:164|212:128|212:128|200:100|208:56,1,140,8|2,0:0|0:0,0:0:0:0:
332,12,20158,2,0,B|400:-12|400:-12|484:24,1,140,2|2,0:0|0:0,0:0:0:0:
480,152,21158,1,2,0:0:0:0:
480,152,21325,1,4,0:0:0:0:
480,152,21492,2,0,L|488:196,1,35,2|4,0:0|0:0,0:0:0:0:
476,256,21825,6,0,P|416:264|336:252,1,140
208,200,22825,1,4,0:0:0:0:
144,324,23158,1,2,0:0:0:0:
276,376,23492,1,4,0:0:0:0:
340,252,23825,2,0,L|380:160,1,70,2|2,0:0|0:0,0:0:0:0:
396,124,24325,1,4,0:0:0:0:
400,52,24492,6,0,P|344:24|264:36,1,140,8|2,0:0|0:0,0:0:0:0:
184,144,25492,1,4,0:0:0:0:
76,56,25825,1,2,0:0:0:0:
56,196,26158,1,4,0:0:0:0:
152,296,26492,2,0,L|236:292,1,70,2|2,0:0|0:0,0:0:0:0:
352,344,27158,6,0,B|392:308|392:308|380:216,1,140,8|2,0:0|0:0,0:0:0:0:
428,92,28158,1,4,0:0:0:0:
312,16,28492,2,0,P|272:12|212:28,1,70,2|2,0:0|0:0,0:0:0:0:
122,147,29158,2,0,P|157:152|192:148,1,70,2|2,0:0|0:0,0:0:0:0:
28,44,29825,6,0,B|12:104|40:152|40:152|72:192|56:256,1,210,8|2,0:0|0:0,0:0:0:0:
16,328,31158,2,0,P|48:344|104:324,1,70
225,236,31825,2,0,P|194:220|160:224,1,70
316,344,32492,5,8,0:0:0:0:
388,224,32825,1,4,0:0:0:0:
504,304,33158,2,0,P|524:224|508:160,1,140,2|2,0:0|0:0,0:0:0:0:
396,92,34158,1,4,0:0:0:0:
464,20,34492,1,2,0:0:0:0:
488,156,34825,1,4,0:0:0:0:
348,164,35158,6,0,L|196:160,1,140,8|2,0:0|0:0,0:0:0:0:
80,220,36158,2,0,B|64:284|64:284|92:356,1,140,4|4,0:0|0:0,0:0:0:0:
224,308,37158,2,0,L|304:316,1,70,2|2,0:0|0:0,0:0:0:0:
432,344,37825,5,8,0:0:0:0:
432,344,38158,1,4,0:0:0:0:
480,212,38492,2,0,P|424:200|388:200,1,70,2|2,0:0|0:0,0:0:0:0:
304,108,39158,2,0,P|360:96|412:84,1,105,2|4,0:0|0:0,0:0:0:0:
472,60,39825,2,0,P|440:28|412:16,1,70,2|2,0:0|0:0,0:0:0:0:
417,17,40325,1,4,0:0:0:0:
417,17,40492,6,0,L|272:40,1,140,8|2,0:0|0:0,0:0:0:0:
188,148,41492,1,2,0:0:0:0:
252,272,41825,2,0,L|368:268,1,105,2|4,0:0|0:0,0:0:0:0:
428,284,42492,6,0,P|440:332|436:372,1,70,8|2,0:0|0:0,0:0:0:0:
300,328,43158,6,0,L|172:320,1,105,8|4,0:0|0:0,0:0:0:0:
124,316,43825,2,0,P|108:264|120:212,1,105,2|4,0:0|0:0,0:0:0:0:
148,152,44492,1,2,0:0:0:0:
148,152,44825,1,4,0:0:0:0:
256,60,45158,1,2,0:0:0:0:
392,96,45492,1,4,0:0:0:0:
476,208,45825,6,0,P|424:232|384:228,1,70,8|4,0:0|0:0,0:0:0:0:
300,148,46492,2,0,L|280:316,1,140,8|2,0:0|0:0,0:0:0:0:
160,356,47492,1,4,0:0:0:0:
36,288,47825,2,0,P|28:240|36:184,1,105,2|4,0:0|0:0,0:0:0:0:
56,116,48492,6,0,L|140:124,1,70,8|2,0:0|0:0,0:0:0:0:
260,160,49158,1,2,0:0:0:0:
216,28,49492,1,4,0:0:0:0:
132,140,49825,2,0,L|136:292,1,140,2|2,0:0|0:0,0:0:0:0:
252,356,50825,1,0,0:0:0:0:
380,304,51158,6,0,P|436:312|492:280,1,105,8|4,0:0|0:0,0:0:0:0:
500,268,51825,2,0,L|488:48,1,210,2|2,0:0|0:0,0:0:0:0:
392,12,53158,1,2,0:0:0:0:
260,56,53492,1,4,0:0:0:0:
120,32,53825,6,0,P|116:84|112:128,1,70,8|2,0:0|0:0,0:0:0:0:
152,160,54325,1,4,0:0:0:0:
204,208,54492,2,0,P|248:204|296:200,1,70,2|2,0:0|0:0,0:0:0:0:
384,116,55158,5,2,0:0:0:0:
440,156,55325,2,0,L|448:268,1,105,4|6,0:0|0:0,0:0:0:0:
316,308,56158,2,0,L|304:268,1,35,2|4,0:0|0:0,0:0:0:0:
244,308,56492,6,0,P|184:320|136:312,1,105,8|4,0:0|0:0,0:0:0:0:
76,288,57158,2,0,L|68:200,1,70,2|2,0:0|0:0,0:0:0:0:
128,92,57825,1,2,0:0:0:0:
192,124,57992,2,0,L|312:120,1,105
428,164,58825,1,0,0:0:0:0:
484,292,59158,6,0,P|440:304|388:288,1,70,8|2,0:0|0:0,0:0:0:0:
232,233,59825,2,0,P|265:221|300:224,1,70,2|2,0:0|0:0,0:0:0:0:
104,288,60492,6,0,P|99:242|124:194,1,70,2|2,0:0|0:0,0:0:0:0:
204,49,61159,2,0,P|210:84|202:118,1,70,2|2,0:0|0:0,0:0:0:0:
68,72,61825,5,12,0:0:0:0:
88,68,62992,6,0,L|164:64,1,70,2|4,0:0|0:0,0:0:0:0:
216,104,63492,2,0,P|228:148|216:192,1,70,2|4,0:0|0:0,0:0:0:0:
192,232,63992,2,0,P|184:276|188:308,1,70,2|4,0:0|0:0,0:0:0:0:
236,348,64492,6,0,L|344:344,2,87.5,8|2|2,0:0|0:0|0:0,0:0:0:0:
136,248,65492,1,2,0:0:0:0:
220,136,65825,6,0,P|280:140|336:144,1,87.5,2|2,0:0|0:0,0:0:0:0:
449,243,66492,2,0,P|414:245|356:252,1,87.5,0|2,0:0|0:0,0:0:0:0:
240,252,67158,5,8,0:0:0:0:
192,120,67492,1,2,0:0:0:0:
300,28,67825,2,0,B|380:48|380:48|448:24|448:24|512:116|456:212,1,350,12|6,0:0|0:0,0:0:0:0:
384,368,69492,1,2,0:0:0:0:
280,228,69825,6,0,P|276:156|272:108,1,87.5,8|4,0:0|0:0,0:0:0:0:
152,88,70492,2,0,P|148:152|144:192,1,87.5,8|4,0:0|0:0,0:0:0:0:
52,324,71158,1,2,0:0:0:0:
132,284,71325,1,4,0:0:0:0:
288,364,71658,1,4,0:0:0:0:
368,332,71825,2,0,L|460:296,1,87.5,2|2,0:0|0:0,0:0:0:0:
476,128,72492,6,0,P|416:120|344:124,1,131.25,8|4,0:0|0:0,0:0:0:0:
268,164,73158,2,0,P|200:184|140:180,1,131.25,2|4,0:0|0:0,0:0:0:0:
60,144,73825,1,2,0:0:0:0:
60,144,74158,1,4,0:0:0:0:
200,36,74492,2,0,L|292:40,1,87.5,2|2,0:0|0:0,0:0:0:0:
436,132,75158,6,0,P|472:84|464:32,2,87.5,8|2|2,0:0|0:0|0:0,0:0:0:0:
280,208,76158,1,4,0:0:0:0:
396,336,76492,6,0,L|504:332,1,87.5,2|2,0:0|0:0,0:0:0:0:
432,164,77158,2,0,L|324:168,1,87.5,2|2,0:0|0:0,0:0:0:0:
192,256,77825,5,8,0:0:0:0:
148,88,78158,1,4,0:0:0:0:
296,184,78492,2,0,P|320:256|204:384,1,262.5,2|2,0:0|0:0,0:0:0:0:
72,276,79825,2,0,L|68:172,1,87.5
168,44,80492,5,8,0:0:0:0:
336,92,80825,1,4,0:0:0:0:
220,224,81158,1,2,0:0:0:0:
164,56,81492,2,0,B|196:68|224:64|224:64|244:56|272:52|272:52|296:48|352:68,1,175,2|2,0:0|0:0,0:0:0:0:
448,196,82492,2,0,L|437:109,1,87.5,2|2,0:0|0:0,0:0:0:0:
372,316,83158,1,12,0:0:0:0:
256,192,83325,12,0,87492,0:0:0:0:
