osu file format v14

[General]
AudioFilename: ME!ME!ME.mp3
AudioLeadIn: 0
PreviewTime: 58776
Countdown: 0
SampleSet: None
StackLeniency: 0.2
Mode: 0
LetterboxInBreaks: 0
EpilepsyWarning: 1
WidescreenStoryboard: 1

[Editor]
DistanceSpacing: 0.3
BeatDivisor: 4
GridSize: 4
TimelineZoom: 1.3

[Metadata]
Title:ME!ME!ME! feat. daoko
TitleUnicode:ME!ME!ME! feat. daoko
Artist:TeddyLoid
ArtistUnicode:TeddyLoid
Creator:Fatfan Kolek
Version:ME!
Source:
Tags:日本アニメ(ーター)見本市 Nihon Nippon Anime Animator Mihonichi AnimeStyle Hanjamon mingmichael LordRaika arviejhay
BeatmapID:591445
BeatmapSetID:236697

[Difficulty]
HPDrainRate:6.5
CircleSize:4
OverallDifficulty:8
ApproachRate:9
SliderMultiplier:2.2
SliderTickRate:1

[Events]
//Background and Video events
0,0,"teddyloid background osu.jpg",0,0
//Break Periods
2,131257,133124
2,168590,173562
//Storyboard Layer 0 (Background)
//Storyboard Layer 1 (Fail)
//Storyboard Layer 2 (Pass)
//Storyboard Layer 3 (Foreground)
//Storyboard Sound Samples

[TimingPoints]
5076,480,4,3,1,70,1,0
18516,-100,4,2,1,70,0,0
19596,-100,4,3,0,80,0,0
20436,-100,4,2,1,80,0,0
20556,-100,4,3,1,80,0,0
28116,-100,4,2,1,80,0,0
28236,-100,4,3,1,80,0,0
34836,-100,4,2,2,80,0,0
35796,-100,4,2,1,80,0,0
35916,-100,4,3,1,80,0,0
37716,-100,4,2,1,80,0,0
37836,-100,4,3,1,80,0,0
43476,-100,4,2,1,80,0,0
43596,-100,4,3,1,80,0,0
45396,-100,4,2,1,80,0,0
45516,-100,4,3,1,80,0,0
47316,-100,4,2,1,80,0,0
47436,-100,4,3,1,80,0,0
49236,-100,4,3,1,80,0,0
51156,-133.333333333333,4,3,1,80,0,0
51216,-133.333333333333,4,3,1,5,0,0
56676,-133.333333333333,4,3,1,45,0,0
56916,-100,4,3,88,80,0,0
57876,-80,4,3,89,80,0,0
58836,-86.9565217391304,4,3,2,80,0,1
66516,-57.1428571428571,4,3,2,80,0,1
66996,-86.9565217391304,4,3,2,80,0,1
72756,-100,4,3,2,80,0,1
73236,-117.647058823529,4,3,2,80,0,1
73716,-142.857142857143,4,3,2,80,0,1
74196,-80,4,3,2,80,0,1
75156,-80,4,3,89,80,0,1
76116,-80,4,3,2,80,0,1
77076,-80,4,3,88,80,0,1
78036,-80,4,3,2,80,0,1
78996,-80,4,3,89,80,0,1
79476,-80,4,3,88,80,0,1
79956,-80,4,3,2,80,0,1
80916,-80,4,3,89,90,0,1
81276,-80,4,3,68,20,0,1
81396,-80,4,3,89,90,0,1
81756,-80,4,3,68,20,0,1
81876,-80,4,3,2,80,0,1
82356,-80,4,3,89,80,0,1
83316,-57.1428571428571,4,3,69,80,0,1
83676,-57.1428571428571,4,3,69,20,0,1
83796,-80,4,3,2,80,0,1
84276,-80,4,3,88,80,0,1
85236,-57.1428571428571,4,3,69,80,0,1
85596,-57.1428571428571,4,3,69,20,0,1
85716,-80,4,3,2,80,0,1
86196,-80,4,3,89,80,0,1
87156,-57.1428571428571,4,3,69,80,0,1
87516,-57.1428571428571,4,3,69,20,0,1
87636,-80,4,3,2,80,0,1
88116,-80,4,3,88,80,0,1
89076,-50,4,3,89,90,0,1
89556,-100,4,2,0,60,0,0
89724,666.666666666667,6,2,0,80,1,0
93724,666.666666666667,4,2,3,80,1,0
93724,-83.3333333333333,4,2,3,80,0,0
115057,-74.0740740740741,4,2,3,80,0,0
125724,-133.333333333333,4,2,0,30,0,0
146390,-83.3333333333333,4,2,3,80,0,0
152390,-133.333333333333,4,2,3,50,0,0
152557,-133.333333333333,4,2,3,5,0,0
155057,-133.333333333333,4,2,3,50,0,0
155224,-133.333333333333,4,2,3,5,0,0
156390,-133.333333333333,4,2,3,50,0,0
157557,-83.3333333333333,4,2,3,80,0,0
174162,428.571428571429,4,2,0,70,1,0
175876,-133.333333333333,4,3,0,70,0,0
179304,-133.333333333333,4,3,0,85,0,0
182197,-133.333333333333,4,3,0,85,0,0
182733,-133.333333333333,4,3,0,90,0,0
187876,-133.333333333333,4,3,0,20,0,0
188733,-133.333333333333,4,3,0,80,0,0
189590,-100,4,3,8,80,0,0
189912,-66.6666666666667,4,3,4,80,0,0
190447,-83.3333333333333,4,3,4,80,0,0
190876,-50,4,3,66,80,0,0
191304,-50,4,2,5,60,0,0
191947,-83.3333333333333,4,2,5,60,0,0
192590,-66.6666666666667,4,2,5,60,0,0
193019,-100,4,3,8,80,0,0
193340,-66.6666666666667,4,3,4,80,0,0
193876,-80,4,3,4,80,0,0
194304,-50,4,3,68,80,0,0
194733,-50,4,2,4,60,0,0
195376,-80,4,2,4,60,0,0
196019,-66.6666666666667,4,2,4,60,0,0
196447,-100,4,3,8,80,0,0
196769,-66.6666666666667,4,3,4,80,0,0
197304,-80,4,3,4,80,0,0
197733,-50,4,3,66,80,0,0
198162,-50,4,2,5,60,0,0
198804,-80,4,2,5,60,0,0
199447,-66.6666666666667,4,2,5,60,0,0
199876,-100,4,3,8,80,0,0
200197,-66.6666666666667,4,3,4,80,0,0
200733,-80,4,3,4,80,0,0
201162,-66.6666666666667,4,3,78,80,0,0
201215,-66.6666666666667,4,3,4,5,0,0
201269,-66.6666666666667,4,3,78,80,0,0
201322,-66.6666666666667,4,3,4,5,0,0
201376,-66.6666666666667,4,3,78,80,0,0
201429,-66.6666666666667,4,3,4,5,0,0
201483,-66.6666666666667,4,3,78,80,0,0
201537,-66.6666666666667,4,3,4,5,0,0
201590,-80,4,2,4,60,0,0
202876,-66.6666666666667,4,2,4,60,0,0
203304,-100,4,3,8,60,0,0
203626,-66.6666666666667,4,3,4,80,0,0
204162,-80,4,3,4,80,0,0
204590,-50,4,3,66,80,0,0
205019,-50,4,2,5,60,0,0
205662,-80,4,2,5,60,0,0
206304,-62.5,4,2,5,60,0,0
206733,-100,4,3,8,60,0,0
207054,-57.1428571428571,4,3,4,80,0,0
207590,-66.6666666666667,4,3,4,80,0,0
208019,-50,4,3,68,80,0,0
208447,-50,4,2,4,60,0,0
209090,-80,4,2,4,60,0,0
209733,-66.6666666666667,4,2,4,80,0,0
210162,-100,4,3,8,80,0,0
210483,-66.6666666666667,4,3,4,80,0,0
211019,-80,4,3,4,80,0,0
211447,-50,4,3,66,80,0,0
211876,-50,4,2,5,60,0,0
212519,-80,4,2,5,60,0,0
213162,-66.6666666666667,4,2,5,60,0,0
213590,-100,4,3,8,80,0,0
213912,-66.6666666666667,4,3,4,80,0,0
214447,-80,4,3,4,80,0,0
214876,-50,4,3,68,80,0,0
215304,-100,4,2,4,60,0,0
216590,-66.6666666666667,4,2,4,60,0,0
217019,-100,4,3,8,80,0,0
217447,-66.6666666666667,4,3,4,80,0,0
217662,-80,4,3,4,80,0,0
218519,-50,4,3,4,80,0,0
219162,-50,4,3,66,80,0,0
219590,-66.6666666666667,4,3,4,80,0,0
220072,-66.6666666666667,4,3,4,5,0,0
220126,-66.6666666666667,4,3,4,80,0,0
220447,-100,4,3,8,80,0,0
220876,-57.1428571428571,4,3,4,80,0,0
221090,-66.6666666666667,4,3,4,80,0,0
221947,-80,4,3,4,80,0,0
222162,-100,4,3,4,80,0,0
222590,-50,4,3,68,80,0,0
223019,-66.6666666666667,4,3,4,80,0,0
223447,-66.6666666666667,4,3,78,80,0,0
223501,-66.6666666666667,4,3,4,5,0,0
223554,-66.6666666666667,4,3,78,80,0,0
223608,-66.6666666666667,4,3,4,5,0,0
223662,-66.6666666666667,4,3,78,80,0,0
223715,-66.6666666666667,4,3,4,5,0,0
223769,-66.6666666666667,4,3,78,80,0,0
223822,-66.6666666666667,4,3,4,5,0,0
223876,-100,4,3,8,80,0,0
224197,-66.6666666666667,4,3,4,80,0,0
224733,-80,4,3,4,80,0,0
225162,-50,4,3,66,80,0,0
225590,-50,4,2,5,60,0,0
226233,-80,4,2,5,60,0,0
226876,-66.6666666666667,4,2,5,60,0,0
227304,-100,4,3,8,80,0,0
227626,-66.6666666666667,4,3,4,80,0,0
228162,-80,4,3,4,80,0,0
228590,-50,4,3,68,80,0,0
229019,-50,4,2,4,60,0,0
229662,-80,4,2,4,60,0,0
230304,-66.6666666666667,4,2,4,60,0,0
230733,-100,4,3,8,80,0,0
231162,-57.1428571428571,4,3,4,80,0,0
231376,-66.6666666666667,4,3,4,80,0,0
232233,-50,4,3,4,80,0,0
232876,-50,4,3,66,80,0,0
233304,-66.6666666666667,4,3,4,80,0,0
233733,-66.6666666666667,4,3,78,80,0,0
233787,-66.6666666666667,4,3,4,5,0,0
233840,-66.6666666666667,4,3,78,80,0,0
233894,-66.6666666666667,4,3,4,5,0,0
233947,-66.6666666666667,4,3,78,80,0,0
234001,-66.6666666666667,4,3,4,5,0,0
234162,-100,4,3,8,80,0,0
234590,-57.1428571428571,4,3,4,80,0,0
234804,-66.6666666666667,4,3,4,80,0,0
235662,-80,4,3,4,80,0,0
236304,-100,4,3,4,80,0,0
236947,-66.6666666666667,4,3,78,80,0,0
237001,-66.6666666666667,4,3,4,5,0,0
237054,-66.6666666666667,4,3,78,80,0,0
237108,-66.6666666666667,4,3,4,5,0,0
237162,-66.6666666666667,4,3,78,80,0,0
237215,-66.6666666666667,4,3,4,5,0,0
237269,-66.6666666666667,4,3,78,80,0,0
237322,-66.6666666666667,4,3,4,5,0,0
237376,-66.6666666666667,4,3,78,80,0,0
237429,-66.6666666666667,4,3,4,5,0,0
237483,-66.6666666666667,4,3,78,80,0,0
237537,-66.6666666666667,4,3,4,5,0,0
237590,-100,4,3,8,80,0,0
238019,-57.1428571428571,4,3,4,80,0,0
238233,-66.6666666666667,4,3,4,80,0,0
239090,-50,4,3,4,80,0,0
239733,-50,4,3,66,80,0,0
240162,-66.6666666666667,4,3,4,80,0,0
240590,-66.6666666666667,4,3,78,80,0,0
240644,-66.6666666666667,4,3,4,5,0,0
240697,-66.6666666666667,4,3,78,80,0,0
240751,-66.6666666666667,4,3,4,5,0,0
240804,-66.6666666666667,4,3,78,80,0,0
240858,-66.6666666666667,4,3,4,5,0,0
241019,-100,4,3,8,80,0,0
241447,-57.1428571428571,4,3,4,80,0,0
241662,-66.6666666666667,4,3,4,80,0,0
242519,-80,4,3,4,80,0,0
242733,-80,4,3,4,80,0,0
243162,-100,4,3,4,80,0,0
243804,-66.6666666666667,4,3,78,80,0,0
243858,-66.6666666666667,4,3,4,5,0,0
243912,-66.6666666666667,4,3,78,80,0,0
243965,-66.6666666666667,4,3,4,5,0,0
244019,-66.6666666666667,4,3,78,80,0,0
244072,-66.6666666666667,4,3,4,5,0,0
244126,-66.6666666666667,4,3,78,80,0,0
244179,-66.6666666666667,4,3,4,5,0,0
244233,-66.6666666666667,4,3,78,80,0,0
244287,-66.6666666666667,4,3,4,5,0,0
244340,-66.6666666666667,4,3,78,80,0,0
244394,-66.6666666666667,4,3,4,5,0,0
244442,454.545454545455,4,3,0,80,1,0
245123,-133.333333333333,4,3,0,60,0,0
245464,-100,4,3,0,60,0,0
246260,-133.333333333333,4,3,0,80,0,0
246317,-100,4,3,0,5,0,0
248078,-136.986301369863,4,3,0,80,0,0
248135,-136.986301369863,4,3,0,5,0,0
248987,-133.333333333333,4,3,0,80,0,0
249044,-133.333333333333,4,3,0,5,0,0
249896,-133.333333333333,4,3,0,80,0,0
249953,-133.333333333333,4,3,0,5,0,0
251487,-133.333333333333,4,3,0,80,0,0
251544,-133.333333333333,4,3,0,5,0,0
251942,-133.333333333333,4,3,0,80,0,0
251998,-133.333333333333,4,3,0,5,0,0
252396,-133.333333333333,4,3,0,80,0,0
252453,-133.333333333333,4,3,0,5,0,0
252851,-133.333333333333,4,3,0,80,0,0
252907,-133.333333333333,4,3,0,5,0,0
253532,-133.333333333333,4,3,0,80,0,0
253760,-133.333333333333,4,3,88,80,0,0
253987,-133.333333333333,4,3,89,80,0,0
254214,-133.333333333333,4,3,88,80,0,0
254442,-133.333333333333,4,3,0,80,0,0
255805,-133.333333333333,4,3,88,80,0,0
256032,-133.333333333333,4,3,0,80,0,0
257396,-133.333333333333,4,3,88,80,0,0
257623,-133.333333333333,4,3,89,80,0,0
257851,-133.333333333333,4,3,88,80,0,0
258078,-133.333333333333,4,3,89,80,0,0
258760,-133.333333333333,4,3,0,100,0,0
258987,-133.333333333333,4,3,89,5,0,0
259214,-133.333333333333,4,3,0,100,0,0
259442,-133.333333333333,4,3,89,5,0,0
259669,-133.333333333333,4,3,0,100,0,0
259896,-133.333333333333,4,3,89,5,0,0
260123,-133.333333333333,4,3,0,100,0,0
260805,-100,4,3,1,90,0,0
271714,-100,4,3,1,50,0,0
272169,-100,4,3,1,60,0,0
272623,-100,4,3,1,70,0,0
273078,-100,4,3,1,80,0,0
273532,-100,4,3,5,80,0,0
275351,-90.9090909090909,4,3,5,90,0,1
297169,-66.6666666666667,4,3,5,90,0,1
298987,-66.6666666666667,4,3,5,100,0,1
299442,-66.6666666666667,4,3,5,90,0,1
300805,-66.6666666666667,4,3,5,100,0,1
301260,-66.6666666666667,4,3,5,90,0,1
302623,-66.6666666666667,4,3,5,100,0,1
303078,-66.6666666666667,4,3,5,90,0,1
304442,-90.9090909090909,4,3,6,80,0,1
311714,-133.333333333333,4,3,7,100,0,0
326487,-133.333333333333,4,2,0,5,0,0
326714,-133.333333333333,4,2,0,10,0,0
326942,-133.333333333333,4,2,0,15,0,0
327169,-133.333333333333,4,2,0,20,0,0
327396,-133.333333333333,4,2,0,25,0,0
327623,-133.333333333333,4,2,0,30,0,0
327851,-133.333333333333,4,2,0,35,0,0
328078,-133.333333333333,4,2,0,40,0,0
328305,-133.333333333333,4,2,0,45,0,0
328532,-133.333333333333,4,2,0,50,0,0
328760,-133.333333333333,4,2,0,55,0,0
328987,-133.333333333333,4,2,0,65,0,0
329214,-133.333333333333,4,2,0,70,0,0
329442,-133.333333333333,4,2,0,75,0,0
329669,-133.333333333333,4,2,20,100,0,0

[Colours]
Combo1 : 225,0,34
Combo2 : 146,202,235
Combo3 : 254,150,157
Combo4 : 255,255,113
Combo5 : 250,232,197
Combo6 : 83,22,137

[HitObjects]
386,187,12756,6,0,P|357:181|333:187,1,55,4|0,0:0|0:0,0:0:0:0:
334,325,12996,2,0,P|363:331|387:325,1,55
360,256,13236,2,0,B|288:256|288:256|244:240,1,110,6|0,0:0|0:0,0:0:0:0:
160,180,13716,5,4,0:0:0:0:
160,136,13836,1,0,0:0:0:0:
124,108,13956,1,0,0:0:0:0:
124,64,14076,1,0,0:0:0:0:
192,20,14196,2,0,B|248:20|248:20|300:44,1,110,6|0,0:0|0:0,0:0:0:0:
400,84,14676,6,0,B|400:140|400:140|376:188|376:188|376:244,1,165,4|0,0:0|0:0,0:0:0:0:
376,304,15156,1,2,0:0:0:0:
228,320,15396,5,0,0:0:0:0:
228,320,15516,1,0,0:0:0:0:
228,320,15636,2,0,L|172:320,1,55,4|0,0:0|0:0,0:0:0:0:
116,320,15876,1,8,0:0:0:0:
32,164,16116,1,8,0:0:0:0:
252,192,16596,38,0,L|312:192,1,55,4|0,0:0|0:0,0:0:0:0:
204,116,16836,2,0,L|260:116,1,55
128,40,17076,2,0,L|240:40,1,110,6|0,0:0|0:0,0:0:0:0:
348,40,17556,5,4,0:0:0:0:
348,40,17676,1,0,0:0:0:0:
420,72,17796,1,0,0:0:0:0:
420,72,17916,1,0,0:0:0:0:
480,124,18036,2,0,B|480:192|480:192|468:232,1,110,6|0,0:0|0:0,0:0:0:0:
401,319,18516,6,0,P|279:224|160:319,1,330,2|0,0:0|0:0,0:0:0:0:
280,357,19476,5,8,0:0:0:0:
280,326,19596,1,4,0:0:0:0:
280,293,19716,1,4,0:0:0:0:
280,263,19836,1,4,0:0:0:0:
280,192,19956,2,0,L|280:361,1,165,8|0,0:0|0:0,0:0:0:0:
280,357,20436,38,0,P|228:344|172:356,1,110,12|0,0:0|0:0,0:0:0:0:
72,312,20796,1,0,0:0:0:0:
72,312,20916,2,0,L|72:256,1,55,6|0,0:0|0:0,0:0:0:0:
140,129,21156,2,0,L|140:184,1,55
256,284,21396,6,0,L|316:284,1,55,4|0,0:0|0:0,0:0:0:0:
431,208,21636,2,0,L|376:208,1,55
148,136,21876,1,6,0:0:0:0:
148,136,21996,1,0,0:0:0:0:
148,136,22116,2,0,L|148:80,1,55
364,136,22356,5,4,0:0:0:0:
364,136,22476,1,0,0:0:0:0:
364,136,22596,2,0,L|364:76,1,55
216,224,22836,2,0,L|161:224,1,55,6|0,0:0|0:0,0:0:0:0:
297,284,23076,2,0,L|352:284,1,55
68,344,23316,5,4,0:0:0:0:
68,344,23436,1,0,0:0:0:0:
68,344,23556,2,0,L|13:344,1,55
296,212,23796,2,0,L|351:212,1,55,6|0,0:0|0:0,0:0:0:0:
215,152,24036,2,0,L|160:152,1,55
444,344,24276,37,4,0:0:0:0:
444,344,24396,1,0,0:0:0:0:
444,344,24516,2,0,L|499:344,1,55
204,240,24756,2,0,L|204:295,1,55,6|0,0:0|0:0,0:0:0:0:
308,144,24996,2,0,L|308:89,1,55
321,262,25236,6,0,L|396:262,1,55,4|0,0:0|0:0,0:0:0:0:
190,121,25476,2,0,L|115:121,1,55
384,84,25716,2,0,L|384:24,1,55,6|0,0:0|0:0,0:0:0:0:
128,300,25956,2,0,L|128:360,1,55
96,48,26196,5,4,0:0:0:0:
96,48,26316,1,0,0:0:0:0:
96,48,26436,2,0,L|24:48,1,55
256,192,26676,2,0,L|256:260,1,55,6|0,0:0|0:0,0:0:0:0:
416,48,26916,1,0,0:0:0:0:
416,48,27036,1,0,0:0:0:0:
416,48,27156,6,0,L|472:48,1,55,4|0,0:0|0:0,0:0:0:0:
256,192,27396,1,8,0:0:0:0:
96,48,27636,1,14,0:0:0:0:
256,336,27876,37,0,0:0:0:0:
256,336,27996,1,0,0:0:0:0:
256,336,28116,2,0,L|256:280,1,55,12|0,0:0|0:0,0:0:0:0:
304,60,28356,2,0,L|304:116,1,55
256,336,28596,2,0,L|256:272,1,55,6|0,0:0|0:0,0:0:0:0:
208,60,28836,2,0,L|208:116,1,55
392,236,29076,6,4,L|448:236,1,55,4|0,0:0|0:0,0:0:0:0:
120,236,29316,2,4,L|64:236,1,55,0|0,0:0|0:0,0:0:0:0:
256,364,29556,1,6,0:0:0:0:
256,364,29676,1,0,0:0:0:0:
256,364,29796,2,0,L|256:301,1,55
132,102,30036,5,4,0:0:0:0:
132,102,30156,1,0,0:0:0:0:
132,102,30276,2,0,L|132:163,1,55
384,304,30516,2,0,L|448:304,1,55,6|0,0:0|0:0,0:0:0:0:
128,304,30756,2,0,L|64:304,1,55
380,102,30996,5,4,0:0:0:0:
380,102,31116,1,0,0:0:0:0:
380,102,31236,2,0,L|380:163,1,55
128,304,31476,2,0,L|72:304,1,55,6|0,0:0|0:0,0:0:0:0:
384,304,31716,2,0,L|440:304,1,55
256,56,31956,37,4,0:0:0:0:
256,56,32076,1,0,0:0:0:0:
256,56,32196,2,0,L|256:0,1,55
384,304,32436,2,0,L|452:304,1,55,6|0,0:0|0:0,0:0:0:0:
128,304,32676,2,0,L|60:304,1,55
356,228,32916,6,0,L|412:228,1,55,4|0,0:0|0:0,0:0:0:0:
156,228,33156,2,0,L|100:228,1,55
328,152,33396,2,0,L|392:152,1,55,6|0,0:0|0:0,0:0:0:0:
184,152,33636,2,0,L|120:152,1,55
256,344,33876,5,4,0:0:0:0:
256,344,33996,1,0,0:0:0:0:
256,344,34116,2,0,L|256:284,1,55
256,40,34356,2,0,L|256:100,1,55,6|0,0:0|0:0,0:0:0:0:
408,192,34596,2,0,L|353:192,1,55
42,242,34836,5,0,0:0:0:0:
42,242,34956,1,0,0:0:0:0:
42,242,35076,1,0,0:0:0:0:
42,242,35196,1,0,0:0:0:0:
42,242,35316,2,0,B|29:218|29:218|22:192|22:192|29:167|29:167|42:141,1,110,14|0,0:0|0:0,0:0:0:0:
216,92,35796,38,0,L|216:32,1,55,4|0,0:0|0:0,0:0:0:0:
256,164,36036,2,0,L|256:108,1,55
296,240,36276,2,0,L|296:180,1,55,6|0,0:0|0:0,0:0:0:0:
336,312,36516,2,0,L|336:256,1,55
336,128,36756,5,4,0:0:0:0:
336,312,36996,1,0,0:0:0:0:
336,128,37236,1,6,0:0:0:0:
336,312,37476,1,0,0:0:0:0:
456,92,37716,6,0,L|456:32,1,55,4|0,0:0|0:0,0:0:0:0:
416,164,37956,2,0,L|416:108,1,55
376,240,38196,2,0,L|376:180,1,55,6|0,0:0|0:0,0:0:0:0:
336,312,38436,2,0,L|336:256,1,55
336,128,38676,5,4,0:0:0:0:
336,312,38916,1,0,0:0:0:0:
336,128,39156,1,6,0:0:0:0:
336,312,39396,1,0,0:0:0:0:
216,92,39636,38,0,L|152:92,1,55,4|0,0:2|0:0,0:0:0:0:
456,92,39876,2,0,L|512:92,1,55
256,164,40116,2,0,L|200:164,1,55,6|0,0:0|0:0,0:0:0:0:
416,164,40356,2,0,L|480:164,1,55
336,312,40596,5,4,0:0:0:0:
256,164,40836,1,0,0:0:0:0:
36,36,41076,1,6,0:0:0:0:
256,164,41316,1,0,0:0:0:0:
176,312,41556,5,4,0:0:0:0:
256,164,41796,1,0,0:0:0:0:
480,36,42036,1,6,0:0:0:0:
256,164,42276,1,0,0:0:0:0:
336,312,42516,5,4,0:0:0:0:
296,312,42636,1,0,0:0:0:0:
256,312,42756,1,0,0:0:0:0:
216,312,42876,1,0,0:0:0:0:
176,312,42996,1,6,0:0:0:0:
136,312,43116,1,0,0:0:0:0:
96,312,43236,1,0,0:0:0:0:
56,312,43356,1,0,0:0:0:0:
16,312,43476,38,0,L|16:368,1,55,4|0,0:0|0:0,0:0:0:0:
56,236,43716,2,0,L|56:176,1,55
216,312,43956,2,0,L|216:372,1,55,6|0,0:0|0:0,0:0:0:0:
176,236,44196,2,0,L|176:180,1,55
116,88,44436,5,4,0:0:0:0:
396,88,44676,1,0,0:0:0:0:
168,32,44916,1,6,0:0:0:0:
344,32,45156,1,0,0:0:0:0:
496,312,45396,6,0,L|496:368,1,55,4|0,0:0|0:0,0:0:0:0:
456,236,45636,2,0,L|456:176,1,55
296,312,45876,2,0,L|296:372,1,55,6|0,0:0|0:0,0:0:0:0:
336,236,46116,2,0,L|336:180,1,55
396,88,46356,5,4,0:0:0:0:
116,88,46596,1,0,0:0:0:0:
344,32,46836,1,6,0:0:0:0:
168,32,47076,1,0,0:0:0:0:
332,192,47316,38,0,L|396:192,1,55,4|0,0:2|0:0,0:0:0:0:
180,192,47556,2,0,L|116:192,1,55
368,220,47796,2,0,L|440:220,1,55,6|0,0:0|0:0,0:0:0:0:
144,220,48036,2,0,L|72:220,1,55
256,304,48276,5,4,0:0:0:0:
108,132,48516,1,0,0:0:0:0:
404,132,48756,1,6,0:0:0:0:
256,304,48996,1,0,0:0:0:0:
208,55,49236,6,0,B|231:35|247:35|247:35|256:30|256:30|264:35|264:35|280:35|303:55,1,110,4|0,0:0|0:0,0:0:0:0:
256,304,49716,1,0,0:0:0:0:
40,40,50196,1,0,0:0:0:0:
472,40,50676,1,0,0:0:0:0:
472,40,50916,1,0,0:0:0:0:
415,324,51156,6,0,B|463:256|476:174|465:105|427:58|386:25|345:13|278:17|226:19|179:23|127:72|102:116|99:160|102:202|110:241|147:284|156:307|191:312|215:312|235:308|270:296|321:277|332:241|346:204|343:163|330:143|302:129|258:122|231:126|227:129|217:140|197:154|190:177|193:211|200:232|227:252|258:259|288:255|319:245|336:204|357:177|332:147|332:129|332:129|375:144|395:191|391:245|360:304|331:341|289:363|234:378|193:376|143:365|107:338|80:304|58:257|48:205|57:162|64:135|75:110|90:80,1,1897.50007238388,4|0,0:0|0:0,0:0:0:0:
256,60,56916,6,0,L|344:60,1,73.3333333333333,2|0,0:0|0:0,0:0:0:0:
404,124,57236,1,0,1:0:0:0:
256,324,57396,6,0,L|168:324,1,73.3333333333333,2|0,0:0|0:0,0:0:0:0:
108,260,57716,1,0,1:0:0:0:
256,45,57876,70,0,L|353:45,1,91.6666666666667,2|0,0:0|0:0,0:0:0:0:
420,116,58196,1,0,1:0:0:0:
256,338,58356,6,0,L|158:338,1,91.6666666666667,2|0,0:0|0:0,0:0:0:0:
91,267,58676,1,0,1:0:0:0:
36,32,58836,70,0,L|98:43,1,63.250001206398,8|0,0:0|0:0,0:0:0:0:
300,188,59076,2,0,L|236:176,1,63.250001206398
36,272,59316,2,0,L|159:295,1,126.500002412796,12|0,0:0|0:0,0:0:0:0:
449,235,59796,6,0,L|511:246,1,63.250001206398,8|0,0:0|0:0,0:0:0:0:
474,79,60036,2,0,L|411:67,1,63.250001206398
186,156,60276,2,0,B|220:188|220:188|300:188,1,126.500002412796,12|0,0:0|0:0,0:0:0:0:
464,48,60756,70,0,L|400:48,1,63.250001206398,8|0,0:0|0:0,0:0:0:0:
260,184,60996,2,0,P|268:212|291:239,1,63.250001206398
472,40,61236,2,0,L|408:40,1,63.250001206398,12|0,0:0|0:0,0:0:0:0:
238,146,61476,2,0,P|233:174|242:208,1,63.250001206398
480,32,61716,6,0,L|348:32,1,126.500002412796,8|0,0:0|0:0,0:0:0:0:
152,96,62076,1,0,0:0:0:0:
152,96,62196,2,4,L|140:32,1,63.250001206398,12|0,0:0|0:0,0:0:0:0:
59,237,62436,2,0,L|47:173,1,63.250001206398
152,96,62676,70,0,B|136:8|136:8|164:32,1,126.500002412796,8|0,0:0|0:0,0:0:0:0:
232,88,63036,1,0,0:0:0:0:
320,200,63156,2,0,B|336:288|336:288|308:264,1,126.500002412796,12|0,0:0|0:0,0:0:0:0:
236,212,63516,1,0,0:0:0:0:
316,100,63636,6,0,B|332:12|332:12|304:36,1,126.500002412796,8|0,0:0|0:0,0:0:0:0:
232,88,63996,1,0,0:0:0:0:
152,200,64116,2,0,B|136:288|136:288|164:264,1,126.500002412796,12|0,0:0|0:0,0:0:0:0:
236,212,64476,1,0,0:0:0:0:
316,100,64596,70,0,L|344:156,1,63.250001206398,8|0,0:0|0:0,0:0:0:0:
264,268,64836,2,0,L|236:212,1,63.250001206398
364,32,65076,2,0,L|392:88,1,63.250001206398,12|0,0:0|0:0,0:0:0:0:
457,189,65316,1,0,0:0:0:0:
485,245,65436,1,0,0:0:0:0:
485,309,65556,6,0,B|401:309|401:309|364:278,1,126.500002412796,8|0,0:0|0:0,0:0:0:0:
303,215,65916,1,0,0:0:0:0:
180,88,66036,2,0,B|180:24,1,63.250001206398,12|0,0:0|0:0,0:0:0:0:
40,120,66276,2,0,B|40:188,1,63.250001206398
159,286,66516,70,0,B|178:312|158:343|158:343|128:365|97:345|97:345|75:315|94:285,1,192.500001835823,8|0,0:0|0:0,0:0:0:0:
131,187,66876,1,0,0:0:0:0:
257,257,66996,2,0,B|286:242|286:242|316:234|316:234|345:242|345:242|375:257,1,126.500002412796,12|0,0:0|0:0,0:0:0:0:
467,213,67356,1,0,0:0:0:0:
438,116,67476,6,0,B|407:106|407:106|381:90|381:90|365:64|365:64|355:33,1,126.500002412796,8|0,0:0|0:0,0:0:0:0:
208,32,67836,1,0,0:0:0:0:
208,32,67956,2,0,B|208:96,1,63.250001206398,12|0,0:0|0:0,0:0:0:0:
131,250,68196,2,0,B|131:186,1,63.250001206398
304,114,68436,70,0,L|304:183,1,63.250001206398,8|0,0:0|0:0,0:0:0:0:
205,332,68676,2,0,L|205:266,1,63.250001206398
308,76,68916,2,0,B|384:76|384:76|428:104,1,126.500002412796,12|0,0:0|0:0,0:0:0:0:
507,173,69276,1,0,0:0:0:0:
507,332,69396,6,0,P|449:350|387:334,1,126.500002412796,8|0,0:0|0:0,0:0:0:0:
388,188,69756,1,0,0:0:0:0:
388,188,69876,2,0,L|316:212,1,63.250001206398,12|0,0:0|0:0,0:0:0:0:
192,152,70116,1,0,0:0:0:0:
131,172,70236,1,0,0:0:0:0:
72,192,70356,70,0,L|8:212,1,63.250001206398,8|0,0:0|0:0,0:0:0:0:
156,48,70596,2,0,L|216:68,1,63.250001206398
220,256,70836,2,0,L|160:276,1,63.250001206398,12|0,0:0|0:0,0:0:0:0:
360,316,71076,2,0,L|420:296,1,63.250001206398
504,136,71316,6,0,L|383:176,1,126.500002412796,8|0,0:0|0:0,0:0:0:0:
302,202,71676,1,0,0:0:0:0:
168,248,71796,2,0,B|122:270|77:247|77:247|53:202|76:156,1,189.750003619194,12|0,0:0|0:0,0:0:0:0:
164,79,72276,69,8,0:0:0:0:
164,112,72396,1,0,0:0:0:0:
164,144,72516,2,0,L|164:217,1,63.250001206398
240,144,72756,5,12,0:0:0:0:
240,172,72876,1,0,0:0:0:0:
240,200,72996,2,0,L|240:256,1,55
316,200,73236,69,8,0:0:0:0:
316,224,73356,1,0,0:0:0:0:
316,248,73476,2,0,L|316:300,1,46.7500008916855
388,252,73716,5,12,0:0:0:0:
388,272,73836,1,0,0:0:0:0:
388,292,73956,2,0,L|388:340,1,38.4999988250733
464,336,74196,70,0,L|464:244,1,91.6666666666667,8|0,0:0|0:0,0:0:0:0:
256,329,74556,1,0,0:0:0:0:
256,329,74676,2,0,L|256:189,1,137.5,14|0,0:0|0:0,0:0:0:0:
392,56,75156,5,10,0:0:0:0:
256,192,75316,1,2,0:0:0:0:
392,328,75476,1,2,0:0:0:0:
300,96,75636,69,14,0:0:0:0:
166,192,75796,1,2,0:0:0:0:
300,289,75956,1,2,0:0:0:0:
48,48,76116,6,0,L|48:140,1,91.6666666666667,8|0,0:0|0:0,0:0:0:0:
256,55,76476,1,0,0:0:0:0:
256,55,76596,2,0,L|256:195,1,137.5,14|0,0:0|0:0,0:0:0:0:
120,328,77076,69,10,0:0:0:0:
256,192,77236,1,2,0:0:0:0:
120,56,77396,1,2,0:0:0:0:
212,289,77556,5,14,0:0:0:0:
346,192,77716,1,2,0:0:0:0:
212,96,77876,1,2,0:0:0:0:
256,352,78036,70,0,L|256:256,1,91.6666666666667,8|0,0:0|0:0,0:0:0:0:
320,52,78396,1,0,0:0:0:0:
320,52,78516,2,0,P|256:28|192:52,1,137.5,14|0,0:0|0:0,0:0:0:0:
193,258,78996,5,10,0:0:0:0:
193,50,79156,1,2,0:0:0:0:
40,154,79316,1,2,0:0:0:0:
319,258,79476,69,14,0:0:0:0:
319,50,79636,1,2,0:0:0:0:
472,154,79796,1,2,0:0:0:0:
193,258,79956,6,0,L|193:190,1,68.75,8|0,0:0|0:0,0:0:0:0:
116,109,80196,2,0,L|116:41,1,68.75
319,258,80436,70,0,L|319:190,1,68.75,14|0,0:0|0:0,0:0:0:0:
396,109,80676,2,0,L|396:41,1,68.75
149,163,80916,6,0,B|149:223|149:223|131:264|131:264|149:305|149:305|149:362,1,206.25,6|0,0:0|0:0,0:0:0:0:
363,362,81396,2,0,B|363:305|363:305|380:264|380:264|363:223|363:223|363:163,1,206.25,6|0,0:0|0:0,0:0:0:0:
256,28,81876,70,0,B|205:52|205:52|112:52|112:52|61:77,1,206.25,8|0,0:0|0:0,0:0:0:0:
32,192,82356,5,14,0:0:0:0:
176,303,82516,1,2,0:0:0:0:
176,81,82676,1,2,0:0:0:0:
336,81,82836,69,10,0:0:0:0:
336,303,82996,1,2,0:0:0:0:
480,192,83156,1,2,0:0:0:0:
300,233,83316,6,0,B|292:211|292:211|305:186|305:186|296:172|300:151|300:151|285:140|275:126|275:126|232:126|232:126|222:140|207:151|207:151|211:172|203:188|203:188|218:211|218:211|211:233,1,288.750002753735,4|0,0:0|0:0,0:0:0:0:
256,356,83796,70,0,B|306:331|306:331|399:331|399:331|450:306,1,206.25,8|0,0:0|0:0,0:0:0:0:
480,192,84276,5,14,0:0:0:0:
336,81,84436,1,2,0:0:0:0:
336,303,84596,1,2,0:0:0:0:
176,303,84756,69,10,0:0:0:0:
176,81,84916,1,2,0:0:0:0:
32,192,85076,1,2,0:0:0:0:
212,151,85236,6,0,B|219:172|219:172|206:197|206:197|215:211|212:232|212:232|226:243|236:257|236:257|279:257|279:257|289:243|304:232|304:232|300:211|308:195|308:195|293:172|293:172|300:151,1,288.750002753735,4|0,0:0|0:0,0:0:0:0:
256,20,85716,70,0,B|380:20|380:20|428:92,1,206.25,8|0,0:0|0:0,0:0:0:0:
402,192,86196,5,14,0:0:0:0:
182,319,86356,1,2,0:0:0:0:
182,64,86516,1,2,0:0:0:0:
329,319,86676,69,10,0:0:0:0:
329,64,86836,1,2,0:0:0:0:
109,191,86996,1,2,0:0:0:0:
215,147,87156,6,0,B|236:154|236:154|259:139|259:139|275:147|296:143|296:143|307:158|321:168|321:168|321:211|321:211|307:221|296:236|296:236|275:232|261:241|261:241|236:228|236:228|215:236,1,288.750002753735,4|0,0:0|0:0,0:0:0:0:
256,364,87636,70,0,B|132:364|132:364|84:292,1,206.25,8|0,0:0|0:0,0:0:0:0:
109,192,88116,5,14,0:0:0:0:
329,319,88276,1,2,0:0:0:0:
329,64,88436,1,2,0:0:0:0:
182,319,88596,69,10,0:0:0:0:
182,64,88756,1,2,0:0:0:0:
402,191,88916,1,2,0:0:0:0:
208,253,89076,6,0,B|231:273|247:273|247:273|255:278|255:278|264:273|264:273|280:273|303:253,1,110,6|6,0:0|0:0,0:0:0:0:
303,131,89316,2,0,B|280:111|264:111|264:111|255:106|255:106|247:111|247:111|231:111|208:131,1,110,6|6,0:0|0:0,0:0:0:0:
256,192,89724,12,0,93390,0:0:0:0:
128,224,93724,6,0,P|189:204|251:224,1,131.99999597168,6|0,0:0|0:0,0:0:0:0:
190,311,94224,1,0,0:0:0:0:
304,144,94390,2,0,B|236:120|236:120|167:120,1,131.99999597168,8|0,0:0|0:0,0:0:0:0:
76,152,94890,1,2,0:0:0:0:
252,224,95057,1,2,0:0:0:0:
252,224,95224,2,0,L|381:243,1,131.99999597168,0|0,0:0|0:0,0:0:0:0:
272,316,95724,2,0,L|338:325,1,65.9999979858399,8|0,0:0|0:0,0:0:0:0:
308,140,96057,1,0,0:0:0:0:
252,224,96224,1,2,0:0:0:0:
392,76,96390,6,0,P|411:137|392:199,1,131.99999597168,2|0,0:0|0:0,0:0:0:0:
308,140,96890,1,0,0:0:0:0:
208,68,97057,2,0,L|208:136,1,65.9999979858399,8|0,0:0|0:0,0:0:0:0:
272,316,97390,1,0,0:0:0:0:
272,316,97724,2,0,B|312:316|312:316|340:304,1,65.9999979858399,2|0,0:0|0:0,0:0:0:0:
168,236,98057,2,0,B|208:236|208:236|236:224,1,65.9999979858399
96,136,98390,2,0,B|96:188|96:188|84:212|84:212|84:268,1,131.99999597168,8|0,0:0|0:0,0:0:0:0:
160,340,98890,1,2,0:0:0:0:
312,228,99057,5,2,0:0:0:0:
396,168,99224,2,0,B|340:132|340:132|268:132,1,131.99999597168
389,63,99724,2,0,L|445:101,1,65.9999979858399,8|0,0:0|0:0,0:0:0:0:
318,18,100057,1,0,0:0:0:0:
184,132,100224,1,2,0:0:0:0:
122,47,100390,2,0,P|184:28|246:47,1,131.99999597168,2|0,0:0|0:0,0:0:0:0:
320,122,100890,1,0,0:0:0:0:
144,240,101057,1,8,0:0:0:0:
144,240,101390,2,0,L|76:240,1,65.9999979858399,0|2,0:0|0:0,0:0:0:0:
236,198,101724,6,0,B|236:288|236:288|204:316,1,131.99999597168,2|0,0:0|0:0,0:0:0:0:
100,332,102224,1,0,0:0:0:0:
160,148,102390,2,0,L|160:80,2,65.9999979858399,8|0|0,0:0|0:0|0:0,0:0:0:0:
312,324,103057,2,0,L|464:328,1,131.99999597168,2|0,0:0|0:0,0:0:0:0:
160,148,103724,1,8,0:0:0:0:
359,247,104057,2,0,L|434:249,1,65.9999979858399,0|2,0:0|0:0,0:0:0:0:
196,288,104390,38,0,L|121:286,1,65.9999979858399,2|0,0:0|0:0,0:0:0:0:
359,247,104724,1,0,0:0:0:0:
242,124,104890,1,0,0:0:0:0:
255,230,105057,5,8,0:0:0:0:
367,66,105224,1,0,0:0:0:0:
461,124,105390,1,0,0:0:0:0:
367,176,105557,1,2,0:0:0:0:
242,124,105724,6,0,L|110:124,1,131.99999597168,2|0,0:0|0:0,0:0:0:0:
14,173,106224,1,0,0:0:0:0:
144,40,106390,2,0,L|212:40,1,65.9999979858399,8|0,0:0|0:0,0:0:0:0:
267,206,106724,2,0,L|199:206,1,65.9999979858399,0|2,0:0|0:0,0:0:0:0:
32,320,107057,5,2,0:0:0:0:
32,320,107224,2,0,P|96:336|160:320,1,131.99999597168
256,280,107724,1,8,0:0:0:0:
396,48,108057,1,0,0:0:0:0:
396,48,108390,1,2,0:0:0:0:
256,280,108724,1,0,0:0:0:0:
256,280,109057,1,8,0:0:0:0:
443,250,109224,1,0,0:0:0:0:
323,142,109390,1,0,0:0:0:0:
489,106,109557,1,2,0:0:0:0:
396,48,109724,38,0,B|396:116|396:116|420:180,1,131.99999597168,2|0,0:0|0:0,0:0:0:0:
236,80,110390,2,0,B|192:80|192:80|148:92|148:92|100:92,1,131.99999597168,8|0,0:0|0:0,0:0:0:0:
8,136,110890,1,2,0:0:0:0:
166,188,111057,2,0,L|100:188,1,65.9999979858399,2|0,0:0|0:0,0:0:0:0:
8,136,111390,1,0,0:0:0:0:
8,240,111557,1,0,0:0:0:0:
132,335,111724,1,8,0:0:0:0:
132,336,111890,2,0,P|192:356|256:336,1,131.99999597168,0|2,0:0|0:0,0:0:0:0:
308,244,112390,5,2,0:0:0:0:
255,151,112557,1,0,0:0:0:0:
308,56,112724,2,0,L|376:56,1,65.9999979858399
432,192,113057,2,0,L|500:192,1,65.9999979858399,8|0,0:0|0:0,0:0:0:0:
432,192,113557,1,2,0:0:0:0:
432,192,113724,2,0,L|360:192,1,65.9999979858399,2|0,0:0|0:0,0:0:0:0:
252,296,114057,1,0,0:0:0:0:
308,64,114390,1,8,0:0:0:0:
308,64,114724,2,0,L|308:132,1,65.9999979858399,0|2,0:0|0:0,0:0:0:0:
252,296,115057,6,0,L|252:216,1,74.2500002832413,6|2,0:0|0:0,0:0:0:0:
212,112,115390,1,2,0:0:0:0:
352,240,115557,1,2,0:0:0:0:
212,112,115724,2,0,P|143:89|72:112,1,148.500000566483,8|0,0:0|0:0,0:0:0:0:
25,220,116224,1,0,0:0:0:0:
24,340,116390,1,2,0:0:0:0:
204,148,116724,2,0,L|232:220,1,74.2500002832413
352,240,117057,2,0,L|380:312,1,74.2500002832413,8|0,0:0|0:0,0:0:0:0:
324,152,117390,1,0,0:0:0:0:
204,148,117557,1,0,0:0:0:0:
140,324,117724,6,0,P|208:348|280:324,1,148.500000566483,2|0,0:0|0:0,0:0:0:0:
352,240,118224,1,0,0:0:0:0:
272,148,118390,2,0,B|272:104|272:104|256:68,1,74.2500002832413,8|0,0:0|0:0,0:0:0:0:
128,252,118724,2,0,B|128:296|128:296|144:332,1,74.2500002832413
173,157,119057,37,2,0:0:0:0:
52,37,119224,1,2,0:0:0:0:
52,156,119390,1,0,0:0:0:0:
172,36,119557,1,0,0:0:0:0:
341,97,119724,2,0,L|341:173,1,74.2500002832413,8|0,0:0|0:0,0:0:0:0:
242,285,120057,2,0,L|242:210,1,74.2500002832413
114,97,120390,1,2,0:0:0:0:
341,97,120724,5,2,0:0:0:0:
114,97,120890,1,2,0:0:0:0:
341,97,121057,2,0,L|416:98,1,74.2500002832413,8|0,0:0|0:0,0:0:0:0:
288,192,121390,5,0,0:0:0:0:
114,97,121557,1,0,0:0:0:0:
288,192,121724,2,0,L|372:192,1,74.2500002832413,2|2,0:0|0:0,0:0:0:0:
228,288,122057,5,0,0:0:0:0:
114,97,122224,1,0,0:0:0:0:
228,288,122390,2,0,L|308:288,1,74.2500002832413,8|0,0:0|0:0,0:0:0:0:
341,97,122724,37,0,0:0:0:0:
114,97,122890,1,0,0:0:0:0:
228,288,123057,1,2,0:0:0:0:
114,97,123390,1,2,0:0:0:0:
341,97,123724,1,8,0:0:0:0:
80,328,124224,5,0,0:0:0:0:
200,328,124390,1,2,0:0:0:0:
300,264,124557,1,2,0:0:0:0:
185,96,124724,2,0,P|149:88|114:96,1,74.2500002832413,8|0,0:0|0:0,0:0:0:0:
80,328,125057,1,8,0:0:0:0:
80,328,125390,1,0,0:0:0:0:
255,291,125724,6,0,B|289:184|377:212|427:139|393:27|286:25|259:74|255:77|255:77|250:74|219:25|112:30|85:136|125:212|207:183|231:252,1,660.000025177003,2|2,0:0|0:0,0:0:0:0:
284,282,129724,5,2,0:0:0:0:
381,264,131057,1,2,0:0:0:0:
284,282,133724,37,2,0:0:0:0:
197,338,135057,1,2,0:0:0:0:
197,338,136390,6,0,B|190:272|179:205|108:257|34:216|15:91|66:35|169:0|244:68|244:68|229:108|229:108|244:144|244:144|233:174|233:174|254:223,1,660.000025177003,2|2,0:0|0:0,0:0:0:0:
314,338,140390,1,2,0:0:0:0:
314,338,141723,6,0,B|321:272|332:205|403:257|477:216|496:91|445:35|342:0|267:68|267:68|282:108|282:108|267:144|267:144|278:174|278:174|257:223,1,660.000025177003,2|2,0:0|0:0,0:0:0:0:
380,252,146390,5,8,0:0:0:0:
440,88,146557,1,8,0:0:0:0:
440,88,146890,1,8,0:0:0:0:
380,252,147057,2,0,B|296:252|296:252|248:224,2,131.99999597168,6|0|8,0:0|0:0|0:0,0:0:0:0:
320,36,148057,1,0,0:0:0:0:
320,152,148224,1,2,0:0:0:0:
213,296,148390,2,0,B|172:272|172:272|88:272,2,131.99999597168,2|0|8,0:0|0:0|0:0,0:0:0:0:
304,352,149224,1,0,0:0:0:0:
254,227,149390,2,0,L|192:188,1,65.9999979858399,0|2,0:0|0:0,0:0:0:0:
420,264,149724,38,0,L|357:224,1,65.9999979858399,2|0,0:0|0:0,0:0:0:0:
220,64,150057,1,0,0:0:0:0:
120,100,150224,1,0,0:0:0:0:
67,191,150390,2,0,P|61:223|68:256,1,65.9999979858399,8|0,0:0|0:0,0:0:0:0:
105,354,150724,1,0,0:0:0:0:
254,227,151057,2,0,B|256:160|256:160|288:104,1,131.99999597168,2|0,0:0|0:0,0:0:0:0:
364,28,151557,1,2,0:0:0:0:
340,188,151724,2,0,L|373:131,1,65.9999979858399,8|0,0:0|0:0,0:0:0:0:
254,227,152057,1,8,0:0:0:0:
254,227,152390,6,0,B|150:269|47:233|21:142|21:142|95:74|231:78|196:159|315:157|401:144|432:125|457:83|461:56|425:13|401:-1|367:-6|342:0|313:11|306:75|301:98|304:123|338:199|338:199|355:240|337:278|314:303|271:312,1,1155.00004405976
440,176,157557,5,0,0:0:0:0:
440,176,157724,2,0,L|440:312,1,131.99999597168,2|0,0:0|0:0,0:0:0:0:
360,80,158390,2,0,L|360:148,1,65.9999979858399,8|0,0:0|0:0,0:0:0:0:
308,240,158724,1,0,0:0:0:0:
440,176,158890,1,2,0:0:0:0:
308,240,159057,2,0,P|275:248|244:240,1,65.9999979858399,2|0,0:0|0:0,0:0:0:0:
164,172,159390,1,0,0:0:0:0:
164,72,159557,1,0,0:0:0:0:
308,120,159724,2,0,P|331:180|308:240,1,131.99999597168,8|0,0:0|0:0,0:0:0:0:
84,52,160390,6,0,L|84:124,1,65.9999979858399,2|0,0:0|0:0,0:0:0:0:
147,210,160724,1,0,0:0:0:0:
84,52,160890,1,0,0:0:0:0:
147,210,161057,2,0,B|67:210|67:210|15:194,1,131.99999597168,8|0,0:0|0:0,0:0:0:0:
255,313,161724,2,0,L|323:313,1,65.9999979858399,2|0,0:0|0:0,0:0:0:0:
408,244,162057,1,0,0:0:0:0:
255,313,162224,1,0,0:0:0:0:
408,244,162390,2,0,B|408:200|408:200|400:156|400:156|400:108,1,131.99999597168,8|0,0:0|0:0,0:0:0:0:
340,24,162890,1,2,0:0:0:0:
153,131,163057,38,0,B|180:176|180:176|260:176,2,131.99999597168,2|0|8,0:0|0:0|0:0,0:0:0:0:
52,316,164057,2,0,L|16:252,2,65.9999979858399,0|2|2,0:0|0:0|0:0,0:0:0:0:
152,344,164557,1,0,0:0:0:0:
152,344,164724,2,0,L|292:344,1,131.99999597168,0|8,0:0|0:0,0:0:0:0:
380,300,165224,1,0,0:0:0:0:
440,216,165390,1,0,0:0:0:0:
444,112,165557,1,2,0:0:0:0:
412,236,165724,6,0,B|412:304|412:304|448:360,1,131.99999597168,2|0,0:0|0:0,0:0:0:0:
232,156,166390,1,8,0:0:0:0:
140,108,166557,1,0,0:0:0:0:
44,156,166724,1,0,0:0:0:0:
124,348,166890,2,0,L|192:348,1,65.9999979858399,2|2,0:0|0:0,0:0:0:0:
288,344,167224,1,0,0:0:0:0:
336,256,167390,1,0,0:0:0:0:
0,256,167724,1,8,0:0:0:0:
0,256,168390,5,2,0:0:0:0:
256,192,174162,12,0,175662,0:0:0:0:
360,131,175876,6,0,B|411:226|360:322|360:322|256:381|153:322|153:322|101:226|153:131,1,618.75002360344,4|0,0:0|0:0,0:0:0:0:
194,60,177590,38,0,L|194:16,1,41.2500015735627,6|2,0:0|0:0,0:0:0:0:
318,60,177912,2,0,L|318:19,1,41.2500015735627,2|8,0:0|0:0,0:0:0:0:
256,188,178233,1,4,0:0:0:0:
149,296,178447,2,0,B|190:337|190:337|255:351|255:351|320:337|320:337|359:298,1,247.500009441376,4|4,0:0|0:0,0:0:0:0:
428,192,179304,5,0,0:0:0:0:
316,212,179519,1,0,0:0:0:0:
196,212,179733,1,0,0:0:0:0:
84,192,179947,1,0,0:0:0:0:
256,100,180162,5,0,0:0:0:0:
316,212,180376,1,0,0:0:0:0:
196,212,180590,1,0,0:0:0:0:
256,100,180804,1,0,0:0:0:0:
116,112,181019,5,0,0:0:0:0:
192,24,181233,1,0,0:0:0:0:
320,24,181447,1,0,0:0:0:0:
396,112,181662,1,0,0:0:0:0:
480,344,181876,37,4,0:0:0:0:
424,344,181983,1,8,0:0:0:0:
368,347,182090,1,4,0:0:0:0:
312,347,182197,1,8,0:0:0:0:
256,347,182304,1,4,0:0:0:0:
196,347,182412,1,8,0:0:0:0:
140,347,182519,1,4,0:0:0:0:
84,347,182626,1,8,0:0:0:0:
28,347,182733,6,0,L|28:296,1,41.2500015735627,4|0,0:0|0:0,0:0:0:0:
140,347,182947,2,0,L|140:296,1,41.2500015735627
256,347,183162,2,0,L|256:300,1,41.2500015735627
368,347,183376,2,0,L|368:292,1,41.2500015735627
480,344,183590,2,0,L|480:300,1,41.2500015735627
424,180,183804,2,0,L|424:224,1,41.2500015735627
312,180,184019,2,0,L|312:136,1,41.2500015735627
200,180,184233,2,0,L|200:224,1,41.2500015735627
88,180,184447,2,0,L|88:152,15,20.6250007867813
28,118,185304,6,0,P|85:31|147:118,1,247.500009441376,4|4,0:0|0:0,0:0:0:0:
256,192,186162,12,0,187876,0:0:0:0:
420,340,188733,5,2,0:0:0:0:
420,340,188840,1,2,0:0:0:0:
328,192,189054,1,2,0:0:0:0:
420,44,189269,1,2,0:0:0:0:
420,44,189376,1,10,0:0:0:0:
438,192,189590,38,0,L|328:192,1,110,6|0,0:0|0:0,0:0:0:0:
228,244,189912,2,0,B|228:320|228:320|300:368|300:368|300:280,1,247.500009441376
288,116,190447,2,0,B|220:116|220:116|164:148|164:148|96:148,1,197.99999395752,8|0,0:0|0:0,0:0:0:0:
60,244,190876,54,0,B|35:235|8:244|8:244|-3:274|8:302|8:302|35:310|60:302,2,165,2|2|2,0:0|0:0|0:0,0:0:0:0:
155,272,191304,37,4,0:0:0:0:
221,272,191412,1,0,0:0:0:0:
274,310,191519,1,0,0:0:0:0:
339,310,191626,1,0,0:0:0:0:
396,342,191733,1,0,0:0:0:0:
155,272,191947,2,0,L|155:339,1,65.9999979858399
384,192,192162,2,0,B|292:192|292:192|252:208,1,131.99999597168,8|4,0:0|0:0,0:0:0:0:
420,264,192590,2,0,P|464:184|347:119,1,247.500009441376
328,44,193019,6,0,L|216:44,1,110,2|0,0:0|0:0,0:0:0:0:
132,120,193340,2,0,B|132:280|132:280|192:216,1,247.500009441376
68,68,193876,2,0,B|104:44|104:44|168:44|168:44|208:80|208:80|256:80,1,206.25,8|0,0:0|0:0,0:0:0:0:
336,192,194304,22,0,B|373:172|373:172|411:161|411:161|449:172|449:172|487:192,2,165,2|2|2,0:0|0:0|0:0,0:0:0:0:
304,296,194733,69,4,0:0:0:0:
244,324,194840,1,0,0:0:0:0:
180,332,194947,1,0,0:0:0:0:
116,324,195054,1,0,0:0:0:0:
57,297,195162,1,0,0:0:0:0:
304,296,195376,2,0,L|376:296,1,68.75
120,140,195590,2,0,B|119:218|119:218|160:260,1,137.5,8|0,0:0|0:0,0:0:0:0:
41,138,196019,2,0,P|117:60|198:139,1,247.500009441376,4|0,0:0|0:0,0:0:0:0:
208,220,196447,38,0,L|320:220,1,110,6|0,0:0|0:0,0:0:0:0:
412,304,196769,2,0,B|412:232|412:232|456:136|456:136|456:64,1,247.500009441376
208,28,197304,2,0,B|183:76|183:76|170:123|170:123|183:171|183:171|208:218,1,206.25,8|0,0:0|0:0,0:0:0:0:
340,152,197733,54,0,B|315:160|288:152|288:152|277:124|288:93|288:93|315:85|340:93,2,165,2|2|2,0:0|0:0|0:0,0:0:0:0:
424,96,198162,37,4,0:0:0:0:
424,156,198269,1,0,0:0:0:0:
424,220,198376,1,0,0:0:0:0:
424,284,198483,1,0,0:0:0:0:
424,348,198590,1,0,0:0:0:0:
424,96,198804,2,0,L|424:24,1,68.75
336,240,199019,2,0,B|336:340|336:340|296:320,1,137.5,8|4,0:0|0:0,0:0:0:0:
232,149,199447,2,0,P|241:239|107:248,1,247.500009441376
171,199,199876,6,0,B|197:250|197:250|197:314,1,110,6|0,0:0|0:0,0:0:0:0:
76,360,200197,2,0,B|24:256|24:256|24:124,1,247.500009441376
233,149,200733,2,0,L|233:286,1,137.5,8|0,0:0|0:0,0:0:0:0:
149,125,201162,2,0,L|149:166,1,41.2500015735627,2|0,0:0|0:0,0:0:0:0:
200,82,201269,2,0,L|198:40,1,41.2500015735627,2|0,0:0|0:0,0:0:0:0:
264,82,201376,2,0,L|266:40,1,41.2500015735627,2|0,0:0|0:0,0:0:0:0:
315,125,201483,2,0,L|315:166,1,41.2500015735627,2|0,0:0|0:0,0:0:0:0:
371,163,201590,6,0,B|411:173|435:193|435:193|458:172|497:164,1,137.5,4|0,0:0|0:0,0:0:0:0:
440,339,202019,1,0,0:0:0:0:
161,262,202233,2,0,L|161:194,1,68.75
315,165,202447,2,0,P|335:233|315:297,1,137.5,8|0,0:0|0:0,0:0:0:0:
96,344,202876,2,0,P|61:227|97:111,1,247.500009441376,4|0,0:0|0:0,0:0:0:0:
149,40,203304,38,0,P|97:24|45:40,1,110,6|0,0:0|0:0,0:0:0:0:
8,144,203626,2,0,P|89:203|190:119,1,247.500009441376
432,40,204162,2,0,B|464:100|464:100|464:170|464:170|432:232,1,206.25,8|0,0:0|0:0,0:0:0:0:
306,208,204590,54,0,B|279:181|279:181|270:137|270:137|279:93|279:93|306:68,2,165,2|2|2,0:0|0:0|0:0,0:0:0:0:
370,138,205019,37,4,0:0:0:0:
307,122,205126,1,0,0:0:0:0:
248,150,205233,1,0,0:0:0:0:
221,209,205340,1,0,0:0:0:0:
238,271,205447,1,0,0:0:0:0:
436,348,205662,2,0,L|504:348,1,68.75
238,272,205876,2,0,B|164:272|164:272|112:232,1,137.5,8|4,0:0|0:0,0:0:0:0:
370,138,206304,2,0,P|240:161|248:284,1,264
342,340,206733,6,0,B|343:283|343:283|330:232,1,110,6|0,0:0|0:0,0:0:0:0:
371,138,207054,2,0,B|298:149|226:130|226:130|248:200|238:273,1,288.750002753735
25,346,207590,2,0,P|101:267|181:346,1,247.500009441376,8|0,0:0|0:0,0:0:0:0:
103,344,208019,22,0,B|103:299|103:299|89:266|89:266|103:233|103:233|103:185,2,165,2|2|2,0:0|0:0|0:0,0:0:0:0:
180,264,208447,69,4,0:0:0:0:
232,232,208554,1,0,0:0:0:0:
296,232,208662,1,0,0:0:0:0:
356,232,208769,1,0,0:0:0:0:
404,196,208876,1,0,0:0:0:0:
196,163,209090,2,0,L|135:203,1,68.75
332,310,209304,2,0,B|377:310|377:310|417:286|417:286|465:286,1,137.5,8|0,0:0|0:0,0:0:0:0:
196,163,209733,2,0,B|16:163|16:163|48:99,1,247.500009441376,4|0,0:0|0:0,0:0:0:0:
196,163,210162,38,0,B|274:163|274:163|260:190,1,110,6|0,0:0|0:0,0:0:0:0:
134,226,210483,2,0,P|122:112|231:82,1,247.500009441376
104,304,211019,2,0,B|34:347|34:347|34:260|34:260|65:280,1,206.25,8|0,0:0|0:0,0:0:0:0:
220,304,211447,54,0,B|244:312|271:304|271:304|283:276|271:245|271:245|244:237|220:245,2,165,2|2|2,0:0|0:0|0:0,0:0:0:0:
104,304,211876,37,4,0:0:0:0:
49,267,211983,1,0,0:0:0:0:
49,201,212090,1,0,0:0:0:0:
49,135,212197,1,0,0:0:0:0:
104,98,212304,1,0,0:0:0:0:
352,48,212519,2,0,L|428:48,1,68.75
215,145,212733,2,0,B|261:123|261:123|349:123,1,137.5,8|4,0:0|0:0,0:0:0:0:
123,272,213162,2,0,B|215:355|215:355|307:272,1,247.500009441376
215,145,213590,6,0,L|215:255,1,110,6|0,0:0|0:0,0:0:0:0:
123,272,213912,2,0,L|123:17,1,247.500009441376
335,54,214447,2,0,B|303:114|303:114|303:184|303:184|335:246,1,206.25,8|0,0:0|0:0,0:0:0:0:
428,195,214876,22,0,B|450:195|475:182|475:182|471:171|460:152|460:152|471:134|475:123|475:123|448:112|427:112,2,165,2|2|2,0:0|0:0|0:0,0:0:0:0:
334,244,215304,70,0,L|334:359,1,110,4|0,0:0|0:0,0:0:0:0:
256,187,215733,2,0,L|256:302,1,110,4|0,0:0|0:0,0:0:0:0:
256,104,216054,1,0,0:0:0:0:
178,133,216162,2,0,L|178:248,1,110,12|0,0:0|0:0,0:0:0:0:
98,72,216590,2,0,L|98:319,1,247.500009441376,4|0,0:0|0:0,0:0:0:0:
168,236,217019,38,0,P|98:199|29:237,1,165,6|0,0:0|0:0,0:0:0:0:
98,320,217447,54,0,L|187:320,1,82.5000031471254
256,192,217662,22,0,B|271:125|271:125|322:77,1,137.5,0|8,0:0|0:0,0:0:0:0:
512,192,217983,2,0,B|495:123|495:123|446:77,1,137.5
420,276,218304,2,0,B|387:286|387:286|354:275,1,68.75
172,272,218519,54,0,B|92:272|92:272|104:240,1,110
132,129,218733,2,0,B|184:129|184:129|220:93|220:93|256:197|256:197|296:157|296:157|362:157,1,330,4|0,0:0|0:0,0:0:0:0:
476,271,219162,2,0,B|436:293|414:324|414:324|393:293|353:271,2,165,2|2|2,0:0|0:0|0:0,0:0:0:0:
473,172,219590,38,0,L|473:88,1,82.5000031471254,8|0,0:0|0:0,0:0:0:0:
351,270,219804,2,0,L|351:188,1,82.5000031471254,8|0,0:0|0:0,0:0:0:0:
250,302,220019,2,0,L|250:344,1,41.2500015735627,4|0,0:0|0:0,0:0:0:0:
181,342,220126,2,0,L|181:174,1,165.000006294251,4|0,0:0|0:0,0:0:0:0:
108,79,220447,6,0,B|133:52|133:52|177:43|177:43|221:52|221:52|247:79,1,165,6|0,0:0|0:0,0:0:0:0:
263,178,220876,22,0,B|246:194|246:194|222:198|222:198|197:194|197:194|181:178,1,96.2500009179115
248,79,221090,54,0,B|364:80|364:80|340:124,1,165.000006294251,4|8,0:0|0:0,0:0:0:0:
340,260,221412,2,0,B|364:304|364:304|248:305,1,165.000006294251,4|0,0:0|0:0,0:0:0:0:
72,242,221733,2,0,L|154:242,1,82.5000031471254,4|0,0:0|0:0,0:0:0:0:
222,176,221947,2,0,B|290:176,1,68.75,4|0,0:0|0:0,0:0:0:0:
357,242,222162,6,0,B|472:241|472:241|448:197,1,165.000006294251,4|0,0:0|0:0,0:0:0:0:
477,108,222590,6,0,B|486:83|477:56|477:56|447:45|419:56|419:56|411:83|419:108,2,165,2|2|2,0:0|0:0|0:0,0:0:0:0:
448,197,223019,70,0,L|448:285,1,82.5000031471254,8|0,0:0|0:0,0:0:0:0:
272,336,223233,2,0,L|272:253,1,82.5000031471254
179,222,223447,2,0,L|179:266,1,41.2500015735627,2|0,0:0|0:0,0:0:0:0:
235,178,223554,2,0,L|233:136,1,41.2500015735627,2|0,0:0|0:0,0:0:0:0:
305,178,223662,2,0,L|307:136,1,41.2500015735627,2|0,0:0|0:0,0:0:0:0:
361,222,223769,2,0,L|361:267,1,41.2500015735627,2|0,0:0|0:0,0:0:0:0:
326,280,223876,38,0,B|199:280,1,110,6|0,0:0|0:0,0:0:0:0:
60,340,224197,2,0,B|60:268|60:268|16:172|16:172|16:100,1,247.500009441376
242,154,224733,2,0,B|114:154|114:154|148:227,1,206.25,8|0,0:0|0:0,0:0:0:0:
318,232,225162,54,0,B|318:187|318:187|331:154|331:154|318:121|318:121|318:73,2,165,2|2|2,0:0|0:0|0:0,0:0:0:0:
233,256,225590,37,4,0:0:0:0:
263,307,225697,1,0,0:0:0:0:
320,326,225804,1,0,0:0:0:0:
374,302,225911,1,0,0:0:0:0:
398,248,226018,1,0,0:0:0:0:
480,39,226233,2,0,L|480:119,1,68.75
398,248,226447,2,0,B|398:208|398:208|373:155|373:155|373:116,1,137.5,8|4,0:0|0:0,0:0:0:0:
221,26,226876,2,0,B|221:93|221:93|152:183|152:183|152:250,1,247.500009441376
244,303,227304,6,0,P|259:252|244:200,1,110,6|0,0:0|0:0,0:0:0:0:
154,155,227626,2,0,P|61:221|101:333,1,247.500009441376
317,350,228162,2,0,P|347:252|317:154,1,206.25,8|0,0:0|0:0,0:0:0:0:
228,83,228590,22,0,B|272:55|272:55|328:55|328:55|376:25,2,165,2|2|2,0:0|0:0|0:0,0:0:0:0:
154,154,229019,69,4,0:0:0:0:
206,186,229126,1,0,0:0:0:0:
270,186,229234,1,0,0:0:0:0:
330,186,229341,1,0,0:0:0:0:
378,222,229448,1,0,0:0:0:0:
136,340,229662,2,0,L|204:340,1,68.75
308,264,229876,2,0,L|164:264,1,137.5,8|0,0:0|0:0,0:0:0:0:
25,119,230304,2,0,B|84:84|117:37|117:37|150:84|210:119,1,247.500009441376,4|0,0:0|0:0,0:0:0:0:
300,177,230733,38,0,B|262:236|262:236|337:236|337:236|320:209,1,165,6|0,0:0|0:0,0:0:0:0:
209,118,231162,54,0,L|154:207,1,96.2500009179115
216,338,231376,22,0,L|381:338,1,165.000006294251,0|8,0:0|0:0,0:0:0:0:
455,221,231697,2,0,L|367:81,1,165.000006294251
209,118,232019,2,0,L|252:187,1,82.5000031471254
216,338,232233,54,0,L|157:243,1,110
119,119,232447,2,0,B|104:93|111:65|111:65|94:51|87:31|87:31|67:29|48:21|48:21|4:45|4:45|2:66|-6:85|-6:85|8:101|11:123|11:123|43:129|57:154,1,330,4|0,0:0|0:0,0:0:0:0:
256,192,232876,2,0,B|280:184|307:192|307:192|319:220|307:251|307:251|280:259|256:251,2,165,2|2|2,0:0|0:0|0:0,0:0:0:0:
152,192,233304,38,0,L|70:192,1,82.5000031471254,8|0,0:0|0:0,0:0:0:0:
18,336,233519,2,0,L|101:336,1,82.5000031471254,4|0,0:0|0:0,0:0:0:0:
256,291,233733,2,0,L|301:291,1,41.2500015735627,2|0,0:0|0:0,0:0:0:0:
256,243,233840,2,0,L|200:243,1,41.2500015735627,2|0,0:0|0:0,0:0:0:0:
256,192,233947,2,0,L|300:192,1,41.2500015735627,2|0,0:0|0:0,0:0:0:0:
256,27,234162,6,0,B|256:207,1,165,6|0,0:0|0:0,0:0:0:0:
302,115,234590,22,0,P|257:102|211:115,1,96.2500009179115,4|0,0:0|0:0,0:0:0:0:
179,283,234804,54,0,B|223:283|223:283|256:297|256:297|289:283|289:283|337:283,1,165.000006294251,4|8,0:0|0:0,0:0:0:0:
398,181,235125,2,0,B|386:137|386:137|392:102|392:102|370:73|370:73|359:26,1,165.000006294251,4|0,0:0|0:0,0:0:0:0:
152,26,235447,2,0,B|96:98,1,82.5000031471254,4|0,0:0|0:0,0:0:0:0:
175,168,235662,2,0,B|132:222,1,68.75,4|0,0:0|0:0,0:0:0:0:
201,299,235876,6,0,P|113:346|25:299,1,206.25,4|0,0:0|0:0,0:0:0:0:
24,161,236304,2,0,P|109:105|199:161,1,220,0|8,0:0|0:0,0:0:0:0:
384,356,236947,2,0,L|337:356,1,41.2500015735627,2|0,0:0|0:0,0:0:0:0:
408,300,237054,2,0,L|367:299,1,41.2500015735627,2|2,0:0|0:0,0:0:0:0:
421,240,237162,2,0,L|463:240,1,41.2500015735627,6|0,0:0|0:0,0:0:0:0:
421,178,237269,2,0,L|463:178,1,41.2500015735627,6|0,0:0|0:0,0:0:0:0:
408,119,237376,2,0,L|367:119,1,41.2500015735627,2|2,0:0|0:0,0:0:0:0:
384,64,237483,2,0,L|337:64,1,41.2500015735627,2|0,0:0|0:0,0:0:0:0:
346,17,237590,38,0,L|178:17,1,165,6|0,0:0|0:0,0:0:0:0:
46,106,238019,54,0,B|144:106,1,96.2500009179115
252,215,238233,22,0,P|293:278|252:346,1,165.000006294251,0|8,0:0|0:0,0:0:0:0:
81,342,238554,2,0,B|27:279|27:279|81:218,1,165.000006294251
252,215,238876,2,0,L|335:215,1,82.5000031471254
438,104,239090,54,0,L|320:104,1,110
182,46,239304,2,0,B|131:12|78:47|78:47|42:100|78:153|78:153|132:187|180:156,1,330,4|0,0:0|0:0,0:0:0:0:
328,104,239733,2,0,B|350:143|381:165|381:165|350:186|328:226,2,165,2|2|2,0:0|0:0|0:0,0:0:0:0:
449,26,240162,38,0,B|476:59|476:59|476:111,1,82.5000031471254,8|0,0:0|0:0,0:0:0:0:
480,230,240376,2,0,B|480:269|480:269|453:302,1,82.5000031471254,4|0,0:0|0:0,0:0:0:0:
299,268,240590,2,0,L|300:226,1,41.2500015735627,2|0,0:0|0:0,0:0:0:0:
238,268,240697,2,0,L|237:310,1,41.2500015735627,2|0,0:0|0:0,0:0:0:0:
177,268,240804,2,0,L|178:226,1,41.2500015735627,2|2,0:0|0:0,0:0:0:0:
44,320,241019,6,0,L|44:144,1,165,6|0,0:0|0:0,0:0:0:0:
120,52,241447,22,0,L|120:148,1,96.2500009179115
194,298,241662,54,0,B|234:320|255:352|255:352|277:320|317:298,1,165.000006294251,4|8,0:0|0:0,0:0:0:0:
381,178,241983,2,0,B|381:132|397:98|397:98|359:95|320:72,1,165.000006294251,4|0,0:0|0:0,0:0:0:0:
170,33,242304,2,0,B|127:113,1,82.5000031471254,4|0,0:0|0:0,0:0:0:0:
216,168,242519,2,0,B|173:248,1,68.75,4|0,0:0|0:0,0:0:0:0:
272,316,242733,6,0,B|332:348|332:348|402:348|402:348|464:316,1,206.25,4|0,0:0|0:0,0:0:0:0:
460,188,243162,2,0,B|399:142|399:142|331:142|331:142|269:187,1,220
80,336,243804,2,0,L|36:336,1,41.2500015735627,2|0,0:0|0:0,0:0:0:0:
80,288,243911,2,0,L|124:288,1,41.2500015735627,2|0,0:0|0:0,0:0:0:0:
80,240,244019,2,0,L|38:240,1,41.2500015735627,2|0,0:0|0:0,0:0:0:0:
80,192,244126,2,0,L|121:192,1,41.2500015735627,2|0,0:0|0:0,0:0:0:0:
80,144,244233,2,0,L|38:144,1,41.2500015735627,2|0,0:0|0:0,0:0:0:0:
80,96,244340,2,0,L|121:96,1,41.2500015735627,2|0,0:0|0:0,0:0:0:0:
80,44,244442,38,0,L|191:44,1,110,4|0,0:0|0:0,0:0:0:0:
311,203,244896,2,0,L|256:203,1,55
379,136,245123,6,0,L|425:136,1,41.2500015735627
157,119,245351,1,10,0:0:0:0:
143,184,245464,1,10,0:0:0:0:
131,248,245578,1,2,0:0:0:0:
119,310,245692,2,0,L|231:310,1,110,2|2,0:0|0:0,0:0:0:0:
27,193,246032,1,8,0:0:0:0:
465,243,246260,6,0,P|383:34|307:243,1,577.500022029878,2|0,0:0|0:0,0:0:0:0:
418,191,248078,6,0,P|386:103|352:190,1,240.900006616516,2|0,0:0|0:0,0:0:0:0:
381,294,248987,2,0,B|332:294|332:294|302:323|302:323|276:246|276:246|249:273|249:273|211:273,1,247.500009441376,2|0,0:0|0:0,0:0:0:0:
141,192,249896,38,0,B|191:137|191:137|279:119|279:119|368:137|368:137|420:192,1,330.000012588501,2|0,0:0|0:0,0:0:0:0:
408,20,251487,6,0,B|320:24,1,82.5000031471254,2|0,0:0|0:0,0:0:0:0:
104,20,251942,2,0,B|192:24,1,82.5000031471254,2|0,0:0|0:0,0:0:0:0:
344,128,252396,2,0,B|357:140|357:140|362:162|362:162|357:184|357:184|344:197,1,82.5000031471254,2|0,0:0|0:0,0:0:0:0:
176,233,252851,2,0,B|148:207|148:207|139:163|139:163|148:119|148:119|176:94,1,165.000006294251,2|0,0:0|0:0,0:0:0:0:
256,160,253532,5,2,0:0:0:0:
256,340,253760,1,0,0:0:0:0:
265,150,253987,5,0,0:0:0:0:
265,331,254215,1,0,0:0:0:0:
274,141,254442,37,0,0:0:0:0:
415,231,254669,1,0,0:0:0:0:
274,321,254896,1,0,0:0:0:0:
274,141,255123,1,0,0:0:0:0:
32,192,255351,5,2,0:0:0:0:
122,36,255579,1,0,0:0:0:0:
184,296,255805,5,0,0:0:0:0:
274,140,256032,1,0,0:0:0:0:
39,183,256260,5,2,0:0:0:0:
281,131,256487,1,0,0:0:0:0:
191,287,256714,1,0,0:0:0:0:
129,27,256942,1,0,0:0:0:0:
364,36,257169,37,2,0:0:0:0:
472,120,257396,1,0,0:0:0:0:
472,264,257623,5,0,0:0:0:0:
364,348,257851,1,0,0:0:0:0:
479,111,258078,5,0,0:0:0:0:
479,273,258305,1,0,0:0:0:0:
371,27,258532,1,0,0:0:0:0:
371,357,258760,6,0,L|283:357,1,82.5000031471254,2|0,0:0|0:0,0:0:0:0:
256,248,259214,2,0,L|168:248,1,82.5000031471254,2|0,0:0|0:0,0:0:0:0:
173,136,259669,2,0,L|256:136,1,82.5000031471254,2|0,0:0|0:0,0:0:0:0:
288,27,260123,2,0,L|371:27,2,82.5000031471254,2|0|0,0:0|0:0|0:0,0:0:0:0:
172,136,260805,38,0,B|92:136|92:136|104:168,1,110,6|0,0:0|0:0,0:0:0:0:
164,228,261146,1,0,0:0:0:0:
164,228,261260,2,0,L|164:288,1,55,2|2,0:0|0:0,0:0:0:0:
256,340,261487,2,0,L|256:224,1,110,0|2,0:0|0:0,0:0:0:0:
372,96,261942,1,2,0:0:0:0:
372,272,262169,2,0,L|372:212,1,55
456,184,262396,2,0,L|456:68,1,110,0|6,0:0|0:0,0:0:0:0:
262,48,262851,5,0,0:0:0:0:
204,70,262964,1,2,0:0:0:0:
147,48,263078,1,0,0:0:0:0:
89,70,263191,1,2,0:0:0:0:
34,91,263305,2,0,B|34:126|34:126|52:157|52:157|52:195,1,110,2|2,0:0|0:0,0:0:0:0:
144,332,263760,2,0,L|144:272,1,55,2|0,0:0|0:0,0:0:0:0:
228,196,263987,2,0,L|228:256,1,55
312,332,264214,2,0,L|312:272,1,55,2|0,0:0|0:0,0:0:0:0:
396,168,264442,6,0,L|396:280,1,110,6|0,0:0|0:0,0:0:0:0:
472,277,264782,1,0,0:0:0:0:
472,215,264896,1,2,0:0:0:0:
472,153,265010,1,2,0:0:0:0:
471,91,265123,2,0,L|414:90,1,55
292,277,265351,2,0,P|344:293|396:278,1,110,2|2,0:0|0:0,0:0:0:0:
228,196,265805,1,0,0:0:0:0:
63,198,266032,1,0,0:0:0:0:
147,55,266260,5,6,0:0:0:0:
228,195,266487,1,2,0:0:0:0:
290,239,266601,1,2,0:0:0:0:
63,198,266828,1,2,0:0:0:0:
0,242,266942,1,0,0:0:0:0:
147,320,267169,1,2,0:0:0:0:
148,243,267282,1,0,0:0:0:0:
147,166,267396,2,0,L|147:55,2,110,2|2|2,0:0|0:0|0:0,0:0:0:0:
147,320,268078,38,0,P|199:336|251:321,1,110,6|0,0:0|0:0,0:0:0:0:
320,276,268419,1,2,0:0:0:0:
320,276,268532,2,0,L|320:212,1,55,2|2,0:0|0:0,0:0:0:0:
370,119,268760,2,0,P|318:103|266:118,1,110,0|2,0:0|0:0,0:0:0:0:
251,322,269214,1,2,0:0:0:0:
392,240,269442,1,2,0:0:0:0:
388,76,269669,1,2,0:0:0:0:
248,48,269896,5,6,0:0:0:0:
178,29,270009,1,2,0:0:0:0:
109,44,270123,1,2,0:0:0:0:
55,88,270236,1,2,0:0:0:0:
41,158,270350,1,2,0:0:0:0:
59,227,270464,1,2,0:0:0:0:
107,276,270577,1,2,0:0:0:0:
176,291,270691,1,2,0:0:0:0:
244,268,270805,6,0,L|304:268,1,55,6|2,0:0|0:0,0:0:0:0:
313,189,271032,2,0,L|368:189,1,55,2|2,0:0|0:0,0:0:0:0:
440,112,271260,2,0,L|385:112,1,55,2|2,0:0|0:0,0:0:0:0:
509,33,271487,2,0,L|454:33,1,55,2|2,0:0|0:0,0:0:0:0:
349,32,271714,6,2,L|304:32,31,27.5,4|2|2|2|0|2|2|2|6|2|2|2|2|2|2|2|6|2|2|2|2|2|2|2|6|2|2|2|6|2|2|2,0:0|0:0|0:0|0:0|0:0|0:0|0:0|0:0|0:0|0:0|0:0|0:0|0:0|0:0|0:0|0:0|0:0|0:0|0:0|0:0|0:0|0:0|0:0|0:0|0:0|0:0|0:0|0:0|0:0|0:0|0:0|0:0,0:0:0:0:
285,32,273532,37,0,0:0:0:0:
144,192,273873,1,0,0:0:0:0:
285,352,274214,1,0,0:0:0:0:
428,192,274555,1,0,0:0:0:0:
285,352,274896,1,8,0:0:0:0:
416,320,275123,1,0,0:0:0:0:
428,192,275351,5,6,0:0:0:0:
376,180,275464,1,0,0:0:0:0:
324,192,275578,1,0,0:0:0:0:
272,180,275692,1,0,0:0:0:0:
220,192,275805,2,0,L|160:192,1,60.5000018463135,12|0,0:0|0:0,0:0:0:0:
224,24,276032,2,0,L|296:24,1,60.5000018463135
428,80,276260,5,4,0:0:0:0:
439,136,276374,1,0,0:0:0:0:
428,192,276487,1,0,0:0:0:0:
284,352,276714,1,12,0:0:0:0:
75,238,276942,5,0,0:0:0:0:
131,262,277055,1,0,0:0:0:0:
191,262,277169,1,6,0:0:0:0:
247,238,277282,1,0,0:0:0:0:
159,12,277509,1,0,0:0:0:0:
159,12,277623,2,0,B|159:76,1,60.5000018463135,12|0,0:0|0:0,0:0:0:0:
75,238,277851,37,0,0:0:0:0:
57,187,277965,1,0,0:0:0:0:
38,136,278079,1,4,0:0:0:0:
92,290,278305,1,0,0:0:0:0:
20,86,278532,1,12,0:0:0:0:
112,339,278760,1,0,0:0:0:0:
208,135,278987,6,0,B|192:192|192:192|208:251,1,121.000003692627,6|0,0:0|0:0,0:0:0:0:
276,57,279328,1,0,0:0:0:0:
276,57,279442,2,0,L|336:57,1,60.5000018463135,12|0,0:0|0:0,0:0:0:0:
336,327,279669,2,0,L|276:327,1,60.5000018463135
440,165,279896,5,4,0:0:0:0:
456,210,280010,1,0,0:0:0:0:
472,255,280123,1,0,0:0:0:0:
489,300,280237,1,0,0:0:0:0:
505,345,280351,2,0,L|444:345,1,60.5000018463135,12|0,0:0|0:0,0:0:0:0:
276,192,280578,2,0,L|336:192,1,60.5000018463135
112,92,280805,5,6,0:0:0:0:
128,137,280919,1,0,0:0:0:0:
144,182,281032,1,0,0:0:0:0:
161,227,281146,1,0,0:0:0:0:
181,274,281260,2,0,B|270:274|270:274|248:308,1,121.000003692627,12|0,0:0|0:0,0:0:0:0:
67,346,281601,37,0,0:0:0:0:
67,290,281714,1,4,0:0:0:0:
83,238,281828,1,0,0:0:0:0:
83,182,281942,2,0,L|143:182,1,60.5000018463135
305,74,282169,2,0,B|217:74|217:74|233:102,1,121.000003692627,12|0,0:0|0:0,0:0:0:0:
328,232,282623,5,6,0:0:0:0:
424,40,282851,1,0,0:0:0:0:
424,40,283078,2,0,L|424:168,1,121.000003692627,12|0,0:0|0:0,0:0:0:0:
456,268,283419,1,0,0:0:0:0:
456,268,283532,6,0,L|456:328,1,60.5000018463135,4|0,0:0|0:0,0:0:0:0:
340,128,283760,2,0,L|340:188,1,60.5000018463135
244,36,283987,2,0,B|156:36|156:36|172:72,1,121.000003692627,12|0,0:0|0:0,0:0:0:0:
340,188,284442,5,6,0:0:0:0:
286,222,284556,1,0,0:0:0:0:
220,222,284669,1,0,0:0:0:0:
158,222,284783,1,0,0:0:0:0:
108,260,284897,2,0,B|43:260,1,60.5000018463135,12|0,0:0|0:0,0:0:0:0:
256,352,285123,2,0,B|321:352,1,60.5000018463135
464,192,285351,37,4,0:0:0:0:
244,88,285578,1,0,0:0:0:0:
401,315,285805,1,12,0:0:0:0:
181,211,286032,1,0,0:0:0:0:
476,79,286260,6,0,L|476:15,1,60.5000018463135,6|0,0:0|0:0,0:0:0:0:
476,305,286487,2,0,L|476:365,1,60.5000018463135
401,69,286714,2,0,L|401:5,1,60.5000018463135,12|0,0:0|0:0,0:0:0:0:
401,315,286942,2,0,L|401:379,1,60.5000018463135
330,107,287169,5,4,0:0:0:0:
269,110,287282,1,0,0:0:0:0:
215,137,287396,1,0,0:0:0:0:
185,189,287509,1,0,0:0:0:0:
180,249,287623,2,0,B|180:338|180:338|140:322,1,121.000003692627,12|0,0:0|0:0,0:0:0:0:
36,79,288078,6,0,L|36:15,1,60.5000018463135,6|0,0:0|0:0,0:0:0:0:
36,305,288305,2,0,L|36:365,1,60.5000018463135
111,69,288532,2,0,L|111:5,1,60.5000018463135,12|0,0:0|0:0,0:0:0:0:
111,315,288760,2,0,L|111:379,1,60.5000018463135
256,68,288987,37,4,0:0:0:0:
256,316,289214,1,0,0:0:0:0:
468,192,289442,1,12,0:0:0:0:
472,40,289896,5,6,0:0:0:0:
412,53,290010,1,0,0:0:0:0:
352,48,290123,1,0,0:0:0:0:
292,61,290237,1,0,0:0:0:0:
226,93,290351,1,12,0:0:0:0:
205,162,290464,1,0,0:0:0:0:
207,234,290578,1,0,0:0:0:0:
252,290,290692,1,0,0:0:0:0:
316,324,290806,6,0,L|377:324,1,60.5000018463135,4|0,0:0|0:0,0:0:0:0:
462,149,291032,1,0,0:0:0:0:
422,82,291146,1,0,0:0:0:0:
352,48,291260,2,0,L|283:48,1,60.5000018463135,12|0,0:0|0:0,0:0:0:0:
207,234,291487,1,0,0:0:0:0:
207,234,291714,6,0,L|268:234,1,60.5000018463135,6|0,0:0|0:0,0:0:0:0:
460,339,291942,2,0,L|389:339,1,60.5000018463135
237,155,292169,2,0,L|301:155,1,60.5000018463135,12|0,0:0|0:0,0:0:0:0:
427,261,292396,1,0,0:0:0:0:
467,215,292510,1,0,0:0:0:0:
467,155,292623,38,0,L|467:95,1,60.5000018463135,4|0,0:0|0:0,0:0:0:0:
365,0,292851,1,0,0:0:0:0:
369,289,293078,1,12,0:0:0:0:
369,289,293305,2,0,L|433:289,1,60.5000018463135,2|0,0:0|0:0,0:0:0:0:
320,296,293532,5,6,0:0:0:0:
264,296,293646,1,0,0:0:0:0:
216,324,293760,1,0,0:0:0:0:
160,324,293873,1,0,0:0:0:0:
92,324,293987,5,12,0:0:0:0:
68,260,294101,1,0,0:0:0:0:
45,196,294214,1,0,0:0:0:0:
22,132,294328,1,0,0:0:0:0:
8,80,294442,5,4,0:0:0:0:
64,80,294555,1,0,0:0:0:0:
104,116,294669,1,0,0:0:0:0:
160,116,294782,1,0,0:0:0:0:
228,116,294896,37,12,0:0:0:0:
216,182,295010,1,0,0:0:0:0:
204,249,295123,1,2,0:0:0:0:
192,316,295237,1,0,0:0:0:0:
248,316,295351,5,6,0:0:0:0:
304,316,295464,1,0,0:0:0:0:
341,356,295578,1,0,0:0:0:0:
397,356,295692,1,0,0:0:0:0:
462,352,295805,5,12,0:0:0:0:
474,285,295919,1,0,0:0:0:0:
486,218,296032,1,0,0:0:0:0:
498,152,296146,1,0,0:0:0:0:
505,85,296260,6,0,L|445:85,1,60.5000018463135,4|0,0:0|0:0,0:0:0:0:
212,232,296487,2,0,L|272:232,1,60.5000018463135
462,352,296714,1,12,0:0:0:0:
324,128,296942,1,0,0:0:0:0:
40,240,297169,38,0,B|71:77|71:77|150:54,1,247.500009441376,6|0,0:0|0:0,0:0:0:0:
472,240,297623,2,0,B|440:77|440:77|361:54,1,247.500009441376,12|0,0:0|0:0,0:0:0:0:
108,286,298078,6,0,B|116:326|116:326|152:362,1,82.5000031471254,4|0,0:0|0:0,0:0:0:0:
366,355,298305,2,0,B|396:326|396:326|404:286,1,82.5000031471254
295,65,298532,2,0,B|255:57|255:57|215:65,1,82.5000031471254,14|0,0:0|0:0,0:0:0:0:
78,192,298760,1,0,0:0:0:0:
58,216,298873,1,0,0:0:0:0:
40,240,298987,6,0,B|71:77|71:77|156:148,1,247.500009441376,6|0,0:0|0:0,0:0:0:0:
472,240,299442,2,0,B|441:77|441:77|356:148,1,247.500009441376,12|0,0:0|0:0,0:0:0:0:
404,286,299896,6,0,B|396:326|396:326|366:355,1,82.5000031471254,4|0,0:0|0:0,0:0:0:0:
145,355,300123,2,0,B|116:326|116:326|108:286,1,82.5000031471254
214,65,300350,2,0,B|254:57|254:57|294:65,1,82.5000031471254,14|0,0:0|0:0,0:0:0:0:
434,192,300578,1,0,0:0:0:0:
454,216,300691,1,0,0:0:0:0:
472,240,300805,38,0,B|427:150|427:150|369:121|369:121|325:47,1,247.500009441376,6|0,0:0|0:0,0:0:0:0:
40,240,301260,2,0,B|84:150|84:150|142:121|142:121|186:47,1,247.500009441376,12|0,0:0|0:0,0:0:0:0:
366,219,301714,6,0,L|411:308,1,82.5000031471254,4|0,0:0|0:0,0:0:0:0:
108,292,301942,2,0,L|146:219,1,82.5000031471254
445,74,302169,2,0,L|400:-15,1,82.5000031471254,14|0,0:0|0:0,0:0:0:0:
104,0,302396,2,0,L|67:74,1,82.5000031471254
472,240,302623,6,0,P|428:108|305:47,1,247.500009441376,6|0,0:0|0:0,0:0:0:0:
40,240,303078,2,0,P|84:108|207:47,1,247.500009441376,12|0,0:0|0:0,0:0:0:0:
331,150,303532,6,0,P|362:177|378:215,1,82.5000031471254,4|0,0:0|0:0,0:0:0:0:
134,215,303760,2,0,P|150:176|190:147,1,82.5000031471254
218,361,303987,1,6,0:0:0:0:
193,287,304101,1,4,0:0:0:0:
256,242,304214,1,4,0:0:0:0:
318,287,304328,1,4,0:0:0:0:
294,361,304442,38,0,B|169:361,1,121.000003692627,6|0,0:0|0:0,0:0:0:0:
84,152,304896,2,0,L|144:152,1,60.5000018463135,14|0,0:0|0:0,0:0:0:0:
264,278,305123,2,0,L|204:278,1,60.5000018463135
346,129,305351,6,0,B|365:110|365:110|372:78|372:78|365:46|365:46|346:27,1,121.000003692627,6|2,0:0|0:0,0:0:0:0:
9,80,305805,1,14,0:0:0:0:
72,120,305919,1,8,0:0:0:0:
146,120,306032,1,8,0:0:0:0:
221,120,306146,1,8,0:0:0:0:
280,164,306260,6,0,B|355:164|355:164|400:184,1,121.000003692627,6|2,0:0|0:0,0:0:0:0:
464,344,306714,2,0,L|400:344,1,60.5000018463135,12|0,0:0|0:0,0:0:0:0:
252,248,306942,2,0,L|312:248,1,60.5000018463135,2|0,0:0|0:0,0:0:0:0:
130,192,307169,6,0,P|110:247|130:304,1,121.000003692627,6|2,0:0|0:0,0:0:0:0:
397,182,307623,1,14,0:0:0:0:
409,116,307737,1,8,0:0:0:0:
363,70,307851,1,8,0:0:0:0:
316,23,307964,1,8,0:0:0:0:
251,36,308078,38,0,B|191:57|191:57|132:57,1,121.000003692627,6|2,0:0|0:0,0:0:0:0:
4,192,308532,1,14,0:0:0:0:
4,248,308646,1,8,0:0:0:0:
4,304,308760,1,8,0:0:0:0:
44,340,308873,1,8,0:0:0:0:
100,344,308987,6,0,B|172:344|172:344|208:311,1,121.000003692627,6|2,0:0|0:0,0:0:0:0:
364,188,309442,1,14,0:0:0:0:
420,192,309555,1,0,0:0:0:0:
468,220,309669,1,0,0:0:0:0:
496,268,309782,1,0,0:0:0:0:
500,324,309896,6,0,B|457:354|457:354|376:353,1,121.000003692627,6|0,0:0|0:0,0:0:0:0:
308,353,310237,1,4,0:0:0:0:
138,351,310464,1,4,0:0:0:0:
94,351,310578,1,0,0:0:0:0:
218,263,310805,1,4,0:0:0:0:
262,263,310919,1,0,0:0:0:0:
261,49,311260,1,12,0:0:0:0:
148,48,311487,1,0,0:0:0:0:
148,48,311714,6,0,B|64:48|64:48|80:88,1,123.750004720688,4|0,0:0|0:0,0:0:0:0:
160,196,312396,1,0,0:0:0:0:
319,167,312623,2,0,B|271:167|271:167|208:196|208:196|160:196,1,165.000006294251,8|0,0:0|0:0,0:0:0:0:
52,344,313532,37,4,0:0:0:0:
160,196,313873,1,4,0:0:0:0:
268,344,314214,1,4,0:0:0:0:
199,271,314442,2,0,P|160:282|122:271,1,82.5000031471254,8|0,0:0|0:0,0:0:0:0:
120,125,314896,2,0,P|159:114|198:126,1,82.5000031471254,0|0,0:0|0:0,0:0:0:0:
288,200,315351,6,0,B|317:216|333:240|333:240|349:216|379:200,1,123.750004720688,4|0,0:0|0:0,0:0:0:0:
331,59,316032,1,0,0:0:0:0:
177,58,316260,2,0,P|253:32|330:58,1,165.000006294251,8|0,0:0|0:0,0:0:0:0:
460,192,317169,6,0,L|489:357,1,165.000006294251,4|0,0:0|0:0,0:0:0:0:
460,192,317851,1,4,0:0:0:0:
452,148,317964,1,4,0:0:0:0:
444,105,318078,2,0,B|428:18,1,82.5000031471254,8|4,0:0|0:0,0:0:0:0:
368,168,318532,1,0,0:0:0:0:
267,206,318760,1,0,0:0:0:0:
168,168,318987,6,0,B|168:248|168:248|188:288,1,123.750004720688,4|0,0:0|0:0,0:0:0:0:
328,340,319669,1,0,0:0:0:0:
450,340,319896,2,0,B|389:284|389:284|328:340,1,165.000006294251,8|0,0:0|0:0,0:0:0:0:
224,192,320805,37,4,0:0:0:0:
116,340,321146,1,4,0:0:0:0:
8,192,321487,1,4,0:0:0:0:
136,152,321714,2,0,B|120:192|120:192|136:228,1,82.5000031471254,8|0,0:0|0:0,0:0:0:0:
312,228,322169,2,0,B|328:192|328:192|312:152,1,82.5000031471254
224,109,322623,6,0,B|168:80|168:80|168:20,1,123.750004720688,4|0,0:0|0:0,0:0:0:0:
304,36,323305,1,0,0:0:0:0:
469,36,323532,2,0,L|304:36,1,165.000006294251,8|0,0:0|0:0,0:0:0:0:
212,36,324214,1,0,0:0:0:0:
120,36,324442,5,4,0:0:0:0:
52,96,324669,1,4,0:0:0:0:
52,188,324896,1,0,0:0:0:0:
52,288,325123,1,4,0:0:0:0:
85,319,325237,1,4,0:0:0:0:
120,348,325351,2,0,L|248:348,1,123.750004720688,8|0,0:0|0:0,0:0:0:0:
276,316,325805,2,0,L|361:316,1,82.5000031471254
508,316,326260,5,4,0:0:0:0:
256,192,326487,12,8,329669,0:0:0:0:
