osu file format v14

[General]
AudioFilename: audio.mp3
AudioLeadIn: 0
PreviewTime: 259362
Countdown: 0
SampleSet: Soft
StackLeniency: 0.3
Mode: 0
LetterboxInBreaks: 0
WidescreenStoryboard: 0

[Editor]
Bookmarks: 55015,197643,219586
DistanceSpacing: 1.8
BeatDivisor: 4
GridSize: 32
TimelineZoom: 1.3872

[Metadata]
Title:Fly Away (Ata DarkPsy Remix)
TitleUnicode:Fly Away (Ata DarkPsy Remix)
Artist:TeddyLoid
ArtistUnicode:TeddyLoid パンティ&ストッキングwithガーターベルト
Creator:Gabdu09
Version:Secret map for nenu
Source:パンティ&ストッキングwithガーターベルト
Tags:PanSto PSG Panty & Stocking with Garterbelt tek infinite potential hi-tech hardcore fullon darkpsy psytrance psychedelic trance stream deathstream choke marathon
BeatmapID:1717282
BeatmapSetID:819042

[Difficulty]
HPDrainRate:6.5
CircleSize:4.2
OverallDifficulty:9.5
ApproachRate:9.6
SliderMultiplier:1.8
SliderTickRate:1

[Events]
//Background and Video events
0,0,"BG.jpg",0,0
//Break Periods
2,298390,304940
2,323815,326049
//Storyboard Layer 0 (Background)
//Storyboard Layer 1 (Fail)
//Storyboard Layer 2 (Pass)
//Storyboard Layer 3 (Foreground)
//Storyboard Layer 4 (Overlay)
//Storyboard Sound Samples

[TimingPoints]
158,342.857142857143,4,2,0,10,1,0
33072,-333.333333333333,4,2,1,40,0,0
35729,-250.000000000001,4,2,1,40,0,0
37100,-285.714285714286,4,2,1,40,0,0
38472,-333.333333333333,4,2,1,40,0,0
39843,-400,4,2,1,40,0,0
40529,-250.000000000001,4,2,1,40,0,0
44043,-142.857142857143,4,2,1,40,0,0
46790,-125,4,2,1,40,0,0
50904,-111.111111111111,4,2,1,40,0,0
51500,-142.857142857143,4,2,1,40,0,0
52186,-333.333333333333,4,2,1,40,0,0
54672,-83.3333333333333,4,2,1,40,0,0
55015,-100,4,2,1,40,0,0
63243,-100,4,2,1,35,0,0
63329,-100,4,2,1,40,0,0
63586,-100,4,2,1,35,0,0
63672,-100,4,2,1,40,0,0
63929,-100,4,2,1,25,0,0
64015,-100,4,2,1,40,0,0
64272,-100,4,2,1,25,0,0
64358,-100,4,2,1,40,0,0
64615,-100,4,2,1,25,0,0
64700,-100,4,2,1,40,0,0
64958,-100,4,2,1,25,0,0
65043,-100,4,2,1,40,0,0
65300,-100,4,2,1,20,0,0
65386,-100,4,2,1,40,0,0
65643,-100,4,2,1,45,0,0
65729,-100,4,2,1,40,0,0
65986,-100,4,2,1,40,0,0
75929,-100,4,2,1,20,0,0
76272,-100,4,2,1,40,0,0
76962,-90.9090909090909,4,2,1,40,0,0
77304,-100,4,2,1,40,0,0
98215,-100,4,2,1,45,0,0
98558,-100,4,2,1,65,0,0
98900,-100,4,2,1,40,0,0
118786,-100,4,2,1,45,0,0
119129,-100,4,2,1,65,0,0
119472,-166.666666666667,4,2,1,15,0,0
119986,-100,4,2,1,45,0,0
120329,-142.857142857143,4,2,1,45,0,0
120586,-100,4,2,1,45,0,0
120843,-100,4,2,1,40,0,0
121186,-86.9565217391304,4,2,1,40,0,0
136272,-95.2380952380952,4,2,1,40,0,0
136615,-105.263157894737,4,2,1,40,0,0
136958,-117.647058823529,4,2,1,40,0,0
137300,-133.333333333333,4,2,1,40,0,0
137643,-153.846153846153,4,2,1,45,0,0
137986,-181.818181818181,4,2,1,50,0,0
138672,-222.222222222221,4,2,1,40,0,0
138843,-285.714285714284,4,2,1,35,0,0
139015,-399.999999999997,4,2,1,35,0,0
139184,-500,4,2,1,35,0,0
139355,-666.666666666667,4,2,1,30,0,0
139527,-1000,4,2,1,30,0,0
139698,-1000,4,2,1,30,0,0
140042,-133.333333333333,4,2,1,35,0,0
140729,-133.333333333333,4,2,1,40,0,0
141072,-133.333333333333,4,2,1,25,0,0
141415,-181.818181818181,4,2,1,20,0,0
142100,-370.37037037037,4,2,1,20,0,0
144933,-285.714285714284,4,2,1,10,0,0
145388,-285.714285714284,4,2,1,20,0,0
148190,-285.714285714284,4,2,1,25,0,0
153676,-285.714285714284,4,2,1,30,0,0
159158,-222.222222222221,4,2,1,30,0,0
161900,-181.818181818181,4,2,1,35,0,0
162329,-100,4,2,1,35,0,0
162500,-166.666666666667,4,2,1,35,0,0
164729,-133.333333333333,4,2,1,35,0,0
166443,-90.9090909090909,4,2,1,35,0,0
166615,-133.333333333333,4,2,1,35,0,0
169190,-117.647058823529,4,2,1,35,0,0
173300,-100,4,2,1,35,0,0
174329,-52.6315789473684,4,2,1,40,0,0
174586,-48.780487804878,4,2,1,55,0,0
174843,-48.780487804878,4,2,1,5,0,0
175015,-48.780487804878,4,2,1,40,0,0
175358,-55.5555555555556,4,2,1,40,0,0
175700,-80,4,2,1,40,0,1
181700,-80,4,2,1,10,0,1
181872,-80,4,2,1,40,0,1
186329,-95.2380952380952,4,2,1,40,0,1
186672,-80,4,2,1,40,0,1
193529,-80,4,2,1,40,0,0
196272,-133.333333333333,4,2,1,40,0,0
196615,-181.818181818181,4,2,1,40,0,0
196786,-181.818181818181,4,2,1,5,0,0
196958,-76.9230769230769,4,2,1,40,0,0
218276,-76.9230769230769,4,2,1,5,0,0
218390,-76.9230769230769,4,2,1,40,0,0
218619,-76.9230769230769,4,2,1,5,0,0
218900,-232.558139534884,4,2,1,15,0,0
219162,-76.9230769230769,4,2,1,5,0,0
219243,-76.9230769230769,4,2,1,40,0,0
241872,-76.9230769230769,4,2,1,35,0,0
242215,-76.9230769230769,4,2,1,30,0,0
242557,-76.9230769230769,4,2,1,25,0,0
242899,-76.9230769230769,4,2,1,20,0,0
245643,-153.846153846153,4,2,1,20,0,0
245983,-166.666666666667,4,2,1,20,0,0
246327,-181.818181818182,4,2,1,20,0,0
246670,-200,4,2,1,20,0,0
247013,-222.222222222222,4,2,1,20,0,0
247355,-250,4,2,1,20,0,0
247699,-285.714285714286,4,2,1,20,0,0
248041,-333.333333333333,4,2,1,20,0,0
248385,-400,4,2,1,20,0,0
248728,-500,4,2,1,20,0,0
249070,-666.666666666667,4,2,1,20,0,0
249413,-1000,4,2,1,20,0,0
252072,-100,4,2,1,30,0,0
252243,-100,4,2,1,10,0,0
252329,-100,4,2,1,30,0,0
252415,-100,4,2,1,10,0,0
259358,-133.333333333333,4,2,1,30,0,0
259698,-125,4,2,1,30,0,0
260042,-117.647058823529,4,2,1,30,0,0
260386,-111.111111111111,4,2,1,30,0,0
260727,-105.263157894737,4,2,1,30,0,0
261242,-100,4,2,1,30,0,0
261756,-100,4,2,1,35,0,0
263472,-80,4,2,1,40,0,1
273072,-285.714285714286,4,2,1,20,0,0
273158,-285.714285714287,4,2,1,5,0,0
273415,-80,4,2,1,30,0,0
273758,-80,4,2,1,45,0,0
274443,-80,4,2,1,45,0,1
284043,-66.2251655629139,4,2,1,40,0,0
284386,-66.2251655629139,4,2,1,40,0,1
285415,-80,4,2,1,40,0,1
285586,-166.666666666667,4,2,1,40,0,1
285633,-80,4,2,1,40,0,1
286272,-166.666666666667,4,2,1,40,0,1
286319,-80,4,2,1,40,0,1
290900,-86.9565217391304,4,2,1,40,0,1
293643,-86.9565217391304,4,2,1,40,0,0
293729,-80,4,2,1,40,0,0
296219,-80,4,2,1,5,0,0
296386,-285.714285714284,4,2,1,40,0,0
296558,-285.714285714284,4,2,1,35,0,0
307104,-285.714285714284,4,2,0,35,0,0
307358,-166.666666666667,4,2,0,25,0,0
308643,-181.818181818181,4,2,0,25,0,0
312072,-250,4,2,0,25,0,0
312843,-172.413793103448,4,2,0,25,0,0
315586,-222.222222222221,4,2,0,25,0,0
316958,-153.846153846153,4,2,0,25,0,0
317815,-181.818181818181,4,2,1,25,0,0
318072,-133.333333333333,4,2,1,25,0,0
319700,-117.647058823529,4,2,1,40,0,0
321072,-100,4,2,1,40,0,0
323472,-222.222222222221,4,2,1,5,0,0
323815,-222.222222222221,4,2,1,15,0,0
324419,-250,4,2,1,40,0,0
324676,-250,4,2,1,5,0,0
324843,-166.666666666667,4,2,1,40,0,0
325186,-250,4,2,1,40,0,0
326558,-83.3333333333333,4,2,1,40,0,0
327929,-238.095238095238,4,2,1,40,0,0
328615,-83.3333333333333,4,2,1,40,0,0
329300,-74.0740740740741,4,2,1,40,0,1
333415,-68.9655172413793,4,2,1,40,0,1
333672,-74.0740740740741,4,2,1,40,0,1
339929,-80,4,2,1,40,0,1
340272,-74.0740740740741,4,2,1,40,0,1
341643,-71.4285714285714,4,2,1,40,0,1
341900,-74.0740740740741,4,2,1,40,0,1
343015,-55.5555555555556,4,2,1,40,0,1
343272,-74.0740740740741,4,2,1,40,0,1
346100,-66.6666666666667,4,2,1,40,0,1
346358,-74.0740740740741,4,2,1,40,0,1
347129,-74.0740740740741,4,2,1,40,0,0
349872,-133.333333333333,4,2,1,40,0,0
350215,-181.818181818181,4,2,1,40,0,0
350558,-74.0740740740741,4,2,1,40,0,0
351158,-76.9230769230769,4,2,1,40,0,0
371900,-80,4,2,1,5,0,0
372072,-80,4,2,1,40,0,0
372243,-80,4,2,1,5,0,0
372415,-285.714285714284,4,2,1,15,0,0
372843,-80,4,2,1,40,0,0
395129,-80,4,2,1,35,0,0
414329,-80,4,2,1,20,0,0
416386,-200,4,2,1,20,0,0
416733,-80,4,2,1,20,0,0
417072,-263.157894736842,4,2,1,20,0,0
417590,-526.315789473684,4,2,1,20,0,0
417843,-333.333333333333,4,2,1,5,0,0
420933,-333.333333333333,4,2,1,5,0,0

[Colours]
Combo1 : 211,240,241
Combo2 : 105,104,97
Combo3 : 111,225,208
Combo4 : 38,185,163

[HitObjects]
197,226,33072,6,0,B|182:216|145:219,3,53.9999983520508,0|0|0|0,0:0|0:0|0:0|0:0,0:0:0:0:
233,297,34443,6,0,B|270:300|291:286,3,53.9999983520508,0|0|0|0,0:0|0:0|0:0|0:0,0:0:0:0:
302,130,35815,6,0,P|284:92|256:74,1,72,0|0,0:0|0:0,0:0:0:0:
183,207,36500,2,0,P|201:169|229:151,1,72,0|0,0:0|0:0,0:0:0:0:
300,275,37186,6,0,P|285:247|260:229,1,62.9999980773926,0|0,0:0|0:0,0:0:0:0:
183,351,37872,2,0,P|198:323|223:305,1,62.9999980773926,0|0,0:0|0:0,0:0:0:0:
315,284,38558,6,0,P|328:264|332:227,1,53.9999983520508,0|0,0:0|0:0,0:0:0:0:
340,135,39243,2,0,P|320:122|283:118,1,53.9999983520508,0|0,0:0|0:0,0:0:0:0:
191,110,39929,2,0,P|180:126|176:157,1,45,0|0,0:0|0:0,0:0:0:0:
39,185,40615,6,0,B|74:160|74:160|103:160,1,72,0|0,0:0|0:0,0:0:0:0:
139,40,41300,2,0,B|181:43|181:43|204:61,1,72,0|0,0:0|0:0,0:0:0:0:
319,149,41986,6,0,B|284:174|284:174|255:174,1,72,0|0,0:0|0:0,0:0:0:0:
219,294,42672,2,0,B|176:290|176:290|153:272,1,72,0|0,0:0|0:0,0:0:0:0:
305,251,43358,5,0,0:0:0:0:
360,327,43700,1,0,0:0:0:0:
399,242,44043,1,0,0:0:0:0:
454,318,44386,1,0,0:0:0:0:
493,233,44729,1,0,0:0:0:0:
408,140,45072,1,0,0:0:0:0:
294,228,45415,1,0,0:0:0:0:
210,76,45758,1,0,0:0:0:0:
197,265,46100,1,0,0:0:0:0:
40,159,46443,1,0,0:0:0:0:
210,76,46786,5,0,0:0:0:0:
0,94,47129,1,0,0:0:0:0:
206,171,47472,1,0,0:0:0:0:
112,27,47815,1,0,0:0:0:0:
296,51,48158,5,0,0:0:0:0:
128,164,48500,1,0,0:0:0:0:
351,167,48843,1,0,0:0:0:0:
181,73,49186,1,0,0:0:0:0:
288,280,49529,5,0,0:0:0:0:
421,63,49872,1,0,0:0:0:0:
170,205,50215,1,0,0:0:0:0:
453,312,50558,1,0,0:0:0:0:
340,24,50900,1,0,0:0:0:0:
194,307,51243,1,0,0:0:0:0:
421,63,51586,6,0,L|502:87,1,62.9999980773926,0|0,0:0|0:0,0:0:0:0:
219,147,51929,2,0,L|279:129,1,62.9999980773926,0|0,0:0|0:0,0:0:0:0:
404,312,52272,6,0,B|405:330|405:330|410:335|410:335|411:360,2,40.4999987640381,2|0|0,0:0|0:0|0:0,0:0:0:0:
256,192,52958,12,0,54672,0:0:0:0:
173,119,55015,5,2,0:0:0:0:
187,134,55100,1,0,0:0:0:0:
204,144,55186,1,0,0:0:0:0:
222,153,55272,1,0,0:0:0:0:
241,160,55358,1,2,0:0:0:0:
259,160,55443,1,0,0:0:0:0:
279,158,55529,1,0,0:0:0:0:
298,153,55615,1,0,0:0:0:0:
316,143,55700,5,2,0:0:0:0:
310,159,55786,1,0,0:0:0:0:
307,175,55872,1,0,0:0:0:0:
307,192,55958,1,0,0:0:0:0:
311,208,56043,1,2,0:0:0:0:
318,223,56129,1,0,0:0:0:0:
329,236,56215,1,0,0:0:0:0:
342,247,56300,1,0,0:0:0:0:
356,254,56386,5,2,0:0:0:0:
338,248,56472,1,0,0:0:0:0:
319,248,56558,1,0,0:0:0:0:
303,257,56643,1,0,0:0:0:0:
292,271,56729,1,2,0:0:0:0:
286,288,56815,1,0,0:0:0:0:
284,305,56900,1,0,0:0:0:0:
286,322,56986,1,0,0:0:0:0:
290,338,57073,5,2,0:0:0:0:
273,331,57158,1,0,0:0:0:0:
257,322,57244,1,0,0:0:0:0:
243,311,57330,1,0,0:0:0:0:
232,297,57415,1,2,0:0:0:0:
223,281,57501,1,0,0:0:0:0:
216,265,57587,1,0,0:0:0:0:
213,247,57672,1,0,0:0:0:0:
213,229,57758,5,2,0:0:0:0:
198,219,57843,1,0,0:0:0:0:
188,203,57929,1,0,0:0:0:0:
184,185,58015,1,0,0:0:0:0:
189,167,58100,1,2,0:0:0:0:
199,152,58186,1,0,0:0:0:0:
205,135,58272,1,0,0:0:0:0:
209,117,58358,1,0,0:0:0:0:
209,99,58443,5,2,0:0:0:0:
191,97,58529,1,0,0:0:0:0:
173,93,58615,1,0,0:0:0:0:
156,86,58700,1,0,0:0:0:0:
141,77,58786,1,2,0:0:0:0:
126,66,58872,1,0,0:0:0:0:
106,54,58958,1,0,0:0:0:0:
82,45,59043,1,0,0:0:0:0:
51,52,59129,5,2,0:0:0:0:
66,66,59215,1,0,0:0:0:0:
84,71,59300,1,0,0:0:0:0:
102,72,59386,1,0,0:0:0:0:
121,67,59472,1,2,0:0:0:0:
140,62,59558,1,0,0:0:0:0:
159,60,59643,1,0,0:0:0:0:
179,62,59729,1,0,0:0:0:0:
198,69,59815,5,2,0:0:0:0:
213,84,59900,1,0,0:0:0:0:
225,101,59986,1,0,0:0:0:0:
229,123,60072,1,0,0:0:0:0:
226,145,60158,1,2,0:0:0:0:
217,165,60243,1,0,0:0:0:0:
208,185,60329,1,0,0:0:0:0:
206,207,60415,1,0,0:0:0:0:
206,224,60500,5,2,0:0:0:0:
214,249,60586,1,0,0:0:0:0:
231,270,60672,1,0,0:0:0:0:
254,284,60758,1,0,0:0:0:0:
280,290,60843,1,2,0:0:0:0:
307,288,60929,1,0,0:0:0:0:
331,276,61015,1,0,0:0:0:0:
350,258,61100,1,0,0:0:0:0:
362,234,61186,5,2,0:0:0:0:
369,208,61272,1,0,0:0:0:0:
370,181,61358,1,0,0:0:0:0:
363,155,61443,1,0,0:0:0:0:
349,132,61529,1,2,0:0:0:0:
327,115,61615,1,0,0:0:0:0:
306,95,61700,1,0,0:0:0:0:
289,69,61786,1,0,0:0:0:0:
282,37,61872,5,2,0:0:0:0:
312,55,61958,1,0,0:0:0:0:
346,64,62043,1,0,0:0:0:0:
382,61,62129,1,0,0:0:0:0:
402,40,62215,1,2,0:0:0:0:
425,30,62300,1,0,0:0:0:0:
451,34,62386,1,0,0:0:0:0:
474,47,62472,1,0,0:0:0:0:
488,69,62558,5,2,0:0:0:0:
493,95,62643,1,0,0:0:0:0:
489,121,62729,1,0,0:0:0:0:
475,144,62815,1,0,0:0:0:0:
459,160,62900,1,2,0:0:0:0:
448,180,62986,1,0,0:0:0:0:
442,201,63072,1,0,0:0:0:0:
441,223,63158,1,0,0:0:0:0:
443,245,63243,5,2,0:0:0:0:
451,266,63329,1,0,0:0:0:0:
454,288,63415,1,0,0:0:0:0:
445,308,63500,1,0,0:0:0:0:
426,320,63586,1,2,0:0:0:0:
403,316,63672,1,0,0:0:0:0:
388,305,63758,1,0,0:0:0:0:
376,291,63843,1,0,0:0:0:0:
363,278,63929,5,2,0:0:0:0:
349,266,64015,1,0,0:0:0:0:
336,260,64100,1,0,0:0:0:0:
322,258,64186,1,0,0:0:0:0:
309,261,64272,1,2,0:0:0:0:
297,266,64358,1,0,0:0:0:0:
287,274,64443,1,0,0:0:0:0:
278,282,64529,1,0,0:0:0:0:
267,287,64615,5,2,0:0:0:0:
260,270,64700,1,0,0:0:0:0:
250,254,64786,1,0,0:0:0:0:
236,242,64872,1,0,0:0:0:0:
219,233,64958,1,2,0:0:0:0:
201,227,65043,1,0,0:0:0:0:
183,225,65129,1,0,0:0:0:0:
165,227,65215,1,0,0:0:0:0:
144,235,65300,5,2,0:0:0:0:
125,248,65386,1,0,0:0:0:0:
112,266,65472,1,0,0:0:0:0:
108,288,65558,1,0,0:0:0:0:
114,312,65643,5,2,0:0:0:0:
130,326,65729,1,0,0:0:0:0:
152,328,65815,1,0,0:0:0:0:
172,318,65900,1,0,0:0:0:0:
180,303,65986,5,2,0:3:0:0:
203,330,66072,1,0,0:0:0:0:
240,334,66158,1,2,0:0:0:0:
269,312,66243,1,0,0:0:0:0:
270,278,66329,1,0,0:0:0:0:
257,248,66415,1,0,0:0:0:0:
233,231,66500,1,2,0:0:0:0:
217,209,66586,1,0,0:0:0:0:
208,184,66672,5,0,0:0:0:0:
206,156,66758,1,0,0:0:0:0:
215,131,66843,1,2,0:0:0:0:
238,116,66929,1,0,0:0:0:0:
265,114,67015,1,0,0:0:0:0:
288,126,67100,1,0,0:0:0:0:
307,145,67186,1,2,0:0:0:0:
330,157,67272,1,0,0:0:0:0:
356,163,67358,5,0,0:0:0:0:
342,139,67443,1,0,0:0:0:0:
315,136,67529,1,2,0:0:0:0:
292,150,67615,1,0,0:0:0:0:
291,176,67700,1,0,0:0:0:0:
306,198,67786,1,0,0:0:0:0:
307,226,67872,1,2,0:0:0:0:
293,244,67958,1,0,0:0:0:0:
269,255,68043,5,0,0:0:0:0:
246,256,68129,1,0,0:0:0:0:
225,247,68215,1,2,0:0:0:0:
207,234,68300,1,0,0:0:0:0:
188,219,68386,1,0,0:0:0:0:
168,206,68472,1,0,0:0:0:0:
146,199,68558,1,2,0:0:0:0:
123,197,68643,1,0,0:0:0:0:
97,195,68729,5,0,0:0:0:0:
129,187,68814,1,0,0:0:0:0:
162,180,68900,1,2,0:0:0:0:
195,173,68986,1,0,0:0:0:0:
228,166,69072,1,0,0:0:0:0:
255,146,69157,1,0,0:0:0:0:
269,116,69243,1,2,0:0:0:0:
268,83,69329,1,0,0:0:0:0:
250,54,69414,5,0,0:0:0:0:
221,38,69500,1,0,0:0:0:0:
188,37,69586,1,2,0:0:0:0:
157,50,69671,1,0,0:0:0:0:
132,73,69757,1,0,0:0:0:0:
115,101,69843,1,0,0:0:0:0:
108,134,69928,1,2,0:0:0:0:
111,168,70014,1,0,0:0:0:0:
125,198,70100,5,0,0:0:0:0:
139,216,70185,1,0,0:0:0:0:
156,230,70271,1,2,0:0:0:0:
176,240,70357,1,0,0:0:0:0:
198,245,70442,1,0,0:0:0:0:
221,245,70528,1,0,0:0:0:0:
243,241,70614,1,2,0:0:0:0:
263,232,70700,1,0,0:0:0:0:
281,218,70786,5,0,0:0:0:0:
264,211,70871,1,0,0:0:0:0:
246,211,70957,1,2,0:0:0:0:
229,217,71043,1,0,0:0:0:0:
215,228,71128,1,0,0:0:0:0:
205,243,71214,1,0,0:0:0:0:
201,260,71300,1,2,0:0:0:0:
203,278,71386,1,0,0:0:0:0:
211,294,71472,5,0,0:0:0:0:
223,283,71557,1,0,0:0:0:0:
231,269,71643,1,2,0:0:0:0:
235,253,71729,1,0,0:0:0:0:
233,237,71814,1,0,0:0:0:0:
226,222,71900,1,0,0:0:0:0:
213,211,71986,1,2,0:0:0:0:
199,205,72072,1,0,0:0:0:0:
182,204,72158,5,0,0:0:0:0:
185,218,72243,1,0,0:0:0:0:
192,230,72329,1,2,0:0:0:0:
203,240,72415,1,0,0:0:0:0:
216,246,72500,1,0,0:0:0:0:
231,247,72586,1,0,0:0:0:0:
245,242,72672,1,2,0:0:0:0:
256,234,72758,1,0,0:0:0:0:
264,221,72843,5,0,0:0:0:0:
257,211,72928,1,0,0:0:0:0:
253,201,73014,1,2,0:0:0:0:
249,190,73100,1,0,0:0:0:0:
247,179,73185,1,0,0:0:0:0:
245,168,73271,1,0,0:0:0:0:
246,157,73357,1,2,0:0:0:0:
247,146,73443,1,0,0:0:0:0:
251,135,73529,5,0,0:0:0:0:
262,136,73614,1,0,0:0:0:0:
273,137,73700,1,2,0:0:0:0:
284,135,73786,1,0,0:0:0:0:
295,132,73871,1,0,0:0:0:0:
305,128,73957,1,0,0:0:0:0:
315,122,74043,1,2,0:0:0:0:
324,115,74129,1,0,0:0:0:0:
331,107,74215,5,0,0:0:0:0:
320,110,74300,1,0,0:0:0:0:
310,116,74386,1,2,0:0:0:0:
301,123,74472,1,0,0:0:0:0:
294,131,74557,1,0,0:0:0:0:
289,141,74643,1,0,0:0:0:0:
286,152,74729,1,2,0:0:0:0:
285,163,74815,1,0,0:0:0:0:
286,174,74900,5,0,0:0:0:0:
297,175,74985,1,0,0:0:0:0:
308,177,75071,1,2,0:0:0:0:
319,179,75157,1,0,0:0:0:0:
330,181,75242,1,0,0:0:0:0:
341,183,75328,1,0,0:0:0:0:
352,185,75414,1,2,0:0:0:0:
363,187,75500,1,0,0:0:0:0:
385,200,75586,5,0,0:0:0:0:
385,200,75672,1,0,0:0:0:0:
385,200,75758,1,2,0:0:0:0:
385,200,75843,1,0,0:0:0:0:
426,177,75929,5,6,0:0:0:0:
413,180,76015,1,4,0:0:0:0:
400,183,76100,1,4,0:0:0:0:
387,186,76186,1,0,0:0:0:0:
374,189,76272,5,8,0:0:0:0:
399,231,76358,1,0,0:0:0:0:
424,273,76443,1,4,0:0:0:0:
374,271,76529,1,0,0:0:0:0:
324,269,76615,1,6,0:0:0:0:
328,276,76700,1,0,0:0:0:0:
332,283,76786,1,0,0:0:0:0:
336,290,76872,1,0,0:0:0:0:
376,333,76958,5,2,0:3:0:0:
343,316,77043,1,0,0:0:0:0:
307,309,77129,1,0,0:0:0:0:
270,312,77215,1,0,0:0:0:0:
236,325,77300,1,8,0:0:0:0:
236,277,77386,1,0,0:0:0:0:
211,233,77472,1,2,0:0:0:0:
165,224,77558,1,0,0:0:0:0:
119,248,77643,5,0,0:0:0:0:
138,207,77729,1,0,0:0:0:0:
110,171,77815,1,2,0:0:0:0:
66,176,77900,1,0,0:0:0:0:
48,217,77986,1,10,0:0:0:0:
74,253,78072,1,0,0:0:0:0:
119,248,78158,1,2,0:0:0:0:
165,224,78243,1,0,0:0:0:0:
202,191,78329,5,0,0:0:0:0:
221,226,78415,1,0,0:0:0:0:
253,248,78500,1,2,0:0:0:0:
291,261,78586,1,0,0:0:0:0:
331,267,78672,1,10,0:0:0:0:
371,267,78758,1,0,0:0:0:0:
406,260,78843,1,2,0:0:0:0:
438,243,78929,1,0,0:0:0:0:
452,221,79015,5,0,0:0:0:0:
421,202,79100,1,0,0:0:0:0:
397,174,79186,1,2,0:0:0:0:
382,140,79272,1,0,0:0:0:0:
381,102,79358,1,10,0:0:0:0:
406,75,79443,1,0,0:0:0:0:
441,72,79529,1,2,0:0:0:0:
471,91,79615,1,0,0:0:0:0:
484,124,79700,5,0,0:0:0:0:
449,112,79786,1,0,0:0:0:0:
414,105,79872,1,2,0:0:0:0:
381,102,79958,1,0,0:0:0:0:
346,105,80043,1,10,0:0:0:0:
314,113,80129,1,0,0:0:0:0:
281,124,80215,1,2,0:0:0:0:
254,147,80300,1,0,0:0:0:0:
230,174,80386,5,0,0:0:0:0:
219,208,80472,1,0,0:0:0:0:
215,243,80558,1,2,0:0:0:0:
191,269,80643,1,0,0:0:0:0:
157,278,80729,1,10,0:0:0:0:
123,268,80815,1,0,0:0:0:0:
103,238,80900,1,2,0:0:0:0:
106,202,80986,1,0,0:0:0:0:
124,171,81072,5,0,0:0:0:0:
151,147,81158,1,0,0:0:0:0:
171,118,81243,1,2,0:0:0:0:
179,82,81329,1,0,0:0:0:0:
171,46,81415,1,10,0:0:0:0:
193,73,81500,1,0,0:0:0:0:
227,81,81586,1,2,0:0:0:0:
262,84,81672,1,0,0:0:0:0:
297,77,81758,5,0,0:0:0:0:
309,43,81843,1,0,0:0:0:0:
343,33,81929,1,2,0:0:0:0:
371,55,82015,1,0,0:0:0:0:
379,89,82100,1,10,0:0:0:0:
359,119,82186,1,0,0:0:0:0:
378,154,82272,1,2,0:0:0:0:
418,152,82358,1,0,0:0:0:0:
453,126,82443,5,0,0:0:0:0:
474,170,82529,1,0,0:0:0:0:
483,218,82615,1,2,0:0:0:0:
475,261,82700,1,0,0:0:0:0:
461,299,82786,1,10,0:0:0:0:
423,273,82872,1,0,0:0:0:0:
378,268,82958,1,2,0:0:0:0:
336,284,83043,1,0,0:0:0:0:
313,299,83129,5,0,0:0:0:0:
336,271,83215,1,0,0:0:0:0:
344,236,83300,1,2,0:0:0:0:
341,199,83386,1,0,0:0:0:0:
323,167,83472,1,10,0:0:0:0:
342,136,83558,1,0,0:0:0:0:
357,103,83643,1,2,0:0:0:0:
360,67,83729,1,0,0:0:0:0:
352,31,83815,5,0,0:0:0:0:
320,28,83900,1,0,0:0:0:0:
289,35,83986,1,2,0:0:0:0:
260,49,84072,1,0,0:0:0:0:
234,68,84158,2,0,P|214:90|202:119,1,45,10|0,0:0|0:0,0:0:0:0:
185,209,84329,1,2,0:0:0:0:
189,229,84415,1,0,0:0:0:0:
199,247,84500,5,0,0:0:0:0:
163,242,84586,1,0,0:0:0:0:
126,243,84672,1,2,0:0:0:0:
90,251,84758,1,0,0:0:0:0:
57,266,84843,2,0,P|23:285|6:307,3,45,8|0|2|0,0:0|0:0|0:0|0:0,0:0:0:0:
48,176,85186,5,0,0:0:0:0:
57,145,85272,1,0,0:0:0:0:
61,113,85358,1,2,0:0:0:0:
60,81,85443,1,0,0:0:0:0:
47,52,85529,2,0,P|75:82|100:104,1,45,8|0,0:0|0:0,0:0:0:0:
209,142,85700,1,2,0:0:0:0:
244,136,85786,1,0,0:0:0:0:
273,114,85872,5,0,0:0:0:0:
289,81,85958,1,0,0:0:0:0:
283,45,86043,1,2,0:0:0:0:
264,14,86129,1,0,0:0:0:0:
229,4,86215,2,0,P|191:9|174:23,3,45,8|0|2|0,0:0|0:0|0:0|0:0,0:0:0:0:
209,142,86558,5,0,0:0:0:0:
218,171,86643,1,0,0:0:0:0:
219,202,86729,1,2,0:0:0:0:
212,232,86815,1,0,0:0:0:0:
189,264,86900,2,0,P|226:255|274:262,1,45,8|0,0:0|0:0,0:0:0:0:
358,244,87072,1,2,0:0:0:0:
371,281,87158,1,0,0:0:0:0:
367,318,87243,5,0,0:0:0:0:
403,318,87329,1,0,0:0:0:0:
438,309,87415,1,2,0:0:0:0:
464,285,87500,1,0,0:0:0:0:
479,252,87586,2,0,P|486:213|480:186,1,45,8|0,0:0|0:0,0:0:0:0:
419,81,87758,1,2,0:0:0:0:
387,63,87843,1,0,0:0:0:0:
355,76,87929,6,0,P|341:120|346:184,1,90,0|2,0:0|0:0,0:0:0:0:
358,244,88186,1,2,0:0:0:0:
361,232,88272,2,0,P|353:203|330:171,1,45,8|0,0:0|0:0,0:0:0:0:
259,101,88443,2,0,P|261:123|258:145,1,45,2|0,0:0|0:0,0:0:0:0:
220,228,88615,5,2,0:3:0:0:
189,250,88700,1,0,0:0:0:0:
199,287,88786,1,0,0:0:0:0:
235,296,88872,1,0,0:0:0:0:
259,263,88958,1,8,0:0:0:0:
220,228,89043,1,0,0:0:0:0:
167,216,89129,1,0,0:0:0:0:
113,221,89215,1,0,0:0:0:0:
62,252,89300,5,2,0:0:0:0:
35,221,89386,1,0,0:0:0:0:
21,182,89472,1,0,0:0:0:0:
20,141,89558,1,0,0:0:0:0:
33,103,89643,2,0,P|60:68|88:54,1,45,10|0,0:0|0:0,0:0:0:0:
184,117,89815,1,0,0:0:0:0:
216,140,89900,1,0,0:0:0:0:
255,147,89986,5,2,0:0:0:0:
295,143,90072,1,0,0:0:0:0:
334,133,90158,1,0,0:0:0:0:
373,126,90243,1,0,0:0:0:0:
412,134,90329,2,0,P|441:150|459:170,3,45,10|0|0|0,0:0|0:0|0:0|0:0,0:0:0:0:
370,244,90672,5,2,0:0:0:0:
345,273,90758,1,0,0:0:0:0:
308,289,90843,1,0,0:0:0:0:
268,283,90929,1,0,0:0:0:0:
229,260,91015,1,10,0:0:0:0:
197,228,91100,1,0,0:0:0:0:
153,215,91186,1,0,0:0:0:0:
107,217,91272,1,0,0:0:0:0:
74,248,91358,5,2,0:0:0:0:
58,289,91443,1,0,0:0:0:0:
65,333,91529,1,0,0:0:0:0:
93,368,91615,1,0,0:0:0:0:
135,384,91700,1,10,0:0:0:0:
179,377,91786,1,0,0:0:0:0:
214,349,91872,1,0,0:0:0:0:
230,308,91958,1,0,0:0:0:0:
224,264,92043,5,2,0:0:0:0:
197,228,92129,1,0,0:0:0:0:
176,187,92215,1,0,0:0:0:0:
170,142,92300,1,0,0:0:0:0:
185,99,92386,2,0,P|218:63|250:55,1,45,10|0,0:0|0:0,0:0:0:0:
317,131,92558,1,0,0:0:0:0:
311,153,92643,1,0,0:0:0:0:
305,175,92729,5,2,0:0:0:0:
331,191,92815,1,0,0:0:0:0:
361,195,92900,1,0,0:0:0:0:
392,195,92986,1,0,0:0:0:0:
423,190,93072,2,0,P|470:204|485:226,1,45,10|0,0:0|0:0,0:0:0:0:
412,308,93243,1,0,0:0:0:0:
371,310,93329,1,0,0:0:0:0:
343,285,93415,5,2,0:0:0:0:
343,258,93500,1,0,0:0:0:0:
358,227,93586,1,0,0:0:0:0:
361,195,93672,1,0,0:0:0:0:
350,165,93758,2,0,P|317:138|283:142,3,45,10|0|0|0,0:0|0:0|0:0|0:0,0:0:0:0:
213,126,94100,5,2,0:0:0:0:
185,141,94186,1,0,0:0:0:0:
166,167,94272,1,0,0:0:0:0:
159,197,94358,1,0,0:0:0:0:
158,227,94443,1,10,0:0:0:0:
129,239,94529,1,0,0:0:0:0:
97,235,94615,1,0,0:0:0:0:
69,220,94700,1,0,0:0:0:0:
50,194,94786,5,2,0:0:0:0:
43,224,94872,1,0,0:0:0:0:
51,254,94958,1,0,0:0:0:0:
68,281,95043,1,0,0:0:0:0:
93,299,95129,2,0,P|129:314|156:311,1,45,10|0,0:0|0:0,0:0:0:0:
239,259,95300,1,0,0:0:0:0:
279,273,95386,1,0,0:0:0:0:
300,312,95472,5,2,0:0:0:0:
290,355,95558,1,0,0:0:0:0:
253,380,95643,1,0,0:0:0:0:
209,375,95729,1,0,0:0:0:0:
180,343,95815,2,0,P|171:318|176:287,3,45,10|0|0|0,0:0|0:0|0:0|0:0,0:0:0:0:
124,195,96158,5,2,0:0:0:0:
148,176,96243,1,0,0:0:0:0:
173,156,96329,1,0,0:0:0:0:
198,137,96415,1,2,0:0:0:0:
168,127,96500,1,10,0:0:0:0:
137,117,96586,1,0,0:0:0:0:
106,107,96672,1,2,0:0:0:0:
130,88,96758,1,0,0:0:0:0:
154,69,96843,5,2,0:0:0:0:
178,50,96929,1,0,0:0:0:0:
207,38,97015,1,0,0:0:0:0:
238,35,97100,1,0,0:0:0:0:
274,53,97186,1,10,0:0:0:0:
302,79,97272,1,0,0:0:0:0:
330,91,97358,1,0,0:0:0:0:
361,90,97443,1,0,0:0:0:0:
388,73,97529,5,2,0:0:0:0:
343,62,97615,1,0,0:0:0:0:
302,79,97700,1,0,0:0:0:0:
293,123,97786,1,0,0:0:0:0:
306,163,97872,1,10,0:0:0:0:
325,203,97958,1,8,0:0:0:0:
326,243,98043,1,8,0:0:0:0:
314,281,98129,1,8,0:0:0:0:
288,312,98215,5,8,0:0:0:0:
244,322,98300,1,8,0:0:0:0:
199,313,98386,1,8,0:0:0:0:
165,282,98472,1,8,0:0:0:0:
154,233,98558,1,8,0:0:0:0:
170,182,98643,1,8,0:0:0:0:
181,124,98729,1,8,0:0:0:0:
169,61,98815,1,8,0:0:0:0:
125,22,98900,6,0,P|76:22|43:37,3,45,2|0|0|0,0:0|0:0|0:0|0:0,0:0:0:0:
30,112,99243,2,0,P|78:111|111:96,1,45,8|0,0:0|0:0,0:0:0:0:
282,133,99415,5,0,0:0:0:0:
288,138,99500,1,0,0:0:0:0:
295,143,99586,2,0,L|246:203,1,45,2|0,0:0|0:0,0:0:0:0:
74,214,99758,1,0,0:0:0:0:
68,219,99843,1,0,0:0:0:0:
61,224,99929,2,0,L|110:284,1,45,8|0,0:0|0:0,0:0:0:0:
281,250,100100,2,0,L|232:310,1,45,0|0,0:0|0:0,0:0:0:0:
195,143,100272,5,2,0:0:0:0:
205,113,100358,1,0,0:0:0:0:
215,83,100443,1,0,0:0:0:0:
225,53,100529,1,0,0:0:0:0:
235,23,100615,1,8,0:0:0:0:
258,43,100700,1,0,0:0:0:0:
288,50,100786,1,0,0:0:0:0:
319,47,100872,1,0,0:0:0:0:
350,43,100958,6,0,P|392:46|420:60,3,45,2|0|0|0,0:0|0:0|0:0|0:0,0:0:0:0:
322,197,101300,2,0,P|344:227|374:244,3,45,8|0|0|0,0:0|0:0|0:0|0:0,0:0:0:0:
453,166,101643,5,2,0:0:0:0:
461,176,101729,1,0,0:0:0:0:
469,186,101815,1,0,0:0:0:0:
486,154,101900,1,0,0:0:0:0:
470,121,101986,1,8,0:0:0:0:
434,116,102072,1,0,0:0:0:0:
404,136,102158,1,0,0:0:0:0:
364,129,102243,1,0,0:0:0:0:
330,106,102329,5,2,0:0:0:0:
311,69,102415,1,0,0:0:0:0:
302,29,102500,1,0,0:0:0:0:
290,58,102586,1,0,0:0:0:0:
265,77,102672,2,0,P|230:87|203:80,1,45,8|0,0:0|0:0,0:0:0:0:
112,34,102843,1,0,0:0:0:0:
112,34,102929,1,0,0:0:0:0:
112,34,103015,6,0,P|98:64|93:102,3,45,2|0|0|0,0:0|0:0|0:0|0:0,0:0:0:0:
175,144,103358,2,0,P|196:177|198:206,1,45,8|0,0:0|0:0,0:0:0:0:
27,242,103529,6,0,L|49:173,1,45,2|0,0:0|0:0,0:0:0:0:
108,292,103700,1,0,0:0:0:0:
114,297,103786,1,0,0:0:0:0:
120,302,103872,2,0,L|118:261,2,22.5,0|0|0,0:0|0:0|0:0,0:0:0:0:
227,326,104043,2,0,L|199:259,1,45,8|0,0:0|0:0,0:0:0:0:
335,311,104215,2,0,L|285:257,1,45,0|0,0:0|0:0,0:0:0:0:
178,152,104386,5,2,0:0:0:0:
200,129,104472,1,0,0:0:0:0:
230,122,104558,1,0,0:0:0:0:
264,131,104643,1,0,0:0:0:0:
300,132,104729,1,8,0:0:0:0:
331,114,104815,1,0,0:0:0:0:
349,83,104900,5,0,0:0:0:0:
346,74,104986,1,0,0:0:0:0:
342,65,105072,2,0,B|280:46,1,45,2|0,0:0|0:0,0:0:0:0:
111,18,105243,1,0,0:0:0:0:
115,25,105329,1,0,0:0:0:0:
119,32,105415,2,0,B|181:51,1,45,8|0,0:0|0:0,0:0:0:0:
178,152,105586,2,0,B|134:138,1,45,0|0,0:0|0:0,0:0:0:0:
18,89,105758,5,2,0:0:0:0:
34,115,105843,1,0,0:0:0:0:
46,144,105929,1,0,0:0:0:0:
49,175,106015,1,0,0:0:0:0:
43,205,106100,1,8,0:0:0:0:
44,236,106186,1,0,0:0:0:0:
62,261,106272,1,0,0:0:0:0:
91,273,106358,1,0,0:0:0:0:
121,267,106443,6,0,P|156:242|165:203,1,45,2|0,0:0|0:0,0:0:0:0:
216,175,106615,2,0,P|256:167|286:183,1,45,0|0,0:0|0:0,0:0:0:0:
380,264,106786,2,0,L|435:281,2,45,8|0|0,0:0|0:0|0:0,0:0:0:0:
217,284,107043,1,0,0:0:0:0:
217,284,107129,5,2,0:0:0:0:
227,256,107215,1,0,0:0:0:0:
228,227,107300,1,0,0:0:0:0:
217,199,107386,1,0,0:0:0:0:
195,183,107472,1,8,0:0:0:0:
178,152,107558,1,0,0:0:0:0:
184,112,107643,1,0,0:0:0:0:
210,81,107729,1,0,0:0:0:0:
247,64,107815,5,2,0:0:0:0:
287,65,107900,1,0,0:0:0:0:
321,87,107986,1,0,0:0:0:0:
364,73,108072,1,0,0:0:0:0:
408,78,108158,2,0,P|435:88|463:116,3,45,8|0|0|0,0:0|0:0|0:0|0:0,0:0:0:0:
293,20,108500,6,0,P|287:49|290:95,1,45,2|0,0:0|0:0,0:0:0:0:
306,230,108672,1,0,0:0:0:0:
276,263,108758,1,0,0:0:0:0:
239,279,108843,1,8,0:0:0:0:
196,275,108929,1,0,0:0:0:0:
161,250,109015,1,0,0:0:0:0:
117,242,109100,1,0,0:0:0:0:
80,265,109186,5,2,0:0:0:0:
70,307,109272,1,0,0:0:0:0:
89,347,109358,1,0,0:0:0:0:
129,366,109443,1,0,0:0:0:0:
172,354,109529,1,8,0:0:0:0:
198,319,109615,1,0,0:0:0:0:
196,275,109700,1,0,0:0:0:0:
186,230,109786,1,0,0:0:0:0:
178,185,109872,5,2,0:0:0:0:
191,141,109958,1,0,0:0:0:0:
220,107,110043,1,0,0:0:0:0:
264,99,110129,1,0,0:0:0:0:
307,109,110215,2,0,P|333:127|350:154,1,45,8|0,0:0|0:0,0:0:0:0:
321,290,110386,5,0,0:0:0:0:
313,284,110472,1,0,0:0:0:0:
305,278,110558,2,0,L|255:306,1,45,2|0,0:0|0:0,0:0:0:0:
491,272,110729,1,0,0:0:0:0:
485,264,110815,1,0,0:0:0:0:
479,256,110900,2,0,L|507:206,1,45,8|0,0:0|0:0,0:0:0:0:
413,92,111072,2,0,L|412:149,1,45,0|0,0:0|0:0,0:0:0:0:
381,285,111243,5,2,0:0:0:0:
382,301,111328,1,0,0:0:0:0:
383,317,111414,1,0,0:0:0:0:
351,319,111500,1,0,0:0:0:0:
327,340,111586,1,8,0:0:0:0:
318,370,111672,1,0,0:0:0:0:
304,341,111758,1,0,0:0:0:0:
279,321,111843,1,0,0:0:0:0:
248,312,111929,5,2,0:0:0:0:
218,332,112015,1,0,0:0:0:0:
182,330,112100,1,0,0:0:0:0:
153,300,112186,1,0,0:0:0:0:
116,273,112272,1,8,0:0:0:0:
124,252,112358,1,0,0:0:0:0:
127,229,112443,1,0,0:0:0:0:
127,206,112529,1,0,0:0:0:0:
125,183,112615,5,2,0:0:0:0:
158,170,112700,1,0,0:0:0:0:
184,145,112786,1,0,0:0:0:0:
201,113,112872,1,0,0:0:0:0:
203,71,112958,2,0,P|247:90|282:81,1,45,8|0,0:0|0:0,0:0:0:0:
394,51,113129,1,0,0:0:0:0:
368,76,113215,1,0,0:0:0:0:
359,110,113300,5,2,0:0:0:0:
367,145,113386,1,0,0:0:0:0:
396,165,113472,2,0,P|421:207|416:238,1,45,0|0,0:0|0:0,0:0:0:0:
353,351,113643,1,8,0:0:0:0:
338,339,113729,1,0,0:0:0:0:
327,324,113815,1,0,0:0:0:0:
320,308,113900,1,0,0:0:0:0:
315,291,113986,5,2,0:0:0:0:
313,277,114072,1,0,0:0:0:0:
312,263,114158,1,0,0:0:0:0:
332,245,114243,1,0,0:0:0:0:
330,222,114329,1,8,0:0:0:0:
285,231,114415,1,0,0:0:0:0:
240,240,114500,6,0,L|195:249,1,45,0|0,0:0|0:0,0:0:0:0:
111,327,114672,1,2,0:0:0:0:
122,334,114758,1,0,0:0:0:0:
134,338,114843,2,0,P|154:333|166:323,3,22.5,0|0|0|0,0:0|0:0|0:0|0:0,0:0:0:0:
37,335,115015,2,0,L|30:290,1,45,8|0,0:0|0:0,0:0:0:0:
184,199,115186,2,0,L|190:243,1,45,0|0,0:0|0:0,0:0:0:0:
79,236,115358,5,2,0:0:0:0:
60,216,115443,1,0,0:0:0:0:
48,191,115529,1,0,0:0:0:0:
51,164,115615,1,0,0:0:0:0:
67,142,115700,1,8,0:0:0:0:
95,101,115786,1,0,0:0:0:0:
81,53,115872,6,0,L|47:8,1,45,0|0,0:0|0:0,0:0:0:0:
219,20,116043,1,2,0:0:0:0:
231,25,116129,1,0,0:0:0:0:
243,31,116215,2,0,L|176:82,1,45,0|0,0:0|0:0,0:0:0:0:
265,204,116386,1,8,0:0:0:0:
266,217,116472,1,0,0:0:0:0:
266,231,116558,2,0,L|189:195,1,45,0|0,0:0|0:0,0:0:0:0:
291,132,116729,5,2,0:0:0:0:
324,146,116815,1,0,0:0:0:0:
359,150,116900,1,0,0:0:0:0:
374,117,116986,1,0,0:0:0:0:
407,102,117072,1,8,0:0:0:0:
442,105,117158,1,0,0:0:0:0:
442,145,117243,1,0,0:0:0:0:
442,185,117329,1,0,0:0:0:0:
442,225,117415,5,2,0:0:0:0:
442,225,117500,1,0,0:0:0:0:
442,225,117586,2,0,P|440:258|431:281,1,45,0|0,0:0|0:0,0:0:0:0:
291,317,117758,1,8,0:0:0:0:
291,317,117843,2,0,P|310:338|336:353,2,45,0|0|0,0:0|0:0|0:0,0:0:0:0:
222,202,118100,5,2,0:0:0:0:
232,167,118186,1,0,0:0:0:0:
261,145,118272,1,0,0:0:0:0:
297,144,118358,1,0,0:0:0:0:
334,157,118443,1,8,0:0:0:0:
349,120,118529,1,0,0:0:0:0:
385,106,118615,1,0,0:0:0:0:
422,113,118700,1,0,0:0:0:0:
444,154,118786,5,2,0:1:0:0:
430,112,118872,1,0,0:0:0:0:
409,70,118958,1,2,0:1:0:0:
369,38,119043,1,0,0:0:0:0:
314,27,119129,1,2,0:1:0:0:
260,39,119215,1,0,0:0:0:0:
198,52,119300,1,2,0:1:0:0:
131,41,119386,1,0,0:0:0:0:
56,22,119472,6,0,P|69:56|65:92,3,53.9999983520508,2|0|0|0,0:0|0:0|0:0|0:0,0:0:0:0:
75,196,120158,5,8,0:0:0:0:
80,208,120243,1,0,0:0:0:0:
85,220,120329,2,0,L|113:185,3,31.4999990386963,4|0|0|0,0:0|0:0|0:0|0:0,0:0:0:0:
88,323,120672,2,0,L|116:288,1,45,8|0,0:0|0:0,0:0:0:0:
261,211,120843,6,0,L|233:176,1,45,6|0,0:0|0:0,0:0:0:0:
103,119,121015,2,0,L|79:150,2,22.5,2|0|0,0:0|0:0|0:0,0:0:0:0:
223,85,121186,2,0,P|246:84|274:93,1,51.7500009870529,8|0,0:0|0:0,0:0:0:0:
418,235,121358,2,0,P|395:236|367:227,1,51.7500009870529,8|0,0:0|0:0,0:0:0:0:
273,92,121529,5,0,0:0:0:0:
470,138,121700,2,0,L|464:75,1,51.7500009870529,2|0,0:0|0:0,0:0:0:0:
268,41,121872,2,0,L|274:104,1,51.7500009870529,8|0,0:0|0:0,0:0:0:0:
474,133,122043,2,0,L|468:70,1,51.7500009870529,2|0,0:0|0:0,0:0:0:0:
345,102,122215,6,0,L|350:154,1,51.7500009870529,0|0,0:0|0:0,0:0:0:0:
392,4,122386,2,0,L|397:56,1,51.7500009870529,2|0,0:1|0:0,0:0:0:0:
340,105,122558,2,0,L|345:157,1,51.7500009870529,10|0,0:1|0:0,0:0:0:0:
387,7,122729,2,0,L|392:59,1,51.7500009870529,2|0,0:1|0:0,0:0:0:0:
335,108,122900,6,0,L|340:160,1,51.7500009870529,2|0,0:1|0:0,0:0:0:0:
475,209,123072,2,0,P|494:209|503:212,2,25.8750004935265,2|0|0,0:0|0:0|0:0,0:0:0:0:
256,299,123243,2,0,L|204:290,1,51.7500009870529,8|0,0:0|0:0,0:0:0:0:
405,226,123415,1,2,0:0:0:0:
427,279,123500,1,0,0:0:0:0:
406,325,123586,6,0,P|366:347|322:350,1,51.7500009870529,0|0,0:0|0:0,0:0:0:0:
328,190,123758,2,0,P|329:170|340:146,2,25.8750004935265,2|0|0,0:0|0:0|0:0,0:0:0:0:
196,289,123929,2,0,L|178:337,1,51.7500009870529,8|0,0:0|0:0,0:0:0:0:
119,227,124100,2,0,L|90:145,1,51.7500009870529,10|0,0:0|0:0,0:0:0:0:
66,61,124272,5,0,0:0:0:0:
179,132,124443,2,0,P|221:122|240:87,1,51.7500009870529,2|0,0:0|0:0,0:0:0:0:
302,78,124615,2,0,P|272:46|232:47,1,51.7500009870529,8|0,0:0|0:0,0:0:0:0:
194,0,124786,2,0,P|181:41|202:75,1,51.7500009870529,2|0,0:0|0:0,0:0:0:0:
283,217,124958,6,0,L|363:239,1,51.7500009870529,0|0,0:0|0:0,0:0:0:0:
463,228,125129,2,0,L|413:214,1,51.7500009870529,2|0,0:1|0:0,0:0:0:0:
152,219,125300,2,0,L|232:241,1,51.7500009870529,10|0,0:1|0:0,0:0:0:0:
335,236,125472,2,0,L|286:223,1,51.7500009870529,2|0,0:1|0:0,0:0:0:0:
155,225,125643,6,0,L|235:247,1,51.7500009870529,2|0,0:1|0:0,0:0:0:0:
466,234,125815,2,0,L|416:220,1,51.7500009870529,2|0,0:1|0:0,0:0:0:0:
282,135,125986,2,0,L|320:0,1,103.500001974106,8|2,0:0|0:0,0:0:0:0:
323,41,126243,1,0,0:0:0:0:
337,48,126329,6,0,L|255:61,1,51.7500009870529,0|0,0:0|0:0,0:0:0:0:
156,85,126500,2,0,L|137:103,2,25.8750004935265,2|0|0,0:0|0:0|0:0,0:0:0:0:
41,49,126672,2,0,L|27:-1,1,51.7500009870529,8|0,0:0|0:0,0:0:0:0:
137,102,126843,2,0,L|123:152,1,51.7500009870529,10|0,0:0|0:0,0:0:0:0:
14,293,127015,5,0,0:0:0:0:
127,339,127186,2,0,P|170:320|186:284,1,51.7500009870529,2|0,0:0|0:0,0:0:0:0:
308,252,127358,2,0,P|289:209|253:193,1,51.7500009870529,8|0,0:0|0:0,0:0:0:0:
159,219,127529,2,0,P|116:238|100:274,1,51.7500009870529,2|0,0:0|0:0,0:0:0:0:
372,304,127700,6,0,B|360:323|360:323|331:327,1,51.7500009870529,0|0,0:0|0:0,0:0:0:0:
342,147,127872,2,0,B|361:158|361:158|365:187,1,51.7500009870529,2|0,0:1|0:0,0:0:0:0:
257,309,128043,2,0,B|238:298|238:298|234:269,1,51.7500009870529,10|0,0:1|0:0,0:0:0:0:
231,156,128215,2,0,B|242:136|242:136|271:132,1,51.7500009870529,2|0,0:1|0:0,0:0:0:0:
376,309,128386,6,0,B|364:328|364:328|335:332,1,51.7500009870529,2|0,0:1|0:0,0:0:0:0:
351,151,128558,2,0,P|360:136|381:120,2,25.8750004935265,2|0|0,0:0|0:0|0:0,0:0:0:0:
175,267,128729,2,0,P|162:244|168:193,1,51.7500009870529,8|0,0:0|0:0,0:0:0:0:
282,215,128900,1,2,0:0:0:0:
265,248,128986,1,0,0:0:0:0:
233,268,129072,6,0,P|187:274|161:248,1,51.7500009870529,0|0,0:0|0:0,0:0:0:0:
270,132,129243,2,0,P|263:116|245:96,2,25.8750004935265,2|0|0,0:0|0:0|0:0,0:0:0:0:
93,270,129415,2,0,L|87:345,1,51.7500009870529,8|0,0:0|0:0,0:0:0:0:
157,157,129586,2,0,L|153:106,1,51.7500009870529,10|0,0:0|0:0,0:0:0:0:
82,20,129758,5,0,0:0:0:0:
39,184,129929,2,0,L|101:134,1,51.7500009870529,2|0,0:0|0:0,0:0:0:0:
259,10,130100,2,0,L|197:60,1,51.7500009870529,8|0,0:0|0:0,0:0:0:0:
166,158,130272,2,0,L|161:106,1,51.7500009870529,2|0,0:0|0:0,0:0:0:0:
248,0,130443,6,0,L|186:50,1,51.7500009870529,0|0,0:0|0:0,0:0:0:0:
235,217,130615,2,0,P|256:243|306:258,1,51.7500009870529,2|0,0:1|0:0,0:0:0:0:
396,217,130786,2,0,P|408:185|396:135,1,51.7500009870529,10|0,0:1|0:0,0:0:0:0:
316,78,130958,2,0,P|282:83|244:118,1,51.7500009870529,2|0,0:1|0:0,0:0:0:0:
229,220,131129,6,0,P|251:248|305:264,1,51.7500009870529,2|0,0:1|0:0,0:0:0:0:
401,220,131300,2,0,P|414:186|401:132,1,51.7500009870529,2|0,0:1|0:0,0:0:0:0:
319,327,131472,2,0,P|255:348|186:305,1,103.500001974106,8|2,0:0|0:0,0:0:0:0:
217,329,131729,1,0,0:0:0:0:
227,332,131815,6,0,P|271:360|289:396,1,51.7500009870529,0|0,0:0|0:0,0:0:0:0:
115,339,131986,2,0,P|110:327|112:315,2,25.8750004935265,2|0|0,0:0|0:0|0:0,0:0:0:0:
181,236,132158,2,0,P|225:219|265:231,1,51.7500009870529,8|0,0:0|0:0,0:0:0:0:
52,260,132329,2,0,P|8:277|-32:265,1,51.7500009870529,10|0,0:0|0:0,0:0:0:0:
129,173,132500,5,0,0:0:0:0:
134,137,132586,1,0,0:0:0:0:
134,100,132672,1,2,0:0:0:0:
126,64,132758,1,0,0:0:0:0:
109,31,132843,2,0,L|168:57,1,51.7500009870529,8|0,0:0|0:0,0:0:0:0:
277,103,133015,1,2,0:0:0:0:
277,103,133100,1,0,0:0:0:0:
277,103,133186,6,0,L|229:82,1,51.7500009870529,0|0,0:0|0:0,0:0:0:0:
242,211,133358,2,0,L|223:162,1,51.7500009870529,2|0,0:1|0:0,0:0:0:0:
335,9,133529,2,0,L|286:27,1,51.7500009870529,10|0,0:1|0:0,0:0:0:0:
232,213,133700,2,0,L|212:162,1,51.7500009870529,2|0,0:1|0:0,0:0:0:0:
332,0,133872,6,0,L|281:19,1,51.7500009870529,2|0,0:1|0:0,0:0:0:0:
312,151,134043,2,0,P|328:157|343:169,2,25.8750004935265,2|0|0,0:0|0:0|0:0,0:0:0:0:
196,66,134215,2,0,B|178:82|178:82|176:98|176:98|142:124|144:161,1,103.500001974106,8|0,0:0|0:0,0:0:0:0:
334,271,134472,1,0,0:0:0:0:
334,271,134558,6,0,P|356:246|371:195,1,51.7500009870529,0|0,0:0|0:0,0:0:0:0:
391,84,134729,2,0,P|382:71|367:63,2,25.8750004935265,0|0|0,0:0|0:0|0:0,0:0:0:0:
363,218,134900,2,0,P|338:209|318:193,1,51.7500009870529,8|0,0:0|0:0,0:0:0:0:
486,118,135072,2,0,P|497:141|499:166,1,51.7500009870529,10|0,0:0|0:0,0:0:0:0:
417,281,135243,5,0,0:0:0:0:
417,281,135415,2,0,P|443:278|468:282,1,51.7500009870529,2|0,0:0|0:0,0:0:0:0:
310,308,135586,6,0,P|264:306|226:326,1,51.7500009870529,8|0,0:0|0:0,0:0:0:0:
153,340,135758,2,0,P|127:343|102:339,1,51.7500009870529,2|0,0:0|0:0,0:0:0:0:
283,338,135929,2,0,P|244:313|201:311,1,51.7500009870529,0|0,0:0|0:0,0:0:0:0:
131,287,136100,2,0,P|107:277|87:260,1,51.7500009870529,2|0,0:1|0:0,0:0:0:0:
244,350,136272,2,0,P|222:309|186:286,1,47.2499985580445,10|0,0:1|0:0,0:0:0:0:
138,230,136443,2,0,P|122:209|113:185,1,47.2499985580445,2|0,0:1|0:0,0:0:0:0:
204,341,136615,2,0,P|205:297|187:262,1,42.7499988584519,10|0,0:1|0:0,0:0:0:0:
172,184,136786,2,0,P|168:158|172:133,1,42.7499988584519,0|0,0:0|0:0,0:0:0:0:
173,313,136958,2,0,P|193:280|195:244,1,38.2500007295609,2|0,0:1|0:0,0:0:0:0:
224,161,137129,2,0,P|233:137|250:117,1,38.2500007295609,0|0,0:0|0:0,0:0:0:0:
189,257,137300,6,0,P|175:267|160:273,1,33.7500012874604,10|0,0:1|0:0,0:0:0:0:
307,147,137472,2,0,P|292:155|280:167,1,33.7500012874604,8|0,0:0|0:0,0:0:0:0:
196,232,137643,2,0,P|182:233|168:231,1,29.2499986610413,2|0,0:1|0:0,0:0:0:0:
353,196,137815,2,0,P|339:196|325:200,1,29.2499986610413,8|0,0:0|0:0,0:0:0:0:
215,211,137986,2,0,P|204:206|195:198,1,24.7500007553101,2|0,0:1|0:0,0:0:0:0:
369,260,138158,2,0,P|358:254|347:251,1,24.7500007553101,8|0,0:0|0:0,0:0:0:0:
252,307,138329,2,0,P|229:316|211:331,1,24.7500007553101,2|0,0:1|0:0,0:0:0:0:
409,245,138500,2,0,P|388:258|364:259,1,24.7500007553101,8|0,0:0|0:0,0:0:0:0:
437,197,138672,6,0,P|427:214|412:224,1,20.2499993820191,10|0,0:1|0:0,0:0:0:0:
432,147,138843,2,0,P|432:162|426:174,1,15.7499995193482,2|0,0:0|0:0,0:0:0:0:
415,111,139015,2,0,P|414:122|419:131,1,11.25,10|0,0:0|0:0,0:0:0:0:
391,86,139186,2,0,P|390:94|394:102,1,9,10|0,0:0|0:0,0:0:0:0:
367,68,139358,2,0,P|366:74|369:80,1,6.74999979400635,10|0,0:0|0:0,0:0:0:0:
346,58,139529,2,0,P|345:62|347:65,1,4.5,10|0,0:0|0:0,0:0:0:0:
328,52,139700,1,10,0:0:0:0:
314,51,139872,1,8,0:0:0:0:
305,53,140043,5,0,0:0:0:0:
260,69,140129,1,8,0:0:0:0:
238,111,140215,1,8,0:0:0:0:
239,157,140300,1,8,0:0:0:0:
245,200,140386,1,8,0:0:0:0:
235,232,140472,1,8,0:0:0:0:
213,257,140558,1,8,0:0:0:0:
181,269,140643,1,8,0:0:0:0:
147,264,140729,5,2,0:0:0:0:
122,245,140815,1,2,0:0:0:0:
110,219,140900,1,2,0:0:0:0:
111,198,140986,1,2,0:0:0:0:
118,182,141072,1,2,0:0:0:0:
126,171,141158,1,2,0:0:0:0:
138,164,141243,1,2,0:0:0:0:
151,158,141329,1,2,0:0:0:0:
161,157,141415,6,0,P|207:134|223:110,2,74.2500022659302,2|0|0,0:0|0:0|0:0,0:0:0:0:
213,32,142100,2,0,P|251:35|285:61,1,72.9000017797852,0|0,0:0|0:0,0:0:0:0:
256,192,142786,12,0,145186,0:0:0:0:
256,192,145529,5,0,0:0:0:0:
251,187,145872,1,0,0:0:0:0:
247,181,146215,1,0,0:0:0:0:
243,175,146558,1,0,0:0:0:0:
239,169,146900,1,0,0:0:0:0:
235,163,147243,1,0,0:0:0:0:
231,157,147586,1,0,0:0:0:0:
227,151,147929,1,0,0:0:0:0:
158,94,148272,5,0,0:0:0:0:
154,100,148615,1,0,0:0:0:0:
150,106,148958,1,0,0:0:0:0:
146,112,149300,1,0,0:0:0:0:
142,118,149643,1,0,0:0:0:0:
136,126,149986,1,0,0:0:0:0:
130,135,150329,1,0,0:0:0:0:
123,142,150672,1,0,0:0:0:0:
116,152,151015,5,0,0:0:0:0:
109,162,151358,1,0,0:0:0:0:
101,169,151700,1,0,0:0:0:0:
91,188,152043,1,0,0:0:0:0:
85,208,152386,1,0,0:0:0:0:
85,229,152729,1,0,0:0:0:0:
90,251,153072,1,0,0:0:0:0:
101,272,153415,1,0,0:0:0:0:
210,233,153758,6,0,P|201:247|179:258,1,31.4999990386963,0|0,0:0|0:0,0:0:0:0:
265,143,154100,2,0,P|272:157|271:182,1,31.4999990386963,0|0,0:0|0:0,0:0:0:0:
200,60,154443,5,0,0:0:0:0:
197,72,154786,1,0,0:0:0:0:
197,84,155129,1,0,0:0:0:0:
202,95,155472,1,0,0:0:0:0:
210,104,155815,1,0,0:0:0:0:
219,112,156158,1,0,0:0:0:0:
230,117,156500,5,0,0:0:0:0:
241,122,156843,1,0,0:0:0:0:
249,131,157186,1,0,0:0:0:0:
253,142,157529,1,0,0:0:0:0:
252,154,157872,1,0,0:0:0:0:
248,166,158215,1,0,0:0:0:0:
239,175,158558,1,0,0:0:0:0:
230,184,158900,1,0,0:0:0:0:
110,296,159243,6,0,B|104:319|104:319|113:342,1,40.4999987640381,0|0,0:0|0:0,0:0:0:0:
230,222,159586,2,0,B|236:199|236:199|227:176,1,40.4999987640381,0|0,0:0|0:0,0:0:0:0:
241,310,159929,5,0,0:0:0:0:
271,319,160272,1,0,0:0:0:0:
303,320,160615,1,0,0:0:0:0:
334,314,160958,1,0,0:0:0:0:
308,293,161300,1,0,0:0:0:0:
290,265,161643,1,0,0:0:0:0:
277,128,161986,6,0,L|273:110,6,12.375000377655,2|0|0|0|0|0|0,0:0|0:0|0:0|0:0|0:0|0:0|0:0,0:0:0:0:
196,212,162329,2,0,B|220:212|220:212|247:205,1,45,4|0,0:0|0:0,0:0:0:0:
356,137,162672,1,0,0:0:0:0:
380,101,163015,1,0,0:0:0:0:
396,61,163358,1,0,0:0:0:0:
353,66,163700,1,0,0:0:0:0:
309,69,164043,1,0,0:0:0:0:
265,71,164386,1,0,0:0:0:0:
222,62,164729,5,2,0:0:0:0:
266,134,164900,1,0,0:0:0:0:
266,212,165072,1,0,0:0:0:0:
198,173,165243,1,0,0:0:0:0:
198,251,165415,1,0,0:0:0:0:
266,290,165586,1,0,0:0:0:0:
333,251,165758,1,0,0:0:0:0:
401,290,165929,1,0,0:0:0:0:
477,156,166100,6,0,L|474:229,1,67.5000025749208,2|0,0:0|0:0,0:0:0:0:
407,114,166443,6,0,L|383:113,1,24.7500007553101,6|0,0:0|0:0,0:0:0:0:
477,156,166615,1,0,0:0:0:0:
398,208,166786,1,2,0:1:0:0:
313,165,166958,1,0,0:0:0:0:
234,217,167129,1,2,0:1:0:0:
239,311,167300,1,0,0:0:0:0:
229,123,167472,6,0,L|161:77,1,67.5000025749208,2|0,0:1|0:0,0:0:0:0:
173,85,167729,1,0,0:0:0:0:
173,85,167815,1,2,0:1:0:0:
234,217,167986,1,0,0:0:0:0:
90,204,168158,1,2,0:1:0:0:
173,85,168329,1,0,0:0:0:0:
317,98,168500,1,2,0:1:0:0:
234,217,168672,1,0,0:0:0:0:
150,335,168843,6,0,L|82:289,1,67.5000025749208,2|0,0:1|0:0,0:0:0:0:
90,204,169100,1,0,0:0:0:0:
90,204,169186,1,2,0:1:0:0:
90,204,169358,1,0,0:0:0:0:
90,204,169529,1,2,0:1:0:0:
90,204,169700,1,0,0:0:0:0:
261,348,169872,5,2,0:1:0:0:
298,339,169957,1,0,0:0:0:0:
335,330,170043,1,0,0:0:0:0:
372,321,170129,1,0,0:0:0:0:
409,312,170215,5,2,0:1:0:0:
395,298,170300,1,8,0:0:0:0:
382,284,170386,1,8,0:0:0:0:
369,270,170472,1,8,0:0:0:0:
356,256,170557,1,8,0:0:0:0:
197,167,170900,5,8,0:0:0:0:
211,181,170985,1,8,0:0:0:0:
224,195,171071,1,8,0:0:0:0:
237,209,171157,1,8,0:0:0:0:
250,223,171242,1,8,0:0:0:0:
390,106,171586,5,8,0:0:0:0:
376,120,171671,1,8,0:0:0:0:
362,133,171757,1,8,0:0:0:0:
133,208,171929,5,8,0:0:0:0:
114,226,172014,1,8,0:0:0:0:
96,243,172100,1,8,0:0:0:0:
368,217,172272,5,8,0:0:0:0:
337,230,172357,1,8,0:0:0:0:
307,243,172443,1,8,0:0:0:0:
142,109,172615,5,8,0:0:0:0:
99,126,172700,1,8,0:0:0:0:
58,144,172786,1,8,0:0:0:0:
331,326,172958,5,8,0:0:0:0:
273,317,173043,1,8,0:0:0:0:
216,310,173129,1,8,0:0:0:0:
158,301,173215,1,8,0:0:0:0:
101,294,173300,5,8,0:0:0:0:
170,289,173385,1,8,0:0:0:0:
213,234,173471,1,8,0:0:0:0:
200,165,173557,1,8,0:0:0:0:
140,130,173643,1,8,0:0:0:0:
74,151,173729,1,8,0:0:0:0:
31,207,173814,1,8,0:0:0:0:
28,278,173900,1,8,0:0:0:0:
67,337,173986,1,8,0:0:0:0:
133,363,174071,1,8,0:0:0:0:
207,344,174157,1,8,0:0:0:0:
253,277,174243,1,8,0:0:0:0:
328,217,174329,6,0,B|391:198|391:198|467:211|467:211|425:223,1,170.999995433807,2|0,0:1|0:0,0:0:0:0:
439,218,174672,2,0,L|480:-20,1,184.500002815247,10|0,0:3|0:0,0:0:0:0:
150,140,175015,2,0,B|138:204|138:204|196:336|196:336|204:258,1,276.75000422287,2|0,0:0|0:0,0:0:0:0:
150,140,175358,6,0,L|256:156,1,80.9999975280763,8|0,0:0|0:0,0:0:0:0:
406,299,175529,2,0,L|300:315,1,80.9999975280763,8|0,0:0|0:0,0:0:0:0:
261,82,175700,6,0,B|310:118|310:118|300:257,1,168.75,6|0,0:0|0:0,0:0:0:0:
142,322,176043,2,0,B|137:265,1,56.25,8|0,0:0|0:0,0:0:0:0:
25,92,176215,1,2,0:0:0:0:
23,108,176300,1,0,0:0:0:0:
21,124,176386,6,0,L|87:184,1,56.25,0|0,0:0|0:0,0:0:0:0:
154,4,176558,2,0,L|94:70,1,56.25,2|0,0:0|0:0,0:0:0:0:
274,137,176729,2,0,L|208:77,1,56.25,8|0,0:0|0:0,0:0:0:0:
141,257,176900,2,0,L|201:191,1,56.25,2|0,0:0|0:0,0:0:0:0:
112,127,177072,6,0,L|74:168,3,56.25,0|0|2|0,0:0|0:0|0:0|0:0,0:0:0:0:
229,18,177415,1,8,0:0:0:0:
239,20,177500,1,8,0:0:0:0:
250,22,177586,2,0,P|291:45|302:96,1,56.25,8|0,0:0|0:0,0:0:0:0:
388,175,177758,6,0,P|346:198|297:182,1,56.25,0|0,0:0|0:0,0:0:0:0:
186,217,177929,2,0,P|186:169|224:134,1,56.25,2|0,0:0|0:0,0:0:0:0:
248,13,178100,2,0,P|292:38|303:92,1,56.25,8|0,0:0|0:0,0:0:0:0:
396,177,178272,2,0,P|351:202|298:185,1,56.25,2|0,0:0|0:0,0:0:0:0:
384,72,178443,6,0,P|429:47|481:64,3,56.25,0|0|2|0,0:0|0:0|0:0|0:0,0:0:0:0:
389,186,178786,1,8,0:0:0:0:
406,227,178872,1,0,0:0:0:0:
443,252,178958,1,2,0:0:0:0:
463,303,179043,1,0,0:0:0:0:
422,342,179129,6,0,P|371:335|351:294,1,56.25,0|0,0:0|0:0,0:0:0:0:
456,115,179300,2,0,B|481:135|486:163|485:161,1,56.25,2|0,0:0|0:0,0:0:0:0:
358,329,179472,2,0,B|333:309|328:281|329:283,1,56.25,8|0,0:0|0:0,0:0:0:0:
339,106,179643,1,2,0:0:0:0:
286,85,179729,1,0,0:0:0:0:
230,93,179815,6,0,P|201:118|184:159,3,56.25,0|0|2|0,0:0|0:0|0:0|0:0,0:0:0:0:
67,199,180158,2,0,L|108:237,1,56.25,8|0,0:0|0:0,0:0:0:0:
72,143,180329,2,0,L|68:199,1,56.25,8|0,0:0|0:0,0:0:0:0:
30,104,180500,6,0,L|72:143,1,56.25,2|0,0:0|0:0,0:0:0:0:
34,48,180672,2,0,L|30:104,1,56.25,8|0,0:0|0:0,0:0:0:0:
79,15,180843,2,0,L|33:48,1,56.25,8|0,0:0|0:0,0:0:0:0:
195,61,181015,1,2,0:0:0:0:
199,71,181100,1,0,0:0:0:0:
203,81,181186,6,0,L|109:75,1,56.25,8|0,0:0|0:0,0:0:0:0:
274,175,181358,2,0,L|327:158,1,56.25,8|0,0:0|0:0,0:0:0:0:
500,201,181529,2,0,B|452:230|452:230|416:228|416:228|403:243|403:243|378:233|378:233|344:253,1,168.75,10|0,0:1|0:0,0:0:0:0:
261,326,181872,6,0,P|300:335|340:338,1,56.25,2|0,0:0|0:0,0:0:0:0:
473,347,182043,2,0,P|482:307|485:267,1,56.25,2|0,0:0|0:0,0:0:0:0:
494,134,182215,2,0,P|454:124|414:121,1,56.25,8|0,0:0|0:0,0:0:0:0:
282,113,182386,2,0,P|272:152|269:192,1,56.25,2|0,0:0|0:0,0:0:0:0:
132,339,182558,6,0,B|155:355|155:355|196:349,1,56.25,2|0,0:0|0:0,0:0:0:0:
354,246,182729,2,0,B|331:230|331:230|290:236,1,56.25,2|0,0:0|0:0,0:0:0:0:
98,202,182900,1,8,0:0:0:0:
99,214,182986,1,8,0:0:0:0:
98,225,183072,2,0,L|156:175,1,56.25,10|0,0:0|0:0,0:0:0:0:
198,63,183243,6,0,P|232:83|258:112,1,56.25,0|0,0:0|0:0,0:0:0:0:
303,234,183415,2,0,P|283:268|254:294,1,56.25,2|0,0:0|0:0,0:0:0:0:
132,339,183586,2,0,P|98:319|72:290,1,56.25,8|0,0:0|0:0,0:0:0:0:
27,168,183758,2,0,P|47:134|76:108,1,56.25,2|0,0:0|0:0,0:0:0:0:
244,94,183929,6,0,B|275:111|275:111|298:151,1,56.25,2|0,0:0|0:0,0:0:0:0:
58,121,184100,2,0,B|27:104|27:104|4:64,1,56.25,2|0,0:0|0:0,0:0:0:0:
180,223,184272,1,8,0:0:0:0:
196,228,184358,1,8,0:0:0:0:
212,236,184443,2,0,B|237:232|237:232|250:236|250:236|283:231,1,56.25,10|0,0:0|0:0,0:0:0:0:
338,226,184615,6,0,B|363:230|363:230|376:226|376:226|409:231,1,56.25,6|0,0:0|0:0,0:0:0:0:
377,106,184786,2,0,B|396:121|396:121|409:125|409:125|435:145,1,56.25,6|0,0:0|0:0,0:0:0:0:
365,350,184958,2,0,B|388:340|388:340|397:331|397:331|428:318,1,56.25,6|0,0:0|0:0,0:0:0:0:
498,233,185129,2,0,B|473:229|473:229|460:233|460:233|427:228,1,56.25,6|0,0:0|0:0,0:0:0:0:
297,311,185300,5,8,0:0:0:0:
218,310,185386,1,8,0:0:0:0:
179,241,185472,1,10,0:0:0:0:
219,173,185558,1,8,0:0:0:0:
298,174,185643,1,8,0:0:0:0:
338,106,185729,1,8,0:0:0:0:
299,37,185815,1,10,0:0:0:0:
220,36,185900,1,8,0:0:0:0:
180,104,185986,6,0,P|205:58|244:35,1,56.25,6|0,0:0|0:0,0:0:0:0:
432,87,186158,2,0,P|407:41|368:18,1,56.25,6|0,0:0|0:0,0:0:0:0:
180,104,186329,2,0,P|171:172|203:274,1,141.749995674133,10|0,0:1|0:0,0:0:0:0:
348,291,186672,6,0,P|325:280|290:274,1,56.25,2|0,0:0|0:0,0:0:0:0:
29,200,186843,2,0,P|52:189|87:183,1,56.25,2|0,0:0|0:0,0:0:0:0:
270,153,187015,2,0,P|332:155|273:187,1,168.75,8|0,0:0|0:0,0:0:0:0:
235,65,187358,6,0,P|259:51|287:46,1,56.25,0|0,0:0|0:0,0:0:0:0:
420,149,187529,2,0,P|414:121|400:97,1,56.25,2|0,0:0|0:0,0:0:0:0:
221,59,187700,2,0,P|249:43|280:38,1,56.25,8|0,0:0|0:0,0:0:0:0:
434,156,187872,2,0,P|427:124|411:96,1,56.25,2|0,0:0|0:0,0:0:0:0:
261,154,188043,6,0,B|246:173|246:173|246:205,1,56.25,0|0,0:0|0:0,0:0:0:0:
437,305,188215,2,0,B|469:305|469:305|500:283,1,56.25,2|0,0:0|0:0,0:0:0:0:
297,279,188386,1,8,0:0:0:0:
288,285,188472,1,8,0:0:0:0:
279,291,188558,2,0,P|275:319|281:345,1,56.25,8|0,0:0|0:0,0:0:0:0:
367,178,188729,6,0,P|341:189|321:208,1,56.25,0|0,0:0|0:0,0:0:0:0:
175,292,188900,2,0,P|179:264|173:237,1,56.25,2|0,0:0|0:0,0:0:0:0:
172,68,189072,2,0,P|194:85|220:93,3,56.25,8|0|2|0,0:0|0:0|0:0|0:0,0:0:0:0:
420,46,189415,6,0,L|349:101,1,56.25,0|0,0:0|0:0,0:0:0:0:
178,141,189586,2,0,L|222:106,1,56.25,2|0,0:0|0:0,0:0:0:0:
480,124,189758,2,0,B|396:187|396:187|315:156,1,168.75,10|0,0:1|0:0,0:0:0:0:
283,9,190100,6,0,L|291:64,1,56.25,2|0,0:0|0:0,0:0:0:0:
193,251,190272,2,0,L|237:216,1,56.25,2|0,0:0|0:0,0:0:0:0:
448,208,190443,2,0,L|395:187,1,56.25,8|0,0:0|0:0,0:0:0:0:
193,251,190615,1,2,0:0:0:0:
146,269,190700,1,0,0:0:0:0:
113,309,190786,6,0,B|101:284|100:278|137:250|137:243|96:220|94:212|146:189|110:139,1,168.75,2|0,0:0|0:0,0:0:0:0:
111,29,191129,2,0,P|85:39|64:56,1,56.25,8|0,0:0|0:0,0:0:0:0:
255,29,191300,2,0,P|233:46|207:57,1,56.25,2|0,0:0|0:0,0:0:0:0:
114,145,191472,2,0,P|92:162|66:173,1,56.25,0|0,0:0|0:0,0:0:0:0:
260,22,191643,6,0,L|325:55,1,56.25,2|0,0:0|0:0,0:0:0:0:
366,167,191815,2,0,L|431:200,1,56.25,8|0,0:0|0:0,0:0:0:0:
462,60,191986,2,0,L|527:93,1,56.25,2|0,0:0|0:0,0:0:0:0:
424,339,192158,6,0,B|416:321|416:321|417:267,1,56.25,0|0,0:0|0:0,0:0:0:0:
310,47,192329,2,0,B|318:65|318:65|317:119,1,56.25,2|0,0:0|0:0,0:0:0:0:
208,244,192500,2,0,P|145:245|209:208,1,168.75,10|0,0:1|0:0,0:0:0:0:
346,328,192843,5,0,0:0:0:0:
309,313,192929,1,0,0:0:0:0:
269,311,193015,1,2,0:0:0:0:
230,319,193100,1,0,0:0:0:0:
195,338,193186,2,0,P|174:363|164:387,3,56.25,8|0|2|0,0:0|0:0|0:0|0:0,0:0:0:0:
191,192,193529,6,0,L|122:113,3,56.25,8|0|2|0,0:0|0:0|0:0|0:0,0:0:0:0:
415,224,193872,2,0,L|484:303,3,56.25,8|0|2|0,0:0|0:0|0:0|0:0,0:0:0:0:
200,265,194215,6,0,L|96:247,3,56.25,8|0|2|0,0:0|0:0|0:0|0:0,0:0:0:0:
394,148,194558,2,0,L|497:165,3,56.25,8|0|2|0,0:0|0:0|0:0|0:0,0:0:0:0:
298,16,194900,6,0,L|278:68,1,56.25,8|0,0:0|0:0,0:0:0:0:
119,314,195072,6,0,L|138:261,1,56.25,8|0,0:0|0:0,0:0:0:0:
288,17,195243,6,0,L|268:69,1,56.25,8|0,0:0|0:0,0:0:0:0:
109,315,195415,6,0,L|128:262,1,56.25,8|0,0:0|0:0,0:0:0:0:
158,129,195586,5,8,0:0:0:0:
168,133,195672,1,8,0:0:0:0:
177,137,195758,1,8,0:0:0:0:
187,141,195843,1,8,0:0:0:0:
197,145,195929,1,8,0:0:0:0:
206,149,196015,1,8,0:0:0:0:
216,153,196100,1,8,0:0:0:0:
226,157,196186,1,8,0:0:0:0:
236,161,196272,6,0,P|266:153|284:126,3,33.7500012874604,0|0|0|0,0:0|0:0|0:0|0:0,0:0:0:0:
380,136,196615,2,0,P|393:118|407:65,1,74.2500022659302,0|0,0:0|0:0,0:0:0:0:
256,287,196958,5,8,0:0:0:0:
440,339,197129,1,8,0:0:0:0:
73,334,197300,1,8,0:0:0:0:
444,333,197472,1,8,0:0:0:0:
222,137,197643,6,0,P|202:212|268:292,1,175.499991966248,2|0,0:0|0:0,0:0:0:0:
331,294,197986,1,8,0:0:0:0:
222,137,198158,2,0,P|202:212|236:274,1,116.999994644165,2|0,0:0|0:0,0:0:0:0:
416,258,198500,1,8,0:0:0:0:
424,147,198672,2,0,P|436:204|416:258,1,116.999994644165,2|2,0:0|0:0,0:0:0:0:
172,52,199015,6,0,B|300:84|300:84|376:37,1,175.499991966248,2|0,0:0|0:0,0:0:0:0:
399,14,199358,1,8,0:0:0:0:
172,52,199529,1,2,0:0:0:0:
285,80,199700,2,0,B|172:52,1,116.999994644165,2|2,0:0|0:0,0:0:0:0:
354,173,200043,2,0,B|240:201,1,116.999994644165,8|2,0:0|0:0,0:0:0:0:
46,342,200386,6,0,P|72:278|60:162,1,175.499991966248,0|0,0:0|0:0,0:0:0:0:
25,110,200729,1,8,0:0:0:0:
46,342,200900,2,0,P|72:278|73:202,1,116.999994644165,2|0,0:0|0:0,0:0:0:0:
25,110,201243,1,0,0:0:0:0:
203,180,201415,2,0,P|156:145|121:98,1,116.999994644165,8|0,0:0|0:0,0:0:0:0:
25,110,201758,5,0,0:0:0:0:
183,314,201929,2,0,P|237:291|295:285,1,116.999994644165,2|8,0:0|0:0,0:0:0:0:
203,180,202272,1,2,0:0:0:0:
373,313,202443,6,0,P|377:287|368:252,2,58.4999973220826,2|0|2,0:0|0:0|0:0,0:0:0:0:
413,176,202700,1,0,0:0:0:0:
413,176,202786,2,0,P|406:147|409:118,2,58.4999973220826,8|0|2,0:0|0:0|0:0,0:0:0:0:
512,334,203043,1,0,0:0:0:0:
512,334,203129,6,0,P|490:355|370:272,1,175.499991966248,0|0,0:0|0:0,0:0:0:0:
353,234,203472,1,8,0:0:0:0:
512,334,203643,2,0,P|490:355|379:326,1,116.999994644165,2|0,0:0|0:0,0:0:0:0:
353,234,203986,1,8,0:0:0:0:
172,271,204158,2,0,P|194:292|305:263,1,116.999994644165,2|2,0:0|0:0,0:0:0:0:
468,62,204500,6,0,P|446:41|326:124,1,175.499991966248,2|0,0:0|0:0,0:0:0:0:
309,162,204843,1,8,0:0:0:0:
468,62,205015,1,2,0:0:0:0:
363,39,205186,2,0,P|420:30|468:62,1,116.999994644165,2|8,0:0|0:0,0:0:0:0:
347,237,205529,2,0,P|290:246|242:214,1,116.999994644165,2|8,0:0|0:0,0:0:0:0:
104,23,205872,6,0,P|142:68|96:204,1,175.499991966248,0|0,0:0|0:0,0:0:0:0:
61,219,206215,1,8,0:0:0:0:
204,313,206386,2,0,P|169:327|71:315,1,116.999994644165,2|0,0:0|0:0,0:0:0:0:
61,219,206729,1,8,0:0:0:0:
275,167,206900,2,0,P|240:153|142:165,1,116.999994644165,2|2,0:0|0:0,0:0:0:0:
390,348,207243,6,0,B|420:304|420:304|434:240|403:175,1,175.499991966248,2|8,0:0|0:0,0:0:0:0:
397,109,207586,1,8,0:0:0:0:
383,113,207671,1,8,0:0:0:0:
369,117,207757,1,8,0:0:0:0:
357,126,207843,1,8,0:0:0:0:
347,136,207929,6,0,B|379:126|379:126|415:91,1,58.4999973220826,4|0,0:0|0:0,0:0:0:0:
254,28,208100,2,0,B|260:52|260:52|253:85,1,58.4999973220826,4|0,0:0|0:0,0:0:0:0:
162,141,208272,1,0,0:0:0:0:
162,141,208358,1,0,0:0:0:0:
162,141,208443,2,0,B|137:118|137:118|89:104,1,58.4999973220826,4|0,0:0|0:0,0:0:0:0:
112,304,208615,6,0,B|234:277|234:277|297:207,1,175.499991966248,2|0,0:3|0:0,0:0:0:0:
271,159,208958,1,8,0:0:0:0:
112,304,209129,2,0,L|234:277,1,116.999994644165,2|0,0:0|0:0,0:0:0:0:
385,183,209472,1,8,0:0:0:0:
271,159,209643,2,0,L|385:183,1,116.999994644165,2|2,0:0|0:0,0:0:0:0:
42,23,209986,6,0,B|107:13|160:63|160:63|167:138,1,175.499991966248,2|0,0:0|0:0,0:0:0:0:
148,185,210329,1,8,0:0:0:0:
42,22,210500,1,2,0:0:0:0:
150,54,210672,2,0,B|106:16|42:23,1,116.999994644165,2|0,0:0|0:0,0:0:0:0:
146,183,211015,2,0,B|190:144|254:151,1,116.999994644165,8|2,0:0|0:0,0:0:0:0:
68,350,211358,6,0,P|37:289|58:176,1,175.499991966248,0|0,0:0|0:0,0:0:0:0:
107,119,211700,1,8,0:0:0:0:
235,300,211872,2,0,P|203:320|126:293,1,116.999994644165,2|0,0:0|0:0,0:0:0:0:
107,119,212215,1,2,0:0:0:0:
288,141,212386,2,0,P|302:185|234:218,1,116.999994644165,8|0,0:0|0:0,0:0:0:0:
107,119,212729,5,0,0:0:0:0:
252,20,212900,2,0,P|267:38|232:22,1,116.999994644165,2|8,0:0|0:0,0:0:0:0:
393,89,213243,1,2,0:0:0:0:
304,222,213415,6,0,P|283:236|219:228,2,58.4999973220826,2|0|2,0:0|0:0|0:0,0:0:0:0:
393,89,213672,1,0,0:0:0:0:
393,89,213758,2,0,P|421:92|446:107,2,58.4999973220826,10|0|0,0:0|0:0|0:0,0:0:0:0:
434,289,214015,1,0,0:0:0:0:
434,289,214100,6,0,B|393:163|393:163|328:165,1,175.499991966248,0|0,0:0|0:0,0:0:0:0:
276,187,214443,1,8,0:0:0:0:
434,289,214615,2,0,B|393:163,1,116.999994644165,2|0,0:0|0:0,0:0:0:0:
196,153,214958,1,10,0:0:0:0:
329,3,215129,2,0,B|288:129,1,116.999994644165,2|2,0:0|0:0,0:0:0:0:
134,357,215472,6,0,P|106:264|144:180,1,175.499991966248,2|0,0:0|0:0,0:0:0:0:
196,153,215815,1,8,0:0:0:0:
278,289,215986,1,2,0:0:0:0:
364,125,216158,5,2,0:0:0:0:
364,125,216243,1,0,0:0:0:0:
364,125,216329,1,10,0:0:0:0:
147,255,216500,1,0,0:0:0:0:
147,255,216586,1,0,0:0:0:0:
147,255,216672,1,10,0:0:0:0:
138,248,216758,1,0,0:0:0:0:
129,237,216843,5,6,0:0:0:0:
99,234,216929,1,8,0:0:0:0:
83,202,217015,1,8,0:0:0:0:
101,165,217100,1,8,0:0:0:0:
146,147,217186,1,8,0:0:0:0:
195,166,217272,1,8,0:0:0:0:
222,217,217358,1,8,0:0:0:0:
220,272,217443,1,8,0:0:0:0:
241,331,217529,5,8,0:0:0:0:
295,364,217615,1,8,0:0:0:0:
357,355,217700,1,8,0:0:0:0:
400,309,217786,1,8,0:0:0:0:
405,246,217872,5,8,0:0:0:0:
366,186,217958,1,8,0:0:0:0:
304,142,218043,1,8,0:0:0:0:
309,65,218129,1,8,0:0:0:0:
371,21,218215,6,0,P|424:31|449:79,1,58.4999973220826,4|0,0:0|0:0,0:0:0:0:
141,363,218558,6,0,P|88:353|63:305,1,58.4999973220826,4|0,0:0|0:0,0:0:0:0:
227,57,218900,6,0,L|224:-1,1,58.0500008857727,0|0,0:0|0:0,0:0:0:0:
189,124,219243,5,0,0:0:0:0:
190,136,219329,1,0,0:0:0:0:
190,148,219415,1,0,0:0:0:0:
191,159,219500,1,0,0:0:0:0:
191,170,219586,5,2,0:3:0:0:
237,166,219672,1,0,0:0:0:0:
280,183,219758,1,0,0:0:0:0:
312,217,219843,1,0,0:0:0:0:
325,261,219929,1,8,0:0:0:0:
319,307,220015,1,0,0:0:0:0:
278,330,220100,1,0,0:0:0:0:
319,307,220186,1,0,0:0:0:0:
363,294,220272,5,8,0:0:0:0:
410,292,220358,1,0,0:0:0:0:
455,304,220443,1,0,0:0:0:0:
428,265,220529,1,0,0:0:0:0:
409,222,220615,1,8,0:0:0:0:
399,177,220700,1,0,0:0:0:0:
396,130,220786,1,0,0:0:0:0:
407,90,220872,6,0,P|424:63|475:30,2,58.4999973220826,0|8|0,0:0|0:0|0:0,0:0:0:0:
244,85,221129,6,0,P|265:104|280:129,1,58.4999973220826,0|0,0:0|0:0,0:0:0:0:
243,287,221300,1,8,0:0:0:0:
227,279,221386,1,0,0:0:0:0:
212,268,221472,1,0,0:0:0:0:
202,253,221558,1,0,0:0:0:0:
195,236,221643,5,8,0:0:0:0:
165,264,221729,1,0,0:0:0:0:
129,284,221815,1,0,0:0:0:0:
89,293,221900,1,0,0:0:0:0:
103,260,221986,1,8,0:0:0:0:
103,224,222072,1,0,0:0:0:0:
93,190,222158,1,0,0:0:0:0:
70,163,222243,1,0,0:0:0:0:
36,152,222329,5,12,0:0:0:0:
72,114,222415,1,0,0:0:0:0:
124,113,222500,1,0,0:0:0:0:
166,145,222586,1,0,0:0:0:0:
154,96,222672,1,8,0:0:0:0:
183,56,222758,1,0,0:0:0:0:
231,50,222843,1,0,0:0:0:0:
260,74,222929,1,0,0:0:0:0:
289,88,223015,5,8,0:0:0:0:
321,90,223100,1,0,0:0:0:0:
351,77,223186,1,0,0:0:0:0:
374,53,223272,1,0,0:0:0:0:
385,22,223358,1,8,0:0:0:0:
400,57,223443,1,0,0:0:0:0:
406,94,223529,1,0,0:0:0:0:
400,131,223615,6,0,P|377:173|337:190,2,58.4999973220826,0|8|0,0:0|0:0|0:0,0:0:0:0:
158,225,223872,2,0,P|168:198|189:177,1,58.4999973220826,0|0,0:0|0:0,0:0:0:0:
359,165,224043,1,8,0:0:0:0:
370,179,224129,1,0,0:0:0:0:
382,194,224215,1,0,0:0:0:0:
391,210,224300,1,0,0:0:0:0:
398,226,224386,5,8,0:0:0:0:
375,257,224472,1,0,0:0:0:0:
340,273,224558,1,0,0:0:0:0:
300,265,224643,1,0,0:0:0:0:
269,292,224729,1,8,0:0:0:0:
231,308,224815,1,0,0:0:0:0:
190,314,224900,1,0,0:0:0:0:
149,309,224986,1,0,0:0:0:0:
110,286,225072,5,12,0:0:0:0:
144,246,225158,1,0,0:0:0:0:
165,198,225243,1,0,0:0:0:0:
174,143,225329,1,0,0:0:0:0:
225,170,225415,1,8,0:0:0:0:
270,199,225500,1,0,0:0:0:0:
327,204,225586,1,0,0:0:0:0:
317,149,225672,1,0,0:0:0:0:
262,130,225758,5,8,0:0:0:0:
225,170,225843,1,0,0:0:0:0:
230,225,225929,1,0,0:0:0:0:
283,243,226015,1,0,0:0:0:0:
327,204,226100,1,8,0:0:0:0:
382,196,226186,1,0,0:0:0:0:
430,222,226272,1,0,0:0:0:0:
435,276,226358,1,0,0:0:0:0:
390,248,226443,5,8,0:0:0:0:
382,196,226529,1,0,0:0:0:0:
416,156,226615,2,0,P|453:139|496:141,1,58.4999973220826,0|0,0:0|0:0,0:0:0:0:
358,26,226786,1,8,0:0:0:0:
346,39,226872,1,0,0:0:0:0:
337,54,226958,1,0,0:0:0:0:
332,70,227043,1,0,0:0:0:0:
313,36,227129,5,8,0:0:0:0:
268,21,227215,1,0,0:0:0:0:
221,20,227300,1,0,0:0:0:0:
176,34,227386,1,0,0:0:0:0:
216,76,227472,1,8,0:0:0:0:
224,122,227558,1,0,0:0:0:0:
214,167,227643,1,0,0:0:0:0:
184,203,227729,1,0,0:0:0:0:
143,227,227815,5,12,0:0:0:0:
159,270,227900,1,0,0:0:0:0:
200,292,227986,1,0,0:0:0:0:
246,292,228072,1,0,0:0:0:0:
256,246,228158,1,8,0:0:0:0:
282,207,228243,1,0,0:0:0:0:
318,177,228329,1,0,0:0:0:0:
341,229,228415,1,0,0:0:0:0:
343,275,228500,5,8,0:0:0:0:
328,319,228586,1,0,0:0:0:0:
295,352,228672,2,0,P|256:371|208:364,1,58.4999973220826,0|0,0:0|0:0,0:0:0:0:
156,260,228843,1,8,0:0:0:0:
126,260,228929,1,0,0:0:0:0:
99,272,229015,1,0,0:0:0:0:
81,295,229100,1,0,0:0:0:0:
63,332,229186,5,6,0:1:0:0:
65,255,229272,1,2,0:1:0:0:
69,178,229358,1,2,0:1:0:0:
74,102,229443,1,2,0:1:0:0:
78,25,229529,5,10,0:3:0:0:
46,90,229615,1,8,0:0:0:0:
91,145,229700,1,8,0:0:0:0:
161,128,229786,1,8,0:0:0:0:
174,57,229872,5,4,0:0:0:0:
174,57,230129,1,4,0:0:0:0:
283,199,230386,1,0,0:0:0:0:
283,199,230472,1,0,0:0:0:0:
283,199,230558,5,2,0:3:0:0:
333,160,230643,1,0,0:0:0:0:
396,159,230729,1,0,0:0:0:0:
448,195,230815,1,0,0:0:0:0:
423,221,230900,1,8,0:0:0:0:
439,164,230986,1,0,0:0:0:0:
422,107,231072,1,0,0:0:0:0:
374,73,231158,1,0,0:0:0:0:
316,61,231243,5,8,0:0:0:0:
262,70,231329,1,0,0:0:0:0:
212,56,231415,1,0,0:0:0:0:
162,48,231500,1,0,0:0:0:0:
113,64,231586,1,8,0:0:0:0:
89,107,231672,1,0,0:0:0:0:
99,154,231758,1,0,0:0:0:0:
140,183,231843,1,0,0:0:0:0:
191,188,231929,5,8,0:0:0:0:
230,219,232015,1,0,0:0:0:0:
240,276,232100,1,0,0:0:0:0:
216,323,232186,1,0,0:0:0:0:
163,330,232272,1,8,0:0:0:0:
136,291,232358,1,0,0:0:0:0:
153,254,232443,1,0,0:0:0:0:
184,269,232529,1,0,0:0:0:0:
184,269,232615,5,8,0:0:0:0:
136,291,232700,1,0,0:0:0:0:
77,285,232786,1,0,0:0:0:0:
29,240,232872,1,0,0:0:0:0:
15,176,232958,1,8,0:0:0:0:
43,118,233043,1,0,0:0:0:0:
108,91,233129,1,0,0:0:0:0:
180,108,233215,1,0,0:0:0:0:
243,147,233300,5,8,0:0:0:0:
280,214,233386,1,0,0:0:0:0:
283,290,233472,1,0,0:0:0:0:
247,357,233558,1,0,0:0:0:0:
210,304,233643,1,8,0:0:0:0:
225,241,233729,1,0,0:0:0:0:
280,214,233815,1,0,0:0:0:0:
338,239,233900,1,0,0:0:0:0:
356,300,233986,5,8,0:0:0:0:
384,355,234072,1,0,0:0:0:0:
445,365,234158,1,0,0:0:0:0:
490,322,234243,1,0,0:0:0:0:
483,261,234329,1,8,0:0:0:0:
432,229,234415,1,0,0:0:0:0:
406,176,234500,1,0,0:0:0:0:
409,117,234586,2,0,P|418:90|463:73,2,58.4999973220826,0|8|0,0:0|0:0|0:0,0:0:0:0:
224,173,234843,6,0,P|200:156|190:129,1,58.4999973220826,0|8,0:0|0:0,0:0:0:0:
339,147,235015,1,8,0:0:0:0:
340,202,235100,1,0,0:0:0:0:
302,239,235186,1,0,0:0:0:0:
244,229,235272,1,0,0:0:0:0:
224,173,235358,5,8,0:0:0:0:
171,148,235443,1,0,0:0:0:0:
114,164,235529,1,0,0:0:0:0:
95,219,235615,1,0,0:0:0:0:
104,287,235700,1,8,0:0:0:0:
52,247,235786,1,0,0:0:0:0:
33,179,235872,1,0,0:0:0:0:
69,112,235958,1,0,0:0:0:0:
137,74,236043,6,0,B|193:43,1,58.4999973220826,4|0,0:0|0:0,0:0:0:0:
352,165,236215,2,0,B|349:229,1,58.4999973220826,4|0,0:0|0:0,0:0:0:0:
166,305,236386,2,0,B|111:271,1,58.4999973220826,4|0,0:0|0:0,0:0:0:0:
133,68,236558,2,0,B|192:37,1,58.4999973220826,4|0,0:0|0:0,0:0:0:0:
358,164,236729,6,0,B|356:231,1,58.4999973220826,4|0,0:0|0:0,0:0:0:0:
163,311,236900,2,0,B|106:275,1,58.4999973220826,4|0,0:0|0:0,0:0:0:0:
128,63,237072,2,0,B|191:29,1,58.4999973220826,4|0,0:0|0:0,0:0:0:0:
365,163,237243,2,0,B|363:233,1,58.4999973220826,4|0,0:0|0:0,0:0:0:0:
172,142,237415,5,8,0:0:0:0:
225,120,237500,1,0,0:0:0:0:
267,79,237586,1,8,0:0:0:0:
325,70,237672,1,0,0:0:0:0:
368,109,237758,1,8,0:0:0:0:
368,167,237843,1,0,0:0:0:0:
319,199,237929,1,8,0:0:0:0:
274,243,238015,1,0,0:0:0:0:
272,306,238100,5,8,0:0:0:0:
312,355,238186,1,8,0:0:0:0:
374,364,238272,1,8,0:0:0:0:
427,329,238358,1,8,0:0:0:0:
442,268,238443,1,8,0:0:0:0:
412,217,238529,1,8,0:0:0:0:
368,167,238615,1,8,0:0:0:0:
303,140,238700,1,8,0:0:0:0:
232,144,238786,5,8,0:0:0:0:
246,175,238872,1,0,0:0:0:0:
239,209,238958,1,0,0:0:0:0:
215,234,239043,1,0,0:0:0:0:
179,237,239129,1,0,0:0:0:0:
147,215,239215,1,0,0:0:0:0:
110,204,239300,1,0,0:0:0:0:
79,214,239386,1,0,0:0:0:0:
66,237,239472,1,0,0:0:0:0:
62,254,239558,1,0,0:0:0:0:
64,268,239643,1,0,0:0:0:0:
70,281,239729,1,0,0:0:0:0:
75,287,239815,5,0,0:0:0:0:
83,295,239900,1,0,0:0:0:0:
97,304,239986,1,0,0:0:0:0:
120,308,240072,1,0,0:0:0:0:
147,297,240158,5,0,0:0:0:0:
180,286,240243,1,0,0:0:0:0:
221,286,240329,1,0,0:0:0:0:
266,298,240415,1,0,0:0:0:0:
308,327,240500,5,8,0:0:0:0:
366,334,240586,1,8,0:0:0:0:
416,304,240672,1,8,0:0:0:0:
435,254,240758,1,8,0:0:0:0:
421,197,240843,5,8,0:0:0:0:
371,165,240929,1,8,0:0:0:0:
307,155,241015,1,8,0:0:0:0:
246,189,241100,1,8,0:0:0:0:
177,187,241185,1,8,0:0:0:0:
131,137,241271,1,8,0:0:0:0:
135,69,241357,1,8,0:0:0:0:
195,22,241442,1,8,0:0:0:0:
269,41,241529,5,8,0:0:0:0:
325,56,241615,1,0,0:0:0:0:
382,49,241700,1,0,0:0:0:0:
246,189,241872,1,8,0:0:0:0:
244,241,241958,1,0,0:0:0:0:
267,287,242043,1,0,0:0:0:0:
371,165,242215,5,8,0:0:0:0:
409,151,242300,1,0,0:0:0:0:
451,151,242386,1,0,0:0:0:0:
284,175,242558,1,8,0:0:0:0:
246,189,242643,1,0,0:0:0:0:
204,189,242729,1,0,0:0:0:0:
157,84,242900,5,0,0:0:0:0:
172,52,242986,1,0,0:0:0:0:
202,35,243072,1,0,0:0:0:0:
78,110,243243,1,0,0:0:0:0:
65,133,243329,1,0,0:0:0:0:
43,147,243415,1,0,0:0:0:0:
180,151,243586,5,0,0:0:0:0:
196,167,243672,1,0,0:0:0:0:
204,189,243758,1,0,0:0:0:0:
53,259,243929,1,0,0:0:0:0:
52,241,244015,1,0,0:0:0:0:
59,224,244100,1,0,0:0:0:0:
114,319,244272,5,0,0:0:0:0:
103,324,244358,1,0,0:0:0:0:
91,326,244443,1,0,0:0:0:0:
163,250,244615,1,0,0:0:0:0:
166,257,244700,1,0,0:0:0:0:
167,265,244786,1,0,0:0:0:0:
235,315,244958,1,0,0:0:0:0:
237,309,245043,1,0,0:0:0:0:
238,303,245129,1,0,0:0:0:0:
316,272,245300,1,0,0:0:0:0:
316,272,245386,1,0,0:0:0:0:
316,272,245472,1,0,0:0:0:0:
384,344,245643,6,0,L|419:374,2,29.2499986610413,0|0|0,0:0|0:0|0:0,0:0:0:0:
390,270,245986,2,0,L|419:305,2,26.9999991760254,0|0|0,0:0|0:0|0:0,0:0:0:0:
421,206,246329,2,0,L|443:246,2,24.7500007553101,0|0|0,0:0|0:0|0:0,0:0:0:0:
453,148,246672,2,0,L|460:169,2,22.5,0|0|0,0:0|0:0|0:0,0:0:0:0:
359,144,247015,6,0,L|341:112,2,20.2499993820191,0|0|0,0:0|0:0|0:0,0:0:0:0:
328,197,247358,2,0,L|319:173,2,18,0|0|0,0:0|0:0|0:0,0:0:0:0:
286,215,247700,2,0,L|281:190,2,15.7499995193482,0|0|0,0:0|0:0|0:0,0:0:0:0:
252,220,248043,2,0,L|252:194,2,13.4999995880127,0|0|0,0:0|0:0|0:0,0:0:0:0:
229,213,248386,2,0,L|231:197,2,11.25,0|0|0,0:0|0:0|0:0,0:0:0:0:
214,198,248729,2,0,L|219:183,2,9,0|0|0,0:0|0:0|0:0,0:0:0:0:
210,184,249072,2,0,L|215:174,2,6.74999979400635,0|0|0,0:0|0:0|0:0,0:0:0:0:
209,175,249415,2,0,L|212:170,2,4.5,0|0|0,0:0|0:0|0:0,0:0:0:0:
209,175,249758,5,0,0:0:0:0:
209,175,250100,1,0,0:0:0:0:
209,175,250443,1,0,0:0:0:0:
209,175,250786,1,0,0:0:0:0:
209,175,251129,1,0,0:0:0:0:
209,175,251472,1,0,0:0:0:0:
209,175,251815,1,0,0:0:0:0:
132,292,252158,6,0,L|186:306,1,45,8|0,0:0|0:0,0:0:0:0:
120,130,252329,2,0,L|66:144,1,45,8|0,0:0|0:0,0:0:0:0:
235,244,252500,5,0,0:0:0:0:
252,249,252843,1,0,0:0:0:0:
270,249,253186,1,0,0:0:0:0:
287,245,253529,1,0,0:0:0:0:
304,239,253872,5,0,0:0:0:0:
291,213,254215,1,0,0:0:0:0:
288,184,254558,1,0,0:0:0:0:
291,155,254900,1,0,0:0:0:0:
306,130,255243,5,0,0:0:0:0:
267,137,255586,1,0,0:0:0:0:
227,135,255929,1,0,0:0:0:0:
188,124,256272,1,0,0:0:0:0:
152,107,256615,5,0,0:0:0:0:
199,81,256958,1,0,0:0:0:0:
252,81,257300,1,0,0:0:0:0:
302,100,257643,1,0,0:0:0:0:
336,141,257986,5,0,0:0:0:0:
290,179,258329,1,0,0:0:0:0:
229,199,258672,1,0,0:0:0:0:
158,198,259015,1,0,0:0:0:0:
90,162,259358,6,0,L|62:122,2,33.7500012874604,0|0|0,0:0|0:0|0:0,0:0:0:0:
150,83,259700,2,0,L|145:34,2,36,0|0|0,0:0|0:0|0:0,0:0:0:0:
255,81,260043,2,0,L|275:36,2,38.2500007295609,0|0|0,0:0|0:0|0:0,0:0:0:0:
340,146,260386,2,0,L|380:118,2,40.4999987640381,0|0|0,0:0|0:0|0:0,0:0:0:0:
328,307,260729,6,0,L|376:302,1,42.7499988584519,8|0,0:0|0:0,0:0:0:0:
217,234,260900,6,0,L|257:206,1,42.7499988584519,10|0,0:0|0:0,0:0:0:0:
66,255,261072,6,0,L|86:210,1,42.7499988584519,8|0,0:0|0:0,0:0:0:0:
150,107,261243,5,10,0:0:0:0:
201,88,261329,1,2,0:0:0:0:
254,93,261415,5,2,0:0:0:0:
296,125,261500,1,2,0:0:0:0:
320,169,261586,5,2,0:0:0:0:
367,203,261672,1,2,0:0:0:0:
425,207,261758,5,8,0:0:0:0:
470,179,261843,1,8,0:0:0:0:
482,130,261929,1,10,0:0:0:0:
459,90,262015,1,8,0:0:0:0:
415,80,262100,5,12,0:0:0:0:
415,80,262443,1,12,0:0:0:0:
415,80,262615,5,4,0:0:0:0:
424,159,262700,1,0,0:0:0:0:
372,221,262786,1,2,0:1:0:0:
291,228,262872,1,2,0:1:0:0:
220,187,262958,1,2,0:1:0:0:
140,200,263043,1,2,0:1:0:0:
98,275,263129,1,2,0:1:0:0:
133,353,263215,1,2,0:1:0:0:
215,373,263300,1,2,0:1:0:0:
293,337,263386,1,2,0:0:0:0:
385,312,263472,6,0,P|430:320|468:342,1,56.25,2|0,0:3|0:0,0:0:0:0:
225,274,263643,2,0,P|207:279|196:276,2,28.125,2|0|0,0:0|0:0|0:0,0:0:0:0:
296,238,263815,1,8,0:0:0:0:
320,163,263900,1,0,0:0:0:0:
295,88,263986,2,0,P|277:64|236:45,1,56.25,2|0,0:0|0:0,0:0:0:0:
45,175,264158,5,0,0:0:0:0:
57,103,264243,1,0,0:0:0:0:
113,56,264329,2,0,P|128:51|161:50,2,28.125,2|0|0,0:0|0:0|0:0,0:0:0:0:
217,151,264500,2,0,P|222:179|216:207,1,56.25,8|0,0:0|0:0,0:0:0:0:
85,342,264672,2,0,P|80:314|86:286,1,56.25,2|0,0:0|0:0,0:0:0:0:
217,206,264843,6,0,P|265:205|309:237,1,56.25,0|0,0:0|0:0,0:0:0:0:
85,287,265015,2,0,P|37:288|-7:256,1,56.25,2|0,0:0|0:0,0:0:0:0:
240,280,265186,1,8,0:0:0:0:
313,286,265272,1,0,0:0:0:0:
355,345,265358,2,0,P|361:363|361:380,2,28.125,2|0|0,0:0|0:0|0:0,0:0:0:0:
345,187,265529,6,0,L|335:119,1,56.25,0|0,0:0|0:0,0:0:0:0:
452,231,265700,2,0,L|443:286,1,56.25,2|0,0:0|0:0,0:0:0:0:
280,60,265872,1,8,0:0:0:0:
357,46,265958,1,0,0:0:0:0:
423,85,266043,1,2,0:0:0:0:
462,151,266129,1,0,0:0:0:0:
460,225,266215,6,0,L|451:280,1,56.25,0|0,0:0|0:0,0:0:0:0:
272,353,266386,2,0,L|228:369,2,28.125,2|0|0,0:0|0:0|0:0,0:0:0:0:
313,286,266558,1,8,0:0:0:0:
285,218,266643,1,0,0:0:0:0:
213,203,266729,2,0,P|175:221|160:263,1,56.25,2|0,0:0|0:0,0:0:0:0:
80,338,266900,5,0,0:0:0:0:
97,266,266986,1,0,0:0:0:0:
95,192,267072,2,0,P|82:163|34:142,1,56.25,2|0,0:0|0:0,0:0:0:0:
175,114,267243,2,0,P|157:94|131:84,1,56.25,8|0,0:0|0:0,0:0:0:0:
225,14,267415,2,0,P|196:0|146:14,1,56.25,2|0,0:0|0:0,0:0:0:0:
275,104,267586,6,0,B|307:115|307:115|327:106|327:106|361:129|395:133|395:133|449:105,1,168.75,2|0,0:0|0:0,0:0:0:0:
300,30,267929,1,8,0:0:0:0:
275,104,268015,1,0,0:0:0:0:
276,182,268100,2,0,L|288:221,2,28.125,2|0|0,0:0|0:0|0:0,0:0:0:0:
97,162,268272,6,0,P|71:165|36:215,1,56.25,0|0,0:0|0:0,0:0:0:0:
185,55,268443,2,0,L|171:-3,1,56.25,2|0,0:0|0:0,0:0:0:0:
267,186,268615,2,0,L|279:225,2,28.125,8|0|0,0:0|0:0|0:0,0:0:0:0:
182,226,268786,2,0,L|168:264,2,28.125,2|0|0,0:0|0:0|0:0,0:0:0:0:
275,104,268958,6,0,P|310:111|340:138,1,56.25,0|0,0:0|0:0,0:0:0:0:
96,234,269129,2,0,L|65:260,2,28.125,2|0|0,0:0|0:0|0:0,0:0:0:0:
184,134,269300,1,8,0:0:0:0:
185,55,269386,1,0,0:0:0:0:
117,18,269472,2,0,P|70:16|33:37,1,56.25,2|0,0:0|0:0,0:0:0:0:
259,65,269643,5,0,0:0:0:0:
330,60,269729,1,0,0:0:0:0:
388,17,269815,2,0,P|412:9|435:12,2,28.125,2|0|0,0:0|0:0|0:0,0:0:0:0:
333,143,269986,2,0,P|311:173|268:191,1,56.25,8|0,0:0|0:0,0:0:0:0:
210,236,270158,2,0,P|207:282|232:315,1,56.25,2|0,0:0|0:0,0:0:0:0:
394,167,270329,6,0,P|355:141|314:146,1,56.25,0|0,0:0|0:0,0:0:0:0:
359,361,270500,2,0,P|400:340|416:302,1,56.25,2|0,0:0|0:0,0:0:0:0:
221,148,270672,1,8,0:0:0:0:
153,175,270758,1,0,0:0:0:0:
116,237,270843,2,0,P|111:261|121:287,2,28.125,2|0|0,0:0|0:0|0:0,0:0:0:0:
285,262,271015,6,0,P|331:278|354:317,1,56.25,0|0,0:0|0:0,0:0:0:0:
75,176,271186,2,0,P|29:160|6:121,1,56.25,2|0,0:0|0:0,0:0:0:0:
213,44,271358,1,8,0:0:0:0:
283,58,271443,1,0,0:0:0:0:
322,120,271529,1,2,0:0:0:0:
294,190,271615,1,0,0:0:0:0:
285,262,271700,6,0,P|283:303|302:336,1,56.25,0|0,0:0|0:0,0:0:0:0:
407,220,271872,2,0,P|394:204|373:202,2,28.125,2|0|0,0:0|0:0|0:0,0:0:0:0:
444,293,272043,1,8,0:0:0:0:
400,351,272129,1,0,0:0:0:0:
327,353,272215,2,0,P|295:331|287:289,1,56.25,2|0,0:0|0:0,0:0:0:0:
178,169,272386,5,0,0:0:0:0:
111,139,272472,1,0,0:0:0:0:
64,195,272558,2,0,B|51:231|51:231|91:271,1,56.25,2|0,0:0|0:0,0:0:0:0:
198,80,272729,2,0,B|173:50|173:50|118:65,1,56.25,8|0,0:0|0:0,0:0:0:0:
231,253,272900,2,0,B|268:246|268:246|283:191,1,56.25,2|0,0:0|0:0,0:0:0:0:
354,132,273072,6,0,P|358:111|364:95,1,31.4999990386963,2|0,0:0|0:0,0:0:0:0:
354,132,273415,1,0,0:0:0:0:
350,142,273500,1,0,0:0:0:0:
347,158,273586,1,0,0:0:0:0:
348,180,273672,1,0,0:0:0:0:
351,207,273758,5,8,0:0:0:0:
366,238,273843,1,0,0:0:0:0:
403,255,273929,1,8,0:0:0:0:
451,238,274015,1,0,0:0:0:0:
460,183,274100,1,8,0:0:0:0:
409,147,274186,1,0,0:0:0:0:
348,180,274272,1,8,0:0:0:0:
274,186,274358,1,0,0:0:0:0:
198,167,274443,6,0,P|176:146|172:100,1,56.25,4|0,0:0|0:0,0:0:0:0:
298,70,274615,2,0,P|311:77|336:76,2,28.125,2|0|0,0:0|0:0|0:0,0:0:0:0:
235,21,274786,1,8,0:0:0:0:
156,16,274872,1,0,0:0:0:0:
88,57,274958,2,0,P|68:102|81:142,1,56.25,2|0,0:0|0:0,0:0:0:0:
127,224,275129,5,0,0:0:0:0:
141,301,275215,1,0,0:0:0:0:
94,363,275300,2,0,P|75:369|60:368,2,28.125,2|0|0,0:0|0:0|0:0,0:0:0:0:
238,319,275472,2,0,P|269:337|294:371,1,56.25,8|0,0:0|0:0,0:0:0:0:
207,219,275643,2,0,P|207:183|224:144,1,56.25,2|0,0:0|0:0,0:0:0:0:
359,238,275815,6,0,B|363:341|363:341|354:370|354:370|408:329,1,168.75,2|0,0:0|0:0,0:0:0:0:
448,273,276158,1,8,0:0:0:0:
468,203,276243,1,0,0:0:0:0:
463,129,276329,2,0,P|459:110|449:89,2,28.125,2|0|0,0:0|0:0|0:0,0:0:0:0:
359,238,276500,6,0,P|294:251|257:234,1,56.25,0|0,0:0|0:0,0:0:0:0:
203,159,276672,2,0,P|175:161|149:173,1,56.25,2|0,0:0|0:0,0:0:0:0:
46,317,276843,2,0,L|55:261,3,56.25,8|0|2|0,0:0|0:0|0:0|0:0,0:0:0:0:
199,82,277186,6,0,P|232:85|266:114,1,56.25,0|0,0:0|0:0,0:0:0:0:
84,132,277358,2,0,P|67:126|52:111,2,28.125,2|0|0,0:0|0:0|0:0,0:0:0:0:
149,173,277529,1,8,0:0:0:0:
176,240,277615,1,0,0:0:0:0:
162,311,277700,2,0,P|127:338|76:338,1,56.25,2|0,0:0|0:0,0:0:0:0:
283,229,277872,6,0,P|310:264|310:315,1,56.25,0|0,0:0|0:0,0:0:0:0:
83,225,278043,2,0,P|74:237|68:249,2,28.125,2|0|0,0:0|0:0|0:0,0:0:0:0:
149,173,278215,1,8,0:0:0:0:
226,167,278300,1,0,0:0:0:0:
284,220,278386,2,0,P|323:233|362:216,1,56.25,2|0,0:0|0:0,0:0:0:0:
373,57,278558,6,0,L|374:134,1,56.25,0|0,0:0|0:0,0:0:0:0:
408,271,278729,1,2,0:0:0:0:
480,285,278815,1,0,0:0:0:0:
456,215,278900,2,0,P|414:189|360:208,1,56.25,8|0,0:0|0:0,0:0:0:0:
227,247,279072,2,0,P|275:235|299:184,1,56.25,2|0,0:0|0:0,0:0:0:0:
367,47,279243,6,0,L|368:124,1,56.25,0|0,0:0|0:0,0:0:0:0:
144,86,279415,2,8,L|78:111,2,56.25,10|8|8,0:3|0:0|0:0,0:0:0:0:
460,133,279672,2,8,L|526:158,2,56.25,10|8|8,0:3|0:0|0:0,0:0:0:0:
199,33,279929,6,0,P|160:11|103:28,1,56.25,4|0,0:0|0:0,0:0:0:0:
15,82,280100,2,0,P|6:91|0:104,2,28.125,2|0|0,0:0|0:0|0:0,0:0:0:0:
79,43,280272,1,8,0:0:0:0:
144,86,280358,1,0,0:0:0:0:
152,164,280443,2,0,P|120:194|95:195,1,56.25,2|0,0:0|0:0,0:0:0:0:
4,275,280615,5,0,0:0:0:0:
65,313,280700,1,0,0:0:0:0:
138,313,280786,2,0,P|162:305|180:291,2,28.125,2|0|0,0:0|0:0|0:0,0:0:0:0:
298,313,280958,2,0,L|272:363,1,56.25,8|0,0:0|0:0,0:0:0:0:
267,147,281129,2,0,P|289:186|322:195,1,56.25,2|0,0:0|0:0,0:0:0:0:
411,320,281300,6,0,P|432:302|441:276,1,56.25,0|0,0:0|0:0,0:0:0:0:
261,152,281472,2,0,P|283:191|316:200,1,56.25,2|0,0:0|0:0,0:0:0:0:
446,172,281643,1,8,0:0:0:0:
443,98,281729,1,0,0:0:0:0:
383,54,281815,2,0,P|358:49|344:50,2,28.125,2|0|0,0:0|0:0|0:0,0:0:0:0:
446,172,281986,6,0,P|421:198|389:204,1,56.25,0|0,0:0|0:0,0:0:0:0:
196,102,282158,2,0,P|221:76|253:70,1,56.25,2|0,0:0|0:0,0:0:0:0:
232,273,282329,1,8,0:0:0:0:
159,255,282415,1,0,0:0:0:0:
111,201,282500,1,2,0:0:0:0:
97,128,282586,1,0,0:0:0:0:
123,59,282672,6,0,P|141:36|212:30,1,56.25,0|0,0:0|0:0,0:0:0:0:
256,141,282843,2,0,L|241:179,2,28.125,2|0|0,0:0|0:0|0:0,0:0:0:0:
356,33,283015,1,8,0:0:0:0:
342,21,283100,1,0,0:0:0:0:
329,10,283186,1,10,0:0:0:0:
399,52,283272,1,8,0:0:0:0:
393,129,283358,5,8,0:0:0:0:
324,174,283443,1,8,0:0:0:0:
315,255,283529,1,10,0:0:0:0:
374,312,283615,1,8,0:0:0:0:
455,302,283700,1,8,0:0:0:0:
497,232,283786,1,8,0:0:0:0:
470,155,283872,1,10,0:0:0:0:
393,129,283958,1,8,0:0:0:0:
308,104,284043,5,8,0:0:0:0:
308,104,284386,2,0,L|333:212,1,67.949999222374,2|0,0:3|0:0,0:0:0:0:
118,110,284558,2,0,L|138:223,1,67.949999222374,2|0,0:3|0:0,0:0:0:0:
394,238,284729,6,0,L|374:351,1,67.949999222374,2|0,0:3|0:0,0:0:0:0:
196,275,284900,2,0,L|176:388,1,67.949999222374,2|0,0:3|0:0,0:0:0:0:
451,308,285072,6,0,L|360:304,1,67.949999222374,8|0,0:0|0:0,0:0:0:0:
60,249,285243,6,0,L|151:245,1,67.949999222374,8|0,0:0|0:0,0:0:0:0:
236,104,285415,6,0,P|260:66|255:4,1,56.25,4|0,0:0|0:0,0:0:0:0:
117,20,285586,2,0,L|109:33,1,13.4999995880127,2|0,0:0|0:0,0:0:0:0:
89,97,285672,1,0,0:0:0:0:
93,177,285758,1,8,0:0:0:0:
127,246,285843,1,0,0:0:0:0:
196,275,285929,2,0,P|246:274|259:267,1,56.25,2|0,0:0|0:0,0:0:0:0:
329,177,286100,5,0,0:0:0:0:
328,258,286186,1,0,0:0:0:0:
381,319,286272,2,0,P|387:324|394:326,1,13.4999995880127,2|0,0:0|0:0,0:0:0:0:
460,317,286358,1,0,0:0:0:0:
504,253,286443,2,0,P|512:216|474:173,1,56.25,8|0,0:0|0:0,0:0:0:0:
347,79,286615,2,0,P|310:71|267:109,1,56.25,2|0,0:0|0:0,0:0:0:0:
496,250,286786,6,0,P|504:213|466:170,1,56.25,0|0,0:0|0:0,0:0:0:0:
348,72,286958,2,0,P|311:64|268:102,1,56.25,2|0,0:0|0:0,0:0:0:0:
410,163,287129,1,8,0:0:0:0:
471,113,287215,1,0,0:0:0:0:
484,34,287300,2,0,P|482:21|473:4,2,28.125,2|0|0,0:0|0:0|0:0,0:0:0:0:
324,149,287472,6,0,P|287:157|244:119,1,56.25,0|0,0:0|0:0,0:0:0:0:
129,39,287643,2,0,P|166:31|209:69,1,56.25,2|0,0:0|0:0,0:0:0:0:
215,251,287815,2,0,L|203:335,3,56.25,8|0|2|0,0:0|0:0|0:0|0:0,0:0:0:0:
96,318,288158,6,0,P|68:324|41:320,1,56.25,0|0,0:0|0:0,0:0:0:0:
215,251,288329,1,2,0:0:0:0:
264,196,288415,1,0,0:0:0:0:
332,171,288500,1,8,0:0:0:0:
402,191,288586,1,0,0:0:0:0:
433,257,288672,2,0,P|424:309|378:340,1,56.25,2|0,0:0|0:0,0:0:0:0:
264,196,288843,5,0,0:0:0:0:
265,122,288929,1,0,0:0:0:0:
325,80,289015,2,0,P|374:80|403:93,1,56.25,2|0,0:0|0:0,0:0:0:0:
144,162,289186,2,0,P|193:162|222:149,1,56.25,8|0,0:0|0:0,0:0:0:0:
330,72,289358,2,0,P|379:72|408:85,1,56.25,2|0,0:0|0:0,0:0:0:0:
170,81,289529,6,0,P|170:32|183:3,1,56.25,0|0,0:0|0:0,0:0:0:0:
340,169,289700,2,0,P|340:218|327:247,1,56.25,2|0,0:0|0:0,0:0:0:0:
284,326,289872,1,8,0:0:0:0:
211,337,289958,1,0,0:0:0:0:
146,304,290043,2,0,P|138:281|134:255,2,28.125,2|0|0,0:0|0:0|0:0,0:0:0:0:
289,332,290215,6,0,P|328:309|335:292,1,56.25,0|0,0:0|0:0,0:0:0:0:
118,208,290386,2,0,P|79:231|72:248,1,56.25,2|0,0:0|0:0,0:0:0:0:
234,222,290558,1,10,0:1:0:0:
217,128,290643,1,10,0:1:0:0:
199,33,290729,1,10,0:1:0:0:
199,33,290900,6,0,L|264:39,1,51.7500009870529,2|0,0:0|0:0,0:0:0:0:
408,44,291072,1,2,0:0:0:0:
468,83,291158,1,0,0:0:0:0:
480,153,291243,1,8,0:0:0:0:
440,214,291329,1,0,0:0:0:0:
369,231,291415,2,0,P|332:228|316:212,1,51.7500009870529,2|0,0:0|0:0,0:0:0:0:
307,95,291586,5,0,0:0:0:0:
297,161,291672,1,0,0:0:0:0:
321,219,291758,1,2,0:0:0:0:
364,269,291843,1,0,0:0:0:0:
426,294,291929,2,0,P|468:291|501:259,1,51.7500009870529,8|0,0:0|0:0,0:0:0:0:
357,98,292100,2,0,P|312:93|273:115,1,51.7500009870529,2|0,0:0|0:0,0:0:0:0:
253,339,292272,6,0,P|297:343|336:321,1,51.7500009870529,0|0,0:0|0:0,0:0:0:0:
215,137,292443,2,0,P|169:136|133:162,1,51.7500009870529,2|0,0:0|0:0,0:0:0:0:
90,232,292615,1,8,0:0:0:0:
94,277,292700,1,0,0:0:0:0:
113,319,292786,2,0,P|128:333|150:340,2,25.8750004935265,2|0|0,0:0|0:0|0:0,0:0:0:0:
224,261,292958,6,0,P|190:213|187:272,1,155.250002961159,0|0,0:0|0:0,0:0:0:0:
304,258,293300,2,0,P|306:232|300:207,1,51.7500009870529,8|0,0:0|0:0,0:0:0:0:
113,174,293472,2,0,P|99:197|92:221,1,51.7500009870529,2|0,0:0|0:0,0:0:0:0:
148,338,293643,6,0,P|168:350|196:350,1,51.7500009870529,0|0,0:0|0:0,0:0:0:0:
301,334,293815,1,2,0:0:0:0:
347,322,293900,1,0,0:0:0:0:
394,318,293986,1,8,0:0:0:0:
436,328,294072,1,0,0:0:0:0:
477,313,294158,1,2,0:0:0:0:
501,276,294243,1,0,0:0:0:0:
501,236,294329,5,0,0:0:0:0:
481,202,294415,1,0,0:0:0:0:
447,184,294500,1,2,0:0:0:0:
437,197,294586,1,0,0:0:0:0:
424,209,294672,1,0,0:0:0:0:
410,218,294758,1,0,0:0:0:0:
394,224,294843,1,0,0:0:0:0:
378,228,294929,1,0,0:0:0:0:
361,228,295015,5,2,0:0:0:0:
256,192,295100,12,0,296215,0:0:0:0:
84,335,296386,6,0,B|64:350|64:350|34:341,2,47.2499985580445,0|0|0,0:0|0:0|0:0,0:0:0:0:
256,192,305986,12,0,307272,0:0:0:0:
155,178,307358,6,0,B|162:204|162:204|145:236|129:249|129:249|165:243|203:251|224:312|224:312|227:262|250:237|250:237|219:201|223:153,1,377.999988464356,0|0,0:0|0:0,0:0:0:0:
223,157,308729,2,0,B|240:209|290:222|329:199|329:199|295:148|295:148|319:60|319:60|377:149,1,371.250011329651,0|0,0:0|0:0,0:0:0:0:
399,157,310100,6,0,B|323:47|323:47|289:70|247:77|211:59|211:59|185:86|185:86|146:67|146:67|135:118|135:118|101:85|101:85|79:120|56:128|37:137|-2:131,1,544.500016616822,0|0,0:0|0:0,0:0:0:0:
6,132,312158,2,0,P|-3:188|38:243,1,126,0|0,0:0|0:0,0:0:0:0:
149,223,312843,6,0,B|149:207|143:186|143:186|180:201|180:201|238:165|238:165|227:238|227:238|295:256|295:256|315:117|315:117|302:84|264:61|221:70|190:96|190:96|161:72|161:72|136:99|136:99|95:73|50:77|16:99|6:132,1,809.100024691773,0|0,0:0|0:0,0:0:0:0:
69,205,315586,6,0,B|80:227|80:260|66:292|34:317|5:323|5:323|57:365|100:359,1,242.999992584229,0|0,0:0|0:0,0:0:0:0:
87,360,317129,1,0,0:0:0:0:
87,360,317300,2,0,B|131:316|136:365|181:322,2,87.749995983124,0|0|0,0:0|0:0|0:0,0:0:0:0:
243,320,317986,6,0,P|255:299|258:274,1,49.5000015106202,0|0,0:0|0:0,0:0:0:0:
219,125,318329,6,0,L|293:152,1,67.5000025749208,0|0,0:0|0:0,0:0:0:0:
219,125,318672,1,0,0:0:0:0:
219,125,318843,1,0,0:0:0:0:
376,41,319015,6,0,L|302:68,1,67.5000025749208,0|0,0:0|0:0,0:0:0:0:
376,41,319358,1,0,0:0:0:0:
376,41,319529,1,0,0:0:0:0:
212,144,319700,6,0,L|296:174,1,76.5000014591217,0|0,0:0|0:0,0:0:0:0:
212,144,320043,1,0,0:0:0:0:
212,144,320214,1,0,0:0:0:0:
391,47,320386,6,0,L|306:77,1,76.5000014591217,0|0,0:0|0:0,0:0:0:0:
391,47,320729,1,0,0:0:0:0:
391,47,320900,1,0,0:0:0:0:
431,282,321072,6,0,P|442:234|434:165,1,90,8|0,0:0|0:0,0:0:0:0:
388,128,321329,1,0,0:0:0:0:
388,128,321415,1,8,0:0:0:0:
251,245,321586,5,0,0:0:0:0:
251,245,321672,1,0,0:0:0:0:
251,245,321758,1,8,0:0:0:0:
462,303,321929,5,0,0:0:0:0:
462,303,322015,1,0,0:0:0:0:
462,303,322101,1,8,0:0:0:0:
250,110,322272,5,0,0:0:0:0:
250,110,322358,1,0,0:0:0:0:
250,110,322443,6,0,P|234:134|230:154,1,45,8|0,0:0|0:0,0:0:0:0:
492,213,322615,2,0,P|485:191|472:173,1,45,8|0,0:0|0:0,0:0:0:0:
149,201,322786,6,0,P|161:226|177:240,1,45,8|0,0:0|0:0,0:0:0:0:
359,42,322958,2,0,P|337:36|314:39,1,45,8|0,0:0|0:0,0:0:0:0:
241,307,323129,5,8,0:0:0:0:
281,325,323214,1,0,0:0:0:0:
326,327,323300,1,8,0:0:0:0:
367,310,323386,1,0,0:0:0:0:
399,278,323471,1,2,0:0:0:0:
37,199,326558,5,8,0:0:0:0:
31,129,326644,1,8,0:0:0:0:
25,60,326729,1,10,0:1:0:0:
37,62,326900,5,8,0:0:0:0:
43,132,326985,1,8,0:0:0:0:
50,202,327071,1,10,0:1:0:0:
62,204,327243,5,8,0:0:0:0:
56,134,327328,1,8,0:0:0:0:
49,64,327414,1,10,0:1:0:0:
61,66,327586,5,10,0:1:0:0:
68,136,327672,1,8,0:0:0:0:
74,206,327757,1,8,0:0:0:0:
81,276,327843,1,8,0:0:0:0:
87,346,327928,1,0,0:0:0:0:
487,336,328272,1,0,0:0:0:0:
235,156,328615,5,8,0:0:0:0:
177,114,328700,1,8,0:0:0:0:
135,171,328786,1,8,0:0:0:0:
193,213,328872,1,8,0:0:0:0:
243,154,328958,1,8,0:0:0:0:
175,105,329043,1,8,0:0:0:0:
126,172,329129,1,8,0:0:0:0:
194,221,329215,1,8,0:0:0:0:
274,230,329300,5,2,0:3:0:0:
344,209,329386,1,0,0:0:0:0:
368,140,329472,1,2,0:0:0:0:
340,72,329558,1,0,0:0:0:0:
270,53,329643,5,8,0:0:0:0:
336,49,329729,1,0,0:0:0:0:
401,61,329815,1,2,0:0:0:0:
450,104,329900,1,0,0:0:0:0:
462,169,329986,6,0,P|452:218|426:254,1,60.7500002317429,8|0,0:0|0:0,0:0:0:0:
140,279,330158,2,0,P|168:290|198:293,1,60.7500002317429,2|0,0:0|0:0,0:0:0:0:
498,300,330329,6,0,P|469:311|439:314,1,60.7500002317429,8|0,0:0|0:0,0:0:0:0:
185,207,330500,2,0,P|173:178|170:148,1,60.7500002317429,2|0,0:0|0:0,0:0:0:0:
331,217,330672,5,8,0:0:0:0:
300,262,330758,1,0,0:0:0:0:
252,287,330843,1,2,0:0:0:0:
198,293,330929,1,0,0:0:0:0:
140,279,331015,5,8,0:0:0:0:
185,207,331100,1,8,0:0:0:0:
258,163,331186,1,8,0:0:0:0:
341,143,331272,1,0,0:0:0:0:
424,158,331358,6,0,P|465:185|491:228,1,60.7500002317429,10|0,0:0|0:0,0:0:0:0:
219,63,331529,2,0,P|178:90|152:133,1,60.7500002317429,2|0,0:0|0:0,0:0:0:0:
424,150,331700,6,0,P|465:177|491:220,1,60.7500002317429,8|0,0:0|0:0,0:0:0:0:
219,55,331872,2,0,P|178:82|152:125,1,60.7500002317429,2|0,0:0|0:0,0:0:0:0:
341,143,332043,5,8,0:0:0:0:
355,89,332129,1,0,0:0:0:0:
323,44,332215,1,2,0:0:0:0:
269,35,332300,1,0,0:0:0:0:
219,55,332386,5,8,0:0:0:0:
163,30,332472,1,0,0:0:0:0:
102,29,332558,1,2,0:0:0:0:
42,58,332643,1,0,0:0:0:0:
4,121,332729,6,0,P|41:98|66:60,1,60.7500002317429,8|0,0:0|0:0,0:0:0:0:
163,194,332900,2,0,P|134:201|104:201,1,60.7500002317429,2|0,0:0|0:0,0:0:0:0:
159,318,333072,6,0,P|197:338|242:341,1,60.7500002317429,8|0,0:0|0:0,0:0:0:0:
355,248,333243,2,0,P|312:270|270:269,1,60.7500002317429,2|0,0:0|0:0,0:0:0:0:
163,194,333415,6,0,P|119:134|191:155,1,195.750005973816,8|0,0:0|0:0,0:0:0:0:
411,217,333758,6,0,L|361:251,1,60.7500002317429,8|0,0:0|0:0,0:0:0:0:
417,156,333929,2,0,L|411:216,1,60.7500002317429,10|0,0:0|0:0,0:0:0:0:
373,113,334100,6,0,L|417:156,1,60.7500002317429,2|0,0:0|0:0,0:0:0:0:
379,52,334272,2,2,L|373:112,1,60.7500002317429,8|0,0:0|0:0,0:0:0:0:
429,19,334443,6,0,L|379:52,1,60.7500002317429,8|0,0:0|0:0,0:0:0:0:
197,22,334615,1,2,0:0:0:0:
161,20,334700,1,0,0:0:0:0:
127,3,334786,6,0,L|175:64,1,60.7500002317429,8|0,0:0|0:0,0:0:0:0:
192,162,334958,2,0,L|240:223,1,60.7500002317429,8|0,0:0|0:0,0:0:0:0:
263,320,335129,6,0,B|302:369|302:369|287:328|300:280|349:261,1,182.250000695229,10|0,0:1|0:0,0:0:0:0:
268,185,335472,6,0,P|314:166|360:178,1,60.7500002317429,8|0,0:0|0:0,0:0:0:0:
342,69,335643,2,0,P|388:88|412:129,1,60.7500002317429,2|0,0:0|0:0,0:0:0:0:
503,250,335815,6,0,P|456:268|410:256,1,60.7500002317429,8|0,0:0|0:0,0:0:0:0:
428,365,335986,2,0,P|381:345|357:304,1,60.7500002317429,2|0,0:0|0:0,0:0:0:0:
454,172,336158,6,0,L|535:141,1,60.7500002317429,8|0,0:0|0:0,0:0:0:0:
257,327,336329,2,0,L|176:358,1,60.7500002317429,2|0,0:1|0:0,0:0:0:0:
226,129,336500,5,8,0:0:0:0:
226,129,336586,1,8,0:0:0:0:
226,129,336672,2,0,P|240:103|244:73,1,60.7500002317429,10|0,0:0|0:0,0:0:0:0:
131,178,336843,5,8,0:0:0:0:
171,223,336929,1,0,0:0:0:0:
230,234,337015,1,2,0:0:0:0:
287,216,337100,1,0,0:0:0:0:
326,169,337186,5,8,0:0:0:0:
391,152,337272,1,0,0:0:0:0:
451,193,337358,1,2,0:0:0:0:
463,270,337443,1,0,0:0:0:0:
411,337,337529,6,0,B|366:335|366:335|328:314,1,60.7500002317429,8|0,0:0|0:0,0:0:0:0:
167,119,337700,2,0,B|212:121|212:121|250:142,1,60.7500002317429,2|0,0:1|0:0,0:0:0:0:
391,152,337872,5,8,0:0:0:0:
391,152,337958,1,8,0:0:0:0:
391,152,338043,1,10,0:0:0:0:
404,98,338129,1,0,0:0:0:0:
433,51,338215,6,0,P|451:24|490:-1,1,60.7500002317429,6|0,0:0|0:0,0:0:0:0:
286,70,338386,2,0,P|259:51|233:12,1,60.7500002317429,12|0,0:0|0:0,0:0:0:0:
304,216,338558,6,0,P|285:242|246:268,1,60.7500002317429,6|0,0:0|0:0,0:0:0:0:
452,198,338729,2,0,P|478:216|504:255,1,60.7500002317429,6|0,0:0|0:0,0:0:0:0:
197,87,338900,5,8,0:0:0:0:
160,158,338986,1,8,0:0:0:0:
193,232,339072,1,10,0:0:0:0:
264,252,339158,1,8,0:0:0:0:
303,312,339243,5,8,0:0:0:0:
266,375,339329,1,8,0:0:0:0:
192,370,339415,1,10,0:0:0:0:
158,305,339500,1,8,0:0:0:0:
94,267,339586,6,0,P|52:249|29:255,1,60.7500002317429,6|0,0:0|0:0,0:0:0:0:
309,212,339758,2,0,P|351:230|374:224,1,60.7500002317429,4|0,0:0|0:0,0:0:0:0:
90,105,339929,6,0,B|81:140|81:140|95:187|95:187|79:216|81:240|100:278,1,168.75,10|0,0:3|0:0,0:0:0:0:
176,161,340272,5,8,0:0:0:0:
235,118,340358,1,0,0:0:0:0:
235,45,340443,1,2,0:0:0:0:
170,10,340529,1,0,0:0:0:0:
100,31,340615,5,8,0:0:0:0:
165,50,340700,1,0,0:0:0:0:
235,45,340786,1,2,0:0:0:0:
301,74,340872,1,0,0:0:0:0:
314,145,340958,6,0,P|274:192|233:204,1,60.7500002317429,8|0,0:0|0:0,0:0:0:0:
270,317,341129,2,0,P|212:293|188:258,1,60.7500002317429,2|0,0:0|0:0,0:0:0:0:
92,328,341300,6,0,P|96:266|122:232,1,60.7500002317429,8|0,0:0|0:0,0:0:0:0:
26,162,341472,2,0,P|85:147|126:161,1,60.7500002317429,2|0,0:0|0:0,0:0:0:0:
165,50,341643,6,0,P|197:103|154:213,1,188.999994232178,8|0,0:0|0:0,0:0:0:0:
300,231,341986,5,8,0:0:0:0:
321,195,342072,1,8,0:0:0:0:
311,153,342158,2,0,P|281:140|272:109,1,60.7500002317429,8|0,0:0|0:0,0:0:0:0:
376,14,342329,6,0,P|348:25|338:53,1,60.7500002317429,10|0,0:0|0:0,0:0:0:0:
404,252,342500,2,0,P|431:240|441:212,1,60.7500002317429,2|0,0:0|0:0,0:0:0:0:
305,157,342672,6,0,P|275:144|266:113,1,60.7500002317429,8|0,0:0|0:0,0:0:0:0:
470,114,342843,2,0,P|500:127|509:158,1,60.7500002317429,2|0,0:0|0:0,0:0:0:0:
403,251,343015,6,0,B|265:252|296:202|168:202,1,242.999992584229,8|0,0:0|0:0,0:0:0:0:
45,154,343358,5,8,0:0:0:0:
113,158,343443,1,0,0:0:0:0:
168,202,343529,1,2,0:0:0:0:
190,264,343615,1,0,0:0:0:0:
201,327,343700,6,0,P|156:378|109:391,1,60.7500002317429,8|0,0:0|0:0,0:0:0:0:
234,143,343872,2,0,P|279:92|326:79,1,60.7500002317429,2|0,0:0|0:0,0:0:0:0:
118,301,344043,6,0,P|53:322|6:310,1,60.7500002317429,8|0,0:0|0:0,0:0:0:0:
327,170,344215,2,0,P|391:148|438:160,1,60.7500002317429,2|0,0:0|0:0,0:0:0:0:
45,154,344386,6,0,P|9:223|89:230,1,182.250000695229,8|0,0:0|0:0,0:0:0:0:
134,73,344729,2,0,P|89:22|42:9,1,60.7500002317429,8|0,0:0|0:0,0:0:0:0:
190,264,344900,2,0,P|235:315|282:328,1,60.7500002317429,8|0,0:0|0:0,0:0:0:0:
221,78,345072,2,0,P|235:51|257:31,1,60.7500002317429,2|0,0:0|0:0,0:0:0:0:
431,154,345243,6,0,L|347:140,1,60.7500002317429,8|0,0:0|0:0,0:0:0:0:
376,234,345415,2,0,L|291:242,1,60.7500002317429,8|0,0:0|0:0,0:0:0:0:
343,325,345586,2,0,L|263:354,1,60.7500002317429,2|0,0:0|0:0,0:0:0:0:
241,133,345758,6,0,B|224:104|224:104|219:65,1,60.7500002317429,8|0,0:0|0:0,0:0:0:0:
184,268,345929,2,0,B|180:294|180:294|163:323,1,60.7500002317429,8|0,0:0|0:0,0:0:0:0:
322,243,346100,6,0,B|364:272|404:205|451:255|451:255|421:291|377:252,1,202.500007724762,8|0,0:0|0:0,0:0:0:0:
184,268,346443,5,8,0:0:0:0:
138,227,346529,1,0,0:0:0:0:
123,167,346615,1,2,0:0:0:0:
131,107,346700,1,0,0:0:0:0:
165,56,346786,5,8,0:0:0:0:
199,97,346872,1,0,0:0:0:0:
172,145,346958,1,2,0:0:0:0:
123,167,347043,1,0,0:0:0:0:
57,164,347129,6,0,P|29:138|23:104,3,60.7500002317429,8|0|0|0,0:0|0:0|0:0|0:0,0:0:0:0:
300,184,347472,2,0,P|328:158|334:124,3,60.7500002317429,8|0|0|0,0:0|0:0|0:0|0:0,0:0:0:0:
91,283,347815,6,0,P|67:301|57:330,3,60.7500002317429,8|0|0|0,0:0|0:0|0:0|0:0,0:0:0:0:
333,303,348158,2,0,P|357:321|368:350,3,60.7500002317429,8|0|0|0,0:0|0:0|0:0|0:0,0:0:0:0:
201,65,348500,6,0,L|185:175,1,60.7500002317429,8|0,0:0|0:0,0:0:0:0:
255,346,348672,2,0,L|246:285,1,60.7500002317429,8|0,0:0|0:0,0:0:0:0:
191,64,348843,6,0,L|175:174,1,60.7500002317429,8|0,0:0|0:0,0:0:0:0:
245,345,349015,2,0,L|236:284,1,60.7500002317429,8|0,0:0|0:0,0:0:0:0:
81,203,349186,5,8,0:0:0:0:
105,202,349272,1,8,0:0:0:0:
129,202,349358,1,8,0:0:0:0:
153,202,349443,1,8,0:0:0:0:
178,202,349529,1,8,0:0:0:0:
202,201,349615,1,8,0:0:0:0:
226,201,349700,1,8,0:0:0:0:
251,201,349786,1,8,0:0:0:0:
276,201,349872,6,0,L|292:254,3,33.7500012874604,0|0|0|0,0:0|0:0|0:0|0:0,0:0:0:0:
358,116,350215,2,0,L|346:198,1,74.2500022659302,0|0,0:0|0:0,0:0:0:0:
264,344,350558,5,8,0:0:0:0:
160,64,350729,1,8,0:0:0:0:
456,205,350900,1,8,0:0:0:0:
146,345,351072,1,8,0:0:0:0:
248,150,351243,6,0,L|39:180,1,175.499991966248,2|0,0:0|0:0,0:0:0:0:
10,134,351586,1,8,0:0:0:0:
248,150,351758,2,0,L|102:170,1,116.999994644165,2|0,0:0|0:0,0:0:0:0:
326,222,352100,1,10,0:0:0:0:
344,15,352272,2,0,L|360:130,1,116.999994644165,2|2,0:0|0:0,0:0:0:0:
206,305,352615,6,0,P|238:253|353:258,1,175.499991966248,2|0,0:0|0:0,0:0:0:0:
380,318,352958,1,8,0:0:0:0:
205,305,353129,1,2,0:0:0:0:
288,233,353300,2,0,P|235:255|206:305,1,116.999994644165,0|2,0:0|0:0,0:0:0:0:
301,139,353643,2,0,P|354:160|383:210,1,116.999994644165,8|2,0:0|0:0,0:0:0:0:
481,58,353986,6,0,B|458:125|458:125|492:180|484:253,1,175.499991966248,0|0,0:0|0:0,0:0:0:0:
444,295,354329,1,8,0:0:0:0:
481,58,354500,2,0,B|458:125|458:125|473:151|484:190,1,116.999994644165,2|0,0:0|0:0,0:0:0:0:
366,195,354843,1,0,0:0:0:0:
188,34,355015,2,0,B|244:25|244:25|284:33|310:63,1,116.999994644165,8|0,0:0|0:0,0:0:0:0:
366,195,355358,1,0,0:0:0:0:
208,336,355529,2,0,B|198:292|198:292|208:251|235:229,1,116.999994644165,8|2,0:0|0:0,0:0:0:0:
366,195,355872,1,2,0:0:0:0:
179,142,356043,6,0,L|99:145,2,58.4999973220826,0|0|2,0:0|0:0|0:0,0:0:0:0:
43,268,356300,1,0,0:0:0:0:
43,268,356386,2,0,L|101:270,2,58.4999973220826,8|0|2,0:0|0:0|0:0,0:0:0:0:
264,155,356643,1,0,0:0:0:0:
264,155,356729,6,0,P|237:74|147:58,1,175.499991966248,2|0,0:0|0:0,0:0:0:0:
79,93,357072,1,8,0:0:0:0:
264,155,357243,2,0,P|237:74|178:52,1,116.999994644165,2|0,0:0|0:0,0:0:0:0:
198,227,357586,1,10,0:0:0:0:
390,134,357758,2,0,P|347:173|339:229,1,116.999994644165,2|2,0:0|0:0,0:0:0:0:
501,335,358100,6,0,B|458:320|458:320|317:351,1,175.499991966248,2|0,0:0|0:0,0:0:0:0:
265,383,358443,1,8,0:0:0:0:
501,335,358615,1,2,0:0:0:0:
388,335,358786,2,0,B|458:320|458:320|501:335,1,116.999994644165,2|8,0:0|0:0,0:0:0:0:
301,152,359129,2,0,B|231:167|231:167|188:152,1,116.999994644165,2|8,0:0|0:0,0:0:0:0:
435,18,359472,6,0,P|448:84|366:160,1,175.499991966248,0|0,0:0|0:0,0:0:0:0:
301,152,359815,1,8,0:0:0:0:
435,18,359986,2,0,P|448:84|421:136,1,116.999994644165,2|0,0:0|0:0,0:0:0:0:
301,152,360329,1,8,0:0:0:0:
178,339,360500,2,0,P|165:273|192:221,1,116.999994644165,2|2,0:0|0:0,0:0:0:0:
379,301,360843,6,0,B|408:280|408:280|230:294,1,175.499991966248,2|0,0:0|0:0,0:0:0:0:
184,229,361186,1,8,0:0:0:0:
176,241,361271,1,8,0:0:0:0:
170,254,361357,1,10,0:0:0:0:
165,268,361443,1,8,0:0:0:0:
163,283,361529,2,0,P|167:314|178:339,1,58.4999973220826,0|0,0:0|0:0,0:0:0:0:
238,129,361700,2,0,P|209:116|182:113,1,58.4999973220826,2|0,0:0|0:0,0:0:0:0:
334,271,361872,1,8,0:0:0:0:
334,271,361958,1,8,0:0:0:0:
334,271,362043,2,0,P|359:252|375:230,1,58.4999973220826,10|0,0:0|0:0,0:0:0:0:
475,37,362215,6,0,P|450:98|318:100,1,175.499991966248,2|0,0:3|0:0,0:0:0:0:
289,78,362558,1,8,0:0:0:0:
475,37,362729,2,0,P|450:98|363:123,1,116.999994644165,2|0,0:0|0:0,0:0:0:0:
167,105,363072,1,8,0:0:0:0:
234,190,363243,2,0,P|185:158|166:104,1,116.999994644165,2|2,0:0|0:0,0:0:0:0:
49,242,363586,6,0,P|66:191|62:59,1,175.499991966248,2|0,0:0|0:0,0:0:0:0:
2,28,363929,1,8,0:0:0:0:
166,104,364100,1,2,0:0:0:0:
38,261,364272,2,0,P|81:243|183:263,1,116.999994644165,0|2,0:0|0:0,0:0:0:0:
350,348,364615,2,0,P|407:353|462:333,1,116.999994644165,8|2,0:0|0:0,0:0:0:0:
266,132,364958,6,0,B|243:209|243:209|251:229|251:229|226:318,1,175.499991966248,0|0,0:0|0:0,0:0:0:0:
170,340,365300,1,8,0:0:0:0:
266,132,365472,2,0,B|243:209|243:209|276:291,1,116.999994644165,2|0,0:0|0:0,0:0:0:0:
397,219,365815,1,2,0:0:0:0:
467,33,365986,2,0,B|480:66|480:66|457:144,1,116.999994644165,8|0,0:0|0:0,0:0:0:0:
397,219,366329,1,0,0:0:0:0:
231,45,366500,2,0,B|264:31|264:31|342:54,1,116.999994644165,2|8,0:0|0:0,0:0:0:0:
438,141,366843,1,2,0:0:0:0:
264,217,367015,6,0,P|266:188|299:149,2,58.4999973220826,2|2|8,0:0|0:0|0:0,0:0:0:0:
120,117,367272,1,0,0:0:0:0:
120,117,367358,2,0,P|134:142|136:171,2,58.4999973220826,2|2|8,0:0|0:0|0:0,0:0:0:0:
52,218,367615,1,0,0:0:0:0:
52,218,367700,6,0,B|129:301|143:219|230:282,1,175.499991966248,0|0,0:0|0:0,0:0:0:0:
237,347,368043,1,8,0:0:0:0:
52,218,368215,2,0,P|96:252|173:249,1,116.999994644165,2|0,0:0|0:0,0:0:0:0:
247,133,368558,1,10,0:0:0:0:
237,347,368729,2,0,P|288:325|324:257,1,116.999994644165,2|2,0:0|0:0,0:0:0:0:
231,15,369072,6,0,B|224:75|224:75|260:136|347:141,1,175.499991966248,2|0,0:0|0:0,0:0:0:0:
388,111,369415,1,8,0:0:0:0:
207,234,369586,1,2,0:0:0:0:
259,66,369758,1,10,0:0:0:0:
259,66,369843,1,2,0:0:0:0:
259,66,369929,1,2,0:0:0:0:
69,124,370100,1,10,0:0:0:0:
69,124,370186,1,2,0:0:0:0:
69,124,370272,1,2,0:0:0:0:
38,98,370358,1,0,0:0:0:0:
6,59,370443,5,8,0:0:0:0:
59,78,370529,1,0,0:0:0:0:
114,66,370615,1,10,0:0:0:0:
164,42,370700,1,0,0:0:0:0:
226,42,370786,5,8,0:0:0:0:
285,73,370872,1,0,0:0:0:0:
311,141,370958,1,8,0:0:0:0:
288,215,371043,1,0,0:0:0:0:
231,278,371129,5,8,0:0:0:0:
147,290,371215,1,8,0:0:0:0:
73,250,371300,1,8,0:0:0:0:
73,165,371386,1,8,0:0:0:0:
151,133,371472,5,8,0:0:0:0:
204,198,371558,1,8,0:0:0:0:
231,278,371643,1,8,0:0:0:0:
310,321,371729,1,8,0:0:0:0:
405,318,371815,6,0,P|449:284|460:256,1,58.4999973220826,4|0,0:0|0:0,0:0:0:0:
43,64,372158,6,0,P|-1:98|-12:126,1,56.25,4|0,0:0|0:0,0:0:0:0:
311,141,372500,6,0,L|292:98,1,47.2499985580445,0|0,0:0|0:0,0:0:0:0:
119,59,372843,5,0,0:0:0:0:
125,68,372929,1,0,0:0:0:0:
131,77,373015,1,0,0:0:0:0:
137,86,373100,1,0,0:0:0:0:
119,59,373186,5,2,0:3:0:0:
87,103,373272,1,0,0:0:0:0:
95,157,373358,1,2,0:0:0:0:
139,190,373443,1,0,0:0:0:0:
193,183,373529,1,8,0:0:0:0:
227,140,373615,1,0,0:0:0:0:
221,86,373700,1,2,0:0:0:0:
194,130,373786,1,0,0:0:0:0:
193,183,373872,5,8,0:0:0:0:
204,233,373958,1,0,0:0:0:0:
231,276,374043,1,2,0:0:0:0:
269,311,374129,1,0,0:0:0:0:
314,336,374215,1,8,0:0:0:0:
344,294,374300,1,0,0:0:0:0:
353,242,374386,1,2,0:0:0:0:
342,191,374472,6,0,P|316:170|287:190,2,56.25,0|8|0,0:0|0:0|0:0,0:0:0:0:
456,157,374729,2,0,P|468:131|497:151,1,56.25,2|0,0:0|0:0,0:0:0:0:
333,81,374900,1,8,0:0:0:0:
293,90,374986,1,0,0:0:0:0:
253,86,375072,1,2,0:0:0:0:
216,71,375158,1,0,0:0:0:0:
189,39,375243,5,8,0:0:0:0:
195,95,375329,1,0,0:0:0:0:
224,143,375415,1,2,0:0:0:0:
264,181,375500,1,0,0:0:0:0:
213,173,375586,1,8,0:0:0:0:
167,195,375672,1,0,0:0:0:0:
147,241,375758,1,2,0:0:0:0:
155,290,375843,1,0,0:0:0:0:
191,325,375929,5,8,0:0:0:0:
223,279,376015,1,0,0:0:0:0:
214,223,376100,1,2,0:0:0:0:
167,195,376186,1,0,0:0:0:0:
139,145,376272,1,8,0:0:0:0:
143,88,376358,1,0,0:0:0:0:
173,41,376443,1,2,0:0:0:0:
205,89,376529,1,0,0:0:0:0:
202,147,376615,5,8,0:0:0:0:
167,195,376700,1,0,0:0:0:0:
156,252,376786,1,2,0:0:0:0:
179,305,376872,1,0,0:0:0:0:
231,329,376958,1,8,0:0:0:0:
287,321,377043,1,0,0:0:0:0:
328,280,377129,1,2,0:0:0:0:
344,224,377215,6,0,P|341:187|319:143,2,56.25,0|8|0,0:0|0:0|0:0,0:0:0:0:
202,147,377472,2,0,P|195:121|192:93,1,56.25,2|0,0:0|0:0,0:0:0:0:
54,226,377643,1,8,0:0:0:0:
57,244,377729,1,0,0:0:0:0:
66,262,377815,1,2,0:0:0:0:
79,277,377900,1,0,0:0:0:0:
94,288,377986,5,8,0:0:0:0:
149,275,378072,1,0,0:0:0:0:
195,246,378158,1,2,0:0:0:0:
234,198,378243,1,0,0:0:0:0:
281,158,378329,1,8,0:0:0:0:
343,154,378415,1,0,0:0:0:0:
395,186,378500,1,2,0:0:0:0:
413,245,378586,1,0,0:0:0:0:
386,301,378672,5,8,0:0:0:0:
330,273,378758,1,0,0:0:0:0:
295,221,378843,1,2,0:0:0:0:
281,158,378929,1,0,0:0:0:0:
232,119,379015,1,8,0:0:0:0:
171,127,379100,1,0,0:0:0:0:
133,176,379186,1,2,0:0:0:0:
84,137,379272,1,0,0:0:0:0:
89,75,379358,5,8,0:0:0:0:
147,43,379443,1,0,0:0:0:0:
204,66,379529,1,2,0:0:0:0:
232,119,379615,1,0,0:0:0:0:
215,177,379700,1,8,0:0:0:0:
195,235,379786,1,0,0:0:0:0:
215,293,379872,1,2,0:0:0:0:
272,315,379958,6,0,P|304:308|340:271,2,56.25,0|8|0,0:0|0:0|0:0,0:0:0:0:
106,274,380215,2,0,P|79:279|56:295,1,56.25,2|0,0:0|0:0,0:0:0:0:
272,236,380386,1,8,0:0:0:0:
278,220,380472,1,0,0:0:0:0:
279,203,380558,1,0,0:0:0:0:
278,186,380643,1,0,0:0:0:0:
271,170,380729,5,8,0:0:0:0:
232,162,380815,1,0,0:0:0:0:
193,155,380900,1,2,0:0:0:0:
154,148,380986,1,0,0:0:0:0:
167,185,381072,1,8,0:0:0:0:
180,222,381158,1,0,0:0:0:0:
193,258,381243,1,2,0:0:0:0:
165,253,381329,1,0,0:0:0:0:
137,248,381415,5,8,0:0:0:0:
150,307,381500,1,0,0:0:0:0:
197,346,381586,1,2,0:0:0:0:
257,359,381672,1,0,0:0:0:0:
317,345,381758,1,8,0:0:0:0:
353,295,381843,1,0,0:0:0:0:
339,234,381929,1,2,0:0:0:0:
284,202,382015,1,0,0:0:0:0:
230,237,382100,5,8,0:0:0:0:
200,189,382186,1,0,0:0:0:0:
222,137,382272,1,2,0:0:0:0:
276,123,382358,1,0,0:0:0:0:
331,139,382443,1,8,0:0:0:0:
385,154,382529,1,0,0:0:0:0:
440,144,382615,1,2,0:0:0:0:
469,96,382700,1,0,0:0:0:0:
454,42,382786,5,10,0:0:0:0:
377,67,382872,1,2,0:0:0:0:
331,139,382958,1,2,0:0:0:0:
325,222,383043,1,2,0:0:0:0:
272,288,383129,5,10,0:0:0:0:
187,297,383215,5,10,0:0:0:0:
121,244,383300,5,10,0:0:0:0:
111,159,383386,5,10,0:0:0:0:
163,92,383472,5,8,0:0:0:0:
163,92,383729,1,8,0:0:0:0:
163,92,383986,2,8,P|192:125|196:161,1,56.25,8|8,0:0|0:0,0:0:0:0:
272,288,384158,5,2,0:3:0:0:
328,324,384243,1,0,0:0:0:0:
393,308,384329,1,2,0:0:0:0:
430,251,384415,1,0,0:0:0:0:
426,184,384500,1,8,0:0:0:0:
375,138,384586,1,0,0:0:0:0:
336,82,384672,1,2,0:0:0:0:
340,149,384758,1,0,0:0:0:0:
297,200,384843,5,8,0:0:0:0:
229,193,384929,1,0,0:0:0:0:
195,136,385015,1,2,0:0:0:0:
207,75,385100,1,0,0:0:0:0:
173,22,385186,1,8,0:0:0:0:
111,18,385272,1,0,0:0:0:0:
71,66,385358,1,2,0:0:0:0:
89,124,385443,1,0,0:0:0:0:
132,167,385529,5,8,0:0:0:0:
144,227,385615,1,0,0:0:0:0:
109,278,385700,1,2,0:0:0:0:
46,274,385786,1,0,0:0:0:0:
17,218,385872,1,8,0:0:0:0:
36,159,385958,1,0,0:0:0:0:
89,124,386043,1,2,0:0:0:0:
155,110,386129,1,0,0:0:0:0:
222,111,386215,5,8,0:0:0:0:
289,138,386300,1,0,0:0:0:0:
331,197,386386,1,2,0:0:0:0:
348,268,386472,1,0,0:0:0:0:
304,327,386558,1,8,0:0:0:0:
231,324,386643,1,0,0:0:0:0:
191,262,386729,1,2,0:0:0:0:
213,192,386815,1,0,0:0:0:0:
277,174,386900,5,8,0:0:0:0:
331,197,386986,1,0,0:0:0:0:
387,194,387072,1,2,0:0:0:0:
428,156,387158,1,0,0:0:0:0:
445,103,387243,1,8,0:0:0:0:
428,48,387329,1,0,0:0:0:0:
378,21,387415,1,2,0:0:0:0:
328,25,387500,1,0,0:0:0:0:
288,57,387586,5,8,0:0:0:0:
240,86,387672,1,0,0:0:0:0:
179,99,387758,1,2,0:0:0:0:
117,93,387843,1,0,0:0:0:0:
87,38,387929,1,8,0:0:0:0:
148,43,388015,1,0,0:0:0:0:
179,99,388100,1,2,0:0:0:0:
175,160,388186,1,0,0:0:0:0:
144,214,388272,5,8,0:0:0:0:
159,279,388358,1,0,0:0:0:0:
217,312,388443,1,2,0:0:0:0:
288,296,388529,1,0,0:0:0:0:
316,228,388615,1,8,0:0:0:0:
290,160,388700,1,0,0:0:0:0:
287,86,388786,1,2,0:0:0:0:
339,34,388872,1,0,0:0:0:0:
411,43,388958,5,8,0:0:0:0:
450,103,389043,1,0,0:0:0:0:
442,170,389129,1,2,0:0:0:0:
387,210,389215,1,0,0:0:0:0:
316,228,389300,1,8,0:0:0:0:
248,222,389386,1,0,0:0:0:0:
185,195,389472,1,2,0:0:0:0:
140,143,389558,1,0,0:0:0:0:
121,84,389643,5,8,0:0:0:0:
88,136,389729,1,0,0:0:0:0:
83,197,389815,1,2,0:0:0:0:
107,253,389900,1,0,0:0:0:0:
156,291,389986,1,8,0:0:0:0:
216,302,390072,1,0,0:0:0:0:
272,276,390158,1,2,0:0:0:0:
316,228,390243,1,0,0:0:0:0:
363,196,390329,5,8,0:0:0:0:
419,202,390415,1,0,0:0:0:0:
456,243,390500,1,2,0:0:0:0:
450,299,390586,1,0,0:0:0:0:
409,338,390672,1,8,0:0:0:0:
354,351,390758,1,0,0:0:0:0:
305,323,390843,1,2,0:0:0:0:
272,276,390929,1,0,0:0:0:0:
277,219,391015,5,8,0:0:0:0:
266,169,391100,1,0,0:0:0:0:
230,132,391186,1,2,0:0:0:0:
180,122,391272,1,0,0:0:0:0:
134,144,391358,1,8,0:0:0:0:
111,189,391443,1,0,0:0:0:0:
60,194,391529,1,2,0:0:0:0:
21,160,391615,1,0,0:0:0:0:
27,110,391700,5,8,0:0:0:0:
62,73,391786,1,0,0:0:0:0:
109,54,391872,1,2,0:0:0:0:
159,48,391958,1,0,0:0:0:0:
209,51,392043,1,8,0:0:0:0:
257,66,392129,1,0,0:0:0:0:
298,95,392215,1,2,0:0:0:0:
330,133,392300,1,0,0:0:0:0:
347,180,392386,5,8,0:0:0:0:
307,148,392472,1,0,0:0:0:0:
298,95,392558,1,2,0:0:0:0:
328,55,392643,1,0,0:0:0:0:
378,47,392729,1,8,0:0:0:0:
425,65,392815,1,0,0:0:0:0:
450,108,392900,1,2,0:0:0:0:
450,158,392986,1,0,0:0:0:0:
430,204,393072,5,8,0:0:0:0:
390,236,393158,1,0,0:0:0:0:
343,255,393243,1,2,0:0:0:0:
292,256,393329,1,0,0:0:0:0:
241,248,393415,1,8,0:0:0:0:
191,240,393500,1,0,0:0:0:0:
144,260,393586,1,2,0:0:0:0:
125,307,393672,1,0,0:0:0:0:
146,353,393758,5,8,0:0:0:0:
194,365,393843,1,0,0:0:0:0:
242,349,393929,1,2,0:0:0:0:
258,300,394015,1,0,0:0:0:0:
241,248,394100,1,8,0:0:0:0:
241,191,394186,1,0,0:0:0:0:
266,134,394272,1,2,0:0:0:0:
331,116,394358,1,2,0:0:0:0:
401,131,394443,5,10,0:0:0:0:
441,192,394529,1,2,0:0:0:0:
438,265,394615,1,2,0:0:0:0:
396,324,394700,1,2,0:0:0:0:
324,339,394786,1,10,0:0:0:0:
258,300,394872,1,2,0:0:0:0:
188,275,394958,1,2,0:0:0:0:
115,276,395043,1,2,0:0:0:0:
53,304,395129,5,6,0:3:0:0:
79,247,395215,1,0,0:0:0:0:
87,191,395300,1,0,0:0:0:0:
81,140,395386,1,0,0:0:0:0:
65,91,395472,1,10,0:0:0:0:
75,46,395558,1,0,0:0:0:0:
113,22,395643,1,0,0:0:0:0:
157,28,395729,1,0,0:0:0:0:
191,56,395815,5,2,0:0:0:0:
205,98,395900,1,0,0:0:0:0:
191,141,395986,1,0,0:0:0:0:
201,184,396072,1,0,0:0:0:0:
235,213,396158,1,10,0:0:0:0:
278,222,396243,1,0,0:0:0:0:
319,204,396329,1,0,0:0:0:0:
343,166,396415,1,0,0:0:0:0:
341,120,396500,5,2,0:0:0:0:
318,87,396586,1,0,0:0:0:0:
282,70,396672,1,0,0:0:0:0:
242,75,396758,1,0,0:0:0:0:
205,98,396843,1,10,0:0:0:0:
168,113,396929,1,0,0:0:0:0:
128,111,397015,1,0,0:0:0:0:
92,93,397100,1,0,0:0:0:0:
80,55,397186,5,2,0:0:0:0:
107,26,397272,1,0,0:0:0:0:
145,34,397358,1,0,0:0:0:0:
162,68,397443,1,0,0:0:0:0:
168,113,397529,1,10,0:0:0:0:
161,152,397615,1,0,0:0:0:0:
143,186,397700,1,0,0:0:0:0:
110,208,397786,1,0,0:0:0:0:
88,241,397872,5,2,0:0:0:0:
82,280,397958,1,0,0:0:0:0:
99,314,398043,1,0,0:0:0:0:
136,326,398129,1,0,0:0:0:0:
173,314,398215,1,10,0:0:0:0:
197,283,398300,1,0,0:0:0:0:
213,247,398386,1,0,0:0:0:0:
251,236,398472,1,0,0:0:0:0:
285,255,398558,5,2,0:0:0:0:
247,265,398643,1,0,0:0:0:0:
213,247,398729,1,0,0:0:0:0:
195,205,398815,1,0,0:0:0:0:
199,160,398900,1,10,0:0:0:0:
240,124,398986,1,0,0:0:0:0:
290,139,399072,1,0,0:0:0:0:
335,136,399158,1,0,0:0:0:0:
374,112,399243,5,2,0:0:0:0:
402,76,399329,1,0,0:0:0:0:
393,31,399415,1,0,0:0:0:0:
355,6,399500,1,0,0:0:0:0:
310,11,399586,1,10,0:0:0:0:
279,44,399672,1,0,0:0:0:0:
266,88,399758,1,0,0:0:0:0:
240,124,399843,1,0,0:0:0:0:
200,146,399929,5,2,0:0:0:0:
155,136,400015,1,0,0:0:0:0:
133,96,400100,1,0,0:0:0:0:
149,54,400186,1,0,0:0:0:0:
190,36,400272,1,10,0:0:0:0:
231,54,400358,1,0,0:0:0:0:
266,88,400443,1,0,0:0:0:0:
280,130,400529,1,0,0:0:0:0:
303,168,400615,5,2,0:0:0:0:
335,189,400700,1,0,0:0:0:0:
374,192,400786,1,0,0:0:0:0:
410,177,400872,1,0,0:0:0:0:
433,145,400958,1,10,0:0:0:0:
435,106,401043,1,0,0:0:0:0:
419,69,401129,1,0,0:0:0:0:
391,40,401215,1,0,0:0:0:0:
362,70,401300,5,2,0:0:0:0:
360,112,401386,1,0,0:0:0:0:
375,151,401472,1,0,0:0:0:0:
410,177,401558,1,0,0:0:0:0:
439,210,401643,1,10,0:0:0:0:
445,254,401729,1,0,0:0:0:0:
430,302,401815,1,0,0:0:0:0:
395,337,401900,1,0,0:0:0:0:
344,345,401986,5,2,0:0:0:0:
294,335,402072,1,0,0:0:0:0:
252,317,402158,1,0,0:0:0:0:
216,290,402243,1,0,0:0:0:0:
189,253,402329,1,10,0:0:0:0:
155,290,402415,1,0,0:0:0:0:
111,297,402500,1,0,0:0:0:0:
74,279,402586,1,0,0:0:0:0:
62,242,402672,5,2,0:0:0:0:
74,206,402758,1,0,0:0:0:0:
106,184,402843,1,0,0:0:0:0:
145,186,402929,1,0,0:0:0:0:
176,212,403015,1,10,0:0:0:0:
136,213,403100,1,0,0:0:0:0:
106,184,403186,1,0,0:0:0:0:
109,144,403272,1,0,0:0:0:0:
127,115,403358,5,2,0:0:0:0:
133,82,403443,1,0,0:0:0:0:
166,103,403529,1,0,0:0:0:0:
201,119,403615,1,0,0:0:0:0:
232,95,403700,1,10,0:0:0:0:
270,80,403786,1,0,0:0:0:0:
303,85,403872,1,0,0:0:0:0:
331,103,403958,1,0,0:0:0:0:
352,138,404043,5,2,0:0:0:0:
383,114,404129,1,0,0:0:0:0:
394,77,404215,1,0,0:0:0:0:
382,41,404300,1,0,0:0:0:0:
350,19,404386,1,10,0:0:0:0:
311,20,404472,1,0,0:0:0:0:
280,43,404558,1,0,0:0:0:0:
270,80,404643,1,0,0:0:0:0:
273,125,404729,5,2,0:0:0:0:
256,160,404815,1,0,0:0:0:0:
223,190,404900,1,0,0:0:0:0:
216,229,404986,1,0,0:0:0:0:
244,256,405072,1,10,0:0:0:0:
283,257,405158,1,0,0:0:0:0:
315,234,405243,1,0,0:0:0:0:
353,225,405329,1,0,0:0:0:0:
395,236,405415,5,2,0:0:0:0:
430,251,405500,1,0,0:0:0:0:
446,286,405586,1,0,0:0:0:0:
436,324,405672,1,0,0:0:0:0:
398,334,405758,1,10,0:0:0:0:
369,307,405843,1,0,0:0:0:0:
373,267,405929,1,0,0:0:0:0:
395,236,406015,1,0,0:0:0:0:
410,200,406100,6,0,P|412:161|361:103,1,112.5,2|0,0:0|0:0,0:0:0:0:
277,155,406358,1,2,0:0:0:0:
281,164,406443,2,0,P|325:176|362:168,1,56.25,8|0,0:0|0:0,0:0:0:0:
478,133,406615,2,0,P|498:113|512:89,1,56.25,2|0,0:0|0:0,0:0:0:0:
413,21,406786,5,2,0:3:0:0:
371,26,406872,1,0,0:0:0:0:
333,44,406958,1,0,0:0:0:0:
294,49,407043,1,0,0:0:0:0:
255,41,407129,1,10,0:0:0:0:
218,25,407215,1,0,0:0:0:0:
178,24,407300,1,0,0:0:0:0:
144,44,407386,1,0,0:0:0:0:
130,81,407472,5,2,0:0:0:0:
139,119,407558,1,0,0:0:0:0:
166,146,407643,1,0,0:0:0:0:
191,175,407729,1,0,0:0:0:0:
205,211,407815,1,10,0:0:0:0:
207,249,407900,1,0,0:0:0:0:
193,286,407986,1,0,0:0:0:0:
166,315,408072,1,0,0:0:0:0:
127,323,408158,5,2,0:0:0:0:
88,315,408243,1,0,0:0:0:0:
59,287,408329,1,0,0:0:0:0:
45,249,408415,1,0,0:0:0:0:
46,207,408500,1,10,0:0:0:0:
65,169,408586,1,0,0:0:0:0:
102,143,408672,1,0,0:0:0:0:
152,135,408758,1,0,0:0:0:0:
208,146,408843,5,2,0:0:0:0:
216,102,408929,1,0,0:0:0:0:
201,60,409015,1,0,0:0:0:0:
166,32,409100,1,0,0:0:0:0:
122,25,409186,1,10,0:0:0:0:
81,41,409272,1,0,0:0:0:0:
54,76,409358,1,0,0:0:0:0:
48,120,409443,1,0,0:0:0:0:
68,154,409529,5,2,0:0:0:0:
93,184,409615,1,0,0:0:0:0:
111,218,409700,1,2,0:0:0:0:
113,256,409785,1,0,0:0:0:0:
89,286,409871,1,10,0:0:0:0:
50,286,409957,1,0,0:0:0:0:
26,256,410043,1,2,0:0:0:0:
33,219,410128,1,0,0:0:0:0:
68,202,410215,5,2,0:0:0:0:
111,218,410300,1,0,0:0:0:0:
141,250,410386,1,0,0:0:0:0:
181,269,410472,1,0,0:0:0:0:
224,279,410558,1,10,0:0:0:0:
268,271,410643,1,0,0:0:0:0:
298,237,410729,1,0,0:0:0:0:
307,191,410815,1,0,0:0:0:0:
293,161,410900,5,2,0:0:0:0:
307,191,410986,1,0,0:0:0:0:
335,208,411072,1,0,0:0:0:0:
368,212,411158,1,0,0:0:0:0:
396,194,411243,1,10,0:0:0:0:
415,166,411329,1,0,0:0:0:0:
408,132,411415,1,0,0:0:0:0:
390,103,411500,1,0,0:0:0:0:
358,91,411586,5,2,0:0:0:0:
325,100,411672,1,0,0:0:0:0:
302,125,411758,1,0,0:0:0:0:
293,161,411843,1,0,0:0:0:0:
277,191,411929,1,10,0:0:0:0:
247,208,412015,1,0,0:0:0:0:
214,202,412100,1,0,0:0:0:0:
196,178,412186,1,0,0:0:0:0:
199,148,412272,5,2,0:0:0:0:
217,124,412358,1,0,0:0:0:0:
243,111,412443,1,0,0:0:0:0:
272,112,412529,1,0,0:0:0:0:
302,125,412615,1,10,0:0:0:0:
324,142,412700,1,0,0:0:0:0:
339,165,412786,1,0,0:0:0:0:
350,190,412872,1,0,0:0:0:0:
352,218,412958,5,2,0:0:0:0:
350,240,413043,1,0,0:0:0:0:
342,261,413129,1,0,0:0:0:0:
330,280,413215,1,0,0:0:0:0:
315,296,413300,1,10,0:0:0:0:
295,307,413386,1,0,0:0:0:0:
272,311,413472,1,0,0:0:0:0:
249,311,413558,1,0,0:0:0:0:
227,307,413643,5,2,0:0:0:0:
211,300,413729,1,0,0:0:0:0:
197,290,413815,1,0,0:0:0:0:
185,277,413900,1,0,0:0:0:0:
177,261,413986,1,10,0:0:0:0:
173,244,414072,1,0,0:0:0:0:
172,227,414158,1,0,0:0:0:0:
169,210,414243,1,0,0:0:0:0:
161,194,414329,5,8,0:0:0:0:
79,134,414500,1,8,0:0:0:0:
171,92,414672,1,8,0:0:0:0:
159,179,414843,1,8,0:0:0:0:
89,116,415015,1,8,0:0:0:0:
178,86,415186,1,8,0:0:0:0:
160,165,415358,1,8,0:0:0:0:
102,101,415529,1,8,0:0:0:0:
186,82,415700,5,8,0:0:0:0:
160,165,415872,1,2,0:0:0:0:
160,165,415958,1,2,0:0:0:0:
102,101,416129,1,2,0:0:0:0:
186,82,416386,6,0,B|211:85|211:85|230:82|230:82|252:87,1,67.5,0|0,0:0|0:0,0:0:0:0:
242,234,416729,1,0,0:0:0:0:
258,239,416815,1,0,0:0:0:0:
275,240,416900,1,0,0:0:0:0:
291,239,416986,1,0,0:0:0:0:
306,232,417072,6,0,P|343:204|355:170,1,68.3999991650391,2|0,0:0|0:0,0:0:0:0:
447,221,417586,6,0,P|476:239|493:268,1,68.3999991650391,2|0,0:0|0:0,0:0:0:0:
256,192,418358,12,0,422986,0:0:0:0:
