osu file format v14

[General]
AudioFilename: audio.mp3
AudioLeadIn: 0
PreviewTime: 150457
Countdown: 0
SampleSet: Normal
StackLeniency: 0.7
Mode: 1
LetterboxInBreaks: 0
WidescreenStoryboard: 1

[Editor]
Bookmarks: 3257,19257,32057,44857,70457,73657,86457,99257,112057,123257,124857,136057,137657,150457,163257,188857,192057
DistanceSpacing: 1
BeatDivisor: 4
GridSize: 32
TimelineZoom: 1.2

[Metadata]
Title:Daikirai feat. CHANMINA
TitleUnicode:ダイキライ feat. ちゃんみな
Artist:TeddyLoid
ArtistUnicode:TeddyLoid
Creator:eiri-
Version:Yales' Kantan
Source:
Tags:Ayyri Nishizumi Sansheng Ladies Night Ladies_Night Yales HiroK Capu Japanese English Electronic SILENT PLANET 2 EP vol.3 HAL
BeatmapID:2221222
BeatmapSetID:1060927

[Difficulty]
HPDrainRate:7
CircleSize:2
OverallDifficulty:3
ApproachRate:10
SliderMultiplier:1.4
SliderTickRate:1

[Events]
//Background and Video events
0,0,"Jeanne 275.jpg",0,20
//Break Periods
//Storyboard Layer 0 (Background)
//Storyboard Layer 1 (Fail)
//Storyboard Layer 2 (Pass)
//Storyboard Layer 3 (Foreground)
//Storyboard Layer 4 (Overlay)
//Storyboard Sound Samples

[TimingPoints]
3257,400,4,1,0,100,1,0
44857,-100,4,1,0,100,0,1
70457,-100,4,1,0,100,0,0
112057,-100,4,1,0,100,0,1
123257,-100,4,1,0,100,0,0
124857,-100,4,1,0,100,0,1
136057,-100,4,1,0,100,0,0
163257,-100,4,1,0,100,0,1
188857,-100,4,1,0,100,0,0

[HitObjects]
256,192,3257,5,0,0:0:0:0:
256,192,4857,1,4,0:0:0:0:
256,192,6457,1,8,0:0:0:0:
256,192,7057,1,8,0:0:0:0:
256,192,7657,1,8,0:0:0:0:
256,192,8057,1,0,0:0:0:0:
256,192,9657,1,8,0:0:0:0:
256,192,10857,1,8,0:0:0:0:
256,192,11257,1,4,0:0:0:0:
256,192,12857,1,8,0:0:0:0:
256,192,13457,1,8,0:0:0:0:
256,192,14057,1,8,0:0:0:0:
256,192,14457,1,0,0:0:0:0:
256,192,15257,1,0,0:0:0:0:
256,192,16057,1,8,0:0:0:0:
256,192,17257,1,8,0:0:0:0:
256,192,17657,1,0,0:0:0:0:
256,192,19257,1,4,0:0:0:0:
256,192,20057,1,8,0:0:0:0:
256,192,20657,1,0,0:0:0:0:
256,192,21257,1,0,0:0:0:0:
256,192,21657,1,8,0:0:0:0:
256,192,22457,1,8,0:0:0:0:
256,192,23257,1,0,0:0:0:0:
256,192,23857,1,0,0:0:0:0:
256,192,24457,1,8,0:0:0:0:
256,192,25657,1,0,0:0:0:0:
256,192,26457,1,8,0:0:0:0:
256,192,27057,1,0,0:0:0:0:
256,192,27657,1,0,0:0:0:0:
256,192,28057,1,8,0:0:0:0:
256,192,28857,1,8,0:0:0:0:
256,192,29657,1,0,0:0:0:0:
256,192,30257,1,0,0:0:0:0:
256,192,30857,1,8,0:0:0:0:
256,192,32057,1,0,0:0:0:0:
256,192,32457,1,8,0:0:0:0:
224,192,33257,1,8,0:0:0:0:
256,192,33657,1,0,0:0:0:0:
256,192,34457,1,8,0:0:0:0:
256,192,34857,1,8,0:0:0:0:
256,192,35257,1,0,0:0:0:0:
256,192,36057,5,0,0:0:0:0:
256,192,36657,1,8,0:0:0:0:
256,192,37257,1,8,0:0:0:0:
256,192,38457,1,8,0:0:0:0:
256,192,38857,1,8,0:0:0:0:
256,192,39257,1,0,0:0:0:0:
256,192,40057,1,8,0:0:0:0:
256,192,40457,1,0,0:0:0:0:
256,192,40857,1,0,0:0:0:0:
256,192,41257,1,8,0:0:0:0:
256,192,41657,12,8,43257,0:0:0:0:
256,192,44857,5,12,0:0:0:0:
256,192,45657,1,0,0:0:0:0:
256,192,46057,1,0,0:0:0:0:
256,192,46457,1,8,0:0:0:0:
256,192,47257,1,0,0:0:0:0:
256,192,48057,1,8,0:0:0:0:
256,192,48457,1,8,0:0:0:0:
256,192,48857,5,0,0:0:0:0:
256,192,49657,1,8,0:0:0:0:
256,192,50057,1,0,0:0:0:0:
256,192,50457,1,8,0:0:0:0:
256,192,51257,1,0,0:0:0:0:
256,192,52057,1,8,0:0:0:0:
256,192,52457,1,0,0:0:0:0:
256,192,52857,1,8,0:0:0:0:
256,192,53657,1,8,0:0:0:0:
256,192,54457,1,8,0:0:0:0:
256,192,54857,1,8,0:0:0:0:
256,192,55257,1,0,0:0:0:0:
256,192,56057,1,8,0:0:0:0:
256,192,56857,1,8,0:0:0:0:
256,192,57257,1,0,0:0:0:0:
256,192,57657,12,0,58457,0:0:0:0:
256,192,59257,5,8,0:0:0:0:
256,192,60057,1,8,0:0:0:0:
256,192,60857,1,0,0:0:0:0:
256,192,61257,1,0,0:0:0:0:
256,192,61657,1,8,0:0:0:0:
256,192,62457,1,0,0:0:0:0:
256,192,62857,1,8,0:0:0:0:
256,192,63257,1,0,0:0:0:0:
256,192,63657,1,8,0:0:0:0:
256,192,64857,1,0,0:0:0:0:
256,192,65257,1,8,0:0:0:0:
256,192,65657,1,0,0:0:0:0:
256,192,66457,1,0,0:0:0:0:
256,192,67257,1,8,0:0:0:0:
256,192,67657,1,0,0:0:0:0:
256,192,68057,1,8,0:0:0:0:
288,192,68457,1,8,0:0:0:0:
256,192,68857,1,0,0:0:0:0:
256,192,69657,1,8,0:0:0:0:
256,192,70057,1,0,0:0:0:0:
256,192,70457,12,0,72057,0:0:0:0:
256,192,73657,5,0,0:0:0:0:
256,192,76057,1,8,0:0:0:0:
256,192,76857,1,0,0:0:0:0:
256,192,78457,1,8,0:0:0:0:
256,192,79257,1,8,0:0:0:0:
256,192,80057,1,0,0:0:0:0:
256,192,82457,1,8,0:0:0:0:
256,192,83257,1,0,0:0:0:0:
256,192,84857,1,8,0:0:0:0:
256,192,85657,1,0,0:0:0:0:
256,192,86057,1,0,0:0:0:0:
256,192,86457,1,8,0:0:0:0:
256,192,87257,1,8,0:0:0:0:
256,192,88057,1,0,0:0:0:0:
256,192,88457,1,0,0:0:0:0:
256,192,88857,1,8,0:0:0:0:
256,192,89657,1,8,0:0:0:0:
256,192,90457,1,0,0:0:0:0:
256,192,92057,1,0,0:0:0:0:
256,192,92857,1,8,0:0:0:0:
256,192,93257,1,8,0:0:0:0:
256,192,93657,1,0,0:0:0:0:
256,192,94457,1,8,0:0:0:0:
256,192,94857,1,0,0:0:0:0:
256,192,95257,1,0,0:0:0:0:
256,192,96057,1,8,0:0:0:0:
256,192,96457,1,8,0:0:0:0:
256,192,96857,1,8,0:0:0:0:
256,192,97657,5,0,0:0:0:0:
256,192,99257,1,8,0:0:0:0:
256,192,99657,1,8,0:0:0:0:
256,192,100057,1,8,0:0:0:0:
256,192,100857,1,0,0:0:0:0:
256,192,101657,1,8,0:0:0:0:
256,192,102057,1,8,0:0:0:0:
256,192,102457,1,8,0:0:0:0:
256,192,103257,1,0,0:0:0:0:
256,192,104057,1,8,0:0:0:0:
256,192,104457,1,8,0:0:0:0:
256,192,104857,1,8,0:0:0:0:
256,192,105657,1,0,0:0:0:0:
256,192,107257,1,8,0:0:0:0:
256,192,107657,1,0,0:0:0:0:
256,192,108057,1,8,0:0:0:0:
256,192,108457,1,0,0:0:0:0:
256,192,108857,2,0,L|256:96,8,70
256,192,112057,1,12,0:0:0:0:
256,192,112857,1,0,0:0:0:0:
256,192,113257,1,0,0:0:0:0:
256,192,113657,1,8,0:0:0:0:
256,192,114457,1,8,0:0:0:0:
256,192,115257,1,0,0:0:0:0:
256,192,115657,1,0,0:0:0:0:
256,192,116057,1,8,0:0:0:0:
256,192,116857,12,0,118457,0:0:0:0:
256,192,119257,5,0,0:0:0:0:
256,192,119657,1,8,0:0:0:0:
256,192,120057,1,8,0:0:0:0:
256,192,120857,1,8,0:0:0:0:
256,192,121657,1,0,0:0:0:0:
256,192,122057,1,8,0:0:0:0:
256,192,122457,1,0,0:0:0:0:
256,192,123257,1,4,0:0:0:0:
256,192,124457,1,0,0:0:0:0:
256,192,124857,1,12,0:0:0:0:
256,192,125657,1,0,0:0:0:0:
256,192,126057,1,0,0:0:0:0:
256,192,126457,1,8,0:0:0:0:
256,192,127257,1,0,0:0:0:0:
256,192,127657,1,0,0:0:0:0:
256,192,128057,1,8,0:0:0:0:
256,192,128857,1,8,0:0:0:0:
256,192,129657,12,8,131257,0:0:0:0:
256,192,132057,5,0,0:0:0:0:
256,192,132457,1,8,0:0:0:0:
256,192,132857,1,8,0:0:0:0:
256,192,133657,1,8,0:0:0:0:
256,192,134457,1,0,0:0:0:0:
256,192,134857,1,8,0:0:0:0:
256,192,135257,1,0,0:0:0:0:
256,192,136057,1,12,0:0:0:0:
256,192,137657,1,4,0:0:0:0:
256,192,140857,1,8,0:0:0:0:
256,192,142457,1,0,0:0:0:0:
256,192,144057,1,4,0:0:0:0:
256,192,147257,1,0,0:0:0:0:
256,192,148857,1,8,0:0:0:0:
256,192,150457,1,4,0:0:0:0:
256,192,152057,1,8,0:0:0:0:
256,192,152657,1,8,0:0:0:0:
256,192,153257,1,8,0:0:0:0:
256,192,153657,1,4,0:0:0:0:
256,192,155257,1,8,0:0:0:0:
256,192,156857,1,4,0:0:0:0:
256,192,158457,1,8,0:0:0:0:
256,192,159057,1,8,0:0:0:0:
256,192,159657,1,8,0:0:0:0:
256,192,160057,1,0,0:0:0:0:
256,192,161657,1,8,0:0:0:0:
256,192,163257,5,12,0:0:0:0:
256,192,164057,1,0,0:0:0:0:
256,192,164457,1,0,0:0:0:0:
256,192,164857,1,8,0:0:0:0:
256,192,165657,1,0,0:0:0:0:
256,192,166457,1,8,0:0:0:0:
256,192,166857,1,8,0:0:0:0:
256,192,167257,5,0,0:0:0:0:
256,192,168057,1,8,0:0:0:0:
256,192,168457,1,0,0:0:0:0:
256,192,168857,1,8,0:0:0:0:
256,192,169657,1,0,0:0:0:0:
256,192,170457,1,8,0:0:0:0:
256,192,170857,1,0,0:0:0:0:
256,192,171257,1,8,0:0:0:0:
256,192,172057,1,8,0:0:0:0:
256,192,172857,1,8,0:0:0:0:
256,192,173257,1,8,0:0:0:0:
256,192,173657,1,0,0:0:0:0:
256,192,174457,1,8,0:0:0:0:
256,192,175257,1,8,0:0:0:0:
256,192,175657,1,0,0:0:0:0:
256,192,176057,12,0,176857,0:0:0:0:
256,192,177657,5,8,0:0:0:0:
256,192,178457,1,8,0:0:0:0:
256,192,179257,1,0,0:0:0:0:
256,192,179657,1,0,0:0:0:0:
256,192,180057,1,8,0:0:0:0:
256,192,180857,1,0,0:0:0:0:
256,192,181257,1,8,0:0:0:0:
256,192,181657,1,0,0:0:0:0:
256,192,182057,1,8,0:0:0:0:
256,192,183257,1,0,0:0:0:0:
320,192,184057,1,0,0:0:0:0:
256,192,184457,1,8,0:0:0:0:
256,192,184857,1,0,0:0:0:0:
256,192,185657,1,8,0:0:0:0:
256,192,186057,1,0,0:0:0:0:
256,192,186457,1,8,0:0:0:0:
288,192,186857,1,8,0:0:0:0:
256,192,187257,1,0,0:0:0:0:
256,192,188057,1,8,0:0:0:0:
256,192,188457,1,0,0:0:0:0:
256,192,188857,12,0,191657,0:0:0:0:
256,192,192057,5,4,0:0:0:0:
