osu file format v14

[General]
AudioFilename: audio.mp3
AudioLeadIn: 0
PreviewTime: 150457
Countdown: 0
SampleSet: Normal
StackLeniency: 0.7
Mode: 1
LetterboxInBreaks: 0
WidescreenStoryboard: 1

[Editor]
DistanceSpacing: 1.2
BeatDivisor: 4
GridSize: 32
TimelineZoom: 2.4

[Metadata]
Title:Daikirai feat. CHANMINA
TitleUnicode:ダイキライ feat. ちゃんみな
Artist:TeddyLoid
ArtistUnicode:TeddyLoid
Creator:eiri-
Version:HiroK's Muzukashii
Source:
Tags:Ayyri Nishizumi Sansheng Ladies Night Ladies_Night Yales HiroK Capu Japanese English Electronic SILENT PLANET 2 EP vol.3 HAL
BeatmapID:2221218
BeatmapSetID:1060927

[Difficulty]
HPDrainRate:6
CircleSize:2
OverallDifficulty:5
ApproachRate:4
SliderMultiplier:1.4
SliderTickRate:1

[Events]
//Background and Video events
0,0,"Jeanne 275.jpg",0,20
//Break Periods
//Storyboard Layer 0 (Background)
//Storyboard Layer 1 (Fail)
//Storyboard Layer 2 (Pass)
//Storyboard Layer 3 (Foreground)
//Storyboard Layer 4 (Overlay)
//Storyboard Sound Samples

[TimingPoints]
3257,400,4,1,0,100,1,0
44857,-100,4,1,0,100,0,1
57657,-100,4,1,0,100,0,0
58457,-100,4,1,0,100,0,1
70457,-100,4,1,0,100,0,0
112057,-100,4,1,0,100,0,1
123257,-100,4,1,0,100,0,0
124857,-100,4,1,0,100,0,1
136057,-100,4,1,0,100,0,0
163257,-100,4,1,0,100,0,1
176057,-100,4,1,0,100,0,0
176857,-100,4,1,0,100,0,1
188857,-100,4,1,0,100,0,0

[HitObjects]
263,163,3257,5,8,0:0:0:0:
263,163,3523,1,0,0:0:0:0:
263,163,3657,1,8,0:0:0:0:
263,163,4057,1,8,0:0:0:0:
263,163,4323,1,0,0:0:0:0:
263,163,4457,1,8,0:0:0:0:
263,163,4857,1,4,0:0:0:0:
263,163,5457,1,0,0:0:0:0:
263,163,6457,1,8,0:0:0:0:
263,163,7057,1,8,0:0:0:0:
263,163,7657,1,8,0:0:0:0:
263,163,8057,1,0,0:0:0:0:
263,163,8657,1,0,0:0:0:0:
263,163,9657,1,8,0:0:0:0:
263,163,9923,1,0,0:0:0:0:
263,163,10057,1,8,0:0:0:0:
263,163,10323,1,8,0:0:0:0:
263,163,10457,1,0,0:0:0:0:
263,163,10657,1,0,0:0:0:0:
263,163,10857,1,8,0:0:0:0:
263,163,11257,1,4,0:0:0:0:
263,163,11857,1,0,0:0:0:0:
263,163,12857,1,8,0:0:0:0:
263,163,13457,1,8,0:0:0:0:
263,163,14057,1,8,0:0:0:0:
263,163,14457,1,0,0:0:0:0:
263,163,14723,1,0,0:0:0:0:
263,163,14857,1,8,0:0:0:0:
263,163,15257,1,8,0:0:0:0:
263,163,15523,1,0,0:0:0:0:
263,163,15657,1,8,0:0:0:0:
263,163,16057,1,8,0:0:0:0:
263,163,16257,1,8,0:0:0:0:
263,163,16357,1,8,0:0:0:0:
263,163,16457,1,8,0:0:0:0:
263,163,16657,1,8,0:0:0:0:
263,163,16757,1,8,0:0:0:0:
263,163,16857,1,8,0:0:0:0:
263,163,17057,1,0,0:0:0:0:
263,163,17257,1,12,0:0:0:0:
256,192,17657,12,0,18857,0:0:0:0:
271,181,19257,5,4,0:0:0:0:
271,181,19657,1,0,0:0:0:0:
271,181,19857,1,0,0:0:0:0:
271,181,20057,1,8,0:0:0:0:
271,181,20457,1,8,0:0:0:0:
271,181,20657,1,8,0:0:0:0:
271,181,20857,1,0,0:0:0:0:
271,181,21057,1,8,0:0:0:0:
271,181,21257,1,0,0:0:0:0:
271,181,21457,1,0,0:0:0:0:
271,181,21657,1,8,0:0:0:0:
271,181,22057,1,8,0:0:0:0:
271,181,22257,1,8,0:0:0:0:
271,181,22457,1,0,0:0:0:0:
271,181,22857,1,0,0:0:0:0:
271,181,23057,1,0,0:0:0:0:
271,181,23257,1,8,0:0:0:0:
271,181,23657,1,0,0:0:0:0:
271,181,23857,1,8,0:0:0:0:
271,181,24057,1,0,0:0:0:0:
271,181,24257,1,8,0:0:0:0:
271,181,24457,1,8,0:0:0:0:
271,181,24657,1,0,0:0:0:0:
271,181,24857,1,8,0:0:0:0:
188,194,25057,1,0,0:0:0:0:
271,181,25257,1,8,0:0:0:0:
271,181,25657,1,0,0:0:0:0:
322,340,26057,1,0,0:0:0:0:
271,181,26257,1,0,0:0:0:0:
271,181,26457,1,8,0:0:0:0:
271,181,26657,1,0,0:0:0:0:
271,181,26857,1,8,0:0:0:0:
271,181,27257,1,0,0:0:0:0:
271,181,27457,1,8,0:0:0:0:
271,181,27657,1,0,0:0:0:0:
271,181,27857,1,0,0:0:0:0:
271,181,28057,1,8,0:0:0:0:
271,181,28457,1,0,0:0:0:0:
332,238,28657,1,8,0:0:0:0:
271,181,28857,1,8,0:0:0:0:
271,181,29057,1,8,0:0:0:0:
271,181,29257,1,0,0:0:0:0:
271,181,29457,1,0,0:0:0:0:
271,181,29657,1,8,0:0:0:0:
271,181,30057,1,0,0:0:0:0:
271,181,30257,1,8,0:0:0:0:
271,181,30457,1,0,0:0:0:0:
271,181,30657,1,0,0:0:0:0:
271,181,30857,1,8,0:0:0:0:
271,181,31057,1,8,0:0:0:0:
271,181,31257,1,0,0:0:0:0:
271,181,31657,1,8,0:0:0:0:
271,181,32057,1,0,0:0:0:0:
271,181,32857,1,8,0:0:0:0:
271,181,33123,1,0,0:0:0:0:
271,181,33257,1,8,0:0:0:0:
271,181,33657,1,8,0:0:0:0:
271,181,33857,1,8,0:0:0:0:
271,181,34057,1,0,0:0:0:0:
271,181,34257,1,0,0:0:0:0:
271,181,34457,1,8,0:0:0:0:
271,181,34723,1,0,0:0:0:0:
271,181,34857,1,0,0:0:0:0:
271,181,35257,1,8,0:0:0:0:
271,181,35523,1,0,0:0:0:0:
271,181,35657,1,8,0:0:0:0:
271,181,36057,1,8,0:0:0:0:
271,181,36190,1,8,0:0:0:0:
271,181,36323,1,0,0:0:0:0:
271,181,36457,1,8,0:0:0:0:
271,181,36857,1,8,0:0:0:0:
271,181,37057,1,8,0:0:0:0:
271,181,37257,1,0,0:0:0:0:
271,181,37457,1,0,0:0:0:0:
271,181,37657,1,8,0:0:0:0:
271,181,37790,1,0,0:0:0:0:
271,181,37923,1,0,0:0:0:0:
271,181,38057,1,8,0:0:0:0:
271,181,38457,1,0,0:0:0:0:
271,181,38657,1,8,0:0:0:0:
271,181,38857,1,0,0:0:0:0:
271,181,39057,1,8,0:0:0:0:
271,181,39257,1,0,0:0:0:0:
271,181,39357,1,0,0:0:0:0:
271,181,39457,1,0,0:0:0:0:
271,181,39657,1,8,0:0:0:0:
271,181,40057,1,8,0:0:0:0:
271,181,40257,1,8,0:0:0:0:
271,181,40457,1,0,0:0:0:0:
271,181,40557,1,0,0:0:0:0:
271,181,40657,1,0,0:0:0:0:
271,181,40857,1,8,0:0:0:0:
271,181,41057,1,0,0:0:0:0:
271,181,41257,1,8,0:0:0:0:
271,181,41657,1,0,0:0:0:0:
352,201,41857,1,0,0:0:0:0:
270,180,42057,1,8,0:0:0:0:
271,181,42257,1,8,0:0:0:0:
271,181,42457,1,0,0:0:0:0:
271,181,42657,1,0,0:0:0:0:
270,180,42857,1,8,0:0:0:0:
270,180,43057,1,8,0:0:0:0:
271,181,43257,1,0,0:0:0:0:
271,181,43523,1,0,0:0:0:0:
271,181,43657,1,8,0:0:0:0:
270,180,44057,1,8,0:0:0:0:
271,181,44323,1,0,0:0:0:0:
271,181,44457,1,8,0:0:0:0:
270,180,44857,1,4,0:0:0:0:
270,180,45657,1,8,0:0:0:0:
270,180,45857,1,0,0:0:0:0:
270,180,46057,1,8,0:0:0:0:
270,180,46257,1,8,0:0:0:0:
270,180,46457,1,0,0:0:0:0:
270,180,46657,1,8,0:0:0:0:
270,180,46857,1,8,0:0:0:0:
270,180,47057,1,0,0:0:0:0:
270,180,47257,1,8,0:0:0:0:
270,180,47457,1,0,0:0:0:0:
307,199,47557,1,0,0:0:0:0:
270,180,47657,1,0,0:0:0:0:
270,180,47857,1,8,0:0:0:0:
270,180,48057,1,4,0:0:0:0:
270,180,48457,1,4,0:0:0:0:
270,180,48857,1,12,0:0:0:0:
270,180,49457,1,8,0:0:0:0:
270,180,49657,1,4,0:0:0:0:
270,180,49857,1,8,0:0:0:0:
270,180,50057,1,4,0:0:0:0:
270,180,50457,1,12,0:0:0:0:
270,180,50757,1,0,0:0:0:0:
270,180,50857,1,8,0:0:0:0:
270,180,51057,1,0,0:0:0:0:
270,180,51257,1,4,0:0:0:0:
270,180,52057,1,8,0:0:0:0:
270,180,52257,1,0,0:0:0:0:
270,180,52457,1,8,0:0:0:0:
270,180,52657,1,8,0:0:0:0:
270,180,52857,1,0,0:0:0:0:
270,180,53057,1,0,0:0:0:0:
270,180,53257,1,8,0:0:0:0:
270,180,53457,1,0,0:0:0:0:
270,180,53657,1,8,0:0:0:0:
270,180,53857,1,8,0:0:0:0:
270,180,54057,1,0,0:0:0:0:
270,180,54157,1,0,0:0:0:0:
270,180,54257,1,0,0:0:0:0:
270,180,54457,1,4,0:0:0:0:
270,180,54857,1,4,0:0:0:0:
270,180,55257,1,12,0:0:0:0:
270,180,55657,1,8,0:0:0:0:
270,180,55757,1,8,0:0:0:0:
270,180,55857,1,8,0:0:0:0:
270,180,56057,1,0,0:0:0:0:
270,180,56257,1,8,0:0:0:0:
270,180,56457,1,8,0:0:0:0:
270,180,56657,1,0,0:0:0:0:
270,180,56857,1,8,0:0:0:0:
270,180,57157,1,0,0:0:0:0:
270,180,57257,1,8,0:0:0:0:
270,180,57457,1,0,0:0:0:0:
270,180,57657,1,4,0:0:0:0:
270,180,58457,1,8,0:0:0:0:
270,180,58657,1,0,0:0:0:0:
270,180,58857,1,8,0:0:0:0:
270,180,59057,1,8,0:0:0:0:
270,180,59257,1,0,0:0:0:0:
270,180,59457,1,8,0:0:0:0:
270,180,59657,1,8,0:0:0:0:
270,180,59857,1,0,0:0:0:0:
270,180,60057,1,8,0:0:0:0:
270,180,60257,1,0,0:0:0:0:
270,180,60357,1,0,0:0:0:0:
270,180,60457,1,0,0:0:0:0:
270,180,60657,1,8,0:0:0:0:
270,180,60857,1,4,0:0:0:0:
270,180,61257,1,0,0:0:0:0:
270,180,61357,1,0,0:0:0:0:
270,180,61457,1,0,0:0:0:0:
270,180,61657,1,12,0:0:0:0:
270,180,62057,1,8,0:0:0:0:
270,180,62157,1,8,0:0:0:0:
270,180,62257,1,8,0:0:0:0:
270,180,62457,1,0,0:0:0:0:
270,180,62657,1,0,0:0:0:0:
270,180,62857,1,12,0:0:0:0:
270,180,63057,1,0,0:0:0:0:
270,180,63257,1,12,0:0:0:0:
270,180,63557,1,0,0:0:0:0:
270,180,63657,1,8,0:0:0:0:
270,180,63857,1,0,0:0:0:0:
270,180,64057,1,4,0:0:0:0:
296,187,64857,1,8,0:0:0:0:
270,180,65057,1,0,0:0:0:0:
270,180,65257,1,8,0:0:0:0:
270,180,65457,1,8,0:0:0:0:
270,180,65657,1,0,0:0:0:0:
270,180,65857,1,0,0:0:0:0:
270,180,66057,1,8,0:0:0:0:
270,180,66257,1,0,0:0:0:0:
270,180,66457,1,8,0:0:0:0:
270,180,66657,1,8,0:0:0:0:
270,180,66857,1,0,0:0:0:0:
270,180,66957,1,0,0:0:0:0:
270,180,67057,1,0,0:0:0:0:
270,180,67257,1,12,0:0:0:0:
270,180,67657,1,8,0:0:0:0:
270,180,67757,1,8,0:0:0:0:
270,180,67857,1,8,0:0:0:0:
270,180,68057,1,4,0:0:0:0:
437,176,68457,1,12,0:0:0:0:
270,180,68857,1,4,0:0:0:0:
318,111,69057,1,8,0:0:0:0:
270,180,69257,1,8,0:0:0:0:
270,180,69457,1,0,0:0:0:0:
270,180,69657,1,12,0:0:0:0:
270,180,69957,1,0,0:0:0:0:
270,180,70057,1,8,0:0:0:0:
270,180,70257,1,0,0:0:0:0:
270,180,70457,1,0,0:0:0:0:
270,180,70723,1,0,0:0:0:0:
270,180,70857,1,8,0:0:0:0:
270,180,71257,1,0,0:0:0:0:
270,180,71523,1,0,0:0:0:0:
270,180,71657,1,8,0:0:0:0:
270,180,72057,1,0,0:0:0:0:
270,180,73657,1,4,0:0:0:0:
241,183,76057,1,8,0:0:0:0:
241,183,76857,1,0,0:0:0:0:
270,173,78457,1,8,0:0:0:0:
270,173,78723,1,0,0:0:0:0:
270,173,78857,1,8,0:0:0:0:
270,173,79257,1,8,0:0:0:0:
270,173,79523,1,0,0:0:0:0:
270,173,79657,1,8,0:0:0:0:
270,173,80057,1,0,0:0:0:0:
270,173,82457,1,8,0:0:0:0:
270,173,83257,1,0,0:0:0:0:
270,173,85657,1,8,0:0:0:0:
270,173,86457,1,4,0:0:0:0:
270,173,86857,1,0,0:0:0:0:
270,173,87057,1,0,0:0:0:0:
270,173,87257,1,8,0:0:0:0:
270,173,87657,1,8,0:0:0:0:
270,173,87757,1,8,0:0:0:0:
270,173,87857,1,8,0:0:0:0:
270,173,88057,1,0,0:0:0:0:
270,173,88257,1,8,0:0:0:0:
270,173,88457,1,0,0:0:0:0:
270,173,88657,1,0,0:0:0:0:
270,173,88857,1,8,0:0:0:0:
270,173,89257,1,8,0:0:0:0:
270,173,89457,1,8,0:0:0:0:
270,173,89657,1,0,0:0:0:0:
270,173,89857,1,8,0:0:0:0:
270,173,90057,1,0,0:0:0:0:
270,173,90257,1,0,0:0:0:0:
270,173,90457,1,8,0:0:0:0:
270,173,90857,1,8,0:0:0:0:
270,173,91057,1,0,0:0:0:0:
270,173,91257,1,8,0:0:0:0:
270,173,91457,1,8,0:0:0:0:
270,173,91657,1,0,0:0:0:0:
270,173,91857,1,0,0:0:0:0:
270,173,92057,1,8,0:0:0:0:
270,173,92257,1,0,0:0:0:0:
270,173,92457,1,8,0:0:0:0:
270,173,92857,1,0,0:0:0:0:
270,173,93057,1,8,0:0:0:0:
270,173,93257,1,0,0:0:0:0:
270,173,93457,1,8,0:0:0:0:
270,173,93657,1,0,0:0:0:0:
270,173,93757,1,0,0:0:0:0:
270,173,93857,1,0,0:0:0:0:
270,173,94057,1,8,0:0:0:0:
270,173,94457,1,0,0:0:0:0:
270,173,94657,1,8,0:0:0:0:
270,173,94857,1,0,0:0:0:0:
270,173,95057,1,8,0:0:0:0:
270,173,95257,1,8,0:0:0:0:
270,173,95357,1,8,0:0:0:0:
270,173,95457,1,8,0:0:0:0:
270,173,95657,1,0,0:0:0:0:
270,173,96057,1,0,0:0:0:0:
270,173,96257,1,0,0:0:0:0:
270,173,96457,1,8,0:0:0:0:
270,173,96657,1,8,0:0:0:0:
270,173,96857,1,0,0:0:0:0:
270,173,97057,1,0,0:0:0:0:
270,173,97257,1,8,0:0:0:0:
270,173,97457,1,8,0:0:0:0:
270,173,97657,1,0,0:0:0:0:
270,173,97923,1,0,0:0:0:0:
270,173,98057,1,8,0:0:0:0:
270,173,98457,1,8,0:0:0:0:
270,173,98723,1,0,0:0:0:0:
270,173,98857,1,8,0:0:0:0:
270,173,99257,1,4,0:0:0:0:
270,173,99457,1,0,0:0:0:0:
270,173,99557,1,0,0:0:0:0:
270,173,99657,1,0,0:0:0:0:
270,173,99857,1,8,0:0:0:0:
270,173,100057,1,0,0:0:0:0:
270,173,100457,1,8,0:0:0:0:
270,173,100857,1,0,0:0:0:0:
270,173,101057,1,0,0:0:0:0:
270,173,101157,1,0,0:0:0:0:
270,173,101257,1,0,0:0:0:0:
270,173,101457,1,8,0:0:0:0:
270,173,101657,1,0,0:0:0:0:
270,173,102057,1,8,0:0:0:0:
270,173,102257,1,0,0:0:0:0:
270,173,102457,1,8,0:0:0:0:
270,173,102657,1,0,0:0:0:0:
270,173,102757,1,0,0:0:0:0:
270,173,102857,1,0,0:0:0:0:
270,173,103057,1,8,0:0:0:0:
270,173,103257,1,0,0:0:0:0:
270,173,103657,1,8,0:0:0:0:
270,173,104057,1,0,0:0:0:0:
270,173,104257,1,0,0:0:0:0:
270,173,104357,1,0,0:0:0:0:
270,173,104457,1,0,0:0:0:0:
270,173,104657,1,8,0:0:0:0:
270,173,104857,1,0,0:0:0:0:
270,173,105257,1,8,0:0:0:0:
270,173,105657,1,0,0:0:0:0:
270,173,105857,1,0,0:0:0:0:
270,173,106057,1,8,0:0:0:0:
270,173,106257,1,8,0:0:0:0:
270,173,106457,1,0,0:0:0:0:
270,173,106657,1,0,0:0:0:0:
270,173,106857,1,8,0:0:0:0:
270,173,107057,1,8,0:0:0:0:
270,173,107257,1,0,0:0:0:0:
270,173,107457,1,0,0:0:0:0:
270,173,107657,1,8,0:0:0:0:
270,173,107857,1,8,0:0:0:0:
270,173,108057,1,0,0:0:0:0:
270,173,108257,1,0,0:0:0:0:
270,173,108457,1,8,0:0:0:0:
270,173,108657,1,8,0:0:0:0:
270,173,108857,2,4,L|206:171,14,35
270,173,110457,1,4,0:0:0:0:
256,192,111657,1,0,0:0:0:0:
256,192,111857,1,0,0:0:0:0:
270,173,112057,1,12,0:0:0:0:
270,173,112457,1,12,0:0:0:0:
436,192,112857,1,0,0:0:0:0:
352,181,113057,1,8,0:0:0:0:
268,171,113257,1,0,0:0:0:0:
351,181,113457,1,0,0:0:0:0:
267,171,113657,1,8,0:0:0:0:
350,181,113857,1,8,0:0:0:0:
268,171,114057,1,0,0:0:0:0:
268,171,114257,1,0,0:0:0:0:
267,171,114457,1,8,0:0:0:0:
268,171,114857,1,8,0:0:0:0:
268,171,115057,1,0,0:0:0:0:
268,171,115257,1,12,0:0:0:0:
268,171,115657,1,0,0:0:0:0:
268,171,116057,1,12,0:0:0:0:
268,171,116257,1,0,0:0:0:0:
268,171,116457,1,8,0:0:0:0:
268,171,116657,1,8,0:0:0:0:
268,171,116857,1,0,0:0:0:0:
377,191,117123,1,0,0:0:0:0:
268,171,117257,1,8,0:0:0:0:
268,171,117657,1,8,0:0:0:0:
268,171,117923,1,0,0:0:0:0:
268,171,118057,1,8,0:0:0:0:
268,171,118457,1,4,0:0:0:0:
268,171,118857,1,8,0:0:0:0:
268,171,119257,1,0,0:0:0:0:
268,171,119457,1,0,0:0:0:0:
268,171,119657,1,0,0:0:0:0:
268,171,119757,1,0,0:0:0:0:
268,171,119857,1,0,0:0:0:0:
268,171,120057,1,8,0:0:0:0:
268,171,120257,1,8,0:0:0:0:
268,171,120457,1,8,0:0:0:0:
268,171,120557,1,8,0:0:0:0:
268,171,120657,1,8,0:0:0:0:
268,171,120857,1,8,0:0:0:0:
268,171,121057,1,8,0:0:0:0:
268,171,121257,1,0,0:0:0:0:
268,171,121657,1,12,0:0:0:0:
268,171,122057,1,0,0:0:0:0:
268,171,122157,1,0,0:0:0:0:
268,171,122257,1,0,0:0:0:0:
268,171,122457,1,8,0:0:0:0:
268,171,122657,1,0,0:0:0:0:
268,171,122857,1,8,0:0:0:0:
268,171,123057,1,8,0:0:0:0:
268,171,123257,1,0,0:0:0:0:
268,171,123523,1,0,0:0:0:0:
268,171,123657,1,8,0:0:0:0:
268,171,124057,1,0,0:0:0:0:
268,171,124323,1,0,0:0:0:0:
268,171,124457,1,8,0:0:0:0:
268,171,124857,1,12,0:0:0:0:
268,171,125257,1,12,0:0:0:0:
431,132,125657,1,0,0:0:0:0:
268,171,126057,1,0,0:0:0:0:
268,171,126257,1,0,0:0:0:0:
268,171,126457,1,8,0:0:0:0:
186,192,126657,1,0,0:0:0:0:
268,171,126857,1,8,0:0:0:0:
268,171,127057,1,8,0:0:0:0:
268,171,127257,1,0,0:0:0:0:
268,171,127657,1,8,0:0:0:0:
268,171,127857,1,0,0:0:0:0:
268,171,128057,1,12,0:0:0:0:
268,171,128457,1,0,0:0:0:0:
268,171,128857,1,12,0:0:0:0:
268,171,129057,1,0,0:0:0:0:
268,171,129257,1,8,0:0:0:0:
268,171,129457,1,8,0:0:0:0:
268,171,129657,1,0,0:0:0:0:
268,171,129923,1,0,0:0:0:0:
268,171,130057,1,8,0:0:0:0:
268,171,130457,1,8,0:0:0:0:
268,171,130723,1,0,0:0:0:0:
268,171,130857,1,8,0:0:0:0:
268,171,131257,1,4,0:0:0:0:
268,171,131657,1,12,0:0:0:0:
268,171,132057,1,0,0:0:0:0:
268,171,132257,1,0,0:0:0:0:
268,171,132457,1,0,0:0:0:0:
268,171,132557,1,0,0:0:0:0:
268,171,132657,1,0,0:0:0:0:
268,171,132857,1,8,0:0:0:0:
268,171,133057,1,8,0:0:0:0:
268,171,133157,1,8,0:0:0:0:
268,171,133257,1,8,0:0:0:0:
268,171,133457,1,0,0:0:0:0:
268,171,133657,1,8,0:0:0:0:
268,171,133857,1,8,0:0:0:0:
268,171,134057,1,0,0:0:0:0:
268,171,134457,1,12,0:0:0:0:
268,171,134857,1,0,0:0:0:0:
268,171,134957,1,0,0:0:0:0:
268,171,135057,1,0,0:0:0:0:
268,171,135257,1,8,0:0:0:0:
268,171,135457,1,0,0:0:0:0:
268,171,135657,1,8,0:0:0:0:
268,171,135857,1,8,0:0:0:0:
163,181,136057,1,0,0:0:0:0:
256,192,136257,12,0,137257,0:0:0:0:
268,171,137657,5,4,0:0:0:0:
268,171,140857,1,8,0:0:0:0:
268,171,142457,1,8,0:0:0:0:
268,171,144057,1,4,0:0:0:0:
268,171,147257,1,8,0:0:0:0:
268,171,148857,1,8,0:0:0:0:
268,171,150057,1,8,0:0:0:0:
268,171,150457,1,4,0:0:0:0:
268,171,151057,1,0,0:0:0:0:
234,171,152057,1,8,0:0:0:0:
234,171,152657,1,8,0:0:0:0:
234,171,153257,1,8,0:0:0:0:
234,171,153657,1,0,0:0:0:0:
234,171,154257,1,0,0:0:0:0:
234,171,155257,1,8,0:0:0:0:
234,171,155457,1,8,0:0:0:0:
234,171,155557,1,8,0:0:0:0:
234,171,155657,1,8,0:0:0:0:
309,208,155857,1,8,0:0:0:0:
248,149,156057,1,0,0:0:0:0:
248,149,156257,1,0,0:0:0:0:
248,149,156457,1,8,0:0:0:0:
248,149,156857,1,4,0:0:0:0:
248,149,157057,1,0,0:0:0:0:
248,149,157157,1,0,0:0:0:0:
248,149,157257,1,0,0:0:0:0:
248,149,157457,1,8,0:0:0:0:
248,149,157657,1,0,0:0:0:0:
248,149,157857,1,8,0:0:0:0:
248,149,158057,1,8,0:0:0:0:
251,144,158457,1,8,0:0:0:0:
288,219,158657,1,0,0:0:0:0:
269,181,158757,1,0,0:0:0:0:
269,181,158857,1,0,0:0:0:0:
269,181,159057,1,8,0:0:0:0:
269,181,159257,1,0,0:0:0:0:
269,181,159457,1,8,0:0:0:0:
269,181,159657,1,0,0:0:0:0:
269,181,160057,2,8,L|231:184,12,35
269,181,161657,1,0,0:0:0:0:
269,181,161923,1,0,0:0:0:0:
269,181,162057,1,8,0:0:0:0:
269,181,162457,1,8,0:0:0:0:
269,181,162723,1,0,0:0:0:0:
269,181,162857,1,8,0:0:0:0:
269,181,163257,1,4,0:0:0:0:
270,180,164057,1,8,0:0:0:0:
270,180,164257,1,0,0:0:0:0:
270,180,164457,1,8,0:0:0:0:
270,180,164657,1,8,0:0:0:0:
270,180,164857,1,0,0:0:0:0:
270,180,165057,1,8,0:0:0:0:
270,180,165257,1,8,0:0:0:0:
270,180,165457,1,0,0:0:0:0:
270,180,165657,1,8,0:0:0:0:
270,180,165857,1,0,0:0:0:0:
307,199,165957,1,0,0:0:0:0:
270,180,166057,1,0,0:0:0:0:
270,180,166257,1,8,0:0:0:0:
270,180,166457,1,4,0:0:0:0:
270,180,166857,1,4,0:0:0:0:
270,180,167257,1,12,0:0:0:0:
270,180,167857,1,8,0:0:0:0:
270,180,168057,1,4,0:0:0:0:
270,180,168257,1,8,0:0:0:0:
270,180,168457,1,4,0:0:0:0:
270,180,168857,1,12,0:0:0:0:
270,180,169157,1,0,0:0:0:0:
270,180,169257,1,8,0:0:0:0:
270,180,169457,1,0,0:0:0:0:
270,180,169657,1,4,0:0:0:0:
270,180,170457,1,8,0:0:0:0:
270,180,170657,1,0,0:0:0:0:
270,180,170857,1,8,0:0:0:0:
270,180,171057,1,8,0:0:0:0:
270,180,171257,1,0,0:0:0:0:
270,180,171457,1,0,0:0:0:0:
270,180,171657,1,8,0:0:0:0:
270,180,171857,1,0,0:0:0:0:
270,180,172057,1,8,0:0:0:0:
270,180,172257,1,8,0:0:0:0:
270,180,172457,1,0,0:0:0:0:
270,180,172557,1,0,0:0:0:0:
270,180,172657,1,0,0:0:0:0:
270,180,172857,1,4,0:0:0:0:
270,180,173257,1,4,0:0:0:0:
270,180,173657,1,12,0:0:0:0:
270,180,174057,1,8,0:0:0:0:
270,180,174157,1,8,0:0:0:0:
270,180,174257,1,8,0:0:0:0:
270,180,174457,1,0,0:0:0:0:
270,180,174657,1,8,0:0:0:0:
270,180,174857,1,8,0:0:0:0:
270,180,175057,1,0,0:0:0:0:
270,180,175257,1,8,0:0:0:0:
270,180,175557,1,0,0:0:0:0:
270,180,175657,1,8,0:0:0:0:
270,180,175857,1,0,0:0:0:0:
270,180,176057,1,4,0:0:0:0:
270,180,176857,1,8,0:0:0:0:
270,180,177057,1,0,0:0:0:0:
270,180,177257,1,8,0:0:0:0:
270,180,177457,1,8,0:0:0:0:
270,180,177657,1,0,0:0:0:0:
270,180,177857,1,8,0:0:0:0:
270,180,178057,1,8,0:0:0:0:
270,180,178257,1,0,0:0:0:0:
270,180,178457,1,8,0:0:0:0:
270,180,178657,1,0,0:0:0:0:
270,180,178757,1,0,0:0:0:0:
270,180,178857,1,0,0:0:0:0:
270,180,179057,1,8,0:0:0:0:
270,180,179257,1,4,0:0:0:0:
270,180,179657,1,0,0:0:0:0:
270,180,179757,1,0,0:0:0:0:
270,180,179857,1,0,0:0:0:0:
270,180,180057,1,12,0:0:0:0:
270,180,180457,1,8,0:0:0:0:
270,180,180557,1,8,0:0:0:0:
270,180,180657,1,8,0:0:0:0:
270,180,180857,1,0,0:0:0:0:
270,180,181057,1,0,0:0:0:0:
270,180,181257,1,12,0:0:0:0:
270,180,181457,1,0,0:0:0:0:
270,180,181657,1,12,0:0:0:0:
270,180,181957,1,0,0:0:0:0:
270,180,182057,1,8,0:0:0:0:
270,180,182257,1,0,0:0:0:0:
270,180,182457,1,4,0:0:0:0:
296,187,183257,1,8,0:0:0:0:
270,180,183457,1,0,0:0:0:0:
270,180,183657,1,8,0:0:0:0:
270,180,183857,1,8,0:0:0:0:
270,180,184057,1,0,0:0:0:0:
270,180,184257,1,0,0:0:0:0:
270,180,184457,1,8,0:0:0:0:
270,180,184657,1,0,0:0:0:0:
270,180,184857,1,8,0:0:0:0:
270,180,185057,1,8,0:0:0:0:
270,180,185257,1,0,0:0:0:0:
270,180,185357,1,0,0:0:0:0:
270,180,185457,1,0,0:0:0:0:
270,180,185657,1,12,0:0:0:0:
270,180,186057,1,8,0:0:0:0:
270,180,186157,1,8,0:0:0:0:
270,180,186257,1,8,0:0:0:0:
270,180,186457,1,4,0:0:0:0:
437,176,186857,1,12,0:0:0:0:
270,180,187257,1,4,0:0:0:0:
318,111,187457,1,8,0:0:0:0:
270,180,187657,1,8,0:0:0:0:
270,180,187857,1,0,0:0:0:0:
270,180,188057,1,12,0:0:0:0:
270,180,188357,1,0,0:0:0:0:
270,180,188457,1,8,0:0:0:0:
270,180,188657,1,0,0:0:0:0:
270,180,188857,1,0,0:0:0:0:
270,180,189123,1,0,0:0:0:0:
270,180,189257,1,8,0:0:0:0:
270,180,189657,1,0,0:0:0:0:
270,180,189923,1,0,0:0:0:0:
270,180,190057,1,8,0:0:0:0:
270,180,190457,1,8,0:0:0:0:
270,180,190723,1,0,0:0:0:0:
270,180,190857,1,8,0:0:0:0:
270,180,191257,1,8,0:0:0:0:
270,180,191523,1,0,0:0:0:0:
270,180,191657,1,8,0:0:0:0:
270,180,192057,1,4,0:0:0:0:
