osu file format v14

[General]
AudioFilename: audio.mp3
AudioLeadIn: 0
PreviewTime: 150457
Countdown: 0
SampleSet: Normal
StackLeniency: 0.7
Mode: 1
LetterboxInBreaks: 0
WidescreenStoryboard: 1

[Editor]
Bookmarks: 3257,19257,32057,44857,57657,58457,70457,73657,86457,99257,112057,123257,124857,136057,137657,150457,163257,176057,176857,188857,192057
DistanceSpacing: 1
BeatDivisor: 4
GridSize: 32
TimelineZoom: 2.899999

[Metadata]
Title:Daikirai feat. CHANMINA
TitleUnicode:ダイキライ feat. ちゃんみな
Artist:TeddyLoid
ArtistUnicode:TeddyLoid
Creator:eiri-
Version:Capu's Inner Oni
Source:
Tags:Ayyri Nishizumi Sansheng Ladies Night Ladies_Night Yales HiroK Capu Japanese English Electronic SILENT PLANET 2 EP vol.3 HAL
BeatmapID:2221217
BeatmapSetID:1060927

[Difficulty]
HPDrainRate:5.5
CircleSize:2
OverallDifficulty:5.5
ApproachRate:10
SliderMultiplier:1.6
SliderTickRate:1

[Events]
//Background and Video events
0,0,"Jeanne 275.jpg",0,20
//Break Periods
//Storyboard Layer 0 (Background)
//Storyboard Layer 1 (Fail)
//Storyboard Layer 2 (Pass)
//Storyboard Layer 3 (Foreground)
//Storyboard Layer 4 (Overlay)
//Storyboard Sound Samples

[TimingPoints]
3257,400,4,1,0,80,1,0
17557,-125,4,1,0,50,0,0
19207,-100,4,1,0,100,0,0
38457,-90.9090909090909,4,1,0,100,0,0
43257,-100,4,1,0,100,0,0
44857,-40,4,1,0,100,0,1
45657,-100,4,1,0,100,0,1
51257,-100,4,1,0,100,0,0
52057,-100,4,1,0,100,0,1
57657,-100,4,1,0,100,0,0
58457,-100,4,1,0,100,0,1
64057,-100,4,1,0,100,0,0
64857,-100,4,1,0,100,0,1
70457,-100,4,1,0,100,0,0
110457,-40,4,1,0,100,0,0
111257,-50,4,1,0,100,0,0
112057,-66.6666666666667,4,1,0,100,0,1
112457,-100,4,1,0,100,0,1
112857,-90.9090909090909,4,1,0,100,0,1
123057,-95.2380952380952,4,1,0,100,0,1
123257,-100,4,1,0,100,0,0
124857,-100,4,1,0,100,0,1
125457,-95.2380952380952,4,1,0,100,0,1
125657,-90.9090909090909,4,1,0,100,0,1
135923,-92.5925925925926,4,1,0,100,0,1
136057,-94.3396226415094,4,1,0,100,0,0
136190,-96.1538461538461,4,1,0,100,0,0
136323,-98.0392156862745,4,1,0,100,0,0
136457,-100,4,1,0,100,0,0
163257,-40,4,1,0,100,0,1
164057,-100,4,1,0,100,0,1
169657,-100,4,1,0,100,0,0
170457,-100,4,1,0,100,0,1
176057,-100,4,1,0,100,0,0
176857,-100,4,1,0,100,0,1
182457,-100,4,1,0,100,0,0
183257,-100,4,1,0,100,0,1
188857,-100,4,1,0,100,0,0
192057,-76.9230769230769,4,1,0,100,0,0

[HitObjects]
256,192,3257,5,8,0:0:0:0:
256,192,3390,5,0,0:0:0:0:
256,192,3523,5,0,0:0:0:0:
256,192,3657,5,8,0:0:0:0:
256,192,3790,1,8,0:0:0:0:
256,192,3923,5,0,0:0:0:0:
256,192,4057,5,8,0:0:0:0:
256,192,4190,5,0,0:0:0:0:
256,192,4323,5,0,0:0:0:0:
256,192,4457,5,8,0:0:0:0:
256,192,4590,1,8,0:0:0:0:
256,192,4723,5,0,0:0:0:0:
256,192,4857,5,12,0:0:0:0:
256,192,5657,5,0,0:0:0:0:
256,192,6457,5,8,0:0:0:0:
256,192,7057,5,8,0:0:0:0:
256,192,7257,5,0,0:0:0:0:
256,192,7657,5,8,0:0:0:0:
256,192,8057,5,4,0:0:0:0:
256,192,9657,5,8,0:0:0:0:
256,192,9790,5,0,0:0:0:0:
256,192,9923,5,0,0:0:0:0:
256,192,10057,5,8,0:0:0:0:
256,192,10190,1,8,0:0:0:0:
256,192,10323,5,0,0:0:0:0:
256,192,10457,5,8,0:0:0:0:
256,192,10590,5,0,0:0:0:0:
256,192,10723,5,0,0:0:0:0:
256,192,10857,5,8,0:0:0:0:
256,192,10990,1,8,0:0:0:0:
256,192,11123,5,0,0:0:0:0:
256,192,11257,5,12,0:0:0:0:
256,192,12857,5,8,0:0:0:0:
256,192,13457,5,8,0:0:0:0:
256,192,14057,5,8,0:0:0:0:
256,192,14457,5,8,0:0:0:0:
256,192,14590,5,0,0:0:0:0:
256,192,14723,5,0,0:0:0:0:
256,192,14857,5,8,0:0:0:0:
256,192,14990,1,8,0:0:0:0:
256,192,15123,5,0,0:0:0:0:
256,192,15257,5,8,0:0:0:0:
256,192,15390,5,0,0:0:0:0:
256,192,15523,5,0,0:0:0:0:
256,192,15657,5,8,0:0:0:0:
256,192,15790,1,8,0:0:0:0:
256,192,15923,5,0,0:0:0:0:
256,192,16057,5,12,0:0:0:0:
256,192,16257,5,0,0:0:0:0:
256,192,16323,5,0,0:0:0:0:
256,192,16457,5,0,0:0:0:0:
256,192,16657,5,0,0:0:0:0:
256,192,16723,5,0,0:0:0:0:
256,192,16857,5,0,0:0:0:0:
256,192,17057,5,0,0:0:0:0:
256,192,17123,5,0,0:0:0:0:
256,192,17257,5,8,0:0:0:0:
256,192,17657,5,8,0:0:0:0:
256,192,17790,5,0,0:0:0:0:
256,192,17923,5,0,0:0:0:0:
256,192,18057,5,8,0:0:0:0:
256,192,18190,1,8,0:0:0:0:
256,192,18323,5,0,0:0:0:0:
256,192,18457,5,8,0:0:0:0:
256,192,18590,5,0,0:0:0:0:
256,192,18723,5,0,0:0:0:0:
256,192,18857,5,8,0:0:0:0:
256,192,18990,1,8,0:0:0:0:
256,192,19123,5,0,0:0:0:0:
256,192,19257,5,12,0:0:0:0:
256,192,19457,1,0,0:0:0:0:
256,192,19657,5,0,0:0:0:0:
256,192,19857,1,0,0:0:0:0:
256,192,19957,1,0,0:0:0:0:
256,192,20057,5,8,0:0:0:0:
256,192,20257,5,0,0:0:0:0:
256,192,20457,1,0,0:0:0:0:
256,192,20657,1,8,0:0:0:0:
256,192,20857,1,0,0:0:0:0:
256,192,20957,1,0,0:0:0:0:
256,192,21057,5,8,0:0:0:0:
256,192,21257,1,8,0:0:0:0:
256,192,21457,5,0,0:0:0:0:
256,192,21557,5,0,0:0:0:0:
256,192,21657,5,8,0:0:0:0:
256,192,22057,5,0,0:0:0:0:
256,192,22257,5,8,0:0:0:0:
256,192,22457,5,8,0:0:0:0:
256,192,22657,5,0,0:0:0:0:
256,192,22857,1,0,0:0:0:0:
256,192,23057,5,0,0:0:0:0:
256,192,23157,5,0,0:0:0:0:
256,192,23257,5,8,0:0:0:0:
256,192,23457,1,0,0:0:0:0:
256,192,23657,5,0,0:0:0:0:
256,192,23857,1,8,0:0:0:0:
256,192,24057,5,8,0:0:0:0:
256,192,24190,5,0,0:0:0:0:
256,192,24323,5,0,0:0:0:0:
256,192,24457,5,8,0:0:0:0:
256,192,24590,1,8,0:0:0:0:
256,192,24723,5,0,0:0:0:0:
256,192,24857,5,8,0:0:0:0:
256,192,24990,5,0,0:0:0:0:
256,192,25123,5,0,0:0:0:0:
256,192,25257,5,8,0:0:0:0:
256,192,25390,1,8,0:0:0:0:
256,192,25523,5,0,0:0:0:0:
256,192,25657,5,12,0:0:0:0:
256,192,25857,5,8,0:0:0:0:
256,192,26057,5,0,0:0:0:0:
256,192,26257,1,0,0:0:0:0:
256,192,26357,1,0,0:0:0:0:
256,192,26457,5,8,0:0:0:0:
256,192,26657,5,0,0:0:0:0:
256,192,26857,5,0,0:0:0:0:
256,192,27057,1,8,0:0:0:0:
256,192,27257,1,0,0:0:0:0:
256,192,27357,1,0,0:0:0:0:
256,192,27457,5,8,0:0:0:0:
256,192,27657,5,8,0:0:0:0:
256,192,27857,1,0,0:0:0:0:
256,192,27957,1,0,0:0:0:0:
256,192,28057,5,8,0:0:0:0:
256,192,28257,5,0,0:0:0:0:
256,192,28657,5,0,0:0:0:0:
256,192,28857,5,8,0:0:0:0:
256,192,29057,5,0,0:0:0:0:
256,192,29257,1,0,0:0:0:0:
256,192,29457,5,0,0:0:0:0:
256,192,29557,5,0,0:0:0:0:
256,192,29657,5,8,0:0:0:0:
256,192,29857,1,0,0:0:0:0:
256,192,30057,5,0,0:0:0:0:
256,192,30257,5,8,0:0:0:0:
256,192,30457,5,8,0:0:0:0:
256,192,30590,5,0,0:0:0:0:
256,192,30723,5,0,0:0:0:0:
256,192,30857,5,8,0:0:0:0:
256,192,30990,1,8,0:0:0:0:
256,192,31123,5,0,0:0:0:0:
256,192,31257,5,8,0:0:0:0:
256,192,31390,5,0,0:0:0:0:
256,192,31523,5,0,0:0:0:0:
256,192,31657,5,8,0:0:0:0:
256,192,31790,1,8,0:0:0:0:
256,192,31923,5,0,0:0:0:0:
256,192,32057,5,12,0:0:0:0:
256,192,32857,5,8,0:0:0:0:
256,192,32957,1,8,0:0:0:0:
256,192,33057,5,0,0:0:0:0:
256,192,33257,5,8,0:0:0:0:
256,192,33457,1,0,0:0:0:0:
256,192,33557,5,0,0:0:0:0:
256,192,33657,1,8,0:0:0:0:
256,192,33790,5,8,0:0:0:0:
256,192,33923,1,0,0:0:0:0:
256,192,34057,5,0,0:0:0:0:
256,192,34190,5,8,0:0:0:0:
256,192,34323,5,0,0:0:0:0:
256,192,34457,5,8,0:0:0:0:
256,192,34757,5,8,0:0:0:0:
256,192,34857,5,0,0:0:0:0:
256,192,35057,5,0,0:0:0:0:
256,192,35257,5,8,0:0:0:0:
256,192,35390,1,0,0:0:0:0:
256,192,35523,5,0,0:0:0:0:
256,192,35657,5,8,0:0:0:0:
256,192,36057,5,8,0:0:0:0:
256,192,36190,5,0,0:0:0:0:
256,192,36323,5,8,0:0:0:0:
256,192,36457,5,0,0:0:0:0:
256,192,36657,5,8,0:0:0:0:
256,192,36857,5,0,0:0:0:0:
256,192,36990,5,8,0:0:0:0:
256,192,37123,1,0,0:0:0:0:
256,192,37257,1,8,0:0:0:0:
256,192,37390,1,8,0:0:0:0:
256,192,37523,5,0,0:0:0:0:
256,192,37657,5,8,0:0:0:0:
256,192,37790,1,0,0:0:0:0:
256,192,37923,5,0,0:0:0:0:
256,192,38057,5,8,0:0:0:0:
256,192,38457,5,0,0:0:0:0:
256,192,38557,1,0,0:0:0:0:
256,192,38657,1,0,0:0:0:0:
256,192,38757,1,8,0:0:0:0:
256,192,38857,1,8,0:0:0:0:
256,192,39057,1,0,0:0:0:0:
256,192,39157,5,8,0:0:0:0:
256,192,39257,1,0,0:0:0:0:
256,192,39357,5,8,0:0:0:0:
256,192,39457,5,0,0:0:0:0:
256,192,39557,1,8,0:0:0:0:
256,192,39657,5,8,0:0:0:0:
256,192,39857,5,0,0:0:0:0:
256,192,39957,5,8,0:0:0:0:
256,192,40057,5,0,0:0:0:0:
256,192,40157,5,8,0:0:0:0:
256,192,40257,1,0,0:0:0:0:
256,192,40357,1,0,0:0:0:0:
256,192,40557,5,0,0:0:0:0:
256,192,40657,5,8,0:0:0:0:
256,192,40757,5,0,0:0:0:0:
256,192,40857,5,8,0:0:0:0:
256,192,40957,1,0,0:0:0:0:
256,192,41057,5,0,0:0:0:0:
256,192,41157,5,8,0:0:0:0:
256,192,41257,1,8,0:0:0:0:
256,192,41457,5,8,0:0:0:0:
256,192,41557,5,8,0:0:0:0:
256,192,41657,5,0,0:0:0:0:
256,192,41757,1,0,0:0:0:0:
256,192,41857,1,8,0:0:0:0:
256,192,41957,5,0,0:0:0:0:
256,192,42057,5,8,0:0:0:0:
256,192,42157,1,8,0:0:0:0:
256,192,42257,5,0,0:0:0:0:
256,192,42357,1,0,0:0:0:0:
256,192,42457,1,8,0:0:0:0:
256,192,42557,1,0,0:0:0:0:
256,192,42657,1,8,0:0:0:0:
256,192,42757,1,8,0:0:0:0:
256,192,42857,1,0,0:0:0:0:
256,192,42957,1,8,0:0:0:0:
256,192,43257,5,8,0:0:0:0:
256,192,43390,5,0,0:0:0:0:
256,192,43523,5,0,0:0:0:0:
256,192,43657,5,8,0:0:0:0:
256,192,43790,1,8,0:0:0:0:
256,192,43923,5,0,0:0:0:0:
256,192,44057,5,8,0:0:0:0:
256,192,44190,5,0,0:0:0:0:
256,192,44323,5,0,0:0:0:0:
256,192,44457,5,8,0:0:0:0:
256,192,44590,1,8,0:0:0:0:
256,192,44723,5,0,0:0:0:0:
256,192,44857,2,4,L|128:192,4,100
256,192,45657,5,12,0:0:0:0:
256,192,45857,5,0,0:0:0:0:
256,192,45957,1,0,0:0:0:0:
256,192,46057,5,8,0:0:0:0:
256,192,46257,5,8,0:0:0:0:
256,192,46457,5,0,0:0:0:0:
256,192,46657,5,8,0:0:0:0:
256,192,46757,1,0,0:0:0:0:
256,192,46857,1,8,0:0:0:0:
256,192,47057,5,0,0:0:0:0:
256,192,47257,5,0,0:0:0:0:
256,192,47357,1,8,0:0:0:0:
256,192,47457,5,8,0:0:0:0:
256,192,47557,1,0,0:0:0:0:
256,192,47657,1,8,0:0:0:0:
256,192,47857,1,0,0:0:0:0:
256,192,48057,5,8,0:0:0:0:
256,192,48257,5,8,0:0:0:0:
256,192,48457,5,8,0:0:0:0:
256,192,48657,5,8,0:0:0:0:
256,192,48857,5,0,0:0:0:0:
256,192,48957,5,0,0:0:0:0:
256,192,49057,5,8,0:0:0:0:
256,192,49157,5,0,0:0:0:0:
256,192,49257,5,8,0:0:0:0:
256,192,49457,5,8,0:0:0:0:
256,192,49657,5,0,0:0:0:0:
256,192,49757,1,8,0:0:0:0:
256,192,49857,5,0,0:0:0:0:
256,192,49957,5,0,0:0:0:0:
256,192,50057,5,8,0:0:0:0:
256,192,50257,5,0,0:0:0:0:
256,192,50457,5,8,0:0:0:0:
256,192,50557,5,0,0:0:0:0:
256,192,50757,5,0,0:0:0:0:
256,192,50857,5,8,0:0:0:0:
256,192,51057,5,0,0:0:0:0:
256,192,51123,5,0,0:0:0:0:
256,192,51190,1,0,0:0:0:0:
256,192,51257,5,8,0:0:0:0:
256,192,52057,5,12,0:0:0:0:
256,192,52257,5,0,0:0:0:0:
256,192,52457,5,8,0:0:0:0:
256,192,52657,5,8,0:0:0:0:
256,192,52857,5,0,0:0:0:0:
256,192,52957,1,0,0:0:0:0:
256,192,53057,1,0,0:0:0:0:
256,192,53257,5,8,0:0:0:0:
256,192,53457,5,8,0:0:0:0:
256,192,53657,5,8,0:0:0:0:
256,192,53757,5,8,0:0:0:0:
256,192,53857,5,0,0:0:0:0:
256,192,53957,5,0,0:0:0:0:
256,192,54057,5,0,0:0:0:0:
256,192,54457,5,8,0:0:0:0:
256,192,54657,5,0,0:0:0:0:
256,192,54857,5,8,0:0:0:0:
256,192,54957,5,8,0:0:0:0:
256,192,55057,5,0,0:0:0:0:
256,192,55157,5,0,0:0:0:0:
256,192,55257,5,8,0:0:0:0:
256,192,55457,5,0,0:0:0:0:
256,192,55657,5,8,0:0:0:0:
256,192,55757,5,0,0:0:0:0:
256,192,55857,5,8,0:0:0:0:
256,192,56057,5,0,0:0:0:0:
256,192,56257,5,8,0:0:0:0:
256,192,56357,1,8,0:0:0:0:
256,192,56457,1,0,0:0:0:0:
256,192,56657,5,0,0:0:0:0:
256,192,56757,5,0,0:0:0:0:
256,192,56857,5,8,0:0:0:0:
256,192,57057,5,0,0:0:0:0:
256,192,57157,5,8,0:0:0:0:
256,192,57257,5,8,0:0:0:0:
256,192,57457,5,0,0:0:0:0:
256,192,57557,5,8,0:0:0:0:
256,192,57657,5,0,0:0:0:0:
256,192,58457,5,12,0:0:0:0:
256,192,58657,5,0,0:0:0:0:
256,192,58757,1,0,0:0:0:0:
256,192,58857,5,8,0:0:0:0:
256,192,59057,5,8,0:0:0:0:
256,192,59257,5,0,0:0:0:0:
256,192,59457,5,8,0:0:0:0:
256,192,59557,1,8,0:0:0:0:
256,192,59657,5,0,0:0:0:0:
256,192,59857,1,8,0:0:0:0:
256,192,60057,1,8,0:0:0:0:
256,192,60257,5,0,0:0:0:0:
256,192,60357,5,0,0:0:0:0:
256,192,60457,5,8,0:0:0:0:
256,192,60657,5,0,0:0:0:0:
256,192,60857,5,8,0:0:0:0:
256,192,60957,5,8,0:0:0:0:
256,192,61057,5,0,0:0:0:0:
256,192,61157,5,0,0:0:0:0:
256,192,61257,5,8,0:0:0:0:
256,192,61457,5,0,0:0:0:0:
256,192,61657,5,8,0:0:0:0:
256,192,61757,5,8,0:0:0:0:
256,192,61857,5,0,0:0:0:0:
256,192,62057,5,8,0:0:0:0:
256,192,62157,5,0,0:0:0:0:
256,192,62257,5,8,0:0:0:0:
256,192,62357,5,8,0:0:0:0:
256,192,62457,5,0,0:0:0:0:
256,192,62657,5,0,0:0:0:0:
256,192,62857,5,12,0:0:0:0:
256,192,63057,5,0,0:0:0:0:
256,192,63157,5,0,0:0:0:0:
256,192,63257,5,8,0:0:0:0:
256,192,63357,1,8,0:0:0:0:
256,192,63457,1,0,0:0:0:0:
256,192,63557,5,0,0:0:0:0:
256,192,63657,5,8,0:0:0:0:
256,192,63757,5,8,0:0:0:0:
256,192,63857,5,0,0:0:0:0:
256,192,64057,5,0,0:0:0:0:
256,192,64857,5,12,0:0:0:0:
256,192,65057,5,0,0:0:0:0:
256,192,65257,5,8,0:0:0:0:
256,192,65457,5,8,0:0:0:0:
256,192,65657,5,0,0:0:0:0:
256,192,65757,1,0,0:0:0:0:
256,192,65857,1,0,0:0:0:0:
256,192,66057,5,8,0:0:0:0:
256,192,66257,5,8,0:0:0:0:
256,192,66457,5,8,0:0:0:0:
256,192,66557,5,8,0:0:0:0:
256,192,66657,5,0,0:0:0:0:
256,192,66757,5,0,0:0:0:0:
256,192,66857,5,0,0:0:0:0:
256,192,67257,5,8,0:0:0:0:
256,192,67357,5,8,0:0:0:0:
256,192,67457,5,8,0:0:0:0:
256,192,67557,5,8,0:0:0:0:
256,192,67657,5,0,0:0:0:0:
256,192,67857,5,0,0:0:0:0:
256,192,68057,5,8,0:0:0:0:
256,192,68157,5,8,0:0:0:0:
256,192,68257,5,0,0:0:0:0:
256,192,68457,5,8,0:0:0:0:
256,192,68557,5,8,0:0:0:0:
256,192,68657,5,8,0:0:0:0:
256,192,68757,5,8,0:0:0:0:
256,192,68857,5,0,0:0:0:0:
256,192,69057,5,0,0:0:0:0:
256,192,69157,1,8,0:0:0:0:
256,192,69257,5,0,0:0:0:0:
256,192,69357,1,8,0:0:0:0:
256,192,69457,5,0,0:0:0:0:
256,192,69657,5,8,0:0:0:0:
256,192,69757,5,0,0:0:0:0:
256,192,69957,5,0,0:0:0:0:
256,192,70057,5,8,0:0:0:0:
256,192,70257,5,0,0:0:0:0:
256,192,70457,5,8,0:0:0:0:
256,192,70590,5,0,0:0:0:0:
256,192,70723,5,0,0:0:0:0:
256,192,70857,5,8,0:0:0:0:
256,192,70990,1,8,0:0:0:0:
256,192,71123,5,0,0:0:0:0:
256,192,71257,5,8,0:0:0:0:
256,192,71390,5,0,0:0:0:0:
256,192,71523,5,0,0:0:0:0:
256,192,71657,5,8,0:0:0:0:
256,192,71790,1,8,0:0:0:0:
256,192,71923,5,0,0:0:0:0:
256,192,72057,5,8,0:0:0:0:
256,192,73657,5,0,0:0:0:0:
256,192,76057,5,8,0:0:0:0:
256,192,76857,5,0,0:0:0:0:
256,192,78457,5,8,0:0:0:0:
256,192,78590,5,0,0:0:0:0:
256,192,78723,5,0,0:0:0:0:
256,192,78857,5,8,0:0:0:0:
256,192,78990,1,8,0:0:0:0:
256,192,79123,5,0,0:0:0:0:
256,192,79257,5,8,0:0:0:0:
256,192,79390,5,0,0:0:0:0:
256,192,79523,5,0,0:0:0:0:
256,192,79657,5,8,0:0:0:0:
256,192,79790,1,8,0:0:0:0:
256,192,79923,5,0,0:0:0:0:
256,192,80057,5,8,0:0:0:0:
256,192,82457,5,8,0:0:0:0:
256,192,83257,5,0,0:0:0:0:
256,192,84857,12,0,85257,0:0:0:0:
256,192,85657,5,8,0:0:0:0:
256,192,86057,5,0,0:0:0:0:
256,192,86257,5,0,0:0:0:0:
256,192,86457,5,8,0:0:0:0:
256,192,86657,5,8,0:0:0:0:
256,192,86857,5,0,0:0:0:0:
256,192,86957,1,8,0:0:0:0:
256,192,87057,5,0,0:0:0:0:
256,192,87257,5,8,0:0:0:0:
256,192,87457,5,0,0:0:0:0:
256,192,87557,5,0,0:0:0:0:
256,192,87657,5,8,0:0:0:0:
256,192,87757,1,8,0:0:0:0:
256,192,87857,5,0,0:0:0:0:
256,192,88057,5,0,0:0:0:0:
256,192,88157,5,8,0:0:0:0:
256,192,88257,5,8,0:0:0:0:
256,192,88357,1,0,0:0:0:0:
256,192,88457,1,8,0:0:0:0:
256,192,88657,5,8,0:0:0:0:
256,192,88757,5,0,0:0:0:0:
256,192,88857,5,8,0:0:0:0:
256,192,89057,5,8,0:0:0:0:
256,192,89157,1,8,0:0:0:0:
256,192,89257,5,0,0:0:0:0:
256,192,89357,1,8,0:0:0:0:
256,192,89457,5,0,0:0:0:0:
256,192,89657,5,8,0:0:0:0:
256,192,89757,5,0,0:0:0:0:
256,192,89857,5,0,0:0:0:0:
256,192,90057,5,8,0:0:0:0:
256,192,90257,5,0,0:0:0:0:
256,192,90357,1,8,0:0:0:0:
256,192,90457,5,8,0:0:0:0:
256,192,90657,1,0,0:0:0:0:
256,192,90757,5,8,0:0:0:0:
256,192,90857,5,0,0:0:0:0:
256,192,91057,5,8,0:0:0:0:
256,192,91257,5,0,0:0:0:0:
256,192,91357,1,0,0:0:0:0:
256,192,91457,5,8,0:0:0:0:
256,192,91657,5,8,0:0:0:0:
256,192,91857,5,0,0:0:0:0:
256,192,91957,5,0,0:0:0:0:
256,192,92057,5,8,0:0:0:0:
256,192,92257,5,0,0:0:0:0:
256,192,92457,5,8,0:0:0:0:
256,192,92857,5,8,0:0:0:0:
256,192,92957,1,0,0:0:0:0:
256,192,93057,5,0,0:0:0:0:
256,192,93157,5,0,0:0:0:0:
256,192,93257,5,8,0:0:0:0:
256,192,93457,5,0,0:0:0:0:
256,192,93657,5,8,0:0:0:0:
256,192,93757,5,8,0:0:0:0:
256,192,93857,5,0,0:0:0:0:
256,192,93957,5,0,0:0:0:0:
256,192,94057,5,8,0:0:0:0:
256,192,94257,5,0,0:0:0:0:
256,192,94457,5,8,0:0:0:0:
256,192,94557,5,8,0:0:0:0:
256,192,94657,5,0,0:0:0:0:
256,192,94757,1,8,0:0:0:0:
256,192,94857,1,0,0:0:0:0:
256,192,95057,1,8,0:0:0:0:
256,192,95157,5,0,0:0:0:0:
256,192,95257,5,8,0:0:0:0:
256,192,95357,1,8,0:0:0:0:
256,192,95457,5,0,0:0:0:0:
256,192,95557,1,0,0:0:0:0:
256,192,95657,5,8,0:0:0:0:
256,192,95857,5,0,0:0:0:0:
256,192,95957,5,0,0:0:0:0:
256,192,96057,5,8,0:0:0:0:
256,192,96257,5,0,0:0:0:0:
256,192,96357,1,8,0:0:0:0:
256,192,96457,5,8,0:0:0:0:
256,192,96657,5,0,0:0:0:0:
256,192,96757,1,0,0:0:0:0:
256,192,96857,5,8,0:0:0:0:
256,192,97057,5,0,0:0:0:0:
256,192,97157,1,8,0:0:0:0:
256,192,97257,5,8,0:0:0:0:
256,192,97457,5,0,0:0:0:0:
256,192,97657,5,8,0:0:0:0:
256,192,97790,5,0,0:0:0:0:
256,192,97923,5,0,0:0:0:0:
256,192,98057,5,8,0:0:0:0:
256,192,98190,1,8,0:0:0:0:
256,192,98323,5,0,0:0:0:0:
256,192,98457,5,8,0:0:0:0:
256,192,98590,5,0,0:0:0:0:
256,192,98723,5,0,0:0:0:0:
256,192,98857,5,8,0:0:0:0:
256,192,98990,1,8,0:0:0:0:
256,192,99123,5,0,0:0:0:0:
256,192,99257,5,12,0:0:0:0:
256,192,99657,5,8,0:0:0:0:
256,192,99857,5,8,0:0:0:0:
256,192,100057,5,0,0:0:0:0:
256,192,100123,5,0,0:0:0:0:
256,192,100190,1,0,0:0:0:0:
256,192,100257,5,8,0:0:0:0:
256,192,100457,5,0,0:0:0:0:
256,192,100657,5,8,0:0:0:0:
256,192,100757,5,0,0:0:0:0:
256,192,100857,5,8,0:0:0:0:
256,192,101057,5,0,0:0:0:0:
256,192,101157,1,8,0:0:0:0:
256,192,101257,1,0,0:0:0:0:
256,192,101457,5,8,0:0:0:0:
256,192,101657,5,0,0:0:0:0:
256,192,101723,1,0,0:0:0:0:
256,192,101790,1,0,0:0:0:0:
256,192,101857,1,8,0:0:0:0:
256,192,102057,5,8,0:0:0:0:
256,192,102157,5,8,0:0:0:0:
256,192,102257,5,0,0:0:0:0:
256,192,102357,5,0,0:0:0:0:
256,192,102457,5,8,0:0:0:0:
256,192,102857,5,8,0:0:0:0:
256,192,103057,5,8,0:0:0:0:
256,192,103257,5,8,0:0:0:0:
256,192,103323,5,0,0:0:0:0:
256,192,103390,5,0,0:0:0:0:
256,192,103457,1,0,0:0:0:0:
256,192,103657,5,8,0:0:0:0:
256,192,103857,5,0,0:0:0:0:
256,192,103957,5,0,0:0:0:0:
256,192,104057,5,8,0:0:0:0:
256,192,104257,5,0,0:0:0:0:
256,192,104357,1,8,0:0:0:0:
256,192,104457,5,0,0:0:0:0:
256,192,104657,5,8,0:0:0:0:
256,192,104857,5,8,0:0:0:0:
256,192,104923,5,0,0:0:0:0:
256,192,104990,5,0,0:0:0:0:
256,192,105057,5,0,0:0:0:0:
256,192,105257,5,8,0:0:0:0:
256,192,105657,1,8,0:0:0:0:
256,192,105723,1,0,0:0:0:0:
256,192,105790,1,0,0:0:0:0:
256,192,105857,1,0,0:0:0:0:
256,192,106057,1,8,0:0:0:0:
256,192,106257,1,0,0:0:0:0:
256,192,106457,1,8,0:0:0:0:
256,192,106523,1,8,0:0:0:0:
256,192,106590,1,0,0:0:0:0:
256,192,106657,1,0,0:0:0:0:
256,192,106857,1,8,0:0:0:0:
256,192,107057,1,0,0:0:0:0:
256,192,107257,1,8,0:0:0:0:
256,192,107323,1,8,0:0:0:0:
256,192,107390,1,8,0:0:0:0:
256,192,107457,1,0,0:0:0:0:
256,192,107657,1,8,0:0:0:0:
256,192,107857,1,0,0:0:0:0:
256,192,108057,1,8,0:0:0:0:
256,192,108123,1,8,0:0:0:0:
256,192,108190,1,8,0:0:0:0:
256,192,108257,5,8,0:0:0:0:
256,192,108457,5,0,0:0:0:0:
256,192,108657,5,8,0:0:0:0:
256,192,108757,5,0,0:0:0:0:
256,192,108857,5,8,0:0:0:0:
256,192,108957,5,8,0:0:0:0:
256,192,109057,5,0,0:0:0:0:
256,192,109157,5,0,0:0:0:0:
256,192,109257,5,8,0:0:0:0:
256,192,109357,5,8,0:0:0:0:
256,192,109457,5,0,0:0:0:0:
256,192,109557,5,0,0:0:0:0:
256,192,109657,5,8,0:0:0:0:
256,192,109757,1,8,0:0:0:0:
256,192,109857,5,0,0:0:0:0:
256,192,109957,1,0,0:0:0:0:
256,192,110057,5,8,0:0:0:0:
256,192,110157,5,8,0:0:0:0:
256,192,110257,5,0,0:0:0:0:
256,192,110457,6,4,P|352:224|288:160,3,200
256,192,111257,6,4,P|215:266|160:192,2,160
256,192,112057,5,12,0:0:0:0:
256,192,112457,5,12,0:0:0:0:
256,192,112657,5,0,0:0:0:0:
256,192,112857,5,8,0:0:0:0:
256,192,113057,5,8,0:0:0:0:
256,192,113157,1,0,0:0:0:0:
256,192,113257,5,8,0:0:0:0:
256,192,113457,5,8,0:0:0:0:
256,192,113657,5,0,0:0:0:0:
256,192,113857,5,0,0:0:0:0:
256,192,113957,1,8,0:0:0:0:
256,192,114057,5,0,0:0:0:0:
256,192,114257,5,0,0:0:0:0:
256,192,114457,5,8,0:0:0:0:
256,192,114657,5,8,0:0:0:0:
256,192,114757,1,0,0:0:0:0:
256,192,114857,1,8,0:0:0:0:
256,192,115057,5,0,0:0:0:0:
256,192,115257,5,8,0:0:0:0:
256,192,115357,5,8,0:0:0:0:
256,192,115457,5,8,0:0:0:0:
256,192,115557,5,8,0:0:0:0:
256,192,115657,5,0,0:0:0:0:
256,192,116057,5,12,0:0:0:0:
256,192,116257,1,8,0:0:0:0:
256,192,116457,5,0,0:0:0:0:
256,192,116657,5,0,0:0:0:0:
256,192,116857,5,8,0:0:0:0:
256,192,116990,5,0,0:0:0:0:
256,192,117123,5,0,0:0:0:0:
256,192,117257,5,8,0:0:0:0:
256,192,117390,1,8,0:0:0:0:
256,192,117523,5,0,0:0:0:0:
256,192,117657,5,8,0:0:0:0:
256,192,117790,5,0,0:0:0:0:
256,192,117923,5,0,0:0:0:0:
256,192,118057,5,8,0:0:0:0:
256,192,118190,1,8,0:0:0:0:
256,192,118323,5,0,0:0:0:0:
256,192,118457,5,8,0:0:0:0:
256,192,118657,5,0,0:0:0:0:
256,192,118757,5,0,0:0:0:0:
256,192,118857,5,8,0:0:0:0:
256,192,119057,5,0,0:0:0:0:
256,192,119257,5,8,0:0:0:0:
256,192,119357,5,0,0:0:0:0:
256,192,119457,5,8,0:0:0:0:
256,192,119557,5,0,0:0:0:0:
256,192,119657,5,8,0:0:0:0:
256,192,119757,1,8,0:0:0:0:
256,192,119857,1,0,0:0:0:0:
256,192,119957,1,0,0:0:0:0:
256,192,120057,5,8,0:0:0:0:
256,192,120157,5,0,0:0:0:0:
256,192,120257,5,8,0:0:0:0:
256,192,120357,1,0,0:0:0:0:
256,192,120457,5,8,0:0:0:0:
256,192,120557,1,8,0:0:0:0:
256,192,120657,1,0,0:0:0:0:
256,192,120757,1,0,0:0:0:0:
256,192,120857,1,8,0:0:0:0:
256,192,120957,1,8,0:0:0:0:
256,192,121057,5,8,0:0:0:0:
256,192,121257,5,8,0:0:0:0:
256,192,121657,5,8,0:0:0:0:
256,192,121757,5,8,0:0:0:0:
256,192,121857,5,0,0:0:0:0:
256,192,121957,5,0,0:0:0:0:
256,192,122057,5,8,0:0:0:0:
256,192,122157,5,8,0:0:0:0:
256,192,122257,5,8,0:0:0:0:
256,192,122457,5,8,0:0:0:0:
256,192,122657,5,0,0:0:0:0:
256,192,122757,5,0,0:0:0:0:
256,192,122857,5,0,0:0:0:0:
256,192,123057,5,0,0:0:0:0:
256,192,123257,5,8,0:0:0:0:
256,192,123390,5,0,0:0:0:0:
256,192,123523,5,0,0:0:0:0:
256,192,123657,5,8,0:0:0:0:
256,192,123790,1,8,0:0:0:0:
256,192,123923,5,0,0:0:0:0:
256,192,124057,5,8,0:0:0:0:
256,192,124190,5,0,0:0:0:0:
256,192,124323,5,0,0:0:0:0:
256,192,124457,5,8,0:0:0:0:
256,192,124590,1,8,0:0:0:0:
256,192,124723,5,0,0:0:0:0:
256,192,124857,5,8,0:0:0:0:
256,192,125257,5,12,0:0:0:0:
256,192,125457,5,0,0:0:0:0:
256,192,125657,5,0,0:0:0:0:
256,192,125757,5,8,0:0:0:0:
256,192,126057,5,8,0:0:0:0:
256,192,126257,5,8,0:0:0:0:
256,192,126457,5,8,0:0:0:0:
256,192,126557,5,0,0:0:0:0:
256,192,126857,5,8,0:0:0:0:
256,192,127057,5,8,0:0:0:0:
256,192,127257,5,0,0:0:0:0:
256,192,127357,5,8,0:0:0:0:
256,192,127657,5,8,0:0:0:0:
256,192,127857,5,0,0:0:0:0:
256,192,128057,5,8,0:0:0:0:
256,192,128157,5,8,0:0:0:0:
256,192,128257,5,8,0:0:0:0:
256,192,128357,5,8,0:0:0:0:
256,192,128457,5,0,0:0:0:0:
256,192,128657,5,0,0:0:0:0:
256,192,128857,5,8,0:0:0:0:
256,192,128957,5,8,0:0:0:0:
256,192,129057,1,0,0:0:0:0:
256,192,129157,1,0,0:0:0:0:
256,192,129257,1,8,0:0:0:0:
256,192,129457,5,0,0:0:0:0:
256,192,129657,5,8,0:0:0:0:
256,192,129790,5,0,0:0:0:0:
256,192,129923,5,0,0:0:0:0:
256,192,130057,5,8,0:0:0:0:
256,192,130190,1,8,0:0:0:0:
256,192,130323,5,0,0:0:0:0:
256,192,130457,5,8,0:0:0:0:
256,192,130590,5,0,0:0:0:0:
256,192,130723,5,0,0:0:0:0:
256,192,130857,5,8,0:0:0:0:
256,192,130990,1,8,0:0:0:0:
256,192,131123,5,0,0:0:0:0:
256,192,131257,5,8,0:0:0:0:
256,192,131457,5,8,0:0:0:0:
256,192,131557,5,8,0:0:0:0:
256,192,131657,5,8,0:0:0:0:
256,192,132057,5,0,0:0:0:0:
256,192,132157,5,0,0:0:0:0:
256,192,132257,1,0,0:0:0:0:
256,192,132357,5,0,0:0:0:0:
256,192,132457,1,8,0:0:0:0:
256,192,132557,1,8,0:0:0:0:
256,192,132657,1,8,0:0:0:0:
256,192,132857,5,8,0:0:0:0:
256,192,132957,5,8,0:0:0:0:
256,192,133057,1,8,0:0:0:0:
256,192,133157,1,8,0:0:0:0:
256,192,133257,1,0,0:0:0:0:
256,192,133357,1,0,0:0:0:0:
256,192,133457,1,0,0:0:0:0:
256,192,133657,5,0,0:0:0:0:
256,192,133757,5,8,0:0:0:0:
256,192,133857,5,0,0:0:0:0:
256,192,134057,5,8,0:0:0:0:
256,192,134457,5,8,0:0:0:0:
256,192,134590,5,0,0:0:0:0:
256,192,134723,5,0,0:0:0:0:
256,192,134857,5,8,0:0:0:0:
256,192,134990,1,8,0:0:0:0:
256,192,135123,5,0,0:0:0:0:
256,192,135257,5,8,0:0:0:0:
256,192,135390,5,0,0:0:0:0:
256,192,135523,5,0,0:0:0:0:
256,192,135657,5,8,0:0:0:0:
256,192,135790,1,8,0:0:0:0:
256,192,135923,5,0,0:0:0:0:
256,192,136057,5,8,0:0:0:0:
256,192,136190,5,0,0:0:0:0:
256,192,136323,5,0,0:0:0:0:
256,192,136457,5,8,0:0:0:0:
256,192,136590,1,8,0:0:0:0:
256,192,136723,5,0,0:0:0:0:
256,192,136857,5,8,0:0:0:0:
256,192,136990,5,0,0:0:0:0:
256,192,137123,5,0,0:0:0:0:
256,192,137257,5,8,0:0:0:0:
256,192,137390,1,8,0:0:0:0:
256,192,137523,5,0,0:0:0:0:
256,192,137657,5,8,0:0:0:0:
256,192,140857,5,8,0:0:0:0:
256,192,142457,5,0,0:0:0:0:
256,192,144057,5,12,0:0:0:0:
256,192,147257,5,8,0:0:0:0:
256,192,148857,5,8,0:0:0:0:
256,192,150057,5,0,0:0:0:0:
256,192,150157,5,0,0:0:0:0:
256,192,150257,5,0,0:0:0:0:
256,192,150457,5,12,0:0:0:0:
256,192,152057,5,8,0:0:0:0:
256,192,152657,5,8,0:0:0:0:
256,192,152857,5,0,0:0:0:0:
256,192,153257,5,8,0:0:0:0:
256,192,153657,5,0,0:0:0:0:
256,192,155257,5,8,0:0:0:0:
256,192,155457,5,0,0:0:0:0:
256,192,155523,5,0,0:0:0:0:
256,192,155590,5,0,0:0:0:0:
256,192,155657,5,8,0:0:0:0:
256,192,156057,5,8,0:0:0:0:
256,192,156190,5,0,0:0:0:0:
256,192,156323,5,0,0:0:0:0:
256,192,156457,5,8,0:0:0:0:
256,192,156723,5,0,0:0:0:0:
256,192,156857,5,8,0:0:0:0:
256,192,156957,1,0,0:0:0:0:
256,192,157057,1,0,0:0:0:0:
256,192,157157,1,0,0:0:0:0:
256,192,157257,1,8,0:0:0:0:
256,192,157357,1,0,0:0:0:0:
256,192,157457,1,8,0:0:0:0:
256,192,157657,5,0,0:0:0:0:
256,192,157857,1,8,0:0:0:0:
256,192,157957,1,8,0:0:0:0:
256,192,158057,5,0,0:0:0:0:
256,192,158257,5,0,0:0:0:0:
256,192,158457,5,8,0:0:0:0:
256,192,158557,1,0,0:0:0:0:
256,192,158657,1,0,0:0:0:0:
256,192,158757,1,0,0:0:0:0:
256,192,158857,1,8,0:0:0:0:
256,192,158957,1,0,0:0:0:0:
256,192,159057,1,8,0:0:0:0:
256,192,159257,1,0,0:0:0:0:
256,192,159457,1,8,0:0:0:0:
256,192,159557,1,8,0:0:0:0:
256,192,159657,1,0,0:0:0:0:
256,192,159757,1,0,0:0:0:0:
256,192,159857,1,8,0:0:0:0:
256,192,159957,1,0,0:0:0:0:
256,192,160057,1,8,0:0:0:0:
256,192,160123,5,8,0:0:0:0:
256,192,160190,5,8,0:0:0:0:
256,192,160257,1,0,0:0:0:0:
256,192,160457,1,8,0:0:0:0:
256,192,160557,1,0,0:0:0:0:
256,192,160657,1,8,0:0:0:0:
256,192,160757,1,8,0:0:0:0:
256,192,160857,1,0,0:0:0:0:
256,192,160957,1,0,0:0:0:0:
256,192,161057,1,8,0:0:0:0:
256,192,161157,1,0,0:0:0:0:
256,192,161257,1,8,0:0:0:0:
256,192,161357,1,8,0:0:0:0:
256,192,161457,1,0,0:0:0:0:
256,192,161657,5,8,0:0:0:0:
256,192,161790,5,0,0:0:0:0:
256,192,161923,5,0,0:0:0:0:
256,192,162057,5,8,0:0:0:0:
256,192,162190,1,8,0:0:0:0:
256,192,162323,5,0,0:0:0:0:
256,192,162457,5,8,0:0:0:0:
256,192,162590,5,0,0:0:0:0:
256,192,162723,5,0,0:0:0:0:
256,192,162857,5,8,0:0:0:0:
256,192,162990,1,8,0:0:0:0:
256,192,163123,5,0,0:0:0:0:
256,192,163257,2,4,L|128:192,4,100
256,192,164057,5,12,0:0:0:0:
256,192,164257,5,0,0:0:0:0:
256,192,164357,1,0,0:0:0:0:
256,192,164457,5,8,0:0:0:0:
256,192,164657,5,8,0:0:0:0:
256,192,164857,5,0,0:0:0:0:
256,192,165057,5,8,0:0:0:0:
256,192,165157,1,0,0:0:0:0:
256,192,165257,1,8,0:0:0:0:
256,192,165457,5,0,0:0:0:0:
256,192,165657,5,0,0:0:0:0:
256,192,165757,1,8,0:0:0:0:
256,192,165857,5,8,0:0:0:0:
256,192,165957,1,0,0:0:0:0:
256,192,166057,1,8,0:0:0:0:
256,192,166257,1,0,0:0:0:0:
256,192,166457,5,8,0:0:0:0:
256,192,166657,5,8,0:0:0:0:
256,192,166857,5,8,0:0:0:0:
256,192,167057,5,8,0:0:0:0:
256,192,167257,5,0,0:0:0:0:
256,192,167357,5,0,0:0:0:0:
256,192,167457,5,8,0:0:0:0:
256,192,167557,5,0,0:0:0:0:
256,192,167657,5,8,0:0:0:0:
256,192,167857,5,8,0:0:0:0:
256,192,168057,5,0,0:0:0:0:
256,192,168157,1,8,0:0:0:0:
256,192,168257,5,0,0:0:0:0:
256,192,168357,5,0,0:0:0:0:
256,192,168457,5,8,0:0:0:0:
256,192,168657,5,0,0:0:0:0:
256,192,168857,5,8,0:0:0:0:
256,192,168957,5,0,0:0:0:0:
256,192,169157,5,0,0:0:0:0:
256,192,169257,5,8,0:0:0:0:
256,192,169457,5,0,0:0:0:0:
256,192,169523,5,0,0:0:0:0:
256,192,169590,1,0,0:0:0:0:
256,192,169657,5,8,0:0:0:0:
256,192,170457,5,12,0:0:0:0:
256,192,170657,5,0,0:0:0:0:
256,192,170857,5,8,0:0:0:0:
256,192,171057,5,8,0:0:0:0:
256,192,171257,5,0,0:0:0:0:
256,192,171357,1,0,0:0:0:0:
256,192,171457,1,0,0:0:0:0:
256,192,171657,5,8,0:0:0:0:
256,192,171857,5,8,0:0:0:0:
256,192,172057,5,8,0:0:0:0:
256,192,172157,5,8,0:0:0:0:
256,192,172257,5,0,0:0:0:0:
256,192,172357,5,0,0:0:0:0:
256,192,172457,5,0,0:0:0:0:
256,192,172857,5,8,0:0:0:0:
256,192,173057,5,0,0:0:0:0:
256,192,173257,5,8,0:0:0:0:
256,192,173357,5,8,0:0:0:0:
256,192,173457,5,0,0:0:0:0:
256,192,173557,5,0,0:0:0:0:
256,192,173657,5,8,0:0:0:0:
256,192,173857,5,0,0:0:0:0:
256,192,174057,5,8,0:0:0:0:
256,192,174157,5,0,0:0:0:0:
256,192,174257,5,8,0:0:0:0:
256,192,174457,5,0,0:0:0:0:
256,192,174657,5,8,0:0:0:0:
256,192,174757,1,8,0:0:0:0:
256,192,174857,1,0,0:0:0:0:
256,192,175057,5,0,0:0:0:0:
256,192,175157,5,0,0:0:0:0:
256,192,175257,5,8,0:0:0:0:
256,192,175457,5,0,0:0:0:0:
256,192,175557,5,8,0:0:0:0:
256,192,175657,5,8,0:0:0:0:
256,192,175857,5,0,0:0:0:0:
256,192,175957,5,8,0:0:0:0:
256,192,176057,5,0,0:0:0:0:
256,192,176857,5,12,0:0:0:0:
256,192,177057,5,0,0:0:0:0:
256,192,177157,1,0,0:0:0:0:
256,192,177257,5,8,0:0:0:0:
256,192,177457,5,8,0:0:0:0:
256,192,177657,5,0,0:0:0:0:
256,192,177857,5,8,0:0:0:0:
256,192,177957,1,8,0:0:0:0:
256,192,178057,5,0,0:0:0:0:
256,192,178257,1,8,0:0:0:0:
256,192,178457,1,8,0:0:0:0:
256,192,178657,5,0,0:0:0:0:
256,192,178757,5,0,0:0:0:0:
256,192,178857,5,8,0:0:0:0:
256,192,179057,5,0,0:0:0:0:
256,192,179257,5,8,0:0:0:0:
256,192,179357,5,8,0:0:0:0:
256,192,179457,5,0,0:0:0:0:
256,192,179557,5,0,0:0:0:0:
256,192,179657,5,8,0:0:0:0:
256,192,179857,5,0,0:0:0:0:
256,192,180057,5,8,0:0:0:0:
256,192,180157,5,8,0:0:0:0:
256,192,180257,5,0,0:0:0:0:
256,192,180457,5,8,0:0:0:0:
256,192,180557,5,0,0:0:0:0:
256,192,180657,5,8,0:0:0:0:
256,192,180757,5,8,0:0:0:0:
256,192,180857,5,0,0:0:0:0:
256,192,181057,5,0,0:0:0:0:
256,192,181257,5,12,0:0:0:0:
256,192,181457,5,0,0:0:0:0:
256,192,181557,5,0,0:0:0:0:
256,192,181657,5,8,0:0:0:0:
256,192,181757,1,8,0:0:0:0:
256,192,181857,1,0,0:0:0:0:
256,192,181957,5,0,0:0:0:0:
256,192,182057,5,8,0:0:0:0:
256,192,182157,5,8,0:0:0:0:
256,192,182257,5,0,0:0:0:0:
256,192,182457,5,0,0:0:0:0:
256,192,183257,5,12,0:0:0:0:
256,192,183457,5,0,0:0:0:0:
256,192,183657,5,8,0:0:0:0:
256,192,183857,5,8,0:0:0:0:
256,192,184057,5,0,0:0:0:0:
256,192,184157,1,0,0:0:0:0:
256,192,184257,1,0,0:0:0:0:
256,192,184457,5,8,0:0:0:0:
256,192,184657,5,8,0:0:0:0:
256,192,184857,5,8,0:0:0:0:
256,192,184957,5,8,0:0:0:0:
256,192,185057,5,0,0:0:0:0:
256,192,185157,5,0,0:0:0:0:
256,192,185257,5,0,0:0:0:0:
256,192,185657,5,8,0:0:0:0:
256,192,185757,5,8,0:0:0:0:
256,192,185857,5,8,0:0:0:0:
256,192,185957,5,8,0:0:0:0:
256,192,186057,5,0,0:0:0:0:
256,192,186257,5,0,0:0:0:0:
256,192,186457,5,8,0:0:0:0:
256,192,186557,5,8,0:0:0:0:
256,192,186657,5,0,0:0:0:0:
256,192,186857,5,8,0:0:0:0:
256,192,186957,5,8,0:0:0:0:
256,192,187057,5,8,0:0:0:0:
256,192,187157,5,8,0:0:0:0:
256,192,187257,5,0,0:0:0:0:
256,192,187457,5,0,0:0:0:0:
256,192,187557,1,8,0:0:0:0:
256,192,187657,5,0,0:0:0:0:
256,192,187757,1,8,0:0:0:0:
256,192,187857,5,0,0:0:0:0:
256,192,188057,5,8,0:0:0:0:
256,192,188157,5,0,0:0:0:0:
256,192,188357,5,0,0:0:0:0:
256,192,188457,5,8,0:0:0:0:
256,192,188657,5,0,0:0:0:0:
256,192,188857,5,8,0:0:0:0:
256,192,188990,5,0,0:0:0:0:
256,192,189123,5,0,0:0:0:0:
256,192,189257,5,8,0:0:0:0:
256,192,189390,1,8,0:0:0:0:
256,192,189523,5,0,0:0:0:0:
256,192,189657,5,8,0:0:0:0:
256,192,189790,5,0,0:0:0:0:
256,192,189923,5,0,0:0:0:0:
256,192,190057,5,8,0:0:0:0:
256,192,190190,1,8,0:0:0:0:
256,192,190323,5,0,0:0:0:0:
256,192,190457,5,8,0:0:0:0:
256,192,190590,5,0,0:0:0:0:
256,192,190723,5,0,0:0:0:0:
256,192,190857,5,8,0:0:0:0:
256,192,190990,1,8,0:0:0:0:
256,192,191123,5,0,0:0:0:0:
256,192,191257,5,8,0:0:0:0:
256,192,191390,5,0,0:0:0:0:
256,192,191523,5,0,0:0:0:0:
256,192,191657,5,8,0:0:0:0:
256,192,191790,1,8,0:0:0:0:
256,192,191923,5,0,0:0:0:0:
256,192,192057,5,12,0:0:0:0:
