osu file format v14

[General]
AudioFilename: audio.mp3
AudioLeadIn: 0
PreviewTime: -1
Countdown: 0
SampleSet: Normal
StackLeniency: 0.5
Mode: 0
LetterboxInBreaks: 0
WidescreenStoryboard: 1

[Editor]
Bookmarks: 27690
DistanceSpacing: 1
BeatDivisor: 4
GridSize: 16
TimelineZoom: 1

[Metadata]
Title:Beethoven - Virus (Teddy Remix)
TitleUnicode:Beethoven - Virus (Teddy Remix)
Artist:Teddy Unblessing
ArtistUnicode:Teddy Unblessing
Creator:LeCutie
Version:Osu! Name undecided
Source:
Tags:
BeatmapID:1448833
BeatmapSetID:682051

[Difficulty]
HPDrainRate:7
CircleSize:4
OverallDifficulty:7
ApproachRate:9.5
SliderMultiplier:1.99999990463257
SliderTickRate:1

[Events]
//Background and Video events
//Break Periods
//Storyboard Layer 0 (Background)
//Storyboard Layer 1 (Fail)
//Storyboard Layer 2 (Pass)
//Storyboard Layer 3 (Foreground)
//Storyboard Sound Samples

[TimingPoints]
90,342.857142857143,4,1,0,100,1,0

[HitObjects]
336,48,90,6,0,P|400:80|416:144,1,99.9999952316285
412,102,347,1,0,0:0:0:0:
412,102,433,1,0,0:0:0:0:
413,103,605,1,0,0:0:0:0:
256,192,775,12,0,2661,0:0:0:0:
176,336,2832,6,0,P|112:304|96:240,1,99.9999952316285
99,281,3089,1,0,0:0:0:0:
99,281,3175,1,0,0:0:0:0:
99,281,3347,1,0,0:0:0:0:
256,192,3518,12,0,5404,0:0:0:0:
336,336,5575,6,0,P|400:304|416:240,1,99.9999952316285
412,281,5832,1,0,0:0:0:0:
412,281,5918,1,0,0:0:0:0:
413,281,6090,1,0,0:0:0:0:
256,192,6261,12,0,8147,0:0:0:0:
176,48,8318,6,0,P|112:80|96:144,1,99.9999952316285
99,102,8575,1,0,0:0:0:0:
99,102,8661,1,0,0:0:0:0:
99,103,8833,1,0,0:0:0:0:
256,336,9347,1,0,0:0:0:0:
256,336,9690,1,0,0:0:0:0:
402,220,9861,1,0,0:0:0:0:
402,220,10032,1,0,0:0:0:0:
402,220,10204,1,0,0:0:0:0:
402,220,10375,1,0,0:0:0:0:
464,176,10547,1,0,0:0:0:0:
256,144,10718,1,0,0:0:0:0:
304,208,10890,1,0,0:0:0:0:
112,176,11061,1,0,0:0:0:0:
64,256,11575,1,0,0:0:0:0:
240,288,11747,1,0,0:0:0:0:
432,240,12261,1,0,0:0:0:0:
160,256,12433,1,0,0:0:0:0:
299,322,12947,1,0,0:0:0:0:
272,96,13118,2,0,L|281:180,1,49.9999976158143
208,336,13290,2,0,L|198:257,1,49.9999976158143
272,96,13461,2,0,L|281:180,1,49.9999976158143
208,336,13633,2,0,L|198:257,1,49.9999976158143
192,256,13804,2,0,L|96:304,1,99.9999952316285
384,192,14147,2,0,L|426:282,1,99.9999952316285
208,64,14490,2,0,P|224:160|224:192,1,99.9999952316285
304,336,14832,2,0,P|288:240|288:208,1,99.9999952316285
352,144,15175,1,0,0:0:0:0:
377,186,15260,1,0,0:0:0:0:
383,235,15346,1,0,0:0:0:0:
367,282,15432,1,0,0:0:0:0:
333,318,15517,1,0,0:0:0:0:
286,336,15603,1,0,0:0:0:0:
237,333,15689,1,0,0:0:0:0:
192,320,15775,2,0,P|128:272|80:176,1,149.999992847443
224,224,16204,2,0,P|160:176|112:80,1,149.999992847443
123,117,16547,1,0,0:0:0:0:
123,117,16632,1,0,0:0:0:0:
123,117,16718,1,0,0:0:0:0:
400,128,16890,2,0,B|384:176|384:176|400:240|400:240|368:336,1,199.999990463257
208,240,17404,1,0,0:0:0:0:
276,108,17575,2,0,B|287:139|287:139|276:181|276:181|297:244,2,99.9999952316285
384,176,18090,1,0,0:0:0:0:
284,203,18261,1,0,0:0:0:0:
176,144,18432,1,0,0:0:0:0:
160,224,18604,2,0,P|176:288|320:352,1,199.999990463257
368,304,19118,1,0,0:0:0:0:
288,224,19290,2,0,L|368:192,1,49.9999976158143
384,112,19461,2,0,L|337:130,1,49.9999976158143
96,208,19804,1,0,0:0:0:0:
176,144,19975,2,0,P|192:208|192:288,1,99.9999952316285
304,336,20318,1,0,0:0:0:0:
384,288,20490,1,0,0:0:0:0:
352,176,20661,1,0,0:0:0:0:
330,131,20746,1,0,0:0:0:0:
296,95,20832,1,0,0:0:0:0:
252,71,20918,1,0,0:0:0:0:
202,63,21003,1,0,0:0:0:0:
153,71,21089,1,0,0:0:0:0:
109,95,21175,1,0,0:0:0:0:
75,130,21261,1,0,0:0:0:0:
53,175,21346,1,0,0:0:0:0:
288,336,21518,1,0,0:0:0:0:
96,320,21690,1,0,0:0:0:0:
140,297,21775,1,0,0:0:0:0:
185,275,21861,1,0,0:0:0:0:
384,256,22032,2,0,P|311:198|279:86,1,199.999990463257
128,272,22547,1,0,0:0:0:0:
247,322,22718,2,0,P|327:290|439:322,1,199.999990463257
442,324,23232,1,0,0:0:0:0:
442,324,23404,1,0,0:0:0:0:
442,324,23490,1,0,0:0:0:0:
442,324,23575,1,0,0:0:0:0:
416,240,23747,1,0,0:0:0:0:
192,320,23918,1,0,0:0:0:0:
256,240,24090,1,0,0:0:0:0:
64,320,24261,1,0,0:0:0:0:
107,295,24346,1,0,0:0:0:0:
137,255,24432,1,0,0:0:0:0:
149,207,24518,1,0,0:0:0:0:
140,158,24603,1,0,0:0:0:0:
114,116,24689,1,0,0:0:0:0:
73,89,24775,1,0,0:0:0:0:
192,320,24947,1,0,0:0:0:0:
240,160,25118,1,0,0:0:0:0:
240,160,25204,1,0,0:0:0:0:
272,320,25461,1,0,0:0:0:0:
192,240,25632,1,0,0:0:0:0:
384,80,25804,1,0,0:0:0:0:
384,80,25890,1,0,0:0:0:0:
368,320,26147,2,0,P|272:288|176:320,1,199.999990463257
80,272,26661,1,0,0:0:0:0:
160,192,26832,1,0,0:0:0:0:
288,192,27175,1,0,0:0:0:0:
384,336,27347,1,0,0:0:0:0:
304,112,27518,1,0,0:0:0:0:
304,112,27604,1,0,0:0:0:0:
304,112,27690,1,0,0:0:0:0:
128,224,27861,1,0,0:0:0:0:
128,224,27947,1,0,0:0:0:0:
128,224,28033,1,0,0:0:0:0:
192,320,28204,1,0,0:0:0:0:
208,144,28375,1,0,0:0:0:0:
64,192,28547,1,0,0:0:0:0:
416,128,28718,1,0,0:0:0:0:
288,272,28890,1,0,0:0:0:0:
288,272,28975,1,0,0:0:0:0:
288,272,29061,1,0,0:0:0:0:
112,112,29232,1,0,0:0:0:0:
208,96,29404,1,0,0:0:0:0:
240,336,29575,1,0,0:0:0:0:
240,336,29661,1,0,0:0:0:0:
240,336,29747,1,0,0:0:0:0:
448,240,29918,2,0,L|384:336,1,99.9999952316285
416,144,30261,1,0,0:0:0:0:
388,185,30346,1,0,0:0:0:0:
360,227,30432,1,0,0:0:0:0:
272,320,30604,1,0,0:0:0:0:
245,278,30690,1,0,0:0:0:0:
217,236,30775,1,0,0:0:0:0:
176,336,30947,1,0,0:0:0:0:
176,336,31118,1,0,0:0:0:0:
117,145,31290,1,0,0:0:0:0:
117,145,31375,1,0,0:0:0:0:
117,145,31461,1,0,0:0:0:0:
80,256,31632,2,0,P|96:320|160:320,1,99.9999952316285
256,336,31975,1,0,0:0:0:0:
256,336,32147,1,0,0:0:0:0:
320,112,32318,1,0,0:0:0:0:
400,272,32490,1,0,0:0:0:0:
240,208,32661,1,0,0:0:0:0:
240,208,32832,2,0,P|320:254|309:277,1,99.9999952316285
240,288,33175,1,0,0:0:0:0:
240,288,33347,2,0,P|160:242|171:219,1,99.9999952316285
432,160,33690,2,0,P|399:124|352:134,1,99.9999952316285
320,336,34032,1,0,0:0:0:0:
326,286,34117,1,0,0:0:0:0:
312,239,34203,1,0,0:0:0:0:
280,201,34289,1,0,0:0:0:0:
235,179,34374,1,0,0:0:0:0:
96,240,34547,1,0,0:0:0:0:
192,288,34718,1,0,0:0:0:0:
96,240,34890,1,0,0:0:0:0:
112,336,35061,1,0,0:0:0:0:
176,96,35232,1,0,0:0:0:0:
240,336,35404,1,0,0:0:0:0:
288,192,35575,1,0,0:0:0:0:
360,238,35747,2,0,P|273:271|262:248,1,99.9999952316285
208,144,36090,2,0,P|294:110|305:133,1,99.9999952316285
288,192,36432,1,0,0:0:0:0:
192,320,36604,1,0,0:0:0:0:
143,311,36689,1,0,0:0:0:0:
101,284,36775,1,0,0:0:0:0:
73,242,36861,1,0,0:0:0:0:
64,194,36946,1,0,0:0:0:0:
304,256,37118,2,0,L|192:224,1,99.9999952316285
305,75,37461,1,0,0:0:0:0:
291,123,37546,1,0,0:0:0:0:
277,171,37632,1,0,0:0:0:0:
208,336,37804,1,0,0:0:0:0:
320,272,37975,1,0,0:0:0:0:
271,259,38060,1,0,0:0:0:0:
221,256,38146,1,0,0:0:0:0:
172,261,38232,1,0,0:0:0:0:
124,275,38317,1,0,0:0:0:0:
400,336,38490,2,0,P|448:272|448:256,1,99.9999952316285
224,336,38832,2,0,P|300:312|309:299,1,99.9999952316285
448,160,39175,2,0,P|432:128|304:192,1,199.999990463257
377,226,39690,1,0,0:0:0:0:
416,320,39861,1,0,0:0:0:0:
366,316,39946,1,0,0:0:0:0:
318,301,40032,1,0,0:0:0:0:
277,274,40118,1,0,0:0:0:0:
243,237,40203,1,0,0:0:0:0:
80,240,40375,2,0,L|144:208,1,49.9999976158143
176,112,40547,2,0,L|112:144,1,49.9999976158143
240,176,40718,2,0,L|336:128,1,99.9999952316285
329,131,41061,1,0,0:0:0:0:
432,256,41232,2,0,P|336:256|288:272,1,99.9999952316285
208,336,41575,2,0,P|112:336|64:320,1,99.9999952316285
108,335,41918,1,0,0:0:0:0:
192,144,42090,1,0,0:0:0:0:
256,256,42261,1,0,0:0:0:0:
128,256,42432,1,0,0:0:0:0:
288,336,42604,1,0,0:0:0:0:
432,304,42775,1,0,0:0:0:0:
304,288,42947,1,0,0:0:0:0:
208,320,43118,1,0,0:0:0:0:
80,304,43290,1,0,0:0:0:0:
176,96,43461,1,0,0:0:0:0:
224,240,43632,1,0,0:0:0:0:
400,192,43804,1,0,0:0:0:0:
336,272,43975,2,0,P|304:208|304:144,1,99.9999952316285
272,112,44318,1,0,0:0:0:0:
224,96,44403,1,0,0:0:0:0:
174,95,44489,1,0,0:0:0:0:
129,115,44575,1,0,0:0:0:0:
101,156,44660,1,0,0:0:0:0:
98,205,44746,1,0,0:0:0:0:
118,250,44832,1,0,0:0:0:0:
154,284,44917,1,0,0:0:0:0:
199,306,45003,1,0,0:0:0:0:
248,317,45089,1,0,0:0:0:0:
297,316,45175,1,0,0:0:0:0:
346,303,45260,1,0,0:0:0:0:
388,278,45346,1,0,0:0:0:0:
416,96,45432,2,0,P|368:64|336:64,7,49.9999976158143
240,128,46118,2,0,P|187:152|171:180,5,49.9999976158143
240,128,46632,2,0,P|368:176|432:304,1,249.999988079071
320,224,47232,1,0,0:0:0:0:
270,227,47317,1,0,0:0:0:0:
225,249,47403,1,0,0:0:0:0:
182,273,47489,1,0,0:0:0:0:
133,274,47574,1,0,0:0:0:0:
100,238,47660,1,0,0:0:0:0:
106,192,47746,1,0,0:0:0:0:
154,195,47831,1,0,0:0:0:0:
198,219,47917,1,0,0:0:0:0:
241,243,48003,1,0,0:0:0:0:
288,262,48089,1,0,0:0:0:0:
337,267,48174,1,0,0:0:0:0:
382,248,48260,1,0,0:0:0:0:
400,203,48346,1,0,0:0:0:0:
378,159,48431,1,0,0:0:0:0:
338,131,48517,1,0,0:0:0:0:
291,113,48603,1,0,0:0:0:0:
240,112,48690,2,0,P|208:112|208:128,4,49.9999976158143
206,261,49118,2,0,P|218:281|240:272,4,49.9999976158143
192,224,49547,2,0,P|112:208|32:240,1,149.999992847443
144,320,49975,1,0,0:0:0:0:
190,336,50060,1,0,0:0:0:0:
240,332,50146,1,0,0:0:0:0:
283,308,50232,1,0,0:0:0:0:
313,268,50317,1,0,0:0:0:0:
325,220,50403,1,0,0:0:0:0:
315,171,50489,1,0,0:0:0:0:
287,131,50574,1,0,0:0:0:0:
244,105,50660,1,0,0:0:0:0:
195,99,50746,1,0,0:0:0:0:
148,113,50832,1,0,0:0:0:0:
64,208,51004,2,0,P|128:224|176:192,1,99.9999952316285
192,192,51261,2,0,P|239:177|285:195,1,99.9999952316285
336,272,51518,2,0,P|383:286|429:268,1,99.9999952316285
384,192,51861,2,0,P|398:144|380:98,1,99.9999952316285
336,64,52118,2,0,P|256:64|144:192,1,249.999988079071
64,240,52718,1,0,0:0:0:0:
100,273,52803,1,0,0:0:0:0:
148,287,52889,1,0,0:0:0:0:
197,281,52975,1,0,0:0:0:0:
239,254,53060,1,0,0:0:0:0:
259,210,53146,1,0,0:0:0:0:
240,166,53232,1,0,0:0:0:0:
196,176,53317,1,0,0:0:0:0:
187,224,53403,1,0,0:0:0:0:
211,267,53489,1,0,0:0:0:0:
254,291,53575,1,0,0:0:0:0:
304,290,53660,1,0,0:0:0:0:
349,269,53746,1,0,0:0:0:0:
381,231,53832,1,0,0:0:0:0:
390,182,53917,1,0,0:0:0:0:
400,144,54004,2,0,L|411:79,11,49.9999976158143
256,192,55118,12,0,59918,0:0:0:0:
80,96,60090,5,0,0:0:0:0:
96,112,60261,1,0,0:0:0:0:
160,160,60432,2,0,P|256:144|352:96,1,199.999990463257
80,224,60947,1,0,0:0:0:0:
160,176,61118,2,0,P|256:160|352:112,1,199.999990463257
112,304,61632,1,0,0:0:0:0:
160,208,61804,2,0,P|256:192|352:144,1,199.999990463257
224,96,62318,1,0,0:0:0:0:
288,352,62490,1,0,0:0:0:0:
336,343,62575,1,0,0:0:0:0:
373,310,62661,1,0,0:0:0:0:
387,263,62747,1,0,0:0:0:0:
374,215,62832,1,0,0:0:0:0:
338,182,62918,1,0,0:0:0:0:
290,172,63004,1,0,0:0:0:0:
244,190,63089,1,0,0:0:0:0:
64,320,63175,2,0,P|128:336|192:304,1,99.9999952316285
211,148,63518,1,0,0:0:0:0:
256,256,63690,2,0,P|192:240|128:272,1,99.9999952316285
272,327,64032,2,0,P|321:336|368:320,1,99.9999952316285
400,240,64375,2,0,B|416:176|416:176|416:96,1,99.9999952316285
416,96,64632,1,0,0:0:0:0:
373,70,64717,1,0,0:0:0:0:
324,60,64803,1,0,0:0:0:0:
275,65,64889,1,0,0:0:0:0:
229,85,64974,1,0,0:0:0:0:
193,119,65060,1,0,0:0:0:0:
169,163,65146,1,0,0:0:0:0:
159,212,65231,1,0,0:0:0:0:
160,256,65318,1,0,0:0:0:0:
190,294,65403,1,0,0:0:0:0:
235,317,65489,1,0,0:0:0:0:
284,319,65575,1,0,0:0:0:0:
330,300,65660,1,0,0:0:0:0:
364,264,65746,1,0,0:0:0:0:
256,240,65918,2,0,P|288:192|304:128,1,99.9999952316285
368,176,66261,2,0,P|400:128|416:64,1,99.9999952316285
416,64,66604,1,0,0:0:0:0:
448,208,66775,1,0,0:0:0:0:
436,256,66860,1,0,0:0:0:0:
407,296,66946,1,0,0:0:0:0:
365,323,67032,1,0,0:0:0:0:
316,331,67117,1,0,0:0:0:0:
267,320,67203,1,0,0:0:0:0:
224,304,67290,2,0,P|128:304|32:320,1,149.999992847443
74,310,67632,1,0,0:0:0:0:
74,310,67718,1,0,0:0:0:0:
74,310,67804,1,0,0:0:0:0:
160,48,67975,2,0,B|128:112|128:112|128:176|128:176|80:256,1,199.999990463257
240,304,68490,1,0,0:0:0:0:
224,128,68661,1,0,0:0:0:0:
224,128,68747,1,0,0:0:0:0:
224,128,68832,1,0,0:0:0:0:
320,176,69004,1,0,0:0:0:0:
366,192,69089,1,0,0:0:0:0:
414,180,69175,1,0,0:0:0:0:
320,272,69347,2,0,P|240:272|176:288,1,99.9999952316285
170,275,69690,2,0,P|90:275|26:259,1,99.9999952316285
70,271,70032,1,0,0:0:0:0:
