osu file format v14

[General]
AudioFilename: audio.mp3
AudioLeadIn: 0
PreviewTime: 40746
Countdown: 0
SampleSet: None
StackLeniency: 0.3
Mode: 0
LetterboxInBreaks: 0
WidescreenStoryboard: 1

[Editor]
Bookmarks: 4809,22809,40809,58809,73434,76809,94809,112809,130809,148809
DistanceSpacing: 1
BeatDivisor: 1
GridSize: 4
TimelineZoom: 2.6

[Metadata]
Title:Lose Control
TitleUnicode:Lose Control
Artist:Teddy Swims
ArtistUnicode:Teddy Swims
Creator:xWazz
Version:Easy
Source:
Tags:pop soul english ive i've tried everything but therapy part 1 male vocals vocalist warner records
BeatmapID:4560668
BeatmapSetID:2157645

[Difficulty]
HPDrainRate:3
CircleSize:3
OverallDifficulty:3
ApproachRate:4
SliderMultiplier:0.999999999999999
SliderTickRate:1

[Events]
//Background and Video events
0,0,"Teddy_Swims_Press_Photo_Credit_Aaron_Marsh.jpg",0,0
//Break Periods
//Storyboard Layer 0 (Background)
//Storyboard Layer 1 (Fail)
//Storyboard Layer 2 (Pass)
//Storyboard Layer 3 (Foreground)
//Storyboard Layer 4 (Overlay)
//Storyboard Sound Samples

[TimingPoints]
309,375,3,2,1,50,1,0
309,-100,3,2,1,50,0,0
4809,-100,3,2,1,60,0,0
5121,-100,3,2,1,5,0,0
5184,-100,3,2,1,60,0,0
5496,-100,3,2,1,5,0,0
5559,-100,3,2,1,60,0,0
5809,-100,3,2,1,5,0,0
5934,-100,3,2,1,60,0,0
7059,-100,3,2,1,60,0,0
7371,-100,3,2,1,5,0,0
7434,-100,3,2,1,60,0,0
7746,-100,3,2,1,5,0,0
7809,-100,3,2,1,60,0,0
8059,-100,3,2,1,5,0,0
8184,-100,3,2,1,60,0,0
8871,-100,3,2,1,5,0,0
8934,-100,3,2,1,60,0,0
9184,-100,3,2,1,5,0,0
9309,-100,3,2,1,60,0,0
9621,-100,3,2,1,5,0,0
9684,-100,3,2,1,60,0,0
9996,-100,3,2,1,5,0,0
10059,-100,3,2,1,60,0,0
10309,-100,3,2,1,5,0,0
10434,-100,3,2,1,60,0,0
10746,-100,3,2,1,5,0,0
10809,-100,3,2,1,60,0,0
11121,-100,3,2,1,5,0,0
11184,-100,3,2,1,60,0,0
11559,-100,3,2,1,60,0,0
13809,-100,3,2,1,60,0,0
14121,-100,3,2,1,5,0,0
14184,-100,3,2,1,60,0,0
14496,-100,3,2,1,5,0,0
14559,-100,3,2,1,60,0,0
14809,-100,3,2,1,5,0,0
14934,-100,3,2,1,60,0,0
16371,-100,3,2,1,5,0,0
16434,-100,3,2,1,60,0,0
16746,-100,3,2,1,5,0,0
16809,-100,3,2,1,60,0,0
17184,-100,3,2,1,60,0,0
18309,-100,3,2,1,60,0,0
18621,-100,3,2,1,5,0,0
18684,-100,3,2,1,60,0,0
18996,-100,3,2,1,5,0,0
19059,-100,3,2,1,60,0,0
19309,-100,3,2,1,5,0,0
19434,-100,3,2,1,60,0,0
19746,-100,3,2,1,5,0,0
19809,-100,3,2,1,60,0,0
20121,-100,3,2,1,5,0,0
20184,-100,3,2,1,60,0,0
20559,-100,3,2,1,60,0,0
20871,-100,3,2,1,5,0,0
20934,-100,3,2,1,65,0,0
21309,-100,3,2,1,70,0,0
21684,-100,3,2,1,75,0,0
22059,-100,3,2,1,80,0,0
22434,-100,3,2,1,85,0,0
22809,-100,3,2,1,60,0,0
23059,-100,3,2,1,5,0,0
23184,-100,3,2,1,60,0,0
23809,-100,3,2,1,5,0,0
23934,-100,3,2,1,60,0,0
24934,-100,3,2,1,5,0,0
25059,-100,3,2,1,60,0,0
25371,-100,3,2,1,5,0,0
25434,-100,3,2,1,60,0,0
25746,-100,3,2,1,5,0,0
25809,-100,3,2,1,60,0,0
26059,-100,3,2,1,5,0,0
26184,-100,3,2,1,60,0,0
27621,-100,3,2,1,5,0,0
27684,-100,3,2,1,60,0,0
27996,-100,3,2,1,5,0,0
28059,-100,3,2,1,60,0,0
28309,-100,3,2,1,5,0,0
28434,-100,3,2,1,60,0,0
28746,-100,3,2,1,5,0,0
28809,-100,3,2,1,60,0,0
29121,-100,3,2,1,5,0,0
29184,-100,3,2,1,60,0,0
31371,-100,3,2,1,5,0,0
31434,-100,3,2,1,60,0,0
32496,-100,3,2,1,5,0,0
32559,-100,3,2,1,60,0,0
33246,-100,3,2,1,5,0,0
33309,-100,3,2,1,60,0,0
33621,-100,3,2,1,5,0,0
33684,-100,3,2,1,60,0,0
34371,-100,3,2,1,5,0,0
34434,-100,3,2,1,60,0,0
34746,-100,3,2,1,5,0,0
34809,-100,3,2,1,60,0,0
35059,-100,3,2,1,5,0,0
35184,-100,3,2,1,60,0,0
35496,-100,3,2,1,5,0,0
35559,-100,3,2,1,60,0,0
35871,-100,3,2,1,5,0,0
35934,-100,3,2,1,60,0,0
36309,-100,3,2,1,60,0,0
36621,-100,3,2,1,5,0,0
36684,-100,3,2,1,60,0,0
36996,-100,3,2,1,5,0,0
37059,-100,3,2,1,60,0,0
37309,-100,3,2,1,5,0,0
37434,-100,3,2,1,60,0,0
37746,-100,3,2,1,5,0,0
37809,-100,3,2,1,60,0,0
38121,-100,3,2,1,5,0,0
38184,-100,3,2,1,60,0,0
38559,-100,3,2,1,60,0,0
38871,-100,3,2,1,5,0,0
38934,-100,3,2,1,65,0,0
39309,-100,3,2,1,70,0,0
39684,-100,3,2,1,75,0,0
40059,-100,3,2,1,80,0,0
40434,-100,3,2,1,85,0,0
40809,-100,3,2,1,85,0,1
41059,-100,3,2,1,5,0,1
41184,-100,3,2,1,85,0,1
41496,-100,3,2,1,5,0,1
41559,-100,3,2,1,85,0,1
41809,-100,3,2,1,5,0,1
41934,-100,3,2,1,85,0,1
43371,-100,3,2,1,5,0,1
43434,-100,3,2,1,85,0,1
43746,-100,3,2,1,5,0,1
43809,-100,3,2,1,85,0,1
44059,-100,3,2,1,5,0,1
44184,-100,3,2,1,85,0,1
45309,-100,3,2,1,85,0,1
45621,-100,3,2,1,5,0,1
45684,-100,3,2,1,85,0,1
45809,-100,3,2,1,5,0,1
45934,-100,3,2,1,85,0,1
47559,-100,3,2,1,85,0,1
47871,-100,3,2,1,5,0,1
47934,-100,3,2,1,85,0,1
48246,-100,3,2,1,5,0,1
48309,-100,3,2,1,85,0,1
48996,-100,3,2,1,5,0,1
49059,-100,3,2,1,85,0,1
49371,-100,3,2,1,5,0,1
49434,-100,3,2,1,85,0,1
49809,-100,3,2,1,85,0,1
50121,-100,3,2,1,5,0,1
50184,-100,3,2,1,85,0,1
50496,-100,3,2,1,5,0,1
50559,-100,3,2,1,85,0,1
50809,-100,3,2,1,5,0,1
50934,-100,3,2,1,85,0,1
51246,-100,3,2,1,5,0,1
51309,-100,3,2,1,85,0,1
51621,-100,3,2,1,5,0,1
51684,-100,3,2,1,85,0,1
51934,-100,3,2,1,5,0,1
52059,-100,3,2,1,85,0,1
52371,-100,3,2,1,5,0,1
52434,-100,3,2,1,85,0,1
52746,-100,3,2,1,5,0,1
52809,-100,3,2,1,85,0,1
53496,-100,3,2,1,5,0,1
53559,-100,3,2,1,85,0,1
53871,-100,3,2,1,5,0,1
53934,-100,3,2,1,85,0,1
54309,-100,3,2,1,85,0,1
54559,-100,3,2,1,5,0,1
54684,-100,3,2,1,85,0,1
54934,-100,3,2,1,5,0,1
55059,-100,3,2,1,85,0,1
55309,-100,3,2,1,5,0,1
55434,-100,3,2,1,85,0,1
55684,-100,3,2,1,5,0,1
55809,-100,3,2,1,85,0,1
56059,-100,3,2,1,5,0,1
56184,-100,3,2,1,85,0,1
56434,-100,3,2,1,5,0,1
56559,-100,3,2,1,85,0,1
56809,-100,3,2,1,5,0,1
56934,-100,3,2,1,85,0,1
57184,-100,3,2,1,5,0,1
57309,-100,3,2,1,85,0,1
57559,-100,3,2,1,5,0,1
57684,-100,3,2,1,85,0,1
57934,-100,3,2,1,5,0,1
58059,-100,3,2,1,85,0,1
58309,-100,3,2,1,5,0,1
58434,-100,3,2,1,85,0,1
58684,-100,3,2,1,5,0,0
58809,-100,3,2,1,85,0,1
59059,-100,3,2,1,5,0,1
59184,-100,3,2,1,85,0,1
59434,-100,3,2,1,5,0,1
59559,-100,3,2,1,85,0,1
59934,-100,3,2,1,85,0,1
61059,-100,3,2,1,85,0,1
61371,-100,3,2,1,5,0,1
61434,-100,3,2,1,85,0,1
61746,-100,3,2,1,5,0,1
61809,-100,3,2,1,85,0,1
62184,-100,3,2,1,85,0,1
63309,-100,3,2,1,85,0,1
63621,-100,3,2,1,5,0,1
63684,-100,3,2,1,85,0,1
63809,-100,3,2,1,5,0,1
63934,-100,3,2,1,85,0,1
64434,-100,3,2,1,85,0,1
65559,-100,3,2,1,85,0,1
65871,-100,3,2,1,5,0,1
65934,-100,3,2,1,85,0,1
66246,-100,3,2,1,5,0,1
66309,-100,3,2,1,85,0,1
66996,-100,3,2,1,5,0,1
67059,-100,3,2,1,85,0,1
67371,-100,3,2,1,5,0,1
67434,-100,3,2,1,85,0,1
67809,-100,3,2,1,85,0,1
68121,-100,3,2,1,5,0,1
68184,-100,3,2,1,85,0,1
68496,-100,3,2,1,5,0,1
68559,-100,3,2,1,85,0,1
68934,-100,3,2,1,85,0,1
69246,-100,3,2,1,5,0,1
69309,-100,3,2,1,85,0,1
69621,-100,3,2,1,5,0,1
69684,-100,3,2,1,85,0,1
69934,-100,3,2,1,5,0,1
70059,-100,3,2,1,85,0,1
70371,-100,3,2,1,5,0,1
70434,-100,3,2,1,85,0,1
70746,-100,3,2,1,5,0,1
70809,-100,3,2,1,85,0,1
71059,-100,3,2,1,5,0,1
71184,-100,3,2,1,85,0,1
71496,-100,3,2,1,5,0,1
71559,-100,3,2,1,85,0,1
71809,-100,3,2,1,5,0,1
71934,-100,3,2,1,85,0,1
72309,-100,3,2,1,85,0,1
72559,-100,3,2,1,5,0,1
72684,-100,3,2,1,85,0,1
72934,-100,3,2,1,5,0,1
73059,-100,3,2,1,85,0,1
73309,-100,3,2,1,5,0,1
73434,-100,3,2,1,85,0,1
73684,-100,3,2,1,5,0,1
73809,-100,3,2,1,85,0,1
74059,-100,3,2,1,5,0,1
74184,-100,3,2,1,85,0,1
74434,-100,3,2,1,5,0,1
74559,-100,3,2,1,85,0,1
74809,-100,3,2,1,5,0,1
74934,-100,3,2,1,85,0,1
75184,-100,3,2,1,5,0,1
75309,-100,3,2,1,85,0,1
75559,-100,3,2,1,5,0,1
75684,-100,3,2,1,85,0,1
75934,-100,3,2,1,5,0,1
76059,-100,3,2,1,85,0,1
76309,-100,3,2,1,5,0,1
76434,-100,3,2,1,85,0,1
76809,-100,3,2,1,70,0,0
79371,-100,3,2,1,5,0,0
79434,-100,3,2,1,70,0,0
79746,-100,3,2,1,5,0,0
79809,-100,3,2,1,70,0,0
80184,-100,3,2,1,70,0,0
83871,-100,3,2,1,5,0,0
83934,-100,3,2,1,70,0,0
84184,-100,3,2,1,5,0,0
84309,-100,3,2,1,70,0,0
84934,-100,3,2,1,5,0,0
85059,-100,3,2,1,70,0,0
86121,-100,3,2,1,10,0,0
86184,-100,3,2,1,70,0,0
88371,-100,3,2,1,5,0,0
88434,-100,3,2,1,70,0,0
88746,-100,3,2,1,5,0,0
88809,-100,3,2,1,70,0,0
90621,-100,3,2,1,5,0,0
90684,-100,3,2,1,70,0,0
91684,-100,3,2,1,5,0,0
91809,-100,3,2,1,70,0,0
92559,-100,3,2,1,70,0,0
92809,-100,3,2,1,5,0,0
92934,-100,3,2,1,70,0,0
93996,-100,3,2,1,5,0,0
94059,-100,3,2,1,70,0,0
94371,-100,3,2,1,5,0,0
94434,-100,3,2,1,70,0,0
95184,-100,3,2,1,5,0,0
95934,-100,3,2,1,70,0,0
97371,-100,3,2,1,5,0,0
97434,-100,3,2,1,70,0,0
97746,-100,3,2,1,5,0,0
97809,-100,3,2,1,70,0,0
99621,-100,3,2,1,5,0,0
99684,-100,3,2,1,70,0,0
99934,-100,3,2,1,5,0,0
100059,-100,3,2,1,70,0,0
101871,-100,3,2,1,5,0,0
101934,-100,3,2,1,70,0,0
102246,-100,3,2,1,5,0,0
102309,-100,3,2,1,70,0,0
102996,-100,3,2,1,5,0,0
103059,-100,3,2,1,70,0,0
103371,-100,3,2,1,5,0,0
103434,-100,3,2,1,70,0,0
104809,-100,3,2,1,5,0,0
104934,-100,3,2,1,70,0,0
105246,-100,3,2,1,5,0,0
105309,-100,3,2,1,70,0,0
105621,-100,3,2,1,5,0,0
105684,-100,3,2,1,70,0,0
106746,-100,3,2,1,5,0,0
106809,-100,3,2,1,70,0,0
107184,-100,3,2,1,70,0,0
107496,-100,3,2,1,5,0,0
107559,-100,3,2,1,70,0,0
107871,-100,3,2,1,5,0,0
107934,-100,3,2,1,70,0,0
108309,-100,3,2,1,70,0,0
108559,-100,3,2,1,5,0,0
108684,-100,3,2,1,70,0,0
108934,-100,3,2,1,5,0,0
109059,-100,3,2,1,70,0,0
109309,-100,3,2,1,5,0,0
109434,-100,3,2,1,70,0,0
109684,-100,3,2,1,5,0,0
109809,-100,3,2,1,70,0,0
110059,-100,3,2,1,5,0,0
110184,-100,3,2,1,70,0,0
110434,-100,3,2,1,5,0,0
110559,-100,3,2,1,70,0,0
110809,-100,3,2,1,5,0,0
110934,-100,3,2,1,70,0,0
111184,-100,3,2,1,5,0,0
111309,-100,3,2,1,70,0,0
111559,-100,3,2,1,5,0,0
111684,-100,3,2,1,70,0,0
111934,-100,3,2,1,5,0,0
112059,-100,3,2,1,70,0,0
112309,-100,3,2,1,5,0,0
112434,-100,3,2,1,70,0,0
112809,-100,3,2,1,85,0,0
113184,-100,3,2,1,5,0,0
113559,-100,3,2,1,85,0,0
117309,-100,3,2,1,85,0,0
117934,-100,3,2,1,85,0,0
119559,-100,3,2,1,85,0,0
120996,-100,3,2,1,5,0,0
121059,-100,3,2,1,85,0,0
121371,-100,3,2,1,5,0,0
121434,-100,3,2,1,85,0,0
126309,-100,3,2,1,85,0,0
126684,-100,3,2,1,85,0,0
127059,-100,3,2,1,85,0,0
127434,-100,3,2,1,85,0,0
127684,-100,3,2,1,5,0,0
127809,-100,3,2,1,85,0,0
128184,-100,3,2,1,85,0,0
128559,-100,3,2,1,85,0,0
128809,-100,3,2,1,5,0,0
128934,-100,3,2,1,85,0,0
129184,-100,3,2,1,5,0,0
129309,-100,3,2,1,85,0,0
129684,-100,3,2,1,85,0,0
129934,-100,3,2,1,5,0,0
130059,-100,3,2,1,85,0,0
130309,-100,3,2,1,5,0,0
130434,-100,3,2,1,85,0,0
130809,-100,3,2,1,85,0,1
131059,-100,3,2,1,5,0,1
131184,-100,3,2,1,85,0,1
131434,-100,3,2,1,5,0,1
131559,-100,3,2,1,85,0,1
131934,-100,3,2,1,85,0,1
133059,-100,3,2,1,85,0,1
133371,-100,3,2,1,5,0,1
133434,-100,3,2,1,85,0,1
133746,-100,3,2,1,5,0,1
133809,-100,3,2,1,85,0,1
135309,-100,3,2,1,85,0,1
135621,-100,3,2,1,5,0,1
135684,-100,3,2,1,85,0,1
135809,-100,3,2,1,5,0,1
135934,-100,3,2,1,85,0,1
137559,-100,3,2,1,85,0,1
137871,-100,3,2,1,5,0,1
137934,-100,3,2,1,85,0,1
138246,-100,3,2,1,5,0,1
138309,-100,3,2,1,85,0,1
138996,-100,3,2,1,5,0,1
139059,-100,3,2,1,85,0,1
139371,-100,3,2,1,5,0,1
139434,-100,3,2,1,85,0,1
140121,-100,3,2,1,5,0,1
140184,-100,3,2,1,85,0,1
140496,-100,3,2,1,5,0,1
140559,-100,3,2,1,85,0,1
141246,-100,3,2,1,5,0,1
141309,-100,3,2,1,85,0,1
141621,-100,3,2,1,5,0,1
141684,-100,3,2,1,85,0,1
141934,-100,3,2,1,5,0,1
142059,-100,3,2,1,85,0,1
142371,-100,3,2,1,5,0,1
142434,-100,3,2,1,85,0,1
142746,-100,3,2,1,5,0,1
142809,-100,3,2,1,85,0,1
143496,-100,3,2,1,5,0,1
143559,-100,3,2,1,85,0,1
143871,-100,3,2,1,5,0,1
143934,-100,3,2,1,85,0,1
144309,-100,3,2,1,85,0,1
144559,-100,3,2,1,5,0,1
144684,-100,3,2,1,85,0,1
145059,-100,3,2,1,85,0,1
145309,-100,3,2,1,5,0,1
145434,-100,3,2,1,85,0,1
145684,-100,3,2,1,5,0,1
145809,-100,3,2,1,85,0,1
146184,-100,3,2,1,85,0,1
146559,-100,3,2,1,85,0,1
146809,-100,3,2,1,5,0,1
146934,-100,3,2,1,85,0,1
147184,-100,3,2,1,5,0,1
147309,-100,3,2,1,85,0,1
147559,-100,3,2,1,5,0,1
147684,-100,3,2,1,85,0,1
147934,-100,3,2,1,5,0,1
148059,-100,3,2,1,85,0,1
148309,-100,3,2,1,5,0,1
148434,-100,3,2,1,85,0,1
148684,-100,3,2,1,5,0,1
148809,-100,3,2,1,85,0,1
149809,-100,3,2,1,5,0,1
149934,-100,3,2,1,85,0,1
151059,-100,3,2,1,85,0,1
152059,-100,3,2,1,5,0,1
152184,-100,3,2,1,85,0,1
152934,-100,3,2,1,85,0,1
153184,-100,3,2,1,5,0,1
153309,-100,3,2,1,85,0,1
154309,-100,3,2,1,5,0,1
154434,-100,3,2,1,85,0,1
154684,-100,3,2,1,5,0,1
154809,-100,3,2,1,85,0,1
155059,-100,3,2,1,5,0,1
155184,-100,3,2,1,85,0,1
155434,-100,3,2,1,5,0,1
155559,-100,3,2,1,85,0,1
156934,-100,3,2,1,5,0,1
157059,-100,3,2,1,85,0,1
157309,-100,3,2,1,5,0,1
157434,-100,3,2,1,85,0,1
157746,-100,3,2,1,5,0,1
157809,-100,3,2,1,85,0,1
159184,-100,3,2,1,5,0,1
159309,-100,3,2,1,85,0,1
159559,-100,3,2,1,5,0,1
159684,-100,3,2,1,85,0,1
159996,-100,3,2,1,5,0,1
160059,-100,3,2,1,85,0,1
161184,-100,3,2,1,85,0,1
161496,-100,3,2,1,5,0,1
161559,-100,3,2,1,85,0,1
162309,-100,3,2,1,85,0,1
162559,-100,3,2,1,5,0,1
162684,-100,3,2,1,85,0,1
163434,-100,3,2,1,85,0,1
163684,-100,3,2,1,5,0,1
163809,-100,3,2,1,85,0,1
164559,-100,3,2,1,85,0,1
164809,-100,3,2,1,5,0,1
164934,-100,3,2,1,85,0,1
165184,-100,3,2,1,5,0,1
165309,-100,3,2,1,85,0,1
165684,-100,3,2,1,85,0,1
166809,-100,3,2,1,50,0,0
168309,-100,3,2,1,5,0,0
169059,-100,3,2,1,50,0,0
169434,-100,3,2,1,5,0,0
170184,-100,3,2,1,50,0,0
170934,-100,3,2,1,5,0,0
171309,-100,3,2,1,50,0,0
172309,-100,3,2,1,5,0,0
172434,-100,3,2,1,50,0,0
173059,-100,3,2,1,5,0,0
173184,-100,3,2,1,50,0,0
173434,-100,3,2,1,5,0,0
173559,-100,3,2,1,50,0,0
180309,-100,3,2,1,55,0,0
180684,-100,3,2,1,55,0,0
181059,-100,3,2,1,60,0,0
181434,-100,3,2,1,60,0,0
181684,-100,3,2,1,5,0,0
181809,-100,3,2,1,65,0,0
182184,-100,3,2,1,65,0,0
182559,-100,3,2,1,70,0,0
182809,-100,3,2,1,5,0,0
182934,-100,3,2,1,75,0,0
183184,-100,3,2,1,5,0,0
183309,-100,3,2,1,80,0,0
183934,-100,3,2,1,5,0,0
184059,-100,3,2,1,80,0,0
184309,-100,3,2,1,5,0,0
184434,-100,3,2,1,80,0,0
184684,-100,3,2,1,5,0,0
184809,-100,3,2,1,85,0,1
185059,-100,3,2,1,5,0,1
185184,-100,3,2,1,85,0,1
185434,-100,3,2,1,5,0,1
185559,-100,3,2,1,85,0,1
185934,-100,3,2,1,85,0,1
186246,-100,3,2,1,5,0,1
186309,-100,3,2,1,85,0,1
186621,-100,3,2,1,5,0,1
186684,-100,3,2,1,85,0,1
187371,-100,3,2,1,5,0,1
187434,-100,3,2,1,85,0,1
187684,-100,3,2,1,5,0,1
187809,-100,3,2,1,85,0,1
189309,-100,3,2,1,85,0,1
189559,-100,3,2,1,5,0,1
189684,-100,3,2,1,85,0,1
189809,-100,3,2,1,5,0,1
189934,-100,3,2,1,85,0,1
191559,-100,3,2,1,85,0,1
191871,-100,3,2,1,5,0,1
191934,-100,3,2,1,85,0,1
192246,-100,3,2,1,5,0,1
192309,-100,3,2,1,85,0,1
192684,-100,3,2,1,85,0,1
192996,-100,3,2,1,5,0,1
193059,-100,3,2,1,85,0,1
193371,-100,3,2,1,5,0,1
193434,-100,3,2,1,85,0,1
194121,-100,3,2,1,5,0,1
194184,-100,3,2,1,85,0,1
194496,-100,3,2,1,5,0,1
194559,-100,3,2,1,85,0,1
195246,-100,3,2,1,5,0,1
195309,-100,3,2,1,85,0,1
195621,-100,3,2,1,5,0,1
195684,-100,3,2,1,85,0,1
195934,-100,3,2,1,5,0,1
196059,-100,3,2,1,85,0,1
196371,-100,3,2,1,5,0,1
196434,-100,3,2,1,85,0,1
196746,-100,3,2,1,5,0,1
196809,-100,3,2,1,85,0,1
197059,-100,3,2,1,5,0,1
197184,-100,3,2,1,85,0,1
197496,-100,3,2,1,5,0,1
197559,-100,3,2,1,85,0,1
197871,-100,3,2,1,5,0,1
197934,-100,3,2,1,85,0,1
198309,-100,3,2,1,85,0,1
198559,-100,3,2,1,5,0,1
198684,-100,3,2,1,85,0,1
199059,-100,3,2,1,85,0,1
199309,-100,3,2,1,5,0,1
199434,-100,3,2,1,85,0,1
199684,-100,3,2,1,5,0,1
199809,-100,3,2,1,85,0,1
200184,-100,3,2,1,85,0,1
200559,-100,3,2,1,85,0,1
200809,-100,3,2,1,5,0,1
200934,-100,3,2,1,85,0,1
201184,-100,3,2,1,5,0,1
201309,-100,3,2,1,85,0,1
201559,-100,3,2,1,5,0,1
201684,-100,3,2,1,85,0,1
201934,-100,3,2,1,5,0,1
202059,-100,3,2,1,85,0,1
202309,-100,3,2,1,5,0,1
202434,-100,3,2,1,85,0,1
202684,-100,3,2,1,5,0,1
202809,-100,3,2,1,45,0,0

[Colours]
Combo1 : 255,255,255
Combo2 : 128,0,0
Combo3 : 255,128,0
Combo4 : 255,166,0
Combo5 : 239,232,201

[HitObjects]
360,42,309,6,0,P|452:75|431:179,1,200,2|0,0:3|0:0,0:0:0:0:
406,255,1434,2,0,B|276:241|344:316|187:297,1,200,2|0,0:0|0:0,0:0:0:0:
135,357,2559,6,0,P|43:324|64:220,1,200
89,144,3684,2,0,B|219:158|151:83|308:102,1,200,2|0,0:0|0:0,0:0:0:0:
511,209,4809,6,0,B|381:195|449:270|292:251,1,200,4|0,3:2|0:0,0:0:0:0:
248,320,5934,2,0,P|245:194|262:172,1,99.9999999999999,2|0,0:0|0:0,0:0:0:0:
295,146,6684,1,0,0:0:0:0:
394,150,7059,6,0,B|466:182|466:182|461:240,2,99.9999999999999
465,80,8184,2,0,L|267:12,1,200,2|0,0:0|0:0,0:0:0:0:
182,51,9309,6,0,P|179:177|114:217,1,200,4|0,3:2|0:0,0:0:0:0:
167,305,10434,2,0,P|216:309|260:287,2,99.9999999999999,2|0|0,0:0|0:0|0:0,0:0:0:0:
206,213,11559,6,0,B|165:150|196:123|196:123|219:68|186:25,1,200
89,44,12684,2,0,P|114:153|203:108,1,200,2|0,0:0|0:0,0:0:0:0:
264,91,13809,6,0,B|355:102|355:102|376:129|376:129|497:145,1,200,4|0,3:2|0:0,0:0:0:0:
496,225,14934,2,0,L|271:257,1,200,2|0,0:0|0:0,0:0:0:0:
221,318,16059,2,0,P|109:307|79:332,2,99.9999999999999
297,253,17184,2,0,P|346:255|394:117,1,200,2|0,0:0|0:0,0:0:0:0:
309,109,18309,6,0,B|278:78|281:39|281:39|242:109|272:165,1,200,4|0,3:2|0:0,0:0:0:0:
296,251,19434,2,0,B|265:282|226:279|226:279|296:318|343:293,1,200,2|0,0:0|0:0,0:0:0:0:
438,320,20559,1,0,3:0:0:0:
256,192,20934,12,4,22809,3:2:0:0:
66,59,23184,6,0,L|84:194,1,99.9999999999999
127,352,24309,6,0,L|145:217,1,99.9999999999999
251,86,25434,6,0,B|259:117|259:117|220:202,2,99.9999999999999,0|0|10,0:0|0:0|0:0,0:0:0:0:
336,33,26559,1,0,0:0:0:0:
421,95,26934,1,0,0:0:0:0:
421,95,27309,6,0,P|428:172|299:222,1,200,4|0,3:2|0:0,0:0:0:0:
262,302,28434,2,0,P|213:298|151:335,2,99.9999999999999,10|0|0,0:0|0:0|0:0,0:0:0:0:
333,232,29559,6,0,B|322:192|322:192|385:17,1,200
467,83,30684,1,10,0:0:0:0:
467,83,31059,2,0,L|414:232,1,99.9999999999999
318,340,31809,6,0,P|278:262|370:215,1,200,4|0,3:2|0:0,0:0:0:0:
447,181,32934,2,0,L|469:76,1,99.9999999999999,10|0,0:0|0:0,0:0:0:0:
270,46,34059,6,0,P|230:124|322:171,1,200
399,205,35184,2,0,L|421:310,2,99.9999999999999,10|0|0,0:0|0:0|0:0,0:0:0:0:
338,125,36309,6,0,P|310:172|233:187,1,99.9999999999999
209,269,37059,1,0,0:0:0:0:
128,209,37434,2,0,B|116:180|116:180|141:90,2,99.9999999999999,10|0|0,0:0|0:0|0:0,0:0:0:0:
39,256,38559,1,0,3:0:0:0:
256,192,38934,12,4,40809,3:1:0:0:
411,43,41184,6,0,L|439:169,1,99.9999999999999,0|0,1:0|1:0,1:0:0:0:
393,237,41934,2,0,B|244:266|244:266|180:225,1,200,10|0,1:0|1:0,1:0:0:0:
104,248,43059,6,0,P|104:375|94:385,2,99.9999999999999,2|0|0,3:1|1:0|1:0,1:0:0:0:
20,192,44184,2,8,P|51:80|151:98,1,200,8|0,1:0|1:0,1:0:0:0:
217,57,45309,6,0,B|248:106|248:106|205:256,1,200,6|0,3:1|0:0,1:0:0:0:
210,242,46434,2,0,P|292:281|292:169,1,200,8|0,1:0|0:0,1:0:0:0:
370,111,47559,6,0,P|452:72|452:184,1,200,2|0,3:1|1:0,1:0:0:0:
397,206,48684,2,0,L|258:226,2,99.9999999999999,8|2|2,1:0|1:0|1:0,1:0:0:0:
432,112,49809,6,0,L|196:145,1,200,4|0,3:1|1:0,1:0:0:0:
233,139,50934,2,0,P|165:65|166:43,1,99.9999999999999,8|0,1:0|1:0,1:0:0:0:
69,46,51684,5,0,1:0:0:0:
69,46,52059,2,0,P|27:213|-19:240,1,200,2|0,3:1|1:0,1:0:0:0:
13,223,53184,2,0,P|116:201|225:288,1,200,8|0,1:0|1:0,1:0:0:0:
271,308,54309,6,0,P|422:274|420:169,1,200,6|2,3:0|3:0,3:0:0:0:
431,250,55434,2,0,P|365:144|403:52,1,200,6|2,3:0|3:0,3:0:0:0:
289,40,56559,6,0,L|119:58,2,99.9999999999999,14|10|10,3:0|3:0|3:0,3:0:0:0:
366,103,57684,2,0,L|536:121,2,99.9999999999999,14|14|14,3:0|3:0|3:0,3:0:0:0:
321,192,58809,6,0,L|33:222,1,200,6|0,1:0|1:0,1:0:0:0:
122,212,59934,2,0,P|108:96|209:148,1,200,8|0,1:0|1:0,1:0:0:0:
252,128,61059,6,0,L|268:351,1,200,2|0,1:0|1:0,1:0:0:0:
266,327,62184,2,0,B|396:361|342:270|502:315,1,200,8|0,1:0|1:0,1:0:0:0:
465,198,63309,6,0,P|379:153|327:257,1,200,6|0,3:1|0:0,1:0:0:0:
320,219,64434,2,0,P|244:296|156:189,1,200,8|0,1:0|0:0,1:0:0:0:
171,259,65559,2,0,P|190:157|286:164,1,200,2|0,3:0|1:0,1:0:0:0:
270,155,66684,6,0,P|360:137|375:47,2,99.9999999999999,8|2|2,1:0|1:0|1:0,1:0:0:0:
191,92,67809,2,0,B|77:59|77:59|66:115|-14:121,1,200,6|0,3:1|1:0,1:0:0:0:
0,204,68934,2,0,P|32:317|123:304,1,200,8|0,1:0|1:0,1:0:0:0:
192,287,70059,6,0,P|224:174|315:187,1,200,2|0,3:0|1:0,1:0:0:0:
385,199,71184,2,0,B|356:323|356:323|435:348|435:348,1,200,8|0,1:0|1:0,1:0:0:0:
512,299,72309,6,0,L|472:136,1,99.9999999999999,14|2,3:3|3:0,3:0:0:0:
385,199,73059,1,2,3:0:0:0:
413,103,73434,2,0,L|436:5,2,99.9999999999999,14|2|2,3:0|3:0|3:0,3:0:0:0:
315,123,74559,6,0,L|186:145,2,99.9999999999999,14|2|2,3:0|3:0|3:0,3:0:0:0:
385,199,75684,2,0,L|514:221,2,99.9999999999999,14|14|14,3:0|3:0|3:0,3:0:0:0:
323,277,76809,1,6,2:1:0:0:
447,3,77934,6,0,L|472:206,1,200,8|0,3:1|1:0,1:0:0:0:
471,201,79059,2,0,P|365:305|287:237,1,200,2|0,3:1|1:0,1:0:0:0:
246,338,80184,6,0,P|186:330|219:195,1,200,10|0,1:0|1:0,1:0:0:0:
249,142,81309,2,0,P|262:81|219:24,1,99.9999999999999,2|0,3:1|1:0,1:0:0:0:
159,1,82059,1,0,1:0:0:0:
89,72,82434,2,0,B|54:217|54:217|32:124,1,200,10|0,1:0|1:0,1:0:0:0:
10,72,83559,6,0,L|218:113,1,200,2|0,3:1|1:0,1:0:0:0:
206,110,84684,2,0,B|330:140|283:52|445:99,1,200,8|2,1:0|1:0,1:0:0:0:
476,152,85809,6,0,P|484:200|457:261,2,99.9999999999999,6|8|2,3:1|1:3|3:0,1:0:0:0:
399,88,86934,2,0,L|154:55,1,200,8|0,1:0|1:0,1:0:0:0:
200,61,88059,2,0,P|129:142|186:199,1,200,2|0,3:1|1:0,1:0:0:0:
177,196,89184,2,0,P|193:307|167:346,1,99.9999999999999,8|2,1:0|1:0,1:0:0:0:
134,367,89934,1,10,1:3:0:0:
256,192,90309,12,4,94809,1:0:0:0:
192,28,95934,6,0,P|213:136|63:161,1,200,10|0,1:0|1:0,1:0:0:0:
151,186,97059,2,0,P|236:96|341:144,1,200,2|0,1:0|1:0,1:0:0:0:
384,161,98184,2,0,L|398:279,1,99.9999999999999,10|0,1:0|1:0,1:0:0:0:
337,341,98934,1,0,1:0:0:0:
337,341,99309,6,0,L|191:357,2,99.9999999999999,2|0|0,3:1|1:0|1:0,1:0:0:0:
395,260,100434,2,0,P|408:152|322:112,1,200,8|0,1:0|1:0,1:0:0:0:
339,111,101559,2,0,P|212:149|158:86,1,200,2|0,3:1|1:0,1:0:0:0:
170,113,102684,2,0,P|43:97|30:105,2,99.9999999999999,8|0|2,1:0|1:0|1:0,1:0:0:0:
239,185,103809,6,0,B|225:222|225:222|430:196,1,200,6|0,1:0|1:0,1:0:0:0:
384,201,104934,2,0,P|403:77|376:59,2,99.9999999999999,8|0|2,1:0|1:0|3:1,1:0:0:0:
313,271,106059,2,0,L|199:255,1,99.9999999999999,2|0,1:0|1:0,0:0:0:0:
119,290,106809,1,0,1:0:0:0:
119,290,107184,2,0,P|82:182|96:148,1,99.9999999999999,8|2,1:0|1:0,1:0:0:0:
9,130,107934,1,2,1:0:0:0:
71,51,108309,6,0,L|173:69,2,99.9999999999999,14|10|10,3:0|3:0|3:0,1:0:0:0:
9,130,109434,2,0,L|111:148,2,99.9999999999999,14|10|10,3:0|3:0|3:0,1:0:0:0:
260,214,110559,2,0,L|161:231,2,99.9999999999999,14|10|10,3:0|3:0|3:0,1:0:0:0:
312,299,111684,2,0,L|94:337,1,200,14|14,3:0|3:0,1:0:0:0:
16,351,112809,5,6,1:0:0:0:
309,288,113934,1,8,3:1:0:0:
59,121,115059,1,2,3:1:0:0:
352,58,116184,1,8,3:1:0:0:
252,340,117309,6,0,P|206:244|279:179,1,200,6|0,1:0|0:0,1:0:0:0:
260,183,118434,2,0,P|192:86|201:217,1,300,8|2,1:0|3:1,1:0:0:0:
45,345,120684,6,0,L|211:311,2,99.9999999999999,8|2|4,1:0|3:1|1:3,1:0:0:0:
40,244,121809,6,0,L|107:39,1,200,6|0,1:0|1:0,1:0:0:0:
102,53,122934,2,0,L|241:213,1,200,10|0,1:0|1:0,1:0:0:0:
233,203,124059,2,0,L|300:-2,1,200,2|0,3:1|1:0,1:0:0:0:
295,12,125184,2,0,L|434:172,1,200,10|0,1:0|1:0,1:0:0:0:
256,192,126309,12,6,130809,3:1:0:0:
135,58,131934,6,0,P|101:160|185:178,1,200,10|0,1:0|1:0,1:0:0:0:
166,184,133059,2,0,P|245:264|121:293,1,200,2|0,3:1|1:0,1:0:0:0:
204,315,134184,2,0,P|95:237|158:190,1,200,10|0,1:0|1:0,1:0:0:0:
158,134,135309,6,0,B|278:76|256:193|402:102,1,200,6|0,1:0|0:0,1:0:0:0:
350,128,136434,2,0,B|399:101|474:113|474:113|411:127|395:152,1,200,10|0,3:1|0:0,1:0:0:0:
352,223,137559,6,0,P|366:313|445:242,1,200,2|0,3:1|1:0,1:0:0:0:
475,188,138684,2,0,L|454:74,1,99.9999999999999,10|0,1:0|1:0,1:0:0:0:
380,34,139434,1,0,1:0:0:0:
380,34,139809,6,0,P|272:107|304:152,1,200,6|0,3:1|1:0,1:0:0:0:
286,136,140934,2,0,P|264:251|130:207,1,200,10|0,3:1|1:0,1:0:0:0:
196,266,142059,2,0,B|76:233|76:233|74:282|35:316,1,200,0|0,1:0|1:0,1:0:0:0:
48,303,143184,2,0,P|28:232|22:188,1,99.9999999999999,10|0,3:1|1:3,1:0:0:0:
43,98,143934,1,0,1:3:0:0:
256,192,144309,12,14,147684,3:0:0:0:
198,218,148809,6,2,B|264:247|324:188|324:188|393:210|397:267|397:267|349:226|269:264,3,300,6|8|2|10,3:1|3:1|3:1|1:0,1:0:0:0:
270,45,152934,2,2,P|249:175|265:205,2,99.9999999999999,0|6|0,1:0|3:1|1:0,1:0:0:0:
332,338,154434,2,2,P|353:208|337:178,2,99.9999999999999,10|0|0,1:0|1:0|1:0,1:0:0:0:
275,209,155559,6,2,P|383:153|449:222,1,200,2|0,3:1|1:0,1:0:0:0:
436,191,156684,2,2,P|515:124|487:67,2,99.9999999999999,8|2|2,1:0|3:1|3:1,1:0:0:0:
340,45,157809,6,2,L|360:243,1,200,6|0,3:1|1:0,1:0:0:0:
241,319,158934,2,2,L|272:196,1,99.9999999999999,10|2,3:1|1:0,1:0:0:0:
196,149,159684,1,0,1:0:0:0:
196,149,160059,2,2,P|142:56|48:164,1,200,2|0,3:1|1:0,1:0:0:0:
66,73,161184,2,0,P|179:118|288:14,1,200,10|0,3:1|1:0,1:0:0:0:
256,192,162309,12,4,166809,2:3:0:0:
71,226,167934,6,0,B|204:133|227:281|371:185,2,300,0|0|0,2:0|2:0|2:0,2:0:0:0:
71,226,171309,6,0,B|71:257|86:298|155:329|233:289|254:203|183:142|183:142|258:89|361:117|281:223|510:132,1,599.999999999999,0|0,2:0|2:0,2:0:0:0:
452,152,174684,2,0,P|481:93|457:39,2,99.9999999999999,0|0|0,2:0|2:0|2:0,0:0:0:0:
342,146,175809,6,0,P|222:139|217:335,3,300,2|10|2|10,2:0|2:0|2:0|2:0,2:0:0:0:
392,318,179934,5,0,2:0:0:0:
256,192,180309,12,8,184434,3:1:0:0:
399,60,184809,6,0,L|416:299,1,200,6|2,1:0|1:2,1:0:0:0:
413,259,185934,2,0,P|320:325|261:223,1,200,10|2,3:1|1:2,1:0:0:0:
264,282,187059,2,0,P|106:247|75:269,1,200,2|2,3:1|1:2,1:0:0:0:
81,257,188184,2,0,P|202:253|266:120,1,200,10|2,3:1|1:2,1:0:0:0:
318,125,189309,6,0,P|398:67|413:177,1,200,6|0,3:1|0:0,1:0:0:0:
440,133,190434,2,0,P|378:246|259:231,1,200,10|0,3:1|0:0,1:0:0:0:
317,256,191559,2,0,B|191:245|191:245|158:275|158:275|62:263,1,200,2|2,3:1|1:2,1:0:0:0:
37,231,192684,6,0,P|22:165|45:94,2,99.9999999999999,10|2|2,3:1|1:2|1:2,1:0:0:0:
95,312,193809,2,0,B|153:312|184:266|184:266|214:308|290:324,1,200,6|2,3:1|1:2,1:0:0:0:
353,359,194934,2,0,P|428:277|366:205,1,200,10|2,3:1|1:2,1:0:0:0:
300,169,196059,2,0,P|301:46|384:66,1,200,2|2,3:1|1:2,1:0:0:0:
441,74,197184,2,0,L|464:297,1,200,10|2,3:1|1:2,1:0:0:0:
256,192,198309,12,6,202809,2:3:0:0:
