osu file format v14

[General]
AudioFilename: audio.mp3
AudioLeadIn: 0
PreviewTime: 269
Countdown: 1
SampleSet: Normal
StackLeniency: 0.2
Mode: 0
LetterboxInBreaks: 0
WidescreenStoryboard: 0

[Editor]
Bookmarks: 7698,13796,25986,32081,35129,36653,38176,44272,50367,56653,62557,86938,99129,111319
DistanceSpacing: 1
BeatDivisor: 4
GridSize: 16
TimelineZoom: 4.799998

[Metadata]
Title:Tetris
TitleUnicode:Tetris
Artist:Techno
ArtistUnicode:Techno
Creator:LegenDarius13
Version:Comfy Times and Vodka
Source:
Tags:Tetris jumps Arles
BeatmapID:2126722
BeatmapSetID:1016126

[Difficulty]
HPDrainRate:1.3
CircleSize:4.3
OverallDifficulty:9
ApproachRate:8.7
SliderMultiplier:2.4
SliderTickRate:1

[Events]
//Background and Video events
0,0,"asdasdasdasd.png",0,0
//Break Periods
//Storyboard Layer 0 (Background)
//Storyboard Layer 1 (Fail)
//Storyboard Layer 2 (Pass)
//Storyboard Layer 3 (Foreground)
//Storyboard Layer 4 (Overlay)
//Storyboard Sound Samples

[TimingPoints]
7698,380.952380952381,4,1,0,100,1,0
13796,380.952380952381,4,1,0,100,1,0
49605,-200,4,1,0,100,0,0
50081,-100,4,1,0,100,0,0
54557,-66.6666666666667,4,1,0,100,0,0
56653,-100,4,1,0,100,0,0
57129,-100,4,1,0,5,0,0
57224,-100,4,1,0,100,0,0
61034,-50,4,1,0,100,0,0

[HitObjects]
256,192,7698,5,0,0:0:0:0:
256,192,9221,5,0,0:0:0:0:
256,192,10745,5,0,0:0:0:0:
256,192,11507,1,0,0:0:0:0:
256,192,12269,5,0,0:0:0:0:
256,192,12650,1,0,0:0:0:0:
256,192,13031,1,0,0:0:0:0:
256,192,13317,6,0,L|256:256,1,60
300,317,13796,6,0,P|364:305|408:262,1,120,4|0,0:0|0:0,0:0:0:0:
317,162,14176,1,0,0:0:0:0:
245,251,14367,1,0,0:0:0:0:
401,181,14557,2,0,B|376:184|376:184|332:160|332:160|277:168,1,120
156,197,14938,5,0,0:0:0:0:
286,287,15129,1,0,0:0:0:0:
372,52,15319,2,0,L|336:185,1,120
145,304,15700,5,0,0:0:0:0:
251,102,15891,1,0,0:0:0:0:
354,289,16081,2,0,P|392:248|412:174,1,120
188,137,16462,5,0,0:0:0:0:
327,128,16653,1,0,0:0:0:0:
171,54,16843,1,0,0:0:0:0:
217,259,17034,1,0,0:0:0:0:
69,164,17224,6,0,P|63:90|100:105,1,120
395,160,17605,6,0,L|371:280,1,120
156,140,17986,2,0,L|180:298,1,120
367,112,18367,6,0,L|205:84,1,120
356,241,18748,6,0,L|206:279,1,120
189,180,19129,6,0,L|342:167,1,120
80,114,19510,5,0,0:0:0:0:
251,73,19700,1,0,0:0:0:0:
205,236,19891,5,0,0:0:0:0:
138,42,20081,1,0,0:0:0:0:
343,94,20272,1,0,0:0:0:0:
131,196,20462,6,0,P|194:230|266:180,1,120
97,40,20843,1,0,0:0:0:0:
271,103,21034,1,0,0:0:0:0:
100,144,21224,1,0,0:0:0:0:
279,40,21415,6,0,B|254:100|254:100|292:195,1,120
474,136,21796,1,0,0:0:0:0:
373,33,21986,1,0,0:0:0:0:
286,222,22176,2,0,P|226:227|180:186,1,120
191,34,22557,5,0,0:0:0:0:
219,158,22748,1,0,0:0:0:0:
318,34,22938,2,0,P|243:29|183:59,1,120
227,185,23319,5,0,0:0:0:0:
424,126,23510,1,0,0:0:0:0:
185,47,23700,2,0,B|140:94|140:94|182:162,1,120
428,51,24081,5,0,0:0:0:0:
116,54,24272,1,0,0:0:0:0:
428,180,24462,5,0,0:0:0:0:
144,208,24653,1,0,0:0:0:0:
348,34,24843,5,0,0:0:0:0:
224,264,25034,1,0,0:0:0:0:
183,37,25224,5,0,0:0:0:0:
375,288,25415,1,0,0:0:0:0:
172,229,25605,5,0,0:0:0:0:
372,140,25796,1,0,0:0:0:0:
85,207,25986,6,0,P|100:280|175:318,1,120
265,205,26367,1,0,0:0:0:0:
103,100,26557,1,0,0:0:0:0:
198,308,26748,6,0,L|316:269,1,120
288,131,27129,1,0,0:0:0:0:
141,201,27319,1,0,0:0:0:0:
271,287,27510,6,0,L|218:146,1,120
336,29,27891,5,0,0:0:0:0:
127,180,28081,1,0,0:0:0:0:
335,357,28272,6,0,B|283:355|283:355|251:339|251:339|200:335,1,120
157,189,28653,5,0,0:0:0:0:
339,125,28843,1,0,0:0:0:0:
363,323,29034,6,0,P|395:253|380:206,1,120
312,168,29415,1,0,0:0:0:0:
267,302,29605,1,0,0:0:0:0:
144,93,29796,6,0,L|116:239,1,120
241,114,30176,2,0,L|213:260,1,120
119,111,30557,6,0,L|276:55,1,120
123,257,30938,6,0,L|267:291,1,120
248,167,31319,6,0,L|105:162,1,120
398,287,31700,5,0,0:0:0:0:
449,67,31891,1,0,0:0:0:0:
256,192,32081,5,0,0:0:0:0:
256,192,33605,1,0,0:0:0:0:
276,226,35129,5,0,0:0:0:0:
235,226,35224,1,0,0:0:0:0:
215,192,35319,1,0,0:0:0:0:
235,156,35415,1,0,0:0:0:0:
276,156,35510,1,0,0:0:0:0:
296,192,35605,1,0,0:0:0:0:
283,238,35700,1,0,0:0:0:0:
229,238,35796,1,0,0:0:0:0:
202,192,35891,5,0,0:0:0:0:
229,144,35986,1,0,0:0:0:0:
283,144,36081,1,0,0:0:0:0:
310,192,36176,1,0,0:0:0:0:
289,249,36272,5,0,0:0:0:0:
222,249,36367,5,0,0:0:0:0:
188,191,36462,5,0,0:0:0:0:
222,133,36557,5,0,0:0:0:0:
289,133,36653,5,0,0:0:0:0:
38,330,37034,1,0,0:0:0:0:
455,310,37415,2,0,P|408:320|379:300,5,80
130,132,38176,5,0,0:0:0:0:
332,78,38367,1,0,0:0:0:0:
265,252,38557,1,0,0:0:0:0:
129,75,38748,1,0,0:0:0:0:
378,143,38938,6,0,P|322:187|276:251,1,120
239,336,39319,5,0,0:0:0:0:
454,305,39510,1,0,0:0:0:0:
250,124,39700,5,0,0:0:0:0:
250,124,39796,5,0,0:0:0:0:
250,124,39891,5,0,0:0:0:0:
230,322,40081,1,0,0:0:0:0:
92,88,40272,1,0,0:0:0:0:
58,335,40462,6,0,P|44:253|70:191,1,120
208,65,40843,1,0,0:0:0:0:
356,222,41034,1,0,0:0:0:0:
142,205,41224,5,0,0:0:0:0:
142,205,41319,5,0,0:0:0:0:
142,205,41415,5,0,0:0:0:0:
408,300,41605,1,0,0:0:0:0:
198,339,41796,1,0,0:0:0:0:
361,120,41986,2,0,P|286:137|245:158,1,120
410,236,42367,2,0,P|340:303|262:306,1,120
93,270,42748,5,0,0:0:0:0:
93,270,42843,5,0,0:0:0:0:
93,270,42938,5,0,0:0:0:0:
166,90,43129,5,0,0:0:0:0:
166,90,43224,5,0,0:0:0:0:
166,90,43319,5,0,0:0:0:0:
313,204,43510,5,0,0:0:0:0:
313,204,43605,5,0,0:0:0:0:
313,204,43700,5,0,0:0:0:0:
451,318,43891,5,0,0:0:0:0:
255,317,44081,1,0,0:0:0:0:
366,179,44272,1,0,0:0:0:0:
448,337,44462,5,0,0:0:0:0:
143,286,44653,1,0,0:0:0:0:
387,31,44843,1,0,0:0:0:0:
73,248,45034,6,0,B|131:236|155:262|204:251,1,120
284,60,45415,1,0,0:0:0:0:
461,226,45605,1,0,0:0:0:0:
117,279,45796,5,0,0:0:0:0:
117,279,45891,5,0,0:0:0:0:
117,279,45986,5,0,0:0:0:0:
166,95,46176,5,0,0:0:0:0:
245,312,46367,1,0,0:0:0:0:
327,51,46557,6,0,P|312:121|246:191,1,120
86,116,46938,5,0,0:0:0:0:
443,176,47129,1,0,0:0:0:0:
126,248,47319,6,0,P|157:287|198:283,2,60
426,251,47700,5,0,0:0:0:0:
211,55,47891,1,0,0:0:0:0:
87,299,48081,6,0,B|125:323|159:298|159:298|256:318,1,120
205,68,48462,5,0,0:0:0:0:
360,257,48653,1,0,0:0:0:0:
119,240,48843,6,0,L|56:120,1,120
215,262,49224,6,0,L|308:133,1,120
175,83,49605,6,0,L|165:244,1,120
212,329,50176,5,0,0:0:0:0:
330,105,50367,5,0,0:0:0:0:
330,105,50462,5,0,0:0:0:0:
330,105,50557,5,0,0:0:0:0:
273,312,50748,1,0,0:0:0:0:
205,74,50938,1,0,0:0:0:0:
459,127,51129,6,0,P|386:142|359:187,1,120
336,336,51510,5,0,0:0:0:0:
404,47,51700,1,0,0:0:0:0:
135,94,51891,2,0,B|136:114|136:114|152:139|152:139|153:191,2,60
445,73,52272,5,0,0:0:0:0:
72,169,52462,1,0,0:0:0:0:
444,236,52653,2,0,B|400:217|400:217|384:182|384:182|342:163,1,120
67,36,53034,5,0,0:0:0:0:
142,348,53224,1,0,0:0:0:0:
269,84,53415,5,0,0:0:0:0:
269,84,53510,5,0,0:0:0:0:
269,84,53605,5,0,0:0:0:0:
40,171,53796,1,0,0:0:0:0:
160,309,53986,1,0,0:0:0:0:
195,108,54176,6,0,B|156:144|156:144|153:192|114:224,1,120
254,270,54557,6,0,P|298:183|227:224,1,180.000006866455
63,227,54938,6,0,B|113:216|113:216|177:249|177:249|197:302|197:302,1,180.000006866455
283,327,55319,6,0,B|367:285|398:342|466:284,1,180.000006866455
377,39,55700,6,0,B|371:107|371:107|334:146|334:146|322:238,2,180.000006866455
268,83,56272,1,0,0:0:0:0:
428,180,56462,1,0,0:0:0:0:
239,291,56653,6,0,P|148:268|138:231,1,120
139,53,57034,1,0,0:0:0:0:
269,87,57224,6,0,P|218:158|184:164,1,120
84,28,57605,1,0,0:0:0:0:
7,212,57796,1,0,0:0:0:0:
224,95,57986,5,0,0:0:0:0:
224,95,58081,5,0,0:0:0:0:
224,95,58176,5,0,0:0:0:0:
321,299,58367,1,0,0:0:0:0:
111,203,58557,1,0,0:0:0:0:
400,34,58748,2,0,B|392:81|392:81|359:112|359:112|348:177,1,120
241,300,59129,1,0,0:0:0:0:
186,125,59319,1,0,0:0:0:0:
382,174,59510,5,0,0:0:0:0:
277,279,59700,2,0,L|170:169,1,120
323,66,60081,1,0,0:0:0:0:
479,212,60272,2,0,B|402:211|408:274|324:264,1,120
109,230,60653,2,0,P|130:169|145:182,1,120
450,79,61034,2,0,B|365:127|301:29|183:76,1,240
92,325,61415,2,0,B|169:325|169:325|258:281|258:281|340:281,1,240
161,190,61796,2,0,P|229:53|192:187,2,480
