osu file format v14

[General]
AudioFilename: audio.mp3
AudioLeadIn: 0
PreviewTime: 65482
Countdown: 0
SampleSet: Soft
StackLeniency: 0.4
Mode: 0
LetterboxInBreaks: 0
WidescreenStoryboard: 0

[Editor]
DistanceSpacing: 0.4
BeatDivisor: 4
GridSize: 32
TimelineZoom: 1

[Metadata]
Title:Confide (feat. A Little Sound)
TitleUnicode:Confide (feat. A Little Sound)
Artist:Technimatic
ArtistUnicode:Technimatic
Creator:Dayno
Version:Persistence
Source:
Tags:dnb d&b drum and bass d'n'b electronic dance music edm english
BeatmapID:4006976
BeatmapSetID:1938361

[Difficulty]
HPDrainRate:5
CircleSize:4.2
OverallDifficulty:8
ApproachRate:8.8
SliderMultiplier:1.5
SliderTickRate:1

[Events]
//Background and Video events
0,0,"ab.jpg",0,0
//Break Periods
//Storyboard Layer 0 (Background)
//Storyboard Layer 1 (Fail)
//Storyboard Layer 2 (Pass)
//Storyboard Layer 3 (Foreground)
//Storyboard Layer 4 (Overlay)
//Storyboard Sound Samples

[TimingPoints]
138,344.827586206897,4,2,1,40,1,0
138,-166.666666666667,4,2,2,40,0,0
22206,-166.666666666667,4,2,2,50,0,0
30310,-250,4,2,2,50,0,0
32206,-166.666666666667,4,2,2,50,0,0
36000,-250,4,2,2,50,0,0
37379,-166.666666666667,4,2,2,50,0,0
44275,-250,4,2,1,50,0,0
55310,-250,4,2,1,55,0,0
60827,-250,4,2,1,60,0,0
65310,-250,4,2,1,5,0,0
65655,-100,4,2,1,60,0,0
65913,-100,4,2,1,5,0,0
66000,-100,4,2,1,60,0,0
66344,-76.9230769230769,4,2,1,70,0,1
66602,-76.9230769230769,4,2,1,5,0,1
66689,-76.9230769230769,4,2,1,70,0,1
70740,-76.9230769230769,4,2,1,5,0,1
70827,-76.9230769230769,4,2,1,70,0,1
71775,-76.9230769230769,4,2,1,5,0,1
71862,-76.9230769230769,4,2,1,70,0,1
72120,-76.9230769230769,4,2,1,5,0,1
72206,-76.9230769230769,4,2,1,70,0,1
76258,-76.9230769230769,4,2,1,5,0,1
76344,-76.9230769230769,4,2,1,70,0,1
77637,-76.9230769230769,4,2,1,5,0,1
77724,-76.9230769230769,4,2,1,70,0,1
83586,-83.3333333333333,4,2,1,70,0,1
84275,-90.9090909090909,4,2,1,70,0,1
85655,-76.9230769230769,4,2,1,70,0,1
88069,-66.6666666666667,4,2,1,70,0,1
88413,-76.9230769230769,4,2,1,70,0,1
88671,-76.9230769230769,4,2,1,5,0,1
88758,-76.9230769230769,4,2,1,70,0,1
93844,-76.9230769230769,4,2,1,5,0,1
93931,-76.9230769230769,4,2,1,70,0,1
94189,-76.9230769230769,4,2,1,5,0,1
94275,-76.9230769230769,4,2,1,70,0,1
105655,-83.3333333333333,4,2,1,70,0,1
106344,-90.9090909090909,4,2,1,70,0,1
107724,-83.3333333333333,4,2,1,60,0,0
110482,-83.3333333333333,4,2,1,65,0,0
115913,-83.3333333333333,4,2,1,5,0,0
116000,-83.3333333333333,4,2,1,65,0,0
117637,-83.3333333333333,4,2,1,5,0,0
117724,-83.3333333333333,4,2,1,65,0,0
125913,-83.3333333333333,4,2,1,5,0,0
126000,-83.3333333333333,4,2,1,65,0,0
126602,-83.3333333333333,4,2,1,5,0,0
126689,-83.3333333333333,4,2,1,65,0,0
126947,-83.3333333333333,4,2,1,5,0,0
127034,-83.3333333333333,4,2,1,65,0,0
128413,-200,4,2,1,65,0,0
129103,-83.3333333333333,4,2,1,65,0,0
129361,-83.3333333333333,4,2,1,5,0,0
129448,-83.3333333333333,4,2,1,65,0,0
129706,-83.3333333333333,4,2,1,5,0,0
129793,-83.3333333333333,4,2,1,65,0,0
132551,-76.9230769230769,4,2,1,70,0,0
135310,-83.3333333333333,4,2,1,65,0,0
148671,-83.3333333333333,4,2,1,5,0,0
148758,-83.3333333333333,4,2,1,65,0,0
149016,-83.3333333333333,4,2,1,5,0,0
149103,-83.3333333333333,4,2,1,65,0,0
151430,-83.3333333333333,4,2,1,5,0,0
151517,-83.3333333333333,4,2,1,65,0,0
151775,-83.3333333333333,4,2,1,5,0,0
151862,-76.9230769230769,4,2,1,65,0,0
152896,-76.9230769230769,4,2,1,65,0,0
153241,-100,4,2,1,65,0,0
154620,-166.666666666667,4,2,1,45,0,0
158758,-384.615384615385,4,2,1,45,0,0
160138,-166.666666666667,4,2,1,45,0,0
162119,-166.666666666667,4,2,1,5,0,0
162206,-166.666666666667,4,2,1,45,0,0
164275,-384.615384615385,4,2,1,45,0,0
165655,-142.857142857143,4,2,1,50,0,0
169793,-333.333333333333,4,2,1,50,0,0
171172,-142.857142857143,4,2,1,55,0,0
173241,-166.666666666667,4,2,1,55,0,0
173931,-500,4,2,1,55,0,0
176344,-500,4,2,1,5,0,0
176689,-76.9230769230769,4,2,1,70,0,1
181775,-76.9230769230769,4,2,1,5,0,1
181862,-76.9230769230769,4,2,1,70,0,1
182120,-76.9230769230769,4,2,1,5,0,1
182206,-76.9230769230769,4,2,1,70,0,1
184878,-76.9230769230769,4,2,1,5,0,1
184965,-76.9230769230769,4,2,1,70,0,1
196000,-142.857142857143,4,2,1,60,0,0
198758,-76.9230769230769,4,2,1,70,0,1
200396,-76.9230769230769,4,2,1,5,0,1
200482,-76.9230769230769,4,2,1,70,0,1
201775,-76.9230769230769,4,2,1,5,0,1
201862,-76.9230769230769,4,2,1,70,0,1
203844,-76.9230769230769,4,2,1,5,0,1
203931,-76.9230769230769,4,2,1,70,0,1
204189,-76.9230769230769,4,2,1,5,0,1
204275,-76.9230769230769,4,2,1,70,0,1
205913,-76.9230769230769,4,2,1,5,0,1
206000,-76.9230769230769,4,2,1,70,0,1
207292,-76.9230769230769,4,2,1,5,0,1
207379,-76.9230769230769,4,2,1,70,0,1
211430,-76.9230769230769,4,2,1,5,0,1
211517,-76.9230769230769,4,2,1,70,0,1
212809,-76.9230769230769,4,2,1,5,0,1
212896,-76.9230769230769,4,2,1,70,0,1
215223,-76.9230769230769,4,2,1,5,0,1
215310,-76.9230769230769,4,2,1,70,0,1
217637,-76.9230769230769,4,2,1,5,0,1
217724,-76.9230769230769,4,2,1,70,0,1
217982,-76.9230769230769,4,2,1,5,0,1
218069,-76.9230769230769,4,2,1,70,0,1
220827,-333.333333333333,4,2,1,50,0,0
242896,-666.666666666667,4,2,1,40,0,0
253931,-666.666666666667,4,2,1,35,0,0
259448,-666.666666666667,4,2,1,30,0,0
262206,-666.666666666667,4,2,1,25,0,0
266344,-666.666666666667,4,2,1,5,0,0

[Colours]
Combo1 : 239,67,71
Combo2 : 0,128,128
Combo3 : 247,159,162
Combo4 : 0,64,128

[HitObjects]
23,22,138,6,0,L|9:75,1,44.999998626709,2|2,0:0|0:0,0:0:0:0:
2,81,482,2,0,L|192:46,1,179.999994506836,8|8,0:0|0:0,0:0:0:0:
179,48,1517,6,0,L|165:101,1,44.999998626709,2|2,0:0|0:0,0:0:0:0:
158,107,1861,2,0,L|348:72,1,179.999994506836,8|8,0:0|0:0,0:0:0:0:
335,74,2896,6,0,L|321:127,1,44.999998626709,2|2,0:0|0:0,0:0:0:0:
314,133,3240,2,0,L|504:98,1,179.999994506836,8|8,0:0|0:0,0:0:0:0:
491,100,4275,6,0,P|453:124|447:137,1,44.999998626709,2|2,0:0|0:0,0:0:0:0:
453,122,4620,2,0,L|483:314,1,179.999994506836,8|8,0:0|0:0,0:0:0:0:
367,224,5655,6,0,P|329:200|323:187,1,44.999998626709,2|2,0:0|0:0,0:0:0:0:
329,201,6000,2,0,L|359:9,1,179.999994506836,8|8,0:0|0:0,0:0:0:0:
238,85,7034,6,0,P|200:109|194:122,1,44.999998626709,2|2,0:0|0:0,0:0:0:0:
200,107,7379,2,0,L|230:299,1,179.999994506836,8|8,0:0|0:0,0:0:0:0:
227,284,8413,5,2,0:0:0:0:
227,284,8586,1,2,0:0:0:0:
227,284,8758,2,0,P|291:290|318:187,1,179.999994506836,8|8,0:0|0:0,0:0:0:0:
425,196,9793,5,2,0:0:0:0:
425,196,9965,1,2,0:0:0:0:
425,196,10138,2,0,P|361:202|334:99,1,179.999994506836,8|8,0:0|0:0,0:0:0:0:
242,108,11172,5,2,0:0:0:0:
242,108,11345,1,2,0:0:0:0:
242,108,11517,2,0,P|306:114|333:11,1,179.999994506836,8|8,0:0|0:0,0:0:0:0:
338,19,12551,6,0,L|282:40,1,44.999998626709,2|2,0:0|0:0,0:0:0:0:
295,34,12896,2,0,L|186:13,1,89.9999972534181,8|0,0:0|0:0,0:0:0:0:
141,53,13413,1,0,0:0:0:0:
141,53,13586,1,8,0:0:0:0:
214,153,13931,6,0,L|270:132,1,44.999998626709,2|2,0:0|0:0,0:0:0:0:
256,137,14276,2,0,L|365:158,1,89.9999972534181,8|0,0:0|0:0,0:0:0:0:
411,119,14793,1,0,0:0:0:0:
411,119,14966,1,8,0:0:0:0:
334,276,15310,6,0,L|278:255,1,44.999998626709,2|2,0:0|0:0,0:0:0:0:
291,260,15655,2,0,L|182:281,1,89.9999972534181,8|0,0:0|0:0,0:0:0:0:
137,242,16172,1,0,0:0:0:0:
137,242,16345,1,8,0:0:0:0:
137,242,16689,6,0,L|123:285,1,44.999998626709,2|2,0:0|0:0,0:0:0:0:
123,284,17034,2,0,P|200:262|286:319,1,179.999994506836,8|8,0:0|0:0,0:0:0:0:
314,228,18069,6,0,L|300:184,1,44.999998626709,2|2,0:0|0:0,0:0:0:0:
300,185,18414,2,0,P|376:207|462:150,1,179.999994506836,8|8,0:0|0:0,0:0:0:0:
293,270,19448,6,0,L|279:313,1,44.999998626709,2|2,0:0|0:0,0:0:0:0:
279,312,19793,2,0,P|206:264|122:285,2,179.999994506836,8|8|8,0:0|0:0|0:0,0:0:0:0:
265,184,21344,5,2,0:0:0:0:
195,149,21516,1,2,0:0:0:0:
198,135,21689,1,2,0:0:0:0:
258,88,21862,1,10,0:0:0:0:
252,75,22033,1,2,0:0:0:0:
265,184,22206,6,0,P|304:143|392:143,1,134.999995880127,2|0,0:0|0:0,0:0:0:0:
405,206,22896,2,0,P|356:251|290:252,1,134.999995880127,2|0,0:0|0:0,0:0:0:0:
265,184,23586,2,0,L|227:374,1,179.999994506836,2|2,0:0|0:0,0:0:0:0:
229,360,24965,6,0,B|171:254|255:175|273:211|357:134|300:22,1,359.999989013672,2|2,0:0|0:0,0:0:0:0:
307,38,26689,5,10,0:0:0:0:
302,50,26861,1,2,0:0:0:0:
232,6,27033,1,2,0:0:0:0:
237,18,27206,1,2,0:0:0:0:
171,61,27379,1,10,0:0:0:0:
121,158,27551,5,2,0:0:0:0:
133,163,27724,2,0,P|80:216|8:213,1,134.999995880127,2|0,0:0|0:0,0:0:0:0:
15,300,28413,2,0,P|89:300|138:353,1,134.999995880127,2|0,0:0|0:0,0:0:0:0:
158,245,29103,2,0,L|350:188,1,179.999994506836,2|0,0:0|0:0,0:0:0:0:
330,193,30138,5,10,0:0:0:0:
330,193,30310,2,0,B|270:145|186:160|199:173|155:211|68:152,1,270,2|0,0:0|0:0,0:0:0:0:
74,156,32206,5,10,0:0:0:0:
62,148,32379,1,2,0:0:0:0:
107,86,32551,1,2,0:0:0:0:
102,73,32724,1,2,0:0:0:0:
178,53,32896,1,10,0:0:0:0:
183,40,33069,1,2,0:0:0:0:
231,117,33241,6,0,P|261:153|362:160,1,134.999995880127,2|0,0:0|0:0,0:0:0:0:
378,97,33931,2,0,P|348:61|247:54,1,134.999995880127,2|0,0:0|0:0,0:0:0:0:
231,117,34620,2,0,P|261:153|362:160,1,134.999995880127,2|0,0:0|0:0,0:0:0:0:
340,255,35310,2,0,P|274:259|226:305,1,134.999995880127,2|0,0:0|0:0,0:0:0:0:
206,378,36000,6,0,P|181:308|33:279,1,240,2|0,0:0|0:0,0:0:0:0:
32,279,38069,2,0,L|87:267,1,44.999998626709,2|2,0:0|0:0,0:0:0:0:
90,277,38413,2,0,L|133:267,1,44.999998626709,10|0,0:0|0:0,0:0:0:0:
171,201,38758,6,0,P|175:150|286:82,2,179.999994506836,2|2|2,0:0|0:0|0:0,0:0:0:0:
171,201,40827,2,0,L|226:189,1,44.999998626709,2|0,0:0|0:0,0:0:0:0:
229,199,41172,2,0,L|272:189,1,44.999998626709,10|0,0:0|0:0,0:0:0:0:
331,240,41517,6,0,P|326:290|215:358,2,179.999994506836,2|2|0,0:0|0:0|0:0,0:0:0:0:
331,240,43413,5,2,0:0:0:0:
399,188,43586,1,2,0:0:0:0:
386,183,43758,1,2,0:0:0:0:
348,105,43931,1,10,0:0:0:0:
360,101,44103,1,2,0:0:0:0:
331,240,44275,6,0,P|300:194|302:150,1,90,2|0,0:0|0:0,0:0:0:0:
210,200,44965,2,0,P|240:245|238:289,1,90,2|0,0:0|0:0,0:0:0:0:
101,268,45655,2,0,P|111:214|144:185,1,90,2|0,0:0|0:0,0:0:0:0:
210,347,46344,2,0,P|166:354|125:337,1,90,2|0,0:0|0:0,0:0:0:0:
210,200,47034,6,0,B|263:137|347:164|322:186|403:198|457:134,1,270,2|2,0:0|0:0,0:0:0:0:
455,136,48758,5,2,0:0:0:0:
388,187,48931,1,2,0:0:0:0:
397,194,49103,1,2,0:0:0:0:
441,266,49275,1,2,0:0:0:0:
430,271,49448,1,2,0:0:0:0:
415,343,49620,1,2,0:0:0:0:
425,348,49793,6,0,L|376:111,2,240,2|2|2,0:0|0:0|0:0,0:0:0:0:
425,348,54275,5,2,0:0:0:0:
295,315,54448,1,2,0:0:0:0:
282,310,54620,1,2,0:0:0:0:
339,378,54793,1,2,0:0:0:0:
351,374,54965,1,2,0:0:0:0:
210,349,55138,5,2,0:0:0:0:
214,357,55310,2,0,P|162:334|144:296,1,90,2|0,0:0|0:0,0:0:0:0:
221,174,56000,2,0,P|240:213|233:257,1,90,2|0,0:0|0:0,0:0:0:0:
66,276,56689,2,0,P|106:233|165:227,2,120,2|2|2,0:0|0:0|0:0,0:0:0:0:
66,276,60138,6,0,L|106:268,1,30,2|0,0:0|0:0,0:0:0:0:
120,278,60482,2,0,L|150:272,1,30,2|0,0:0|0:0,0:0:0:0:
195,212,60827,6,0,P|155:167|152:132,1,90,2|2,0:0|0:0,0:0:0:0:
215,106,61517,2,0,P|255:151|258:186,1,90,2|0,0:0|0:0,0:0:0:0:
254,251,62206,5,2,0:0:0:0:
254,251,62896,6,0,L|294:243,1,30,2|0,0:0|0:0,0:0:0:0:
308,253,63241,2,0,L|337:247,1,30,2|0,0:0|0:0,0:0:0:0:
256,192,63586,12,0,65310,0:0:0:0:
154,96,65655,6,0,L|294:47,1,112.5,2|0,0:0|0:0,0:0:0:0:
262,50,66000,1,0,0:0:0:0:
262,50,66172,1,0,0:0:0:0:
21,210,66344,6,0,P|53:117|13:71,1,146.249993305207,6|0,3:2|0:0,0:0:0:0:
17,88,66689,1,8,0:0:0:0:
92,170,66862,1,0,0:0:0:0:
92,170,66948,1,0,0:0:0:0:
92,170,67034,2,0,P|121:193|195:183,2,97.4999955368044,2|0|8,0:0|3:2|0:0,0:0:0:0:
154,96,67551,1,0,0:0:0:0:
95,291,67724,6,0,P|158:221|273:230,1,194.999991073609,2|8,3:2|0:0,0:0:0:0:
318,267,68241,1,0,0:0:0:0:
247,303,68413,2,0,P|204:376|210:400,1,97.4999955368044,2|0,0:0|3:2,0:0:0:0:
392,235,68758,2,0,P|384:187|349:154,1,97.4999955368044,10|0,0:0|0:0,0:0:0:0:
253,219,69103,6,0,P|158:220|95:291,1,194.999991073609,2|8,3:2|0:0,0:0:0:0:
204,383,69620,1,2,0:0:0:0:
204,383,69793,2,0,P|212:335|247:303,1,97.4999955368044,2|0,0:0|3:2,0:0:0:0:
392,235,70138,2,0,P|384:187|349:154,1,97.4999955368044,8|0,0:0|0:0,0:0:0:0:
230,88,70482,6,0,L|377:56,1,146.249993305207,0|0,3:2|0:0,0:0:0:0:
382,69,70827,1,8,0:0:0:0:
226,10,71000,1,0,0:0:0:0:
226,10,71086,2,0,L|287:-2,1,48.7499977684022,8|2,0:0|0:0,0:0:0:0:
301,73,71344,1,0,3:2:0:0:
142,57,71517,2,0,P|198:92|211:174,1,146.249993305207,10|0,0:0|0:0,0:0:0:0:
179,233,71862,6,0,P|229:182|300:183,1,146.249993305207,6|0,3:2|0:0,3:0:0:0:
309,196,72206,1,8,0:0:0:0:
169,312,72379,1,0,0:0:0:0:
169,312,72465,1,0,0:0:0:0:
169,312,72551,2,0,P|199:375|224:385,2,97.4999955368044,2|0|8,0:0|3:2|0:0,0:0:0:0:
179,233,73069,1,0,0:0:0:0:
370,234,73241,6,0,P|394:289|281:382,1,194.999991073609,2|8,3:2|0:0,0:0:0:0:
309,196,73758,1,0,0:0:0:0:
309,196,73931,2,0,P|345:138|388:134,1,97.4999955368044,2|0,0:0|3:2,0:0:0:0:
239,296,74276,2,0,P|203:238|160:234,1,97.4999955368044,10|0,0:0|0:0,0:0:0:0:
317,384,74620,6,0,P|389:324|370:234,1,194.999991073609,2|8,3:2|0:0,0:0:0:0:
203,365,75138,1,2,0:0:0:0:
239,296,75310,2,0,P|203:238|160:234,1,97.4999955368044,2|0,0:0|3:2,0:0:0:0:
306,194,75655,2,0,P|342:136|385:132,1,97.4999955368044,8|0,0:0|0:0,0:0:0:0:
230,164,76000,6,0,L|183:25,1,146.249993305207,0|0,3:2|0:0,0:0:0:0:
170,19,76344,1,8,0:0:0:0:
58,107,76517,1,0,0:0:0:0:
58,107,76603,2,0,L|121:86,1,48.7499977684022,8|2,0:0|0:0,0:0:0:0:
178,104,76862,1,0,3:2:0:0:
52,215,77035,1,10,0:0:0:0:
30,285,77206,5,0,0:0:0:0:
28,294,77293,1,8,0:0:0:0:
25,303,77379,2,0,L|163:255,1,146.249993305207,6|0,3:2|0:0,0:0:0:0:
174,266,77724,1,8,0:0:0:0:
236,373,77896,1,0,0:0:0:0:
236,373,77982,1,0,0:0:0:0:
236,373,78069,2,0,L|264:259,2,97.4999955368044,2|0|8,0:0|3:2|0:0,0:0:0:0:
355,298,78586,1,0,0:0:0:0:
174,266,78758,6,0,L|133:48,1,194.999991073609,2|8,3:2|0:0,0:0:0:0:
200,20,79275,1,0,0:0:0:0:
301,130,79448,2,0,P|323:152|413:152,1,97.4999955368044,2|0,0:0|3:2,0:0:0:0:
357,23,79793,2,0,P|309:26|271:56,1,97.4999955368044,10|0,0:0|0:0,0:0:0:0:
137,74,80138,6,0,L|174:266,1,194.999991073609,2|8,3:2|0:0,0:0:0:0:
223,121,80655,1,0,0:0:0:0:
301,130,80827,2,0,P|323:152|413:152,1,97.4999955368044,2|0,0:0|3:2,0:0:0:0:
357,23,81172,2,0,P|309:26|271:56,1,97.4999955368044,10|0,0:0|0:0,0:0:0:0:
418,83,81517,6,0,P|461:63|486:22,1,97.4999955368044,0|0,3:2|0:0,0:0:0:0:
357,23,81862,1,8,0:0:0:0:
512,124,82034,1,0,0:0:0:0:
512,124,82120,2,0,L|489:178,1,48.7499977684022,8|2,0:0|0:0,0:0:0:0:
386,163,82379,1,0,3:2:0:0:
510,243,82551,2,0,L|467:347,1,97.4999955368044,10|0,0:0|0:0,0:0:0:0:
268,319,82896,6,0,P|324:249|427:259,1,194.999991073609,2|8,3:2|0:0,0:0:0:0:
307,225,83413,1,2,0:0:0:0:
163,169,83586,6,0,P|247:159|309:235,1,179.999994506836,2|8,0:0|0:0,0:0:0:0:
256,137,84103,1,0,0:0:0:0:
187,8,84275,6,0,P|253:61|243:158,1,165.000005035401,2|8,3:2|0:0,0:0:0:0:
169,100,84793,1,0,0:0:0:0:
271,49,84965,2,0,P|319:53|359:93,1,82.5000025177003,2|0,0:0|3:2,0:0:0:0:
396,132,85310,2,0,P|444:128|484:88,1,82.5000025177003,10|0,0:0|0:0,0:0:0:0:
410,21,85655,6,0,L|445:246,1,194.999991073609,2|8,3:2|0:0,0:0:0:0:
289,128,86172,1,2,0:0:0:0:
289,128,86258,1,0,0:0:0:0:
289,128,86344,2,0,L|260:241,2,97.4999955368044,2|0|8,0:0|3:2|0:0,0:0:0:0:
361,260,86862,5,0,0:0:0:0:
361,260,87034,2,0,L|378:371,1,97.4999955368044,0|0,3:2|0:0,0:0:0:0:
264,222,87379,1,8,0:0:0:0:
177,307,87551,1,0,0:0:0:0:
177,307,87638,2,0,L|250:285,1,48.7499977684022,8|2,0:0|0:0,0:0:0:0:
100,188,87896,1,0,3:2:0:0:
16,320,88069,6,0,P|81:301|106:225,1,112.500004291535,10|0,0:0|0:0,0:0:0:0:
36,243,88327,5,0,0:0:0:0:
36,243,88413,2,0,L|201:197,1,146.249993305207,6|0,3:2|0:0,0:0:0:0:
190,212,88758,1,8,0:0:0:0:
110,63,88931,1,0,0:0:0:0:
110,63,89017,1,0,0:0:0:0:
110,63,89103,2,0,L|228:104,2,97.4999955368044,2|0|8,0:0|3:2|0:0,0:0:0:0:
251,165,89620,5,0,0:0:0:0:
251,165,89793,2,0,P|333:129|326:17,1,194.999991073609,2|8,3:2|0:0,0:0:0:0:
419,15,90310,1,0,0:0:0:0:
426,97,90482,2,0,P|474:141|527:131,1,97.4999955368044,2|0,0:0|3:2,0:0:0:0:
422,195,90827,2,0,P|374:202|344:239,1,97.4999955368044,10|0,0:0|0:0,0:0:0:0:
338,33,91172,6,0,P|335:126|251:165,1,194.999991073609,2|8,3:2|0:0,0:0:0:0:
426,97,91689,1,2,0:0:0:0:
426,97,91862,2,0,P|474:141|527:131,1,97.4999955368044,2|0,0:0|3:2,0:0:0:0:
422,195,92206,2,0,P|374:202|344:239,1,97.4999955368044,8|0,0:0|0:0,0:0:0:0:
388,356,92551,6,0,L|271:331,1,97.4999955368044,0|0,3:2|0:0,0:0:0:0:
205,227,92896,1,8,0:0:0:0:
141,278,93069,1,0,0:0:0:0:
141,278,93155,2,0,L|167:352,1,48.7499977684022,8|2,0:0|0:0,0:0:0:0:
70,218,93413,1,0,3:2:0:0:
9,285,93586,2,0,P|50:193|29:137,1,146.249993305207,10|0,0:0|0:0,0:0:0:0:
10,85,93931,6,0,P|55:134|162:105,1,146.249993305207,6|0,3:2|0:0,0:0:0:0:
140,116,94275,1,8,0:0:0:0:
266,15,94448,1,0,0:0:0:0:
266,15,94534,1,0,0:0:0:0:
266,15,94620,2,0,P|199:30|165:79,2,97.4999955368044,2|0|8,0:0|3:2|0:0,0:0:0:0:
344,33,95138,1,0,0:0:0:0:
388,194,95310,6,0,P|327:108|223:97,1,194.999991073609,2|8,3:2|0:0,0:0:0:0:
187,154,95827,1,0,0:0:0:0:
229,225,96000,2,0,P|274:268|333:277,1,97.4999955368044,2|0,0:0|3:2,0:0:0:0:
187,154,96344,2,0,P|141:171|109:206,1,97.4999955368044,10|0,0:0|0:0,0:0:0:0:
243,92,96689,6,0,P|336:114|388:194,1,194.999991073609,2|8,3:2|0:0,0:0:0:0:
187,154,97206,1,2,0:0:0:0:
187,154,97379,2,0,P|141:171|109:206,1,97.4999955368044,2|0,0:0|3:2,0:0:0:0:
229,225,97724,2,0,P|274:268|333:277,1,97.4999955368044,8|0,0:0|0:0,0:0:0:0:
464,232,98069,6,0,L|422:349,1,97.4999955368044,0|0,3:2|0:0,0:0:0:0:
387,193,98413,1,8,0:0:0:0:
488,114,98586,1,0,0:0:0:0:
488,114,98672,2,0,L|476:58,1,48.7499977684022,8|2,0:0|0:0,0:0:0:0:
299,108,98931,1,0,3:2:0:0:
372,15,99103,1,10,0:0:0:0:
399,109,99275,5,0,0:0:0:0:
399,109,99362,1,8,0:0:0:0:
399,109,99448,2,0,P|329:32|229:40,1,194.999991073609,6|8,3:2|0:0,0:0:0:0:
182,214,99965,1,0,0:0:0:0:
182,214,100051,1,0,0:0:0:0:
182,214,100138,2,0,P|234:210|279:147,2,97.4999955368044,2|0|8,0:0|3:2|0:0,0:0:0:0:
300,111,100655,5,0,0:0:0:0:
300,111,100827,2,0,L|243:316,1,194.999991073609,2|8,3:2|0:0,0:0:0:0:
182,214,101344,1,0,0:0:0:0:
182,214,101517,2,0,P|127:187|61:204,1,97.4999955368044,2|0,0:0|3:2,0:0:0:0:
25,299,101862,2,0,P|73:298|114:274,1,97.4999955368044,10|0,0:0|0:0,0:0:0:0:
247,298,102206,6,0,L|300:111,1,194.999991073609,2|8,3:2|0:0,0:0:0:0:
184,98,102724,1,2,0:0:0:0:
182,214,102896,2,0,P|127:187|61:204,1,97.4999955368044,2|0,0:0|3:2,0:0:0:0:
25,299,103241,2,0,P|73:298|114:274,1,97.4999955368044,8|0,0:0|0:0,0:0:0:0:
247,298,103586,6,0,L|284:167,1,97.4999955368044,0|0,3:2|0:0,0:0:0:0:
391,273,103931,1,8,0:0:0:0:
476,169,104103,1,0,0:0:0:0:
476,169,104189,2,0,L|465:103,1,48.7499977684022,8|0,0:0|0:0,0:0:0:0:
317,148,104448,1,0,3:2:0:0:
421,0,104620,2,0,L|386:115,1,97.4999955368044,8|0,0:0|0:0,0:0:0:0:
277,0,104965,6,0,P|247:83|313:148,1,194.999991073609,2|8,3:2|0:0,0:0:0:0:
227,86,105482,1,0,0:0:0:0:
79,107,105655,6,0,P|166:137|231:71,1,179.999994506836,2|8,0:0|0:0,0:0:0:0:
165,157,106172,1,0,0:0:0:0:
62,254,106344,6,0,P|148:221|155:128,1,165.000005035401,2|8,3:2|0:0,0:0:0:0:
88,178,106862,1,0,0:0:0:0:
88,178,107034,1,0,0:0:0:0:
13,146,107206,1,0,3:2:0:0:
62,254,107379,6,0,L|256:309,1,165.000005035401,8|0,0:0|3:2,0:0:0:0:
220,299,109448,5,2,0:0:0:0:
282,255,109620,1,2,0:0:0:0:
213,223,109793,1,2,0:0:0:0:
275,180,109965,1,2,0:0:0:0:
369,119,110138,5,10,0:0:0:0:
430,162,110310,1,2,0:0:0:0:
495,26,110482,6,0,P|387:65|369:128,1,179.999994506836,2|8,3:2|0:0,0:0:0:0:
430,162,111000,5,0,0:0:0:0:
430,162,111172,2,0,P|343:156|285:221,1,179.999994506836,2|8,0:0|0:0,0:0:0:0:
289,296,111689,5,0,0:0:0:0:
289,296,111862,2,0,P|234:236|107:248,2,179.999994506836,2|8|0,3:2|0:0|0:0,0:0:0:0:
255,364,112724,1,0,3:2:0:0:
255,364,112896,1,8,0:0:0:0:
209,91,113241,6,0,L|190:-32,1,89.9999972534181,2|0,3:2|0:0,0:0:0:0:
284,140,113586,2,0,L|97:93,1,179.999994506836,8|0,0:0|0:0,0:0:0:0:
63,157,114103,1,0,3:2:0:0:
63,157,114275,2,0,L|76:245,1,89.9999972534181,8|0,0:0|0:0,0:0:0:0:
251,218,114620,2,0,L|164:196,1,89.9999972534181,0|0,3:2|0:0,0:0:0:0:
176,321,114965,5,10,0:0:0:0:
252,296,115138,1,2,0:0:0:0:
293,369,115310,1,2,0:0:0:0:
293,369,115482,1,2,3:2:0:0:
388,265,115655,2,0,P|359:207|376:121,1,134.999995880127,10|0,0:0|0:0,0:0:0:0:
374,128,116000,6,0,P|318:148|263:133,1,89.9999972534181,2|0,3:2|0:0,0:0:0:0:
297,5,116344,2,0,P|341:3|382:21,1,89.9999972534181,8|0,0:0|0:0,0:0:0:0:
251,67,116689,1,0,0:0:0:0:
251,67,116862,1,0,3:2:0:0:
182,26,117034,1,10,0:0:0:0:
109,47,117206,1,2,0:0:0:0:
126,170,117379,6,0,P|69:225|-3:217,1,134.999995880127,2|0,3:2|0:0,0:0:0:0:
6,226,117724,2,0,P|83:228|147:311,1,179.999994506836,8|0,0:0|0:0,0:0:0:0:
105,362,118241,1,0,3:2:0:0:
105,362,118413,1,10,0:0:0:0:
426,331,118758,6,0,L|458:232,1,89.9999972534181,2|0,3:2|0:0,0:0:0:0:
340,365,119103,2,0,B|326:312|326:312|374:191,1,179.999994506836,8|0,0:0|0:0,0:0:0:0:
266,213,119620,1,0,3:2:0:0:
266,213,119793,2,0,L|293:127,1,89.9999972534181,8|0,0:0|0:0,0:0:0:0:
400,110,120138,2,0,L|372:195,1,89.9999972534181,0|0,3:2|0:0,0:0:0:0:
214,88,120482,5,10,0:0:0:0:
281,49,120655,1,2,0:0:0:0:
281,49,120741,1,8,0:0:0:0:
281,49,120827,1,2,0:0:0:0:
146,45,121000,1,2,3:2:0:0:
146,45,121172,1,10,0:0:0:0:
76,163,121344,5,2,0:0:0:0:
76,163,121431,1,8,0:0:0:0:
76,163,121517,2,0,P|58:206|171:292,1,179.999994506836,2|8,3:2|0:0,0:0:0:0:
199,244,122034,5,0,0:0:0:0:
199,244,122206,2,0,P|268:194|257:109,1,179.999994506836,2|8,0:0|0:0,0:0:0:0:
358,187,122724,5,0,0:0:0:0:
358,187,122896,2,0,P|340:230|453:316,1,179.999994506836,2|8,3:2|0:0,0:0:0:0:
432,152,123413,5,0,0:0:0:0:
432,152,123586,2,0,P|501:102|490:17,2,179.999994506836,2|8|2,0:0|0:0|3:2,0:0:0:0:
199,244,124620,6,0,B|126:221|126:221|111:229|111:229|13:197,1,179.999994506836,8|0,0:0|0:0,0:0:0:0:
120,144,125138,1,0,3:2:0:0:
120,144,125310,2,0,L|221:175,1,89.9999972534181,8|0,0:0|0:0,0:0:0:0:
291,141,125655,2,0,B|278:110|278:110|178:76,1,134.999995880127,0|0,3:2|0:0,0:0:0:0:
170,75,126000,1,8,0:0:0:0:
337,62,126172,5,0,0:0:0:0:
337,62,126258,1,8,0:0:0:0:
337,62,126344,2,0,P|412:62|459:8,1,134.999995880127,2|0,0:0|0:0,0:0:0:0:
459,17,126689,2,0,P|416:67|419:132,1,134.999995880127,10|0,0:0|0:0,0:0:0:0:
431,141,127034,6,0,L|363:337,3,179.999994506836,2|8|2|8,3:2|0:0|0:0|0:0,0:0:0:0:
215,13,128413,5,2,3:2:0:0:
337,62,129103,6,0,P|412:62|459:8,1,134.999995880127,2|0,0:0|0:0,0:0:0:0:
459,17,129448,2,0,P|416:67|419:132,1,134.999995880127,10|0,0:0|0:0,0:0:0:0:
431,141,129793,6,0,L|363:337,1,179.999994506836,2|8,3:2|0:0,0:0:0:0:
311,183,130310,1,2,0:0:0:0:
311,183,130482,2,0,L|252:12,1,179.999994506836,2|8,0:0|0:0,0:0:0:0:
372,311,131172,6,0,L|469:285,1,89.9999972534181,0|0,3:2|0:0,0:0:0:0:
471,203,131517,2,0,L|374:229,1,89.9999972534181,8|0,0:0|0:0,0:0:0:0:
375,233,131775,1,8,0:0:0:0:
375,233,131862,1,2,0:0:0:0:
311,183,132034,1,0,3:2:0:0:
210,311,132206,6,0,P|148:297|119:245,1,89.9999972534181,10|0,0:0|0:0,0:0:0:0:
149,209,132465,5,0,0:0:0:0:
149,209,132551,2,0,P|131:264|9:283,1,194.999991073609,6|8,3:2|0:0,0:0:0:0:
9,134,133069,5,0,0:0:0:0:
9,134,133155,1,0,0:0:0:0:
9,134,133241,2,0,P|56:213|148:208,1,194.999991073609,2|8,0:0|0:0,0:0:0:0:
148,59,133758,5,0,0:0:0:0:
148,59,133844,1,0,0:0:0:0:
148,59,133931,2,0,P|130:114|8:133,2,194.999991073609,2|8|0,3:2|0:0|0:0,0:0:0:0:
87,10,134793,1,0,3:2:0:0:
87,10,134965,1,10,0:0:0:0:
365,75,135310,6,0,L|463:99,1,89.9999972534181,2|0,3:2|0:0,0:0:0:0:
317,0,135655,2,0,L|361:198,1,179.999994506836,8|0,0:0|0:0,0:0:0:0:
268,154,136172,1,0,3:2:0:0:
268,154,136344,2,0,L|366:178,1,89.9999972534181,8|0,0:0|0:0,0:0:0:0:
383,271,136689,2,0,L|285:247,1,89.9999972534181,0|0,3:2|0:0,0:0:0:0:
219,228,137034,1,8,0:0:0:0:
193,344,137206,5,2,0:0:0:0:
193,344,137293,1,8,0:0:0:0:
193,344,137379,1,2,0:0:0:0:
155,268,137551,1,2,3:2:0:0:
87,301,137724,1,10,0:0:0:0:
87,301,137896,1,2,0:0:0:0:
219,228,138069,6,0,P|249:178|237:31,2,179.999994506836,2|8|0,3:2|0:0|0:0,0:0:0:0:
155,268,138931,1,0,3:2:0:0:
263,337,139103,5,10,0:0:0:0:
295,269,139275,1,2,0:0:0:0:
360,306,139448,6,0,P|367:217|328:137,2,179.999994506836,2|8|0,3:2|0:0|0:0,0:0:0:0:
336,375,140310,1,0,3:2:0:0:
336,375,140482,1,8,0:0:0:0:
93,328,140827,6,0,L|-27:295,1,89.9999972534181,0|0,3:2|0:0,0:0:0:0:
0,225,141172,2,0,B|65:243|65:243|80:230|80:230|182:257,1,179.999994506836,8|0,0:0|0:0,0:0:0:0:
156,167,141689,1,0,3:2:0:0:
156,167,141862,2,0,L|131:64,1,89.9999972534181,8|0,0:0|0:0,0:0:0:0:
35,70,142206,2,0,L|60:173,1,89.9999972534181,0|0,3:2|0:0,0:0:0:0:
169,253,142551,5,10,0:0:0:0:
241,202,142724,1,2,0:0:0:0:
241,202,142810,1,8,0:0:0:0:
241,202,142896,1,2,0:0:0:0:
217,95,143069,1,2,3:2:0:0:
309,257,143241,1,10,0:0:0:0:
325,168,143413,5,2,0:0:0:0:
325,168,143500,1,8,0:0:0:0:
325,168,143586,2,0,P|373:117|491:122,1,179.999994506836,2|8,3:2|0:0,0:0:0:0:
461,203,144103,5,0,0:0:0:0:
461,203,144275,2,0,P|413:254|295:249,1,179.999994506836,2|8,0:0|0:0,0:0:0:0:
371,108,144793,5,0,0:0:0:0:
371,108,144965,2,0,P|323:57|205:62,1,179.999994506836,2|8,3:2|0:0,0:0:0:0:
122,188,145482,5,0,0:0:0:0:
122,188,145655,2,0,P|209:193|274:134,2,179.999994506836,2|8|2,0:0|0:0|3:2,0:0:0:0:
325,343,146689,6,0,B|351:363|351:363|492:323,1,179.999994506836,8|0,0:0|0:0,0:0:0:0:
365,270,147206,1,0,3:2:0:0:
365,270,147379,2,0,L|472:242,1,89.9999972534181,8|0,0:0|0:0,0:0:0:0:
462,153,147724,2,0,L|355:181,1,89.9999972534181,0|0,3:2|0:0,0:0:0:0:
321,125,148069,2,0,L|343:37,1,89.9999972534181,8|0,0:0|0:0,0:0:0:0:
345,15,148327,5,8,0:0:0:0:
345,15,148413,2,0,P|290:63|203:63,1,134.999995880127,2|0,0:0|0:0,0:0:0:0:
207,70,148758,2,0,P|272:80|321:125,1,134.999995880127,10|0,0:0|0:0,0:0:0:0:
312,133,149103,6,0,L|114:173,3,179.999994506836,2|8|2|8,3:2|0:0|0:0|0:0,0:0:0:0:
441,352,150482,5,2,3:2:0:0:
345,15,151172,6,0,P|290:63|203:63,1,134.999995880127,2|0,0:0|0:0,0:0:0:0:
207,70,151517,2,0,P|272:80|321:125,1,134.999995880127,10|0,0:0|0:0,0:0:0:0:
312,133,151862,6,0,L|114:173,1,194.999991073609,2|8,3:2|0:0,0:0:0:0:
320,211,152379,2,0,L|511:249,1,194.999991073609,2|0,0:0|3:2,0:0:0:0:
323,298,152896,2,0,L|131:336,1,194.999991073609,10|0,0:0|3:2,0:0:0:0:
131,335,154275,5,8,0:0:0:0:
33,256,154620,6,0,P|54:249|84:252,1,44.999998626709,2|0,0:0|0:0,0:0:0:0:
110,181,154965,2,0,P|89:173|67:151,1,44.999998626709,2|0,0:0|0:0,0:0:0:0:
116,69,155310,2,0,P|127:87|131:118,1,44.999998626709,2|0,0:0|0:0,0:0:0:0:
205,127,155655,2,0,P|207:105|223:78,1,44.999998626709,2|0,0:0|0:0,0:0:0:0:
223,3,156000,2,0,P|228:60|120:105,1,179.999994506836,2|0,0:0|0:0,0:0:0:0:
131,109,157379,6,0,P|145:157|225:176,1,134.999995880127,2|0,0:0|0:0,0:0:0:0:
221,41,158069,2,0,P|157:50|131:109,1,134.999995880127,2|0,0:0|0:0,0:0:0:0:
288,136,158758,6,0,P|277:68|214:41,1,136.49999916687,2|0,0:0|0:0,0:0:0:0:
220,40,160138,6,0,P|266:21|272:14,1,44.999998626709,2|0,0:0|0:0,0:0:0:0:
320,80,160482,2,0,P|335:63|344:43,1,44.999998626709,2|0,0:0|0:0,0:0:0:0:
404,105,160827,2,0,P|388:121|379:141,1,44.999998626709,2|0,0:0|0:0,0:0:0:0:
425,199,161171,2,0,P|447:195|466:184,1,44.999998626709,2|0,0:0|0:0,0:0:0:0:
419,275,161517,2,0,P|372:256|366:249,1,44.999998626709,2|0,0:0|0:0,0:0:0:0:
304,277,161861,2,0,P|288:260|280:203,1,67.4999979400635,2|0,0:0|0:0,0:0:0:0:
285,206,162206,1,2,0:0:0:0:
285,206,162551,1,2,0:0:0:0:
304,277,162896,6,0,P|336:238|417:254,1,134.999995880127,2|0,0:0|0:0,0:0:0:0:
358,376,163586,2,0,P|303:341|304:276,1,134.999995880127,2|0,0:0|0:0,0:0:0:0:
458,316,164275,6,0,P|421:373|352:373,1,136.49999916687,2|0,0:0|0:0,0:0:0:0:
285,367,165655,6,0,P|263:360|233:363,1,52.4999983978272,2|0,0:0|0:0,0:0:0:0:
208,292,166000,2,0,P|228:284|250:262,1,52.4999983978272,2|0,0:0|0:0,0:0:0:0:
201,169,166345,2,0,P|189:187|185:218,1,52.4999983978272,2|0,0:0|0:0,0:0:0:0:
115,248,166690,2,0,P|112:226|96:199,1,52.4999983978272,2|0,0:0|0:0,0:0:0:0:
45,138,167035,6,0,P|53:192|186:215,1,209.999993591309,2|2,0:0|0:0,0:0:0:0:
184,216,168069,1,2,0:0:0:0:
221,138,168413,6,0,P|266:174|252:269,1,157.499995193482,2|0,0:0|0:0,0:0:0:0:
109,207,169103,2,0,P|147:140|224:139,1,157.499995193482,2|0,0:0|0:0,0:0:0:0:
188,307,169793,6,0,P|115:277|113:198,1,157.499995193482,2|0,0:0|0:0,0:0:0:0:
170,177,171172,6,0,P|202:210|208:230,1,52.4999983978272,2|0,0:0|0:0,0:0:0:0:
302,218,171517,2,0,P|269:184|263:164,1,52.4999983978272,2|0,0:0|0:0,0:0:0:0:
330,106,171862,2,0,P|338:151|332:171,1,52.4999983978272,2|0,0:0|0:0,0:0:0:0:
418,213,172207,2,0,P|409:167|415:147,1,52.4999983978272,2|0,0:0|0:0,0:0:0:0:
499,127,172551,2,0,P|485:171|470:186,1,52.4999983978272,2|0,0:0|0:0,0:0:0:0:
407,89,172896,2,0,P|420:44|435:29,1,52.4999983978272,2|0,0:0|0:0,0:0:0:0:
257,0,173241,6,0,P|309:43|329:108,1,134.999995880127,2|0,0:0|0:0,0:0:0:0:
260,138,173931,2,0,P|213:96|196:37,1,120,2|0,0:0|0:0,0:0:0:0:
256,192,175396,12,0,176344,0:0:0:0:
260,138,176689,6,0,P|213:96|196:37,1,97.4999955368044,6|0,3:2|0:0,0:0:0:0:
92,130,177034,2,0,P|95:192|65:246,1,97.4999955368044,10|0,0:0|0:0,0:0:0:0:
197,349,177379,2,0,P|193:286|223:232,1,97.4999955368044,2|0,0:0|3:2,0:0:0:0:
82,223,177724,2,0,P|40:270|-18:287,1,97.4999955368044,10|0,0:0|0:0,0:0:0:0:
205,254,178069,6,0,P|252:200|383:180,1,194.999991073609,2|8,3:2|0:0,0:0:0:0:
377,77,178586,1,0,0:0:0:0:
377,77,178758,2,0,P|281:65|213:0,1,194.999991073609,2|8,0:0|0:0,0:0:0:0:
212,0,179275,1,0,0:0:0:0:
128,152,179448,6,0,L|236:126,1,97.4999955368044,2|0,3:2|0:0,0:0:0:0:
14,246,179793,2,0,B|55:275|55:275|203:240,1,194.999991073609,8|0,0:0|0:0,0:0:0:0:
270,383,180310,1,0,3:2:0:0:
270,383,180482,2,0,L|296:275,1,97.4999955368044,8|0,0:0|0:0,0:0:0:0:
195,241,180827,2,0,L|169:349,1,97.4999955368044,0|0,3:2|0:0,0:0:0:0:
86,265,181172,1,8,0:0:0:0:
300,158,181344,5,0,0:0:0:0:
300,158,181431,1,8,0:0:0:0:
300,158,181517,2,0,P|325:214|264:302,1,146.249993305207
171,138,181862,2,0,P|239:119|299:157,1,146.249993305207,8|0,0:0|0:0,0:0:0:0:
347,212,182206,6,0,P|391:167|451:153,1,97.4999955368044,2|0,3:2|0:0,0:0:0:0:
405,27,182551,2,0,P|341:27|289:-5,1,97.4999955368044,10|0,0:0|0:0,0:0:0:0:
291,287,182896,2,0,P|310:242|347:211,1,97.4999955368044,2|0,0:0|3:2,0:0:0:0:
233,155,183241,2,0,P|213:199|176:230,1,97.4999955368044,10|0,0:0|0:0,0:0:0:0:
13,41,183586,2,0,P|57:22|106:25,1,97.4999955368044,2|0,3:2|0:0,0:0:0:0:
175,230,183931,2,0,P|110:236|16:155,1,194.999991073609,10|0,0:0|0:0,0:0:0:0:
129,128,184448,1,0,3:2:0:0:
143,332,184620,2,0,P|207:325|272:250,1,146.249993305207,10|0,0:0|0:0,0:0:0:0:
275,266,184965,6,0,L|240:369,1,97.4999955368044,2|0,3:2|0:0,0:0:0:0:
348,383,185310,2,0,L|410:198,1,194.999991073609,8|0,0:0|0:0,0:0:0:0:
270,97,185827,1,0,3:2:0:0:
270,97,186000,2,0,L|235:200,1,97.4999955368044,8|0,0:0|0:0,0:0:0:0:
442,106,186344,2,0,L|407:209,1,97.4999955368044,0|0,3:2|0:0,0:0:0:0:
348,33,186689,2,0,L|451:-2,1,97.4999955368044,8|0,0:0|0:0,0:0:0:0:
456,10,186948,1,8,0:0:0:0:
456,10,187034,1,0,0:0:0:0:
353,111,187206,1,0,3:2:0:0:
267,18,187379,1,8,0:0:0:0:
157,72,187551,5,0,0:0:0:0:
148,67,187638,1,8,0:0:0:0:
138,63,187724,2,0,P|184:101|196:175,1,97.4999955368044,2|0,3:2|0:0,0:0:0:0:
90,250,188069,2,0,P|44:212|32:138,1,97.4999955368044,10|0,0:0|0:0,0:0:0:0:
268,106,188413,2,0,P|273:165|229:226,1,97.4999955368044,2|0,0:0|3:2,0:0:0:0:
119,164,188758,2,0,P|111:116|128:71,1,97.4999955368044,10|0,0:0|0:0,0:0:0:0:
257,198,189103,6,0,P|203:252|75:241,1,194.999991073609,2|8,3:2|0:0,0:0:0:0:
31,83,189620,5,0,0:0:0:0:
31,83,189793,2,0,P|85:137|213:126,1,194.999991073609,2|8,0:0|0:0,0:0:0:0:
197,135,190310,1,0,0:0:0:0:
397,58,190482,6,0,L|512:15,1,97.4999955368044,0|0,3:2|0:0,0:0:0:0:
344,0,190827,2,0,B|314:77|314:77|324:99|324:99|286:206,1,194.999991073609,8|0,0:0|0:0,0:0:0:0:
375,269,191344,1,0,3:2:0:0:
375,269,191517,2,0,L|490:226,1,97.4999955368044,8|0,0:0|0:0,0:0:0:0:
385,147,191862,2,0,L|270:190,1,97.4999955368044,0|0,3:2|0:0,0:0:0:0:
397,58,192206,1,8,0:0:0:0:
240,74,192379,1,0,0:0:0:0:
240,74,192465,2,0,L|296:89,1,48.7499977684022,8|0,0:0|0:0,0:0:0:0:
281,0,192724,1,0,3:2:0:0:
147,54,192896,2,0,P|125:98|151:171,1,97.4999955368044,8|0,0:0|0:0,0:0:0:0:
220,184,193241,6,0,P|279:163|317:115,1,97.4999955368044,2|0,3:2|0:0,0:0:0:0:
379,239,193586,2,0,P|352:296|360:357,1,97.4999955368044,10|0,0:0|0:0,0:0:0:0:
191,367,193931,2,0,P|217:309|210:249,1,97.4999955368044,2|0,0:0|3:2,0:0:0:0:
460,180,194275,2,0,P|481:239|529:277,1,97.4999955368044,10|0,0:0|0:0,0:0:0:0:
217,275,194620,6,0,P|193:207|79:139,2,194.999991073609,2|10|0,3:2|0:0|0:0,0:0:0:0:
325,48,195482,1,0,3:2:0:0:
325,48,195655,2,0,P|300:109|314:172,1,97.4999955368044,8|0,0:0|0:0,0:0:0:0:
340,220,196000,6,0,B|397:263|452:252|481:187|465:130|381:85|294:129|334:160|237:227|133:161|117:57|173:-28|271:-22|332:56,1,629.999980773926,2|2,3:2|0:0,0:0:0:0:
178,266,198413,5,10,0:0:0:0:
340,220,198586,1,2,0:0:0:0:
372,360,198758,6,0,P|348:275|224:257,1,194.999991073609,6|8,3:2|0:0,0:0:0:0:
172,381,199275,1,0,0:0:0:0:
172,381,199362,1,0,0:0:0:0:
172,381,199448,2,0,P|215:360|235:293,2,97.4999955368044,2|0|8,0:0|3:2|0:0,0:0:0:0:
178,266,199965,1,0,0:0:0:0:
253,245,200138,6,0,P|170:186|165:102,1,146.249993305207,0|0,3:2|0:0,0:0:0:0:
173,137,200482,1,8,0:0:0:0:
362,58,200655,1,0,0:0:0:0:
362,58,200741,1,0,0:0:0:0:
362,58,200827,2,0,P|356:108|313:153,1,97.4999955368044,2|0,0:0|3:2,0:0:0:0:
247,110,201172,2,0,P|252:59|295:14,1,97.4999955368044,10|0,0:0|0:0,0:0:0:0:
159,147,201517,6,0,P|188:212|253:245,1,146.249993305207,2|0,3:2|0:0,0:0:0:0:
270,235,201862,1,8,0:0:0:0:
247,110,202034,1,2,0:0:0:0:
247,110,202120,1,0,0:0:0:0:
247,110,202206,2,0,P|252:59|295:14,1,97.4999955368044,2|0,0:0|3:2,0:0:0:0:
362,58,202551,2,0,P|356:108|313:153,1,97.4999955368044,8|0,0:0|0:0,0:0:0:0:
270,235,202896,6,0,B|293:224|293:224|364:254,1,97.4999955368044,0|0,3:2|0:0,0:0:0:0:
298,338,203241,2,0,B|275:349|275:349|204:319,1,97.4999955368044,8|0,0:0|0:0,0:0:0:0:
204,306,203500,1,8,0:0:0:0:
204,306,203586,2,0,P|139:240|69:238,1,146.249993305207,2|0,0:0|0:0,0:0:0:0:
74,236,203931,2,0,P|143:219|188:163,1,146.249993305207,10|0,0:0|0:0,0:0:0:0:
261,141,204275,6,0,P|194:137|115:34,1,194.999991073609,6|8,3:2|0:0,0:0:0:0:
329,60,204793,1,0,0:0:0:0:
329,60,204879,1,0,0:0:0:0:
329,60,204965,2,0,P|282:22|227:22,2,97.4999955368044,2|0|8,0:0|3:2|0:0,0:0:0:0:
338,134,205482,1,0,0:0:0:0:
512,64,205655,6,0,P|447:97|445:201,1,146.249993305207,2|0,3:2|0:0,0:0:0:0:
444,167,206000,1,8,0:0:0:0:
333,265,206172,1,0,0:0:0:0:
333,265,206258,1,0,0:0:0:0:
333,265,206344,2,0,P|375:307|385:357,1,97.4999955368044,2|0,0:0|3:2,0:0:0:0:
460,298,206689,2,0,P|475:252|511:220,1,97.4999955368044,10|0,0:0|0:0,0:0:0:0:
430,164,207034,6,0,P|448:95|512:64,1,146.249993305207,2|0,3:2|0:0,0:0:0:0:
512,78,207379,1,8,0:0:0:0:
511,220,207551,1,2,0:0:0:0:
511,220,207638,1,0,0:0:0:0:
511,220,207724,2,0,P|475:252|460:298,1,97.4999955368044,2|0,0:0|3:2,0:0:0:0:
384,342,208069,2,0,P|369:296|333:265,1,97.4999955368044,8|0,0:0|0:0,0:0:0:0:
148,318,208413,6,0,L|260:352,1,97.4999955368044,0|0,3:2|0:0,0:0:0:0:
151,212,208758,1,8,0:0:0:0:
14,269,208931,1,0,0:0:0:0:
14,269,209017,2,0,L|67:246,1,48.7499977684022,8|2,0:0|0:0,0:0:0:0:
98,109,209275,1,0,3:2:0:0:
11,148,209448,1,10,0:0:0:0:
138,0,209620,5,0,0:0:0:0:
130,6,209706,1,8,0:0:0:0:
122,12,209793,2,0,P|115:84|226:162,1,194.999991073609,6|8,3:2|0:0,0:0:0:0:
300,13,210310,1,0,0:0:0:0:
300,13,210396,1,0,0:0:0:0:
300,13,210482,2,0,P|258:45|248:96,2,97.4999955368044,2|0|8,0:0|3:2|0:0,0:0:0:0:
335,99,211000,1,0,0:0:0:0:
321,207,211172,6,0,P|226:197|194:138,1,146.249993305207,2|0,3:2|0:0,0:0:0:0:
203,151,211517,1,8,0:0:0:0:
72,238,211689,1,0,0:0:0:0:
72,238,211775,1,0,0:0:0:0:
72,238,211862,2,0,P|40:288|-15:306,1,97.4999955368044,2|0,0:0|3:2,0:0:0:0:
163,276,212206,2,0,P|205:299|228:341,1,97.4999955368044,10|0,0:0|0:0,0:0:0:0:
199,160,212551,6,0,P|250:210|321:206,1,146.249993305207,0|0,3:2|0:0,0:0:0:0:
322,190,212896,1,8,0:0:0:0:
228,341,213069,1,2,0:0:0:0:
228,341,213155,1,0,0:0:0:0:
228,341,213241,2,0,P|205:299|163:276,1,97.4999955368044,2|0,0:0|3:2,0:0:0:0:
6,303,213586,2,0,P|48:280|72:238,1,97.4999955368044,10|0,0:0|0:0,0:0:0:0:
0,72,213931,6,0,L|32:191,1,97.4999955368044,0|0,3:2|0:0,0:0:0:0:
71,22,214275,1,8,0:0:0:0:
179,146,214448,1,0,0:0:0:0:
179,146,214534,2,0,L|157:73,1,48.7499977684022,8|2,0:0|0:0,0:0:0:0:
231,5,214793,1,0,3:2:0:0:
286,77,214965,2,0,P|349:71|395:-1,1,146.249993305207,10|0,0:0|0:0,0:0:0:0:
406,4,215310,6,0,P|415:66|455:112,1,97.4999955368044,2|0,3:2|0:0,0:0:0:0:
342,204,215655,2,0,P|291:167|230:163,1,97.4999955368044,10|0,0:0|0:0,0:0:0:0:
214,232,216000,2,0,P|264:268|325:272,1,97.4999955368044,2|0,0:0|3:2,0:0:0:0:
91,245,216344,2,0,P|31:265|-6:312,1,97.4999955368044,10|0,0:0|0:0,0:0:0:0:
124,384,216689,2,0,P|151:327|145:267,1,97.4999955368044,2|0,3:2|0:0,0:0:0:0:
258,160,217034,2,0,P|295:190|341:203,1,97.4999955368044,10|0,0:0|0:0,0:0:0:0:
459,133,217379,6,0,P|414:75|405:3,1,146.249993305207,2|0,0:0|0:0,0:0:0:0:
405,3,217724,2,0,P|395:74|351:132,1,146.249993305207,10|0,0:0|0:0,0:0:0:0:
336,128,218069,6,0,L|115:82,1,194.999991073609,2|8,3:2|0:0,0:0:0:0:
319,233,218586,1,2,0:0:0:0:
319,233,218758,2,0,L|509:193,1,194.999991073609,2|8,0:0|0:0,0:0:0:0:
154,349,219448,6,0,L|16:320,1,97.4999955368044,0|0,3:2|0:0,0:0:0:0:
136,197,219793,1,8,0:0:0:0:
248,291,219965,1,0,0:0:0:0:
248,291,220051,2,0,L|165:273,1,48.7499977684022,8|2,0:0|0:0,0:0:0:0:
279,221,220310,1,0,3:2:0:0:
333,281,220482,6,0,P|407:261|420:214,1,97.4999955368044,10|0,0:0|0:0,0:0:0:0:
405,239,220741,5,8,0:0:0:0:
405,239,220827,2,0,B|388:164|305:140|311:164|224:153|208:78,1,269.999991760254,2|2,0:0|0:0,0:0:0:0:
207,78,223586,1,2,0:0:0:0:
207,78,225655,5,2,0:0:0:0:
138,43,226000,1,2,0:0:0:0:
207,78,226344,6,0,B|187:126|128:128|139:110|47:84|15:149|6:216|20:237|50:254|107:254|121:208|77:183,1,359.999989013672,2|2,0:0|0:0,0:0:0:0:
78,183,231172,5,2,0:0:0:0:
48,251,231517,1,2,0:0:0:0:
78,183,231862,6,0,P|165:172|260:311,1,269.999991760254,2|2,0:0|0:0,0:0:0:0:
260,306,234620,1,2,0:0:0:0:
260,306,236689,5,2,0:0:0:0:
199,359,237034,1,2,0:0:0:0:
260,306,237379,6,0,P|331:281|355:281,1,89.9999972534181,2|2,0:0|0:0,0:0:0:0:
389,110,239448,5,2,0:0:0:0:
328,57,239793,1,2,0:0:0:0:
389,110,240138,6,0,P|460:135|484:135,2,89.9999972534181,2|2|0,0:0|0:0|0:0,0:0:0:0:
389,110,242896,6,0,L|210:72,1,179.999994506836,2|2,0:0|0:0,0:0:0:0:
212,72,248413,6,0,L|249:248,1,179.999994506836,2|2,0:0|0:0,0:0:0:0:
249,248,253931,6,0,P|152:243|117:173,1,179.999994506836,2|2,0:0|0:0,0:0:0:0:
117,177,259448,6,0,P|112:274|42:309,1,179.999994506836,2|2,0:0|0:0,0:0:0:0:
256,192,262293,12,0,266344,0:0:0:0:
