osu file format v14

[General]
AudioFilename: audio.mp3
AudioLeadIn: 0
PreviewTime: 22597
Countdown: 0
SampleSet: Soft
StackLeniency: 0.7
Mode: 2
LetterboxInBreaks: 0
WidescreenStoryboard: 1

[Editor]
Bookmarks: 11303,22597,34322,59303,67773,90361,112950,135538
DistanceSpacing: 0.1
BeatDivisor: 4
GridSize: 8
TimelineZoom: 4.099998

[Metadata]
Title:Skyworld
TitleUnicode:Skyworld
Artist:Techmo-X
ArtistUnicode:Techmo-X
Creator:_wwwww
Version:Overdose
Source:
Tags:newgrounds
BeatmapID:1745419
BeatmapSetID:833263

[Difficulty]
HPDrainRate:6
CircleSize:4
OverallDifficulty:9
ApproachRate:9.5
SliderMultiplier:2.1
SliderTickRate:1

[Events]
//Background and Video events
0,0,"maxresdefault.jpg",0,0
//Break Periods
//Storyboard Layer 0 (Background)
//Storyboard Layer 1 (Fail)
//Storyboard Layer 2 (Pass)
//Storyboard Layer 3 (Foreground)
//Storyboard Sound Samples

[TimingPoints]
9,352.941176470588,4,2,1,20,1,0
22597,-100,4,2,1,40,0,0
45185,-100,4,2,1,50,0,1
67773,-100,4,2,1,30,0,0
112950,-333.333333333333,4,2,1,20,0,0

[Colours]
Combo1 : 4,120,153
Combo2 : 53,244,135

[HitObjects]
164,191,185,6,0,L|156:87,1,105
320,192,538,2,0,L|200:192,1,105
368,192,891,2,0,L|376:304,1,105
224,296,1244,2,0,L|344:296,1,105
112,296,1773,1,0,0:0:0:0:
240,104,2303,1,0,0:0:0:0:
128,104,2479,6,0,L|120:216,1,105
256,120,2832,1,0,0:0:0:0:
120,288,3008,2,0,L|224:288,1,105
384,288,3361,2,0,L|248:288,1,105
432,288,3714,2,0,L|440:168,1,105
280,184,4067,2,0,L|168:184,1,105
336,184,4597,1,0,0:0:0:0:
280,104,5126,1,0,0:0:0:0:
392,104,5302,6,0,L|400:216,1,105
256,128,5656,1,0,0:0:0:0:
400,264,5832,2,0,L|248:264,2,105
240,264,6361,2,0,L|344:264,1,105
184,264,6714,2,0,L|176:144,1,105
344,120,7067,1,0,0:0:0:0:
144,120,7420,1,0,0:0:0:0:
48,120,7950,1,0,0:0:0:0:
144,120,8126,6,0,L|152:232,1,105
280,224,8479,1,0,0:0:0:0:
152,224,8656,2,0,L|144:104,1,105
304,120,9008,2,0,L|192:120,1,105
352,120,9361,2,0,L|360:240,1,105
216,272,9714,2,0,L|112:272,1,105
312,272,10244,1,0,0:0:0:0:
408,272,10420,1,0,0:0:0:0:
104,80,10773,5,0,0:0:0:0:
200,80,10950,2,0,L|208:192,1,105
88,240,11303,1,0,0:0:0:0:
256,240,11479,6,0,L|368:240,1,105
208,240,11832,2,0,L|80:240,2,105
368,240,12361,2,0,L|216:240,1,105
96,104,12714,1,0,0:0:0:0:
248,104,13067,1,0,0:0:0:0:
144,104,13244,1,0,0:0:0:0:
352,104,13597,1,0,0:0:0:0:
456,104,13773,1,0,0:0:0:0:
256,208,14126,5,0,0:0:0:0:
136,208,14303,2,0,L|48:280,2,105
288,208,14832,2,0,L|160:208,1,105
336,208,15185,2,0,L|344:320,1,105
144,312,15538,1,0,0:0:0:0:
312,312,15891,1,0,0:0:0:0:
416,312,16067,1,0,0:0:0:0:
200,312,16420,1,0,0:0:0:0:
96,312,16597,1,0,0:0:0:0:
288,112,16950,5,0,0:0:0:0:
393,112,17126,2,0,L|265:112,2,105
232,112,17656,2,0,L|224:216,1,105
393,112,18008,2,0,L|401:224,1,105
224,216,18361,1,0,0:0:0:0:
400,216,18714,1,0,0:0:0:0:
296,216,18891,1,0,0:0:0:0:
88,216,19244,1,0,0:0:0:0:
192,216,19420,1,0,0:0:0:0:
400,216,19773,5,0,0:0:0:0:
296,216,19950,2,0,L|288:104,1,105
128,112,20303,2,0,L|256:112,1,105
88,216,20656,2,0,L|200:216,2,105
344,112,21185,6,0,L|352:216,1,105
192,224,21538,2,0,L|312:224,1,105
136,224,21891,2,0,L|128:104,1,105
296,112,22244,2,0,L|184:112,1,105
480,112,22597,6,0,L|472:216,1,105
208,296,22950,2,0,L|56:296,1,105
312,296,23214,1,0,0:0:0:0:
392,296,23303,2,0,L|400:192,1,105
247,112,23656,2,0,L|351:112,1,105
192,112,24008,6,0,L|80:112,1,105
376,112,24361,2,0,L|384:240,1,105
200,296,24626,1,0,0:0:0:0:
120,296,24715,2,0,L|112:192,1,105
271,112,25067,2,0,L|375:112,1,105
512,200,25420,6,0,L|408:200,1,105
144,200,25773,2,0,L|64:280,1,105
256,304,26038,1,0,0:0:0:0:
336,304,26127,2,0,L|344:200,1,105
192,48,26479,2,0,L|312:48,1,105
136,48,26832,6,0,L|32:48,1,105
352,48,27185,2,0,L|360:176,1,105
184,200,27450,1,0,0:0:0:0:
104,200,27538,2,0,L|96:304,1,105
248,304,27891,2,0,L|352:304,1,105
472,304,28244,6,0,L|464:176,1,105
200,304,28597,2,0,L|96:304,1,105
312,304,28861,1,0,0:0:0:0:
392,304,28950,2,0,L|400:184,1,105
248,72,29303,2,0,L|360:72,1,105
200,144,29656,6,0,L|312:144,1,105
72,144,30008,2,0,L|64:256,1,105
272,248,30272,1,0,0:0:0:0:
352,248,30361,2,0,L|360:128,1,105
208,72,30714,2,0,L|96:72,1,105
264,72,31067,6,0,L|272:208,1,105
504,248,31420,2,0,L|376:248,1,105
192,248,31685,1,0,0:0:0:0:
112,248,31774,2,0,L|104:128,1,105
256,72,32126,2,0,L|144:72,1,105
312,72,32479,6,0,L|320:192,1,105
56,144,32832,2,0,L|48:256,1,105
232,281,33097,1,0,0:0:0:0:
312,281,33186,2,0,L|320:161,1,105
160,72,33538,2,0,L|280:72,1,105
512,192,33891,6,0,L|392:192,1,105
160,192,34244,2,0,L|152:304,1,105
327,192,34508,1,0,0:0:0:0:
407,192,34597,2,0,L|287:192,1,105
160,192,34950,2,0,L|152:312,1,105
312,72,35303,6,0,L|184:72,1,105
448,192,35656,2,0,L|456:304,1,105
208,192,35920,1,0,0:0:0:0:
128,192,36008,2,0,L|248:192,1,105
376,192,36361,2,0,L|369:320,1,105
232,72,36714,6,0,L|128:72,1,105
392,72,37067,2,0,L|400:200,1,105
232,216,37332,1,0,0:0:0:0:
152,216,37420,2,0,L|272:216,1,105
408,304,37773,2,0,L|296:304,1,105
456,304,38126,6,0,L|464:184,1,105
208,192,38479,2,0,L|312:192,1,105
104,192,38744,1,0,0:0:0:0:
24,192,38832,2,0,L|16:80,1,105
184,192,39185,2,0,L|192:304,1,105
320,304,39538,6,0,L|432:304,1,105
289,192,39891,2,0,L|161:192,1,105
392,192,40156,1,0,0:0:0:0:
472,192,40244,2,0,L|480:80,1,105
312,48,40597,2,0,L|432:48,1,105
264,48,40950,6,0,L|256:176,1,105
96,48,41303,2,0,L|104:184,1,105
256,152,41567,1,0,0:0:0:0:
336,152,41656,2,0,L|344:272,1,105
184,256,42008,2,0,L|289:256,1,105
394,256,42361,6,0,L|274:256,2,105
118,256,42891,2,0,L|238:256,2,105
384,152,43420,2,0,L|496:152,2,105
128,152,43950,2,0,L|16:152,2,105
368,80,44479,5,0,0:0:0:0:
416,99,44567,1,0,0:0:0:0:
452,137,44655,1,0,0:0:0:0:
467,186,44743,1,0,0:0:0:0:
460,238,44831,1,0,0:0:0:0:
431,281,44920,1,0,0:0:0:0:
386,307,45008,1,0,0:0:0:0:
334,312,45096,1,0,0:0:0:0:
128,112,45185,5,0,0:0:0:0:
79,130,45273,1,0,0:0:0:0:
46,170,45361,1,0,0:0:0:0:
38,221,45449,1,0,0:0:0:0:
57,269,45537,1,0,0:0:0:0:
98,301,45626,1,0,0:0:0:0:
149,308,45714,1,0,0:0:0:0:
197,288,45802,1,0,0:0:0:0:
308,183,45891,5,0,0:0:0:0:
334,225,45979,1,0,0:0:0:0:
327,277,46067,1,0,0:0:0:0:
290,312,46155,1,0,0:0:0:0:
239,316,46243,1,0,0:0:0:0:
197,288,46332,1,0,0:0:0:0:
182,239,46420,1,0,0:0:0:0:
201,190,46508,1,0,0:0:0:0:
424,152,46597,5,0,0:0:0:0:
424,104,46685,1,0,0:0:0:0:
384,64,46773,1,0,0:0:0:0:
333,57,46861,1,0,0:0:0:0:
288,84,46949,1,0,0:0:0:0:
270,132,47038,1,0,0:0:0:0:
288,181,47126,1,0,0:0:0:0:
336,200,47214,1,0,0:0:0:0:
136,264,47303,5,0,0:0:0:0:
84,264,47391,1,0,0:0:0:0:
32,256,47479,1,0,0:0:0:0:
2,213,47567,1,0,0:0:0:0:
0,160,47655,1,0,0:0:0:0:
32,120,47744,1,0,0:0:0:0:
80,104,47832,1,0,0:0:0:0:
136,104,47920,1,0,0:0:0:0:
352,112,48008,6,0,L|424:112,1,52.5
336,160,48185,2,0,L|280:160,1,52.5
360,208,48361,2,0,L|424:208,1,52.5
328,264,48538,2,0,L|264:264,1,52.5
99,272,48714,5,0,0:0:0:0:
78,223,48802,1,0,0:0:0:0:
91,168,48890,1,0,0:0:0:0:
131,128,48978,1,0,0:0:0:0:
187,120,49066,1,0,0:0:0:0:
235,128,49155,1,0,0:0:0:0:
275,176,49243,1,0,0:0:0:0:
283,232,49331,1,0,0:0:0:0:
99,272,49420,5,0,0:0:0:0:
59,238,49508,1,0,0:0:0:0:
43,189,49596,1,0,0:0:0:0:
55,139,49684,1,0,0:0:0:0:
92,103,49772,1,0,0:0:0:0:
143,92,49861,1,0,0:0:0:0:
192,110,49949,1,0,0:0:0:0:
223,151,50037,1,0,0:0:0:0:
92,103,50126,5,0,0:0:0:0:
53,137,50214,1,0,0:0:0:0:
38,186,50302,1,0,0:0:0:0:
50,241,50390,1,0,0:0:0:0:
88,275,50478,1,0,0:0:0:0:
132,294,50567,1,0,0:0:0:0:
183,298,50655,1,0,0:0:0:0:
228,276,50743,1,0,0:0:0:0:
432,96,50832,5,0,0:0:0:0:
473,127,50920,1,0,0:0:0:0:
494,174,51008,1,0,0:0:0:0:
490,226,51096,1,0,0:0:0:0:
462,270,51184,1,0,0:0:0:0:
417,295,51273,1,0,0:0:0:0:
365,295,51361,1,0,0:0:0:0:
319,271,51449,1,0,0:0:0:0:
144,152,51538,5,0,0:0:0:0:
142,100,51626,1,0,0:0:0:0:
184,64,51714,1,0,0:0:0:0:
235,58,51802,1,0,0:0:0:0:
276,89,51890,1,0,0:0:0:0:
285,140,51979,1,0,0:0:0:0:
257,183,52067,1,0,0:0:0:0:
207,195,52155,1,0,0:0:0:0:
96,176,52244,5,0,0:0:0:0:
88,232,52332,1,0,0:0:0:0:
120,280,52420,1,0,0:0:0:0:
176,296,52508,1,0,0:0:0:0:
376,296,52597,1,0,0:0:0:0:
420,270,52685,1,0,0:0:0:0:
434,221,52773,1,0,0:0:0:0:
411,175,52861,1,0,0:0:0:0:
288,184,52950,5,0,0:0:0:0:
274,134,53038,1,0,0:0:0:0:
296,87,53126,1,0,0:0:0:0:
343,66,53214,1,0,0:0:0:0:
96,176,53303,1,0,0:0:0:0:
53,148,53391,1,0,0:0:0:0:
53,98,53479,1,0,0:0:0:0:
94,70,53567,1,0,0:0:0:0:
423,186,53656,5,0,0:0:0:0:
431,130,53744,1,0,0:0:0:0:
399,82,53832,1,0,0:0:0:0:
343,66,53920,1,0,0:0:0:0:
143,66,54009,1,0,0:0:0:0:
99,92,54097,1,0,0:0:0:0:
85,141,54185,1,0,0:0:0:0:
108,187,54273,1,0,0:0:0:0:
231,178,54362,5,0,0:0:0:0:
245,228,54450,1,0,0:0:0:0:
223,275,54538,1,0,0:0:0:0:
176,296,54626,1,0,0:0:0:0:
423,186,54715,1,0,0:0:0:0:
466,214,54803,1,0,0:0:0:0:
466,264,54891,1,0,0:0:0:0:
425,292,54979,1,0,0:0:0:0:
176,296,55067,5,0,0:0:0:0:
129,275,55155,1,0,0:0:0:0:
111,227,55243,1,0,0:0:0:0:
134,181,55331,1,0,0:0:0:0:
320,168,55420,1,0,0:0:0:0:
266,138,55508,1,0,0:0:0:0:
263,89,55596,1,0,0:0:0:0:
314,62,55684,1,0,0:0:0:0:
416,224,55773,5,0,0:0:0:0:
464,200,55861,1,0,0:0:0:0:
464,141,55949,1,0,0:0:0:0:
416,112,56037,1,0,0:0:0:0:
104,96,56126,1,0,0:0:0:0:
53,108,56214,1,0,0:0:0:0:
21,148,56302,1,0,0:0:0:0:
18,199,56390,1,0,0:0:0:0:
320,200,56479,6,0,L|336:272,1,52.5
264,272,56656,1,0,0:0:0:0:
360,192,56744,6,0,L|376:264,1,52.5
304,264,56921,1,0,0:0:0:0:
400,184,57008,6,0,L|416:256,1,52.5
344,256,57185,1,0,0:0:0:0:
440,176,57273,6,0,L|456:248,1,52.5
384,248,57450,1,0,0:0:0:0:
480,168,57538,6,0,L|496:240,1,52.5
424,168,57715,1,0,0:0:0:0:
368,168,57803,1,0,0:0:0:0:
184,192,57891,6,0,L|168:264,1,52.5
240,264,58068,1,0,0:0:0:0:
144,184,58156,6,0,L|128:256,1,52.5
200,256,58333,1,0,0:0:0:0:
104,176,58420,6,0,L|88:248,1,52.5
160,248,58597,1,0,0:0:0:0:
64,168,58685,6,0,L|48:240,1,52.5
120,240,58862,1,0,0:0:0:0:
24,160,58950,6,0,L|8:232,1,52.5
80,160,59126,1,0,0:0:0:0:
136,160,59214,1,0,0:0:0:0:
320,232,59303,6,0,L|384:232,2,52.5
408,232,59567,6,0,L|472:232,2,52.5
192,232,59832,6,0,L|128:232,2,52.5
104,232,60097,6,0,L|32:232,2,52.5
264,112,60361,6,0,L|320:112,2,52.5
316,112,60626,1,0,0:0:0:0:
128,112,60714,6,0,L|112:184,1,52.5
184,184,60891,1,0,0:0:0:0:
416,112,60979,6,0,L|432:184,1,52.5
360,184,61156,1,0,0:0:0:0:
96,112,61244,6,0,L|80:184,1,52.5
152,184,61421,1,0,0:0:0:0:
448,112,61508,6,0,L|464:184,1,52.5
392,184,61685,1,0,0:0:0:0:
64,112,61773,6,0,L|48:184,1,52.5
112,176,61950,1,0,0:0:0:0:
168,176,62038,1,0,0:0:0:0:
440,280,62126,5,0,0:0:0:0:
478,246,62214,1,0,0:0:0:0:
496,197,62302,1,0,0:0:0:0:
488,146,62390,1,0,0:0:0:0:
456,104,62478,1,0,0:0:0:0:
409,84,62567,1,0,0:0:0:0:
358,89,62655,1,0,0:0:0:0:
315,118,62743,1,0,0:0:0:0:
136,80,62832,5,0,0:0:0:0:
87,98,62920,1,0,0:0:0:0:
53,137,63008,1,0,0:0:0:0:
41,188,63096,1,0,0:0:0:0:
53,238,63184,1,0,0:0:0:0:
88,277,63273,1,0,0:0:0:0:
137,295,63361,1,0,0:0:0:0:
188,289,63449,1,0,0:0:0:0:
374,83,63538,5,0,0:0:0:0:
416,110,63626,1,0,0:0:0:0:
414,160,63714,1,0,0:0:0:0:
371,186,63802,1,0,0:0:0:0:
320,192,63891,1,0,0:0:0:0:
278,220,63979,1,0,0:0:0:0:
277,270,64067,1,0,0:0:0:0:
319,299,64155,1,0,0:0:0:0:
376,304,64244,5,0,0:0:0:0:
427,297,64332,1,0,0:0:0:0:
467,265,64420,1,0,0:0:0:0:
484,216,64508,1,0,0:0:0:0:
472,166,64596,1,0,0:0:0:0:
435,129,64685,1,0,0:0:0:0:
384,119,64773,1,0,0:0:0:0:
336,136,64861,1,0,0:0:0:0:
224,88,64950,5,0,0:0:0:0:
181,114,65038,1,0,0:0:0:0:
181,164,65126,1,0,0:0:0:0:
223,192,65214,1,0,0:0:0:0:
378,218,65303,1,0,0:0:0:0:
402,261,65391,1,0,0:0:0:0:
376,304,65479,1,0,0:0:0:0:
326,302,65567,1,0,0:0:0:0:
224,296,65656,5,0,0:0:0:0:
216,245,65744,1,0,0:0:0:0:
243,201,65832,1,0,0:0:0:0:
292,185,65920,1,0,0:0:0:0:
72,240,66008,1,0,0:0:0:0:
30,210,66096,1,0,0:0:0:0:
29,159,66184,1,0,0:0:0:0:
68,127,66272,1,0,0:0:0:0:
288,56,66361,6,0,L|360:56,1,52.5
280,112,66538,2,0,L|216:112,1,52.5
288,168,66714,2,0,L|360:168,1,52.5
448,168,66891,1,0,0:0:0:0:
478,208,66979,1,0,0:0:0:0:
466,257,67067,1,0,0:0:0:0:
420,278,67155,1,0,0:0:0:0:
120,296,67244,5,0,0:0:0:0:
73,275,67332,1,0,0:0:0:0:
64,225,67420,1,0,0:0:0:0:
100,190,67508,1,0,0:0:0:0:
152,176,67597,1,0,0:0:0:0:
208,168,67685,1,0,0:0:0:0:
368,88,67773,6,0,L|480:88,1,105
320,88,68126,2,0,L|312:216,1,105
160,240,68479,2,0,L|280:240,1,105
416,240,68832,2,0,L|296:240,1,105
56,240,69185,6,0,L|48:112,1,105
200,88,69538,2,0,L|88:88,1,105
248,88,69891,2,0,L|384:88,1,105
200,88,70244,2,0,L|192:208,1,105
464,240,70597,6,0,L|359:240,1,105
208,240,70950,2,0,L|328:240,1,105
168,240,71303,2,0,L|64:240,1,105
208,240,71656,2,0,L|80:240,1,105
432,240,72008,6,0,L|440:120,1,105
296,88,72361,2,0,L|408:88,1,105
248,136,72714,2,0,L|240:256,1,105
96,88,73067,2,0,L|216:88,1,105
496,88,73420,6,0,L|376:88,1,105
248,192,73773,2,0,L|368:192,2,105
96,192,74303,2,0,L|216:192,2,105
384,312,74832,6,0,L|520:312,1,105
336,312,75185,2,0,L|232:312,1,105
48,312,75538,2,0,L|168:312,1,105
296,248,75891,2,0,L|176:248,1,105
440,192,76244,6,0,L|448:88,1,105
296,88,76597,2,0,L|416:88,1,105
248,88,76950,2,0,L|144:88,1,105
296,88,77303,2,0,L|424:88,1,105
72,192,77656,6,0,L|64:88,1,105
224,192,78008,2,0,L|360:192,1,105
177,192,78361,2,0,L|25:192,1,105
224,256,78714,2,0,L|96:256,1,105
448,192,79067,6,0,L|456:80,1,105
304,88,79420,2,0,L|424:88,2,105
160,88,79950,2,0,L|16:88,2,105
448,192,80479,6,0,L|344:192,2,105
304,256,81008,2,0,L|416:256,2,105
152,256,81538,2,0,L|264:256,1,105
8,256,81891,6,0,L|0:128,1,105
152,144,82244,2,0,L|16:144,1,105
200,144,82597,2,0,L|320:144,1,105
464,144,82950,2,0,L|344:144,1,105
104,144,83303,6,0,L|96:264,1,105
256,248,83656,2,0,L|144:248,1,105
304,144,84008,2,0,L|312:272,1,105
464,144,84361,2,0,L|319:145,1,105
15,163,84714,6,0,L|119:163,2,105
167,163,85244,2,0,L|287:163,2,105
319,163,85773,2,0,L|439:163,1,105
80,288,86126,6,0,L|216:288,1,105
336,288,86479,2,0,L|208:288,1,105
480,288,86832,2,0,L|488:176,1,105
336,192,87185,2,0,L|448:192,1,105
120,192,87538,6,0,L|-8:192,1,105
168,192,87891,2,0,L|176:56,1,105
312,80,88244,2,0,L|320:200,1,105
168,192,88597,2,0,L|48:192,1,105
320,192,88950,6,0,L|440:192,1,105
272,192,89303,2,0,L|264:312,1,105
112,296,89656,2,0,L|232:296,1,105
370,296,90008,2,0,L|226:296,1,105
416,192,90538,6,0,L|424:88,1,105
264,88,90891,2,0,L|384:88,1,105
216,88,91244,2,0,L|104:88,1,105
264,88,91597,2,0,L|272:192,1,105
400,296,92126,1,0,0:0:0:0:
304,120,92832,6,0,L|416:120,1,105
256,120,93185,1,0,0:0:0:0:
392,288,93361,2,0,L|288:288,1,105
152,288,93714,2,0,L|288:288,1,105
112,288,94067,2,0,L|104:168,1,105
248,184,94420,2,0,L|360:184,1,105
176,184,94950,1,0,0:0:0:0:
48,104,95655,6,0,L|160:104,1,105
288,104,96185,2,0,L|183:104,2,105
160,272,96714,2,0,L|288:272,1,105
416,272,97067,2,0,L|424:152,1,105
256,120,97420,1,0,0:0:0:0:
424,120,97773,1,0,0:0:0:0:
320,120,98479,6,0,L|312:232,1,105
464,224,99009,2,0,L|328:224,1,105
215,120,99361,2,0,L|327:120,1,105
168,120,99714,2,0,L|160:240,1,105
296,272,100067,2,0,L|400:272,1,105
200,272,100597,1,0,0:0:0:0:
104,272,100773,1,0,0:0:0:0:
320,80,101303,6,0,L|424:80,1,105
232,240,101832,2,0,L|120:240,1,105
280,240,102185,2,0,L|408:240,2,105
127,240,102714,2,0,L|279:240,1,105
384,104,103067,1,0,0:0:0:0:
232,104,103420,1,0,0:0:0:0:
336,104,103597,1,0,0:0:0:0:
128,104,104126,1,0,0:0:0:0:
376,208,104656,6,0,L|496:208,2,105
224,208,105185,2,0,L|352:208,1,105
176,208,105538,2,0,L|168:320,1,105
368,312,105891,1,0,0:0:0:0:
200,312,106244,1,0,0:0:0:0:
96,312,106420,1,0,0:0:0:0:
360,312,106950,1,0,0:0:0:0:
119,112,107479,6,0,L|247:112,2,105
280,112,108009,2,0,L|288:216,1,105
119,112,108361,2,0,L|111:224,1,105
288,216,108714,1,0,0:0:0:0:
112,216,109067,1,0,0:0:0:0:
216,216,109244,1,0,0:0:0:0:
400,216,109773,1,0,0:0:0:0:
216,216,110303,6,0,L|208:96,1,105
360,112,110656,2,0,L|232:112,1,105
400,216,111009,2,0,L|288:216,2,105
128,112,111538,6,0,L|120:216,1,105
280,112,111891,2,0,L|296:232,1,105
128,112,112244,2,0,L|32:176,1,105
280,112,112597,2,0,L|392:184,1,105
112,296,112950,6,0,B|64:296|64:296|64:216|64:216|296:216|296:216|296:296|296:296|240:296,1,488.249985099793
192,296,115773,2,0,B|144:296|144:296|144:240|144:240|232:240|232:240|232:128|232:128|144:128|144:128|144:72|144:72|192:72,1,488.249985099793
240,72,118597,2,0,B|424:72|424:72|456:120|472:184|456:264|432:304|432:304|360:304,1,488.249985099793
312,304,121420,2,0,B|232:312|176:272|152:216|176:160|224:144|280:160|304:224|280:280|248:288|176:304|120:304|96:296|80:272|80:240,1,488.249985099793
144,192,124244,6,0,B|232:184|264:112|224:56|144:40|144:40|72:56|32:112|64:184|144:192,1,488.249985099793
200,224,127067,2,0,B|392:224|392:224|288:224|288:224|488:224,1,488.249985099793
416,304,129891,6,0,P|338:325|415:124,1,488.249985099793
256,192,132714,12,0,135538,0:0:0:0:
