osu file format v14

[General]
AudioFilename: audio.mp3
AudioLeadIn: 0
PreviewTime: 22597
Countdown: 0
SampleSet: None
StackLeniency: 0.7
Mode: 3
LetterboxInBreaks: 0
SpecialStyle: 0
WidescreenStoryboard: 1

[Editor]
Bookmarks: 11303,22597,34322,59303,67773,90361,112950,135538
DistanceSpacing: 0.1
BeatDivisor: 4
GridSize: 8
TimelineZoom: 3.499999

[Metadata]
Title:Skyworld
TitleUnicode:Skyworld
Artist:Techmo-X
ArtistUnicode:Techmo-X
Creator:_wwwww
Version:HD
Source:
Tags:newgrounds
BeatmapID:1745418
BeatmapSetID:833263

[Difficulty]
HPDrainRate:6
CircleSize:4
OverallDifficulty:7
ApproachRate:9.7
SliderMultiplier:2.1
SliderTickRate:1

[Events]
//Background and Video events
0,0,"maxresdefault.jpg",0,0
//Break Periods
//Storyboard Layer 0 (Background)
//Storyboard Layer 1 (Fail)
//Storyboard Layer 2 (Pass)
//Storyboard Layer 3 (Foreground)
//Storyboard Sound Samples

[TimingPoints]
9,352.941176470588,4,2,1,20,1,0
22597,-100,4,2,1,40,0,0
45185,-100,4,2,1,50,0,1
67773,-100,4,2,1,30,0,0
112950,-111.111111111111,4,2,1,20,0,0

[Colours]
Combo1 : 15,197,249
Combo2 : 191,255,255

[HitObjects]
448,192,9,5,0,0:0:0:0:
320,192,9,1,0,0:0:0:0:
192,192,185,128,0,361:0:0:0:0:
448,192,361,128,0,538:0:0:0:0:
64,192,361,1,0,0:0:0:0:
320,192,538,128,0,714:0:0:0:0:
64,192,714,128,0,891:0:0:0:0:
192,192,891,128,0,1067:0:0:0:0:
448,192,1067,128,0,1244:0:0:0:0:
320,192,1244,128,0,1420:0:0:0:0:
64,192,1420,128,0,1597:0:0:0:0:
192,192,1773,1,0,0:0:0:0:
448,192,1773,1,0,0:0:0:0:
320,192,1773,1,0,0:0:0:0:
64,192,2303,1,0,0:0:0:0:
192,192,2303,1,0,0:0:0:0:
448,192,2479,128,0,2656:0:0:0:0:
320,192,2656,128,0,2832:0:0:0:0:
64,192,2832,1,0,0:0:0:0:
192,192,3008,128,0,3185:0:0:0:0:
320,192,3185,128,0,3361:0:0:0:0:
64,192,3185,1,0,0:0:0:0:
448,192,3361,128,0,3538:0:0:0:0:
64,192,3538,128,0,3714:0:0:0:0:
192,192,3714,128,0,3891:0:0:0:0:
448,192,3891,128,0,4067:0:0:0:0:
320,192,4067,128,0,4244:0:0:0:0:
192,192,4244,128,0,4420:0:0:0:0:
64,192,4597,1,0,0:0:0:0:
320,192,4597,1,0,0:0:0:0:
448,192,4597,1,0,0:0:0:0:
192,192,5126,1,0,0:0:0:0:
320,192,5126,1,0,0:0:0:0:
64,192,5303,128,0,5479:0:0:0:0:
192,192,5479,128,0,5656:0:0:0:0:
448,192,5656,1,0,0:0:0:0:
320,192,5832,128,0,6008:0:0:0:0:
448,192,6008,128,0,6185:0:0:0:0:
64,192,6008,1,0,0:0:0:0:
192,192,6185,128,0,6361:0:0:0:0:
64,192,6361,128,0,6538:0:0:0:0:
320,192,6538,128,0,6714:0:0:0:0:
192,192,6714,128,0,6891:0:0:0:0:
448,192,6891,128,0,7067:0:0:0:0:
64,192,7067,128,0,7244:0:0:0:0:
192,192,7420,1,0,0:0:0:0:
320,192,7420,1,0,0:0:0:0:
448,192,7420,1,0,0:0:0:0:
64,192,7950,1,0,0:0:0:0:
448,192,7950,1,0,0:0:0:0:
320,192,8126,128,0,8303:0:0:0:0:
192,192,8303,128,0,8479:0:0:0:0:
448,192,8479,1,0,0:0:0:0:
320,192,8656,128,0,8832:0:0:0:0:
64,192,8832,128,0,9008:0:0:0:0:
192,192,8832,1,0,0:0:0:0:
192,192,9008,128,0,9185:0:0:0:0:
320,192,9185,128,0,9361:0:0:0:0:
448,192,9361,128,0,9538:0:0:0:0:
320,192,9538,128,0,9714:0:0:0:0:
64,192,9714,128,0,9891:0:0:0:0:
448,192,9891,128,0,10067:0:0:0:0:
64,192,10244,1,0,0:0:0:0:
192,192,10244,1,0,0:0:0:0:
320,192,10244,1,0,0:0:0:0:
192,192,10420,128,0,10597:0:0:0:0:
320,192,10773,1,0,0:0:0:0:
448,192,10773,1,0,0:0:0:0:
64,192,10950,128,0,11126:0:0:0:0:
192,192,11126,128,0,11303:0:0:0:0:
448,192,11303,1,0,0:0:0:0:
64,192,11303,1,0,0:0:0:0:
320,192,11479,128,0,11656:0:0:0:0:
64,192,11656,128,0,11832:0:0:0:0:
192,192,11656,1,0,0:0:0:0:
448,192,11832,128,0,12008:0:0:0:0:
192,192,12008,128,0,12185:0:0:0:0:
320,192,12185,128,0,12361:0:0:0:0:
64,192,12361,128,0,12538:0:0:0:0:
448,192,12538,128,0,12714:0:0:0:0:
192,192,12714,128,0,12891:0:0:0:0:
64,192,13067,1,0,0:0:0:0:
320,192,13067,1,0,0:0:0:0:
448,192,13067,1,0,0:0:0:0:
320,192,13244,128,0,13420:0:0:0:0:
192,192,13597,1,0,0:0:0:0:
64,192,13597,1,0,0:0:0:0:
448,192,13773,128,0,13950:0:0:0:0:
320,192,14126,1,0,0:0:0:0:
64,192,14126,1,0,0:0:0:0:
192,192,14303,128,0,14479:0:0:0:0:
64,192,14479,128,0,14656:0:0:0:0:
320,192,14479,1,0,0:0:0:0:
448,192,14656,128,0,14832:0:0:0:0:
320,192,14832,128,0,15008:0:0:0:0:
192,192,15008,128,0,15185:0:0:0:0:
64,192,15185,128,0,15361:0:0:0:0:
448,192,15361,128,0,15538:0:0:0:0:
192,192,15538,128,0,15714:0:0:0:0:
64,192,15891,1,0,0:0:0:0:
320,192,15891,1,0,0:0:0:0:
448,192,15891,1,0,0:0:0:0:
448,192,16067,128,0,16244:0:0:0:0:
320,192,16420,1,0,0:0:0:0:
192,192,16420,1,0,0:0:0:0:
64,192,16597,128,0,16773:0:0:0:0:
320,192,16950,1,0,0:0:0:0:
448,192,16950,1,0,0:0:0:0:
192,192,17126,128,0,17303:0:0:0:0:
320,192,17303,128,0,17479:0:0:0:0:
64,192,17303,1,0,0:0:0:0:
192,192,17479,128,0,17656:0:0:0:0:
448,192,17656,128,0,17832:0:0:0:0:
320,192,17832,128,0,18008:0:0:0:0:
64,192,18008,128,0,18185:0:0:0:0:
192,192,18185,128,0,18361:0:0:0:0:
448,192,18361,128,0,18538:0:0:0:0:
64,192,18714,1,0,0:0:0:0:
320,192,18714,1,0,0:0:0:0:
192,192,18714,1,0,0:0:0:0:
64,192,18891,128,0,19067:0:0:0:0:
192,192,19244,1,0,0:0:0:0:
448,192,19244,1,0,0:0:0:0:
320,192,19420,128,0,19597:0:0:0:0:
64,192,19773,1,0,0:0:0:0:
192,192,19773,1,0,0:0:0:0:
448,192,19950,128,0,20126:0:0:0:0:
320,192,20126,128,0,20303:0:0:0:0:
64,192,20126,1,0,0:0:0:0:
192,192,20303,128,0,20479:0:0:0:0:
320,192,20479,128,0,20656:0:0:0:0:
448,192,20656,128,0,20832:0:0:0:0:
64,192,20832,128,0,21008:0:0:0:0:
192,192,21008,128,0,21185:0:0:0:0:
448,192,21185,128,0,21361:0:0:0:0:
320,192,21361,128,0,21538:0:0:0:0:
448,192,21538,1,0,0:0:0:0:
192,192,21538,128,0,21714:0:0:0:0:
64,192,21714,128,0,21891:0:0:0:0:
448,192,21891,128,0,22067:0:0:0:0:
192,192,22067,128,0,22244:0:0:0:0:
320,192,22244,128,0,22420:0:0:0:0:
448,192,22420,128,0,22597:0:0:0:0:
192,192,22597,1,0,0:0:0:0:
64,192,22597,128,0,22773:0:0:0:0:
320,192,22773,128,0,22950:0:0:0:0:
448,192,22950,128,0,23126:0:0:0:0:
192,192,22950,1,0,0:0:0:0:
64,192,22950,1,0,0:0:0:0:
64,192,23126,128,0,23303:0:0:0:0:
320,192,23214,1,0,0:0:0:0:
192,192,23303,128,0,23479:0:0:0:0:
448,192,23479,128,0,23656:0:0:0:0:
320,192,23479,1,0,0:0:0:0:
192,192,23656,1,0,0:0:0:0:
64,192,23656,128,0,23832:0:0:0:0:
320,192,23656,1,0,0:0:0:0:
192,192,23832,128,0,24008:0:0:0:0:
320,192,24008,1,0,0:0:0:0:
448,192,24008,128,0,24185:0:0:0:0:
320,192,24185,128,0,24361:0:0:0:0:
448,192,24361,1,0,0:0:0:0:
192,192,24361,1,0,0:0:0:0:
64,192,24361,128,0,24538:0:0:0:0:
192,192,24538,128,0,24714:0:0:0:0:
320,192,24626,1,0,0:0:0:0:
448,192,24714,128,0,24891:0:0:0:0:
320,192,24891,1,0,0:0:0:0:
64,192,24891,128,0,25067:0:0:0:0:
192,192,25067,1,0,0:0:0:0:
320,192,25067,128,0,25244:0:0:0:0:
448,192,25067,1,0,0:0:0:0:
192,192,25244,128,0,25420:0:0:0:0:
448,192,25420,128,0,25597:0:0:0:0:
64,192,25420,1,0,0:0:0:0:
320,192,25597,128,0,25773:0:0:0:0:
64,192,25773,1,0,0:0:0:0:
448,192,25773,1,0,0:0:0:0:
192,192,25773,128,0,25950:0:0:0:0:
320,192,25950,128,0,26126:0:0:0:0:
64,192,26038,1,0,0:0:0:0:
448,192,26126,128,0,26303:0:0:0:0:
64,192,26303,1,0,0:0:0:0:
192,192,26303,128,0,26479:0:0:0:0:
448,192,26479,1,0,0:0:0:0:
64,192,26479,128,0,26656:0:0:0:0:
320,192,26479,1,0,0:0:0:0:
320,192,26656,128,0,26832:0:0:0:0:
448,192,26832,128,0,27008:0:0:0:0:
192,192,26832,1,0,0:0:0:0:
64,192,27008,128,0,27185:0:0:0:0:
320,192,27185,128,0,27361:0:0:0:0:
192,192,27185,1,0,0:0:0:0:
448,192,27185,1,0,0:0:0:0:
192,192,27361,128,0,27538:0:0:0:0:
448,192,27450,1,0,0:0:0:0:
64,192,27538,128,0,27714:0:0:0:0:
448,192,27714,1,0,0:0:0:0:
320,192,27714,128,0,27891:0:0:0:0:
64,192,27891,1,0,0:0:0:0:
448,192,27891,128,0,28067:0:0:0:0:
192,192,27891,1,0,0:0:0:0:
64,192,28067,128,0,28244:0:0:0:0:
192,192,28244,1,0,0:0:0:0:
320,192,28244,128,0,28420:0:0:0:0:
448,192,28420,128,0,28597:0:0:0:0:
64,192,28597,1,0,0:0:0:0:
192,192,28597,1,0,0:0:0:0:
320,192,28597,128,0,28773:0:0:0:0:
192,192,28773,128,0,28950:0:0:0:0:
448,192,28861,1,0,0:0:0:0:
64,192,28950,128,0,29126:0:0:0:0:
448,192,29126,1,0,0:0:0:0:
192,192,29126,128,0,29303:0:0:0:0:
448,192,29303,128,0,29479:0:0:0:0:
320,192,29303,1,0,0:0:0:0:
64,192,29303,1,0,0:0:0:0:
320,192,29479,128,0,29656:0:0:0:0:
448,192,29656,128,0,29832:0:0:0:0:
64,192,29656,1,0,0:0:0:0:
192,192,29832,128,0,30008:0:0:0:0:
64,192,30008,1,0,0:0:0:0:
320,192,30008,128,0,30185:0:0:0:0:
448,192,30008,1,0,0:0:0:0:
448,192,30185,128,0,30361:0:0:0:0:
192,192,30273,1,0,0:0:0:0:
64,192,30361,128,0,30538:0:0:0:0:
192,192,30538,1,0,0:0:0:0:
320,192,30538,128,0,30714:0:0:0:0:
64,192,30714,1,0,0:0:0:0:
192,192,30714,128,0,30891:0:0:0:0:
448,192,30714,1,0,0:0:0:0:
448,192,30891,128,0,31067:0:0:0:0:
64,192,31067,128,0,31244:0:0:0:0:
320,192,31067,1,0,0:0:0:0:
192,192,31244,128,0,31420:0:0:0:0:
320,192,31420,128,0,31597:0:0:0:0:
448,192,31420,1,0,0:0:0:0:
64,192,31420,1,0,0:0:0:0:
448,192,31597,128,0,31685:0:0:0:0:
64,192,31685,1,0,0:0:0:0:
448,192,31773,128,0,31950:0:0:0:0:
64,192,31950,1,0,0:0:0:0:
320,192,31950,128,0,32126:0:0:0:0:
64,192,32126,128,0,32303:0:0:0:0:
192,192,32126,1,0,0:0:0:0:
448,192,32126,1,0,0:0:0:0:
192,192,32303,128,0,32479:0:0:0:0:
320,192,32479,1,0,0:0:0:0:
448,192,32479,128,0,32656:0:0:0:0:
320,192,32656,128,0,32832:0:0:0:0:
64,192,32832,128,0,33008:0:0:0:0:
192,192,32832,1,0,0:0:0:0:
448,192,32832,1,0,0:0:0:0:
192,192,33008,128,0,33185:0:0:0:0:
448,192,33097,1,0,0:0:0:0:
320,192,33185,128,0,33361:0:0:0:0:
448,192,33361,1,0,0:0:0:0:
64,192,33361,128,0,33538:0:0:0:0:
192,192,33538,1,0,0:0:0:0:
320,192,33538,1,0,0:0:0:0:
448,192,33538,128,0,33714:0:0:0:0:
192,192,33714,128,0,33891:0:0:0:0:
64,192,33891,1,0,0:0:0:0:
320,192,33891,128,0,34067:0:0:0:0:
448,192,34067,128,0,34244:0:0:0:0:
192,192,34244,1,0,0:0:0:0:
320,192,34244,1,0,0:0:0:0:
64,192,34244,128,0,34420:0:0:0:0:
192,192,34420,128,0,34597:0:0:0:0:
320,192,34508,1,0,0:0:0:0:
448,192,34597,128,0,34773:0:0:0:0:
320,192,34773,1,0,0:0:0:0:
192,192,34773,128,0,34950:0:0:0:0:
64,192,34950,1,0,0:0:0:0:
448,192,34950,1,0,0:0:0:0:
320,192,34950,128,0,35126:0:0:0:0:
448,192,35126,128,0,35303:0:0:0:0:
64,192,35303,128,0,35479:0:0:0:0:
192,192,35303,1,0,0:0:0:0:
320,192,35479,128,0,35656:0:0:0:0:
192,192,35656,128,0,35832:0:0:0:0:
64,192,35656,1,0,0:0:0:0:
448,192,35656,1,0,0:0:0:0:
448,192,35832,128,0,36008:0:0:0:0:
64,192,35920,1,0,0:0:0:0:
320,192,36008,128,0,36185:0:0:0:0:
192,192,36185,128,0,36361:0:0:0:0:
64,192,36185,1,0,0:0:0:0:
64,192,36361,128,0,36538:0:0:0:0:
320,192,36361,1,0,0:0:0:0:
448,192,36361,1,0,0:0:0:0:
448,192,36538,128,0,36714:0:0:0:0:
192,192,36714,128,0,36891:0:0:0:0:
64,192,36714,1,0,0:0:0:0:
320,192,36891,128,0,37067:0:0:0:0:
448,192,37067,1,0,0:0:0:0:
192,192,37067,1,0,0:0:0:0:
64,192,37067,128,0,37244:0:0:0:0:
192,192,37244,128,0,37420:0:0:0:0:
320,192,37332,1,0,0:0:0:0:
448,192,37420,128,0,37597:0:0:0:0:
320,192,37597,1,0,0:0:0:0:
64,192,37597,128,0,37773:0:0:0:0:
320,192,37773,128,0,37950:0:0:0:0:
192,192,37773,1,0,0:0:0:0:
448,192,37773,1,0,0:0:0:0:
192,192,37950,128,0,38126:0:0:0:0:
64,192,38126,128,0,38303:0:0:0:0:
448,192,38126,1,0,0:0:0:0:
192,192,38303,128,0,38479:0:0:0:0:
64,192,38479,1,0,0:0:0:0:
320,192,38479,1,0,0:0:0:0:
448,192,38479,128,0,38656:0:0:0:0:
64,192,38656,128,0,38832:0:0:0:0:
320,192,38744,1,0,0:0:0:0:
192,192,38832,128,0,39008:0:0:0:0:
448,192,39008,128,0,39185:0:0:0:0:
320,192,39008,1,0,0:0:0:0:
320,192,39185,128,0,39361:0:0:0:0:
192,192,39185,1,0,0:0:0:0:
64,192,39185,1,0,0:0:0:0:
448,192,39361,128,0,39538:0:0:0:0:
64,192,39538,128,0,39714:0:0:0:0:
192,192,39538,1,0,0:0:0:0:
320,192,39714,128,0,39891:0:0:0:0:
64,192,39891,1,0,0:0:0:0:
192,192,39891,1,0,0:0:0:0:
448,192,39891,128,0,40067:0:0:0:0:
192,192,40067,128,0,40244:0:0:0:0:
320,192,40156,1,0,0:0:0:0:
64,192,40244,128,0,40420:0:0:0:0:
320,192,40420,1,0,0:0:0:0:
448,192,40420,128,0,40597:0:0:0:0:
64,192,40597,1,0,0:0:0:0:
192,192,40597,1,0,0:0:0:0:
320,192,40597,128,0,40773:0:0:0:0:
192,192,40773,128,0,40950:0:0:0:0:
448,192,40950,128,0,41126:0:0:0:0:
64,192,40950,1,0,0:0:0:0:
320,192,41126,128,0,41303:0:0:0:0:
64,192,41303,128,0,41479:0:0:0:0:
192,192,41303,1,0,0:0:0:0:
448,192,41303,1,0,0:0:0:0:
192,192,41479,128,0,41656:0:0:0:0:
448,192,41567,1,0,0:0:0:0:
320,192,41656,128,0,41832:0:0:0:0:
448,192,41832,1,0,0:0:0:0:
64,192,41832,128,0,42008:0:0:0:0:
192,192,42008,1,0,0:0:0:0:
320,192,42008,1,0,0:0:0:0:
448,192,42008,128,0,42185:0:0:0:0:
192,192,42185,128,0,42361:0:0:0:0:
64,192,42361,1,0,0:0:0:0:
320,192,42361,128,0,42538:0:0:0:0:
448,192,42538,128,0,42714:0:0:0:0:
64,192,42714,128,0,42891:0:0:0:0:
192,192,42714,1,0,0:0:0:0:
320,192,42714,1,0,0:0:0:0:
192,192,42891,128,0,43067:0:0:0:0:
448,192,42979,1,0,0:0:0:0:
320,192,43067,128,0,43244:0:0:0:0:
64,192,43244,128,0,43420:0:0:0:0:
448,192,43244,1,0,0:0:0:0:
448,192,43420,128,0,43597:0:0:0:0:
320,192,43420,1,0,0:0:0:0:
192,192,43420,1,0,0:0:0:0:
320,192,43597,128,0,43773:0:0:0:0:
192,192,43773,128,0,43950:0:0:0:0:
64,192,43773,1,0,0:0:0:0:
320,192,43950,128,0,44126:0:0:0:0:
448,192,44126,128,0,44303:0:0:0:0:
192,192,44126,1,0,0:0:0:0:
64,192,44126,1,0,0:0:0:0:
192,192,44303,128,0,44479:0:0:0:0:
320,192,44479,128,0,44567:0:0:0:0:
448,192,44567,128,0,44656:0:0:0:0:
64,192,44656,128,0,44744:0:0:0:0:
192,192,44744,128,0,44832:0:0:0:0:
320,192,44832,128,0,44920:0:0:0:0:
448,192,44920,128,0,45008:0:0:0:0:
64,192,45008,128,0,45097:0:0:0:0:
192,192,45097,128,0,45185:0:0:0:0:
448,192,45185,1,0,0:0:0:0:
320,192,45273,1,0,0:0:0:0:
192,192,45361,1,0,0:0:0:0:
64,192,45450,1,0,0:0:0:0:
192,192,45538,1,0,0:0:0:0:
320,192,45538,1,0,0:0:0:0:
448,192,45626,1,0,0:0:0:0:
320,192,45714,1,0,0:0:0:0:
192,192,45803,1,0,0:0:0:0:
64,192,45891,1,0,0:0:0:0:
192,192,45979,1,0,0:0:0:0:
320,192,46067,1,0,0:0:0:0:
448,192,46156,1,0,0:0:0:0:
64,192,46244,1,0,0:0:0:0:
320,192,46244,1,0,0:0:0:0:
192,192,46332,1,0,0:0:0:0:
320,192,46420,1,0,0:0:0:0:
448,192,46508,1,0,0:0:0:0:
320,192,46597,1,0,0:0:0:0:
192,192,46685,1,0,0:0:0:0:
64,192,46773,1,0,0:0:0:0:
448,192,46861,1,0,0:0:0:0:
192,192,46950,1,0,0:0:0:0:
320,192,46950,1,0,0:0:0:0:
64,192,47038,1,0,0:0:0:0:
448,192,47126,1,0,0:0:0:0:
320,192,47214,1,0,0:0:0:0:
192,192,47303,1,0,0:0:0:0:
320,192,47391,1,0,0:0:0:0:
448,192,47479,1,0,0:0:0:0:
64,192,47567,1,0,0:0:0:0:
192,192,47656,1,0,0:0:0:0:
320,192,47656,1,0,0:0:0:0:
448,192,47744,1,0,0:0:0:0:
64,192,47832,1,0,0:0:0:0:
192,192,47920,1,0,0:0:0:0:
320,192,48008,1,0,0:0:0:0:
192,192,48097,1,0,0:0:0:0:
64,192,48185,1,0,0:0:0:0:
448,192,48273,1,0,0:0:0:0:
320,192,48361,1,0,0:0:0:0:
192,192,48361,1,0,0:0:0:0:
64,192,48450,1,0,0:0:0:0:
448,192,48538,1,0,0:0:0:0:
320,192,48626,1,0,0:0:0:0:
64,192,48714,1,0,0:0:0:0:
192,192,48803,1,0,0:0:0:0:
320,192,48891,1,0,0:0:0:0:
448,192,48979,1,0,0:0:0:0:
192,192,49067,1,0,0:0:0:0:
320,192,49067,1,0,0:0:0:0:
64,192,49156,1,0,0:0:0:0:
192,192,49244,1,0,0:0:0:0:
320,192,49332,1,0,0:0:0:0:
448,192,49420,1,0,0:0:0:0:
320,192,49508,1,0,0:0:0:0:
192,192,49597,1,0,0:0:0:0:
64,192,49685,1,0,0:0:0:0:
448,192,49773,1,0,0:0:0:0:
320,192,49773,1,0,0:0:0:0:
192,192,49861,1,0,0:0:0:0:
64,192,49950,1,0,0:0:0:0:
448,192,50038,1,0,0:0:0:0:
320,192,50126,1,0,0:0:0:0:
64,192,50214,1,0,0:0:0:0:
192,192,50303,1,0,0:0:0:0:
320,192,50391,1,0,0:0:0:0:
192,192,50479,1,0,0:0:0:0:
448,192,50479,1,0,0:0:0:0:
64,192,50567,1,0,0:0:0:0:
192,192,50656,1,0,0:0:0:0:
320,192,50744,1,0,0:0:0:0:
448,192,50832,1,0,0:0:0:0:
320,192,50920,1,0,0:0:0:0:
192,192,51008,1,0,0:0:0:0:
64,192,51097,1,0,0:0:0:0:
192,192,51185,1,0,0:0:0:0:
320,192,51185,1,0,0:0:0:0:
448,192,51273,1,0,0:0:0:0:
320,192,51361,1,0,0:0:0:0:
192,192,51450,1,0,0:0:0:0:
64,192,51538,1,0,0:0:0:0:
192,192,51626,1,0,0:0:0:0:
320,192,51714,1,0,0:0:0:0:
448,192,51803,1,0,0:0:0:0:
192,192,51891,1,0,0:0:0:0:
320,192,51891,1,0,0:0:0:0:
64,192,51979,1,0,0:0:0:0:
192,192,52067,1,0,0:0:0:0:
320,192,52156,1,0,0:0:0:0:
448,192,52244,1,0,0:0:0:0:
320,192,52332,1,0,0:0:0:0:
192,192,52420,1,0,0:0:0:0:
64,192,52508,1,0,0:0:0:0:
448,192,52597,1,0,0:0:0:0:
192,192,52597,1,0,0:0:0:0:
64,192,52685,1,0,0:0:0:0:
192,192,52773,1,0,0:0:0:0:
320,192,52861,1,0,0:0:0:0:
448,192,52950,1,0,0:0:0:0:
320,192,53038,1,0,0:0:0:0:
192,192,53126,1,0,0:0:0:0:
64,192,53214,1,0,0:0:0:0:
192,192,53303,1,0,0:0:0:0:
448,192,53303,1,0,0:0:0:0:
320,192,53391,1,0,0:0:0:0:
448,192,53479,1,0,0:0:0:0:
64,192,53567,1,0,0:0:0:0:
448,192,53656,1,0,0:0:0:0:
320,192,53744,1,0,0:0:0:0:
192,192,53832,1,0,0:0:0:0:
64,192,53920,1,0,0:0:0:0:
448,192,54008,1,0,0:0:0:0:
192,192,54008,1,0,0:0:0:0:
320,192,54097,1,0,0:0:0:0:
192,192,54185,1,0,0:0:0:0:
64,192,54273,1,0,0:0:0:0:
192,192,54361,1,0,0:0:0:0:
320,192,54450,1,0,0:0:0:0:
448,192,54538,1,0,0:0:0:0:
64,192,54626,1,0,0:0:0:0:
192,192,54714,1,0,0:0:0:0:
320,192,54714,1,0,0:0:0:0:
448,192,54803,1,0,0:0:0:0:
64,192,54891,1,0,0:0:0:0:
192,192,54979,1,0,0:0:0:0:
448,192,55067,1,0,0:0:0:0:
320,192,55156,1,0,0:0:0:0:
192,192,55244,1,0,0:0:0:0:
64,192,55332,1,0,0:0:0:0:
192,192,55420,1,0,0:0:0:0:
448,192,55420,1,0,0:0:0:0:
320,192,55508,1,0,0:0:0:0:
448,192,55597,1,0,0:0:0:0:
320,192,55685,1,0,0:0:0:0:
192,192,55773,1,0,0:0:0:0:
64,192,55861,1,0,0:0:0:0:
192,192,55950,1,0,0:0:0:0:
320,192,56038,1,0,0:0:0:0:
448,192,56126,1,0,0:0:0:0:
64,192,56126,1,0,0:0:0:0:
192,192,56214,1,0,0:0:0:0:
320,192,56303,1,0,0:0:0:0:
448,192,56391,1,0,0:0:0:0:
320,192,56479,1,0,0:0:0:0:
192,192,56567,1,0,0:0:0:0:
64,192,56656,1,0,0:0:0:0:
320,192,56744,1,0,0:0:0:0:
192,192,56832,1,0,0:0:0:0:
448,192,56832,1,0,0:0:0:0:
64,192,56920,1,0,0:0:0:0:
320,192,57008,1,0,0:0:0:0:
192,192,57097,1,0,0:0:0:0:
64,192,57185,1,0,0:0:0:0:
320,192,57273,1,0,0:0:0:0:
192,192,57361,1,0,0:0:0:0:
64,192,57450,1,0,0:0:0:0:
320,192,57538,1,0,0:0:0:0:
448,192,57538,1,0,0:0:0:0:
192,192,57626,1,0,0:0:0:0:
64,192,57714,1,0,0:0:0:0:
448,192,57803,1,0,0:0:0:0:
192,192,57891,1,0,0:0:0:0:
320,192,57979,1,0,0:0:0:0:
448,192,58067,1,0,0:0:0:0:
192,192,58156,1,0,0:0:0:0:
320,192,58244,1,0,0:0:0:0:
64,192,58244,1,0,0:0:0:0:
448,192,58332,1,0,0:0:0:0:
192,192,58420,1,0,0:0:0:0:
320,192,58508,1,0,0:0:0:0:
448,192,58597,1,0,0:0:0:0:
192,192,58685,1,0,0:0:0:0:
320,192,58773,1,0,0:0:0:0:
448,192,58861,1,0,0:0:0:0:
192,192,58950,1,0,0:0:0:0:
64,192,58950,1,0,0:0:0:0:
320,192,59038,1,0,0:0:0:0:
448,192,59126,1,0,0:0:0:0:
64,192,59214,1,0,0:0:0:0:
448,192,59303,1,0,0:0:0:0:
320,192,59391,1,0,0:0:0:0:
64,192,59479,1,0,0:0:0:0:
448,192,59567,1,0,0:0:0:0:
320,192,59656,1,0,0:0:0:0:
192,192,59656,1,0,0:0:0:0:
64,192,59744,1,0,0:0:0:0:
448,192,59832,1,0,0:0:0:0:
320,192,59920,1,0,0:0:0:0:
64,192,60008,1,0,0:0:0:0:
448,192,60097,1,0,0:0:0:0:
320,192,60185,1,0,0:0:0:0:
64,192,60273,1,0,0:0:0:0:
448,192,60361,1,0,0:0:0:0:
192,192,60361,1,0,0:0:0:0:
320,192,60450,1,0,0:0:0:0:
64,192,60538,1,0,0:0:0:0:
192,192,60626,1,0,0:0:0:0:
448,192,60714,1,0,0:0:0:0:
192,192,60803,1,0,0:0:0:0:
64,192,60891,1,0,0:0:0:0:
448,192,60979,1,0,0:0:0:0:
192,192,61067,1,0,0:0:0:0:
320,192,61067,1,0,0:0:0:0:
64,192,61156,1,0,0:0:0:0:
448,192,61244,1,0,0:0:0:0:
192,192,61332,1,0,0:0:0:0:
64,192,61420,1,0,0:0:0:0:
448,192,61508,1,0,0:0:0:0:
192,192,61597,1,0,0:0:0:0:
64,192,61685,1,0,0:0:0:0:
448,192,61773,1,0,0:0:0:0:
320,192,61773,1,0,0:0:0:0:
192,192,61861,1,0,0:0:0:0:
64,192,61950,1,0,0:0:0:0:
192,192,62038,1,0,0:0:0:0:
320,192,62126,1,0,0:0:0:0:
448,192,62214,1,0,0:0:0:0:
64,192,62303,1,0,0:0:0:0:
192,192,62391,1,0,0:0:0:0:
448,192,62479,1,0,0:0:0:0:
64,192,62479,1,0,0:0:0:0:
320,192,62567,1,0,0:0:0:0:
192,192,62656,1,0,0:0:0:0:
64,192,62744,1,0,0:0:0:0:
192,192,62832,1,0,0:0:0:0:
320,192,62920,1,0,0:0:0:0:
448,192,63008,1,0,0:0:0:0:
320,192,63097,1,0,0:0:0:0:
64,192,63185,1,0,0:0:0:0:
448,192,63185,1,0,0:0:0:0:
192,192,63273,1,0,0:0:0:0:
320,192,63361,1,0,0:0:0:0:
448,192,63450,1,0,0:0:0:0:
64,192,63538,1,0,0:0:0:0:
192,192,63626,1,0,0:0:0:0:
448,192,63714,1,0,0:0:0:0:
320,192,63803,1,0,0:0:0:0:
64,192,63891,1,0,0:0:0:0:
192,192,63891,1,0,0:0:0:0:
448,192,63979,1,0,0:0:0:0:
320,192,64067,1,0,0:0:0:0:
192,192,64156,1,0,0:0:0:0:
64,192,64244,1,0,0:0:0:0:
192,192,64332,1,0,0:0:0:0:
320,192,64420,1,0,0:0:0:0:
448,192,64508,1,0,0:0:0:0:
64,192,64597,1,0,0:0:0:0:
192,192,64685,1,0,0:0:0:0:
320,192,64773,1,0,0:0:0:0:
448,192,64861,1,0,0:0:0:0:
320,192,64950,1,0,0:0:0:0:
192,192,65038,1,0,0:0:0:0:
64,192,65126,1,0,0:0:0:0:
448,192,65214,1,0,0:0:0:0:
192,192,65303,1,0,0:0:0:0:
320,192,65391,1,0,0:0:0:0:
448,192,65479,1,0,0:0:0:0:
64,192,65567,1,0,0:0:0:0:
320,192,65656,1,0,0:0:0:0:
192,192,65744,1,0,0:0:0:0:
64,192,65832,1,0,0:0:0:0:
448,192,65920,1,0,0:0:0:0:
320,192,66008,1,0,0:0:0:0:
192,192,66008,1,0,0:0:0:0:
64,192,66097,1,0,0:0:0:0:
448,192,66185,1,0,0:0:0:0:
320,192,66273,1,0,0:0:0:0:
64,192,66361,1,0,0:0:0:0:
192,192,66450,1,0,0:0:0:0:
448,192,66538,1,0,0:0:0:0:
320,192,66626,1,0,0:0:0:0:
64,192,66714,1,0,0:0:0:0:
192,192,66714,1,0,0:0:0:0:
320,192,66803,1,0,0:0:0:0:
64,192,66891,1,0,0:0:0:0:
448,192,66979,1,0,0:0:0:0:
192,192,67067,1,0,0:0:0:0:
320,192,67156,1,0,0:0:0:0:
64,192,67244,1,0,0:0:0:0:
448,192,67332,1,0,0:0:0:0:
192,192,67420,1,0,0:0:0:0:
64,192,67508,1,0,0:0:0:0:
448,192,67597,1,0,0:0:0:0:
320,192,67685,1,0,0:0:0:0:
64,192,67773,128,0,67950:0:0:0:0:
448,192,67773,1,0,0:0:0:0:
192,192,67950,128,0,68126:0:0:0:0:
448,192,68126,128,0,68303:0:0:0:0:
320,192,68126,1,0,0:0:0:0:
320,192,68303,128,0,68479:0:0:0:0:
192,192,68391,1,0,0:0:0:0:
64,192,68479,128,0,68656:0:0:0:0:
192,192,68656,128,0,68832:0:0:0:0:
320,192,68832,128,0,69008:0:0:0:0:
64,192,69008,128,0,69185:0:0:0:0:
448,192,69008,1,0,0:0:0:0:
448,192,69185,128,0,69361:0:0:0:0:
192,192,69185,1,0,0:0:0:0:
320,192,69361,128,0,69538:0:0:0:0:
64,192,69538,128,0,69714:0:0:0:0:
192,192,69538,1,0,0:0:0:0:
448,192,69714,128,0,69891:0:0:0:0:
320,192,69803,1,0,0:0:0:0:
192,192,69891,128,0,70067:0:0:0:0:
320,192,70067,128,0,70244:0:0:0:0:
64,192,70244,128,0,70420:0:0:0:0:
192,192,70420,128,0,70597:0:0:0:0:
448,192,70420,1,0,0:0:0:0:
320,192,70597,1,0,0:0:0:0:
448,192,70597,128,0,70773:0:0:0:0:
320,192,70773,128,0,70950:0:0:0:0:
64,192,70950,128,0,71126:0:0:0:0:
192,192,70950,1,0,0:0:0:0:
192,192,71126,128,0,71303:0:0:0:0:
320,192,71214,1,0,0:0:0:0:
448,192,71303,128,0,71479:0:0:0:0:
64,192,71479,128,0,71656:0:0:0:0:
192,192,71656,128,0,71832:0:0:0:0:
320,192,71832,128,0,72008:0:0:0:0:
448,192,71832,1,0,0:0:0:0:
64,192,72008,1,0,0:0:0:0:
448,192,72008,128,0,72185:0:0:0:0:
192,192,72185,128,0,72361:0:0:0:0:
320,192,72361,128,0,72538:0:0:0:0:
448,192,72361,1,0,0:0:0:0:
64,192,72538,128,0,72714:0:0:0:0:
448,192,72626,1,0,0:0:0:0:
192,192,72714,128,0,72891:0:0:0:0:
448,192,72891,128,0,73067:0:0:0:0:
320,192,73067,128,0,73244:0:0:0:0:
192,192,73244,128,0,73420:0:0:0:0:
64,192,73244,1,0,0:0:0:0:
448,192,73420,1,0,0:0:0:0:
320,192,73420,128,0,73597:0:0:0:0:
64,192,73597,128,0,73773:0:0:0:0:
448,192,73773,128,0,73950:0:0:0:0:
320,192,73773,1,0,0:0:0:0:
320,192,73950,128,0,74126:0:0:0:0:
192,192,74038,1,0,0:0:0:0:
64,192,74126,128,0,74303:0:0:0:0:
192,192,74303,128,0,74479:0:0:0:0:
448,192,74479,128,0,74656:0:0:0:0:
320,192,74656,128,0,74832:0:0:0:0:
64,192,74832,128,0,75008:0:0:0:0:
192,192,74832,1,0,0:0:0:0:
192,192,75008,128,0,75185:0:0:0:0:
320,192,75185,128,0,75361:0:0:0:0:
64,192,75185,1,0,0:0:0:0:
448,192,75361,128,0,75538:0:0:0:0:
192,192,75450,1,0,0:0:0:0:
64,192,75538,128,0,75714:0:0:0:0:
192,192,75714,128,0,75891:0:0:0:0:
448,192,75891,128,0,76067:0:0:0:0:
320,192,76067,128,0,76244:0:0:0:0:
64,192,76067,1,0,0:0:0:0:
192,192,76244,128,0,76420:0:0:0:0:
448,192,76244,1,0,0:0:0:0:
320,192,76420,128,0,76597:0:0:0:0:
448,192,76597,128,0,76773:0:0:0:0:
64,192,76597,1,0,0:0:0:0:
64,192,76773,128,0,76950:0:0:0:0:
320,192,76861,1,0,0:0:0:0:
192,192,76950,128,0,77126:0:0:0:0:
320,192,77126,128,0,77303:0:0:0:0:
448,192,77303,128,0,77479:0:0:0:0:
192,192,77479,1,0,0:0:0:0:
64,192,77479,128,0,77656:0:0:0:0:
192,192,77656,128,0,77832:0:0:0:0:
320,192,77656,1,0,0:0:0:0:
448,192,77832,128,0,78008:0:0:0:0:
320,192,78008,128,0,78185:0:0:0:0:
192,192,78008,1,0,0:0:0:0:
64,192,78185,128,0,78361:0:0:0:0:
448,192,78273,1,0,0:0:0:0:
192,192,78361,128,0,78538:0:0:0:0:
448,192,78538,128,0,78714:0:0:0:0:
320,192,78714,128,0,78891:0:0:0:0:
192,192,78891,128,0,79067:0:0:0:0:
448,192,78891,1,0,0:0:0:0:
64,192,79067,1,0,0:0:0:0:
448,192,79067,128,0,79244:0:0:0:0:
192,192,79420,128,0,79597:0:0:0:0:
64,192,79420,1,0,0:0:0:0:
448,192,79597,128,0,79773:0:0:0:0:
320,192,79685,1,0,0:0:0:0:
64,192,79773,128,0,79950:0:0:0:0:
448,192,79950,128,0,80126:0:0:0:0:
64,192,80126,128,0,80303:0:0:0:0:
192,192,80303,128,0,80479:0:0:0:0:
448,192,80303,1,0,0:0:0:0:
320,192,80479,1,0,0:0:0:0:
448,192,80479,128,0,80656:0:0:0:0:
64,192,80656,128,0,80832:0:0:0:0:
192,192,80832,128,0,81008:0:0:0:0:
448,192,80832,1,0,0:0:0:0:
320,192,81008,128,0,81185:0:0:0:0:
64,192,81097,1,0,0:0:0:0:
448,192,81185,128,0,81361:0:0:0:0:
192,192,81361,128,0,81538:0:0:0:0:
64,192,81538,128,0,81714:0:0:0:0:
448,192,81714,128,0,81891:0:0:0:0:
320,192,81714,1,0,0:0:0:0:
192,192,81891,128,0,82067:0:0:0:0:
64,192,81891,1,0,0:0:0:0:
320,192,82067,128,0,82244:0:0:0:0:
64,192,82244,128,0,82420:0:0:0:0:
448,192,82244,1,0,0:0:0:0:
192,192,82420,128,0,82597:0:0:0:0:
320,192,82508,1,0,0:0:0:0:
448,192,82597,128,0,82773:0:0:0:0:
320,192,82773,128,0,82950:0:0:0:0:
192,192,82950,128,0,83126:0:0:0:0:
320,192,83126,128,0,83303:0:0:0:0:
64,192,83126,1,0,0:0:0:0:
448,192,83303,1,0,0:0:0:0:
64,192,83303,128,0,83479:0:0:0:0:
192,192,83479,128,0,83656:0:0:0:0:
320,192,83656,128,0,83832:0:0:0:0:
448,192,83656,1,0,0:0:0:0:
448,192,83832,128,0,84008:0:0:0:0:
192,192,83920,1,0,0:0:0:0:
64,192,84008,128,0,84185:0:0:0:0:
192,192,84185,128,0,84361:0:0:0:0:
320,192,84361,128,0,84538:0:0:0:0:
448,192,84538,128,0,84714:0:0:0:0:
64,192,84538,1,0,0:0:0:0:
192,192,84714,128,0,84891:0:0:0:0:
320,192,84714,1,0,0:0:0:0:
320,192,84891,128,0,85067:0:0:0:0:
64,192,85067,128,0,85244:0:0:0:0:
448,192,85067,1,0,0:0:0:0:
448,192,85244,128,0,85420:0:0:0:0:
192,192,85332,1,0,0:0:0:0:
320,192,85420,128,0,85597:0:0:0:0:
448,192,85597,128,0,85773:0:0:0:0:
192,192,85773,128,0,85950:0:0:0:0:
64,192,85950,128,0,86126:0:0:0:0:
320,192,85950,1,0,0:0:0:0:
192,192,86126,1,0,0:0:0:0:
448,192,86126,128,0,86303:0:0:0:0:
320,192,86303,128,0,86479:0:0:0:0:
192,192,86479,128,0,86656:0:0:0:0:
64,192,86479,1,0,0:0:0:0:
64,192,86656,128,0,86832:0:0:0:0:
320,192,86744,1,0,0:0:0:0:
448,192,86832,128,0,87008:0:0:0:0:
192,192,87008,128,0,87185:0:0:0:0:
320,192,87185,128,0,87361:0:0:0:0:
448,192,87361,128,0,87538:0:0:0:0:
64,192,87361,1,0,0:0:0:0:
192,192,87538,1,0,0:0:0:0:
64,192,87538,128,0,87714:0:0:0:0:
192,192,87714,128,0,87891:0:0:0:0:
320,192,87891,128,0,88067:0:0:0:0:
64,192,87891,1,0,0:0:0:0:
448,192,88067,128,0,88244:0:0:0:0:
64,192,88156,1,0,0:0:0:0:
192,192,88244,128,0,88420:0:0:0:0:
64,192,88420,128,0,88597:0:0:0:0:
320,192,88597,128,0,88773:0:0:0:0:
448,192,88773,128,0,88950:0:0:0:0:
192,192,88773,1,0,0:0:0:0:
64,192,88950,1,0,0:0:0:0:
192,192,88950,128,0,89126:0:0:0:0:
320,192,89126,128,0,89303:0:0:0:0:
448,192,89303,1,0,0:0:0:0:
64,192,89303,128,0,89479:0:0:0:0:
192,192,89479,128,0,89656:0:0:0:0:
320,192,89567,1,0,0:0:0:0:
448,192,89656,128,0,89832:0:0:0:0:
320,192,89832,128,0,90008:0:0:0:0:
64,192,90008,128,0,90185:0:0:0:0:
448,192,90185,128,0,90361:0:0:0:0:
192,192,90185,1,0,0:0:0:0:
64,192,90361,1,0,0:0:0:0:
320,192,90538,128,0,90714:0:0:0:0:
64,192,90714,128,0,90891:0:0:0:0:
448,192,90714,1,0,0:0:0:0:
192,192,90891,128,0,91067:0:0:0:0:
448,192,91067,128,0,91244:0:0:0:0:
320,192,91244,128,0,91420:0:0:0:0:
64,192,91420,128,0,91597:0:0:0:0:
192,192,91420,1,0,0:0:0:0:
192,192,91597,128,0,91773:0:0:0:0:
448,192,91773,128,0,91950:0:0:0:0:
320,192,92126,1,0,0:0:0:0:
64,192,92126,1,0,0:0:0:0:
192,192,92126,1,0,0:0:0:0:
448,192,92303,1,0,0:0:0:0:
192,192,92391,1,0,0:0:0:0:
192,192,92656,1,0,0:0:0:0:
64,192,92832,128,0,93008:0:0:0:0:
448,192,92832,1,0,0:0:0:0:
192,192,93008,128,0,93185:0:0:0:0:
320,192,93361,128,0,93538:0:0:0:0:
192,192,93538,128,0,93714:0:0:0:0:
448,192,93538,1,0,0:0:0:0:
64,192,93714,128,0,93891:0:0:0:0:
448,192,93891,128,0,94067:0:0:0:0:
320,192,94067,128,0,94244:0:0:0:0:
64,192,94244,128,0,94420:0:0:0:0:
192,192,94244,1,0,0:0:0:0:
192,192,94420,128,0,94597:0:0:0:0:
320,192,94597,128,0,94773:0:0:0:0:
448,192,94950,1,0,0:0:0:0:
64,192,94950,1,0,0:0:0:0:
192,192,94950,1,0,0:0:0:0:
320,192,95126,1,0,0:0:0:0:
192,192,95214,1,0,0:0:0:0:
192,192,95479,1,0,0:0:0:0:
448,192,95656,128,0,95832:0:0:0:0:
320,192,95656,1,0,0:0:0:0:
64,192,95832,128,0,96008:0:0:0:0:
192,192,96185,128,0,96361:0:0:0:0:
64,192,96361,128,0,96538:0:0:0:0:
448,192,96361,1,0,0:0:0:0:
320,192,96538,128,0,96714:0:0:0:0:
448,192,96714,128,0,96891:0:0:0:0:
192,192,96891,128,0,97067:0:0:0:0:
320,192,97067,128,0,97244:0:0:0:0:
448,192,97067,1,0,0:0:0:0:
64,192,97244,128,0,97420:0:0:0:0:
448,192,97420,128,0,97597:0:0:0:0:
320,192,97773,1,0,0:0:0:0:
192,192,97773,1,0,0:0:0:0:
64,192,97773,1,0,0:0:0:0:
448,192,97950,1,0,0:0:0:0:
320,192,98038,1,0,0:0:0:0:
320,192,98303,1,0,0:0:0:0:
192,192,98479,128,0,98656:0:0:0:0:
448,192,98479,1,0,0:0:0:0:
320,192,98656,128,0,98832:0:0:0:0:
192,192,99008,128,0,99185:0:0:0:0:
448,192,99185,128,0,99361:0:0:0:0:
320,192,99185,1,0,0:0:0:0:
320,192,99361,128,0,99538:0:0:0:0:
192,192,99538,128,0,99714:0:0:0:0:
64,192,99714,128,0,99891:0:0:0:0:
192,192,99891,128,0,100067:0:0:0:0:
320,192,99891,1,0,0:0:0:0:
448,192,100067,128,0,100244:0:0:0:0:
64,192,100244,128,0,100420:0:0:0:0:
448,192,100597,1,0,0:0:0:0:
320,192,100597,1,0,0:0:0:0:
192,192,100597,1,0,0:0:0:0:
320,192,100773,128,0,100950:0:0:0:0:
64,192,100861,1,0,0:0:0:0:
64,192,101126,1,0,0:0:0:0:
448,192,101303,128,0,101479:0:0:0:0:
192,192,101303,1,0,0:0:0:0:
320,192,101479,128,0,101656:0:0:0:0:
64,192,101656,1,0,0:0:0:0:
192,192,101832,128,0,102008:0:0:0:0:
448,192,102008,128,0,102185:0:0:0:0:
320,192,102008,1,0,0:0:0:0:
64,192,102185,128,0,102361:0:0:0:0:
320,192,102361,128,0,102538:0:0:0:0:
192,192,102538,128,0,102714:0:0:0:0:
448,192,102714,128,0,102891:0:0:0:0:
64,192,102714,1,0,0:0:0:0:
64,192,102891,128,0,103067:0:0:0:0:
320,192,103067,128,0,103244:0:0:0:0:
448,192,103420,1,0,0:0:0:0:
192,192,103420,1,0,0:0:0:0:
64,192,103420,1,0,0:0:0:0:
192,192,103597,128,0,103773:0:0:0:0:
448,192,103685,1,0,0:0:0:0:
448,192,103950,1,0,0:0:0:0:
64,192,104126,128,0,104303:0:0:0:0:
192,192,104126,1,0,0:0:0:0:
192,192,104479,1,0,0:0:0:0:
320,192,104656,128,0,104832:0:0:0:0:
448,192,104832,128,0,105008:0:0:0:0:
192,192,104832,1,0,0:0:0:0:
64,192,105008,128,0,105185:0:0:0:0:
192,192,105185,128,0,105361:0:0:0:0:
320,192,105361,128,0,105538:0:0:0:0:
448,192,105538,128,0,105714:0:0:0:0:
64,192,105538,1,0,0:0:0:0:
64,192,105714,128,0,105891:0:0:0:0:
320,192,105891,128,0,106067:0:0:0:0:
448,192,106244,1,0,0:0:0:0:
192,192,106244,1,0,0:0:0:0:
64,192,106244,1,0,0:0:0:0:
64,192,106420,128,0,106597:0:0:0:0:
448,192,106508,1,0,0:0:0:0:
448,192,106773,1,0,0:0:0:0:
320,192,106950,128,0,107126:0:0:0:0:
64,192,106950,1,0,0:0:0:0:
192,192,107303,1,0,0:0:0:0:
320,192,107479,128,0,107656:0:0:0:0:
192,192,107656,128,0,107832:0:0:0:0:
448,192,107656,1,0,0:0:0:0:
320,192,107832,128,0,108008:0:0:0:0:
64,192,108008,128,0,108185:0:0:0:0:
192,192,108185,128,0,108361:0:0:0:0:
448,192,108361,128,0,108538:0:0:0:0:
320,192,108361,1,0,0:0:0:0:
320,192,108538,128,0,108714:0:0:0:0:
64,192,108714,128,0,108891:0:0:0:0:
448,192,109067,1,0,0:0:0:0:
192,192,109067,1,0,0:0:0:0:
320,192,109067,1,0,0:0:0:0:
448,192,109244,128,0,109420:0:0:0:0:
64,192,109332,1,0,0:0:0:0:
64,192,109597,1,0,0:0:0:0:
192,192,109773,128,0,109950:0:0:0:0:
448,192,109773,1,0,0:0:0:0:
320,192,110126,1,0,0:0:0:0:
64,192,110303,128,0,110479:0:0:0:0:
192,192,110479,128,0,110656:0:0:0:0:
448,192,110479,1,0,0:0:0:0:
320,192,110656,128,0,110832:0:0:0:0:
192,192,110832,128,0,111008:0:0:0:0:
64,192,111008,128,0,111185:0:0:0:0:
448,192,111185,128,0,111361:0:0:0:0:
320,192,111185,1,0,0:0:0:0:
320,192,111361,128,0,111538:0:0:0:0:
64,192,111538,128,0,111714:0:0:0:0:
448,192,111538,128,0,111714:0:0:0:0:
192,192,111714,128,0,112067:0:0:0:0:
320,192,111714,128,0,111891:0:0:0:0:
448,192,111891,128,0,112067:0:0:0:0:
320,192,112067,128,0,112420:0:0:0:0:
64,192,112067,128,0,112244:0:0:0:0:
192,192,112244,128,0,112420:0:0:0:0:
448,192,112420,128,0,112597:0:0:0:0:
64,192,112420,128,0,112773:0:0:0:0:
320,192,112597,128,0,112773:0:0:0:0:
192,192,112773,128,0,112950:0:0:0:0:
448,192,112773,128,0,112950:0:0:0:0:
320,192,112950,1,0,0:0:0:0:
64,192,112950,128,0,115773:0:0:0:0:
320,192,113126,128,0,113303:0:0:0:0:
448,192,113303,128,0,113479:0:0:0:0:
320,192,113656,128,0,113832:0:0:0:0:
448,192,113832,128,0,114008:0:0:0:0:
320,192,114185,128,0,114361:0:0:0:0:
448,192,114361,128,0,114538:0:0:0:0:
320,192,115773,128,0,118597:0:0:0:0:
192,192,115773,1,0,0:0:0:0:
64,192,118244,128,0,118420:0:0:0:0:
192,192,118420,128,0,118597:0:0:0:0:
448,192,118597,128,0,121420:0:0:0:0:
64,192,118773,128,0,118950:0:0:0:0:
192,192,118950,128,0,119126:0:0:0:0:
64,192,119303,128,0,119479:0:0:0:0:
192,192,119479,128,0,119656:0:0:0:0:
64,192,119832,128,0,120008:0:0:0:0:
192,192,120008,128,0,120185:0:0:0:0:
64,192,120361,128,0,120538:0:0:0:0:
192,192,120538,128,0,120714:0:0:0:0:
64,192,121420,128,0,124244:0:0:0:0:
320,192,121420,1,0,0:0:0:0:
448,192,123891,128,0,124067:0:0:0:0:
320,192,124067,128,0,124244:0:0:0:0:
192,192,124244,128,0,127067:0:0:0:0:
448,192,124420,128,0,124597:0:0:0:0:
320,192,124597,128,0,124773:0:0:0:0:
448,192,124950,128,0,125126:0:0:0:0:
320,192,125126,128,0,125303:0:0:0:0:
448,192,125479,128,0,125656:0:0:0:0:
320,192,125656,128,0,125832:0:0:0:0:
448,192,126008,128,0,126185:0:0:0:0:
320,192,126185,128,0,126361:0:0:0:0:
448,192,127067,128,0,129891:0:0:0:0:
320,192,127067,1,0,0:0:0:0:
192,192,129538,128,0,129714:0:0:0:0:
64,192,129714,128,0,129891:0:0:0:0:
320,192,129891,128,0,132714:0:0:0:0:
192,192,130067,128,0,130244:0:0:0:0:
64,192,130244,128,0,130420:0:0:0:0:
192,192,130597,128,0,130773:0:0:0:0:
64,192,130773,128,0,130950:0:0:0:0:
192,192,131126,128,0,131303:0:0:0:0:
64,192,131303,128,0,131479:0:0:0:0:
192,192,131656,128,0,131832:0:0:0:0:
64,192,131832,128,0,132008:0:0:0:0:
192,192,132714,128,0,135538:0:0:0:0:
448,192,132714,1,0,0:0:0:0:
