osu file format v14

[General]
AudioFilename: audio.mp3
AudioLeadIn: 0
PreviewTime: 230651
Countdown: 0
SampleSet: Soft
StackLeniency: 0.7
Mode: 3
LetterboxInBreaks: 0
SpecialStyle: 0
WidescreenStoryboard: 0

[Editor]
Bookmarks: 25846,38646,51446,77046,89846,103046,128246,153846,166646,179446,192246,205046,230646,256246,281846,299446,307446
DistanceSpacing: 0.8
BeatDivisor: 4
GridSize: 4
TimelineZoom: 1.8

[Metadata]
Title:ClockWorks
TitleUnicode:ClockWorks
Artist:Techmo-X
ArtistUnicode:Techmo-X
Creator:_wwwww
Version:TimeWarp
Source:Riddle Transfer 2
Tags:riddle school marathon newgrounds
BeatmapID:1657130
BeatmapSetID:789671

[Difficulty]
HPDrainRate:7
CircleSize:4
OverallDifficulty:7
ApproachRate:5
SliderMultiplier:1.7
SliderTickRate:1

[Events]
//Background and Video events
0,0,"ClockWork.jpg",0,0
//Break Periods
//Storyboard Layer 0 (Background)
//Storyboard Layer 1 (Fail)
//Storyboard Layer 2 (Pass)
//Storyboard Layer 3 (Foreground)
//Storyboard Sound Samples

[TimingPoints]
246,400,4,2,1,70,1,0
246,-111.111111111111,4,2,1,70,0,0
25846,-100,4,2,1,70,0,1
51446,-100,4,2,1,70,0,0
205046,-100,4,2,1,40,0,0
230646,-100,4,2,1,70,0,1
281846,-100,4,2,1,70,0,0
294646,-111.111111111111,4,2,1,60,0,0
299446,-111.111111111111,4,2,1,50,0,0
304246,-111.111111111111,4,2,1,30,0,0
305846,-125,4,2,1,20,0,0
306246,-125,4,2,1,10,0,0
306646,-125,4,2,1,5,0,0

[HitObjects]
448,192,246,5,2,0:0:0:0:
64,192,246,1,2,0:0:0:0:
320,192,446,1,0,0:0:0:0:
192,192,646,1,0,0:0:0:0:
64,192,846,1,0,0:0:0:0:
192,192,946,1,0,0:0:0:0:
320,192,1046,1,0,0:0:0:0:
192,192,1146,1,0,0:0:0:0:
448,192,1246,1,0,0:0:0:0:
320,192,1346,1,0,0:0:0:0:
64,192,1446,1,0,0:0:0:0:
192,192,1546,1,0,0:0:0:0:
448,192,1646,1,0,0:0:0:0:
64,192,1746,1,0,0:0:0:0:
320,192,1846,128,0,2446:0:0:0:0:
64,192,2446,1,0,0:0:0:0:
192,192,2546,1,0,0:0:0:0:
448,192,2646,128,0,2846:0:0:0:0:
64,192,2846,1,0,0:0:0:0:
192,192,2946,1,0,0:0:0:0:
320,192,3046,1,0,0:0:0:0:
448,192,3146,1,0,0:0:0:0:
192,192,3246,1,0,0:0:0:0:
64,192,3346,1,0,0:0:0:0:
448,192,3446,1,2,0:0:0:0:
320,192,3446,1,2,0:0:0:0:
192,192,3546,1,0,0:0:0:0:
64,192,3646,1,0,0:0:0:0:
192,192,3746,1,0,0:0:0:0:
448,192,3846,1,0,0:0:0:0:
64,192,3946,1,0,0:0:0:0:
320,192,4046,1,0,0:0:0:0:
192,192,4146,1,0,0:0:0:0:
448,192,4246,1,0,0:0:0:0:
64,192,4346,1,0,0:0:0:0:
192,192,4446,1,0,0:0:0:0:
448,192,4546,1,0,0:0:0:0:
320,192,4646,1,0,0:0:0:0:
192,192,4746,1,0,0:0:0:0:
320,192,4846,1,0,0:0:0:0:
448,192,4946,1,0,0:0:0:0:
64,192,5046,128,0,5646:0:0:0:0:
320,192,5646,1,0,0:0:0:0:
192,192,5746,1,0,0:0:0:0:
448,192,5846,128,0,6046:0:0:0:0:
320,192,6046,1,0,0:0:0:0:
192,192,6146,1,0,0:0:0:0:
64,192,6246,1,0,0:0:0:0:
448,192,6346,1,0,0:0:0:0:
192,192,6446,1,0,0:0:0:0:
320,192,6546,1,0,0:0:0:0:
448,192,6646,1,2,0:0:0:0:
192,192,6646,1,2,0:0:0:0:
320,192,6746,1,0,0:0:0:0:
64,192,6846,1,0,0:0:0:0:
192,192,6946,1,0,0:0:0:0:
448,192,7046,1,0,0:0:0:0:
320,192,7146,1,0,0:0:0:0:
192,192,7246,1,0,0:0:0:0:
320,192,7346,1,0,0:0:0:0:
64,192,7446,1,0,0:0:0:0:
448,192,7546,1,0,0:0:0:0:
320,192,7646,1,0,0:0:0:0:
192,192,7746,1,0,0:0:0:0:
64,192,7846,1,0,0:0:0:0:
320,192,7946,1,0,0:0:0:0:
448,192,8046,1,0,0:0:0:0:
64,192,8146,1,0,0:0:0:0:
448,192,8246,128,0,9046:0:0:0:0:
64,192,9046,1,0,0:0:0:0:
192,192,9146,1,0,0:0:0:0:
320,192,9246,1,0,0:0:0:0:
448,192,9346,1,0,0:0:0:0:
64,192,9446,1,0,0:0:0:0:
320,192,9546,1,0,0:0:0:0:
192,192,9646,1,0,0:0:0:0:
448,192,9746,1,0,0:0:0:0:
192,192,9846,1,2,0:0:0:0:
64,192,9846,128,0,10446:0:0:0:0:
320,192,9846,1,2,0:0:0:0:
448,192,10446,128,0,10646:0:0:0:0:
320,192,10646,1,0,0:0:0:0:
192,192,10746,1,0,0:0:0:0:
64,192,10846,1,0,0:0:0:0:
320,192,10946,1,0,0:0:0:0:
448,192,11046,1,0,0:0:0:0:
320,192,11146,1,0,0:0:0:0:
64,192,11246,1,0,0:0:0:0:
192,192,11346,1,0,0:0:0:0:
448,192,11446,1,0,0:0:0:0:
320,192,11546,1,0,0:0:0:0:
192,192,11646,1,0,0:0:0:0:
64,192,11746,1,0,0:0:0:0:
448,192,11846,1,0,0:0:0:0:
192,192,11946,1,0,0:0:0:0:
64,192,12046,1,0,0:0:0:0:
448,192,12146,1,0,0:0:0:0:
192,192,12246,1,0,0:0:0:0:
320,192,12346,1,0,0:0:0:0:
448,192,12446,1,0,0:0:0:0:
64,192,12546,1,0,0:0:0:0:
192,192,12646,1,0,0:0:0:0:
448,192,12746,1,0,0:0:0:0:
320,192,12846,1,0,0:0:0:0:
448,192,12946,1,0,0:0:0:0:
192,192,13046,1,2,0:0:0:0:
64,192,13046,1,2,0:0:0:0:
320,192,13246,1,0,0:0:0:0:
192,192,13446,1,0,0:0:0:0:
64,192,13546,1,0,0:0:0:0:
448,192,13646,1,0,0:0:0:0:
320,192,13746,1,0,0:0:0:0:
192,192,13846,1,0,0:0:0:0:
320,192,13946,1,0,0:0:0:0:
64,192,14046,1,0,0:0:0:0:
192,192,14146,1,0,0:0:0:0:
448,192,14246,1,0,0:0:0:0:
320,192,14346,1,0,0:0:0:0:
64,192,14446,1,0,0:0:0:0:
448,192,14546,1,0,0:0:0:0:
192,192,14646,128,0,15246:0:0:0:0:
448,192,15246,1,0,0:0:0:0:
320,192,15346,1,0,0:0:0:0:
64,192,15446,128,0,15646:0:0:0:0:
448,192,15646,1,0,0:0:0:0:
320,192,15746,1,0,0:0:0:0:
192,192,15846,1,0,0:0:0:0:
64,192,15946,1,0,0:0:0:0:
320,192,16046,1,0,0:0:0:0:
448,192,16146,1,0,0:0:0:0:
64,192,16246,1,2,0:0:0:0:
192,192,16246,1,2,0:0:0:0:
320,192,16346,1,0,0:0:0:0:
448,192,16446,1,0,0:0:0:0:
320,192,16546,1,0,0:0:0:0:
64,192,16646,1,0,0:0:0:0:
448,192,16746,1,0,0:0:0:0:
192,192,16846,1,0,0:0:0:0:
320,192,16946,1,0,0:0:0:0:
64,192,17046,1,0,0:0:0:0:
448,192,17146,1,0,0:0:0:0:
320,192,17246,1,0,0:0:0:0:
64,192,17346,1,0,0:0:0:0:
192,192,17446,1,0,0:0:0:0:
448,192,17546,1,0,0:0:0:0:
192,192,17646,1,0,0:0:0:0:
64,192,17746,1,0,0:0:0:0:
320,192,17846,128,0,18446:0:0:0:0:
192,192,18446,1,0,0:0:0:0:
448,192,18546,1,0,0:0:0:0:
64,192,18646,128,0,18846:0:0:0:0:
192,192,18846,1,0,0:0:0:0:
320,192,18946,1,0,0:0:0:0:
448,192,19046,1,0,0:0:0:0:
64,192,19146,1,0,0:0:0:0:
320,192,19246,1,0,0:0:0:0:
192,192,19346,1,0,0:0:0:0:
64,192,19446,1,2,0:0:0:0:
320,192,19446,1,2,0:0:0:0:
192,192,19546,1,0,0:0:0:0:
448,192,19646,1,0,0:0:0:0:
320,192,19746,1,0,0:0:0:0:
64,192,19846,1,0,0:0:0:0:
448,192,19946,1,0,0:0:0:0:
320,192,20046,1,0,0:0:0:0:
192,192,20146,1,0,0:0:0:0:
320,192,20246,1,0,0:0:0:0:
64,192,20346,1,0,0:0:0:0:
192,192,20446,1,0,0:0:0:0:
320,192,20546,1,0,0:0:0:0:
448,192,20646,1,0,0:0:0:0:
64,192,20746,1,0,0:0:0:0:
448,192,20846,1,0,0:0:0:0:
320,192,20946,1,0,0:0:0:0:
64,192,21046,128,0,21846:0:0:0:0:
448,192,21846,1,0,0:0:0:0:
320,192,21946,1,0,0:0:0:0:
192,192,22046,1,0,0:0:0:0:
64,192,22146,1,0,0:0:0:0:
448,192,22246,1,0,0:0:0:0:
192,192,22346,1,0,0:0:0:0:
320,192,22446,1,0,0:0:0:0:
64,192,22546,1,0,0:0:0:0:
320,192,22646,1,2,0:0:0:0:
448,192,22646,128,0,23246:0:0:0:0:
192,192,22646,1,2,0:0:0:0:
64,192,23246,128,0,23446:0:0:0:0:
448,192,23446,1,2,0:0:0:0:
192,192,23446,1,2,0:0:0:0:
320,192,23546,1,0,0:0:0:0:
448,192,23646,1,0,0:0:0:0:
192,192,23746,1,0,0:0:0:0:
64,192,23846,1,0,0:0:0:0:
192,192,23946,1,0,0:0:0:0:
448,192,24046,1,0,0:0:0:0:
320,192,24146,1,0,0:0:0:0:
64,192,24246,1,2,0:0:0:0:
448,192,24246,1,2,0:0:0:0:
192,192,24346,1,0,0:0:0:0:
320,192,24446,1,0,0:0:0:0:
448,192,24546,1,0,0:0:0:0:
64,192,24646,1,0,0:0:0:0:
192,192,24746,1,0,0:0:0:0:
448,192,24846,1,0,0:0:0:0:
64,192,24946,1,0,0:0:0:0:
320,192,25046,1,2,0:0:0:0:
448,192,25046,1,2,0:0:0:0:
192,192,25146,1,0,0:0:0:0:
64,192,25246,1,0,0:0:0:0:
448,192,25346,1,0,0:0:0:0:
320,192,25446,1,0,0:0:0:0:
64,192,25546,1,0,0:0:0:0:
448,192,25646,1,0,0:0:0:0:
320,192,25746,1,0,0:0:0:0:
192,192,25846,1,2,0:0:0:0:
448,192,25846,1,2,0:0:0:0:
64,192,25846,128,0,26246:0:0:0:0:
320,192,26246,1,0,0:0:0:0:
192,192,26446,1,0,0:0:0:0:
64,192,26446,128,0,26846:0:0:0:0:
192,192,26646,1,8,0:0:0:0:
448,192,26646,1,8,0:0:0:0:
320,192,26746,1,0,0:0:0:0:
448,192,26846,1,0,0:0:0:0:
320,192,26946,1,0,0:0:0:0:
192,192,27046,1,0,0:0:0:0:
64,192,27046,128,0,27246:0:0:0:0:
448,192,27146,1,0,0:0:0:0:
320,192,27246,1,0,0:0:0:0:
192,192,27346,1,0,0:0:0:0:
448,192,27446,128,0,27846:0:0:0:0:
320,192,27446,1,0,0:0:0:0:
64,192,27546,1,0,0:0:0:0:
192,192,27646,1,0,0:0:0:0:
320,192,27746,1,0,0:0:0:0:
192,192,27846,1,2,0:0:0:0:
64,192,27846,1,2,0:0:0:0:
448,192,28046,128,0,28446:0:0:0:0:
320,192,28046,1,0,0:0:0:0:
192,192,28146,1,0,0:0:0:0:
320,192,28246,1,8,0:0:0:0:
64,192,28246,1,8,0:0:0:0:
64,192,28446,1,2,0:0:0:0:
192,192,28446,1,2,0:0:0:0:
320,192,28546,1,0,0:0:0:0:
448,192,28646,128,0,28846:0:0:0:0:
192,192,28646,1,0,0:0:0:0:
64,192,28746,1,0,0:0:0:0:
192,192,28846,1,0,0:0:0:0:
320,192,28946,1,0,0:0:0:0:
192,192,29046,128,0,29446:0:0:0:0:
64,192,29046,1,2,0:0:0:0:
448,192,29046,1,2,0:0:0:0:
320,192,29146,1,0,0:0:0:0:
64,192,29246,1,0,0:0:0:0:
320,192,29346,1,0,0:0:0:0:
448,192,29446,1,0,0:0:0:0:
320,192,29546,1,0,0:0:0:0:
192,192,29646,128,0,30046:0:0:0:0:
64,192,29646,1,0,0:0:0:0:
320,192,29746,1,0,0:0:0:0:
64,192,29846,1,8,0:0:0:0:
448,192,29846,1,8,0:0:0:0:
448,192,30046,1,0,0:0:0:0:
320,192,30146,1,0,0:0:0:0:
192,192,30246,128,0,30446:0:0:0:0:
64,192,30246,1,0,0:0:0:0:
448,192,30346,1,0,0:0:0:0:
320,192,30446,1,0,0:0:0:0:
64,192,30546,1,0,0:0:0:0:
320,192,30646,128,0,31046:0:0:0:0:
448,192,30646,1,0,0:0:0:0:
192,192,30746,1,0,0:0:0:0:
448,192,30846,1,0,0:0:0:0:
64,192,31046,1,2,0:0:0:0:
192,192,31046,1,2,0:0:0:0:
320,192,31246,128,0,31646:0:0:0:0:
448,192,31246,1,0,0:0:0:0:
192,192,31346,1,0,0:0:0:0:
64,192,31446,1,8,0:0:0:0:
448,192,31446,1,8,0:0:0:0:
192,192,31646,1,2,0:0:0:0:
64,192,31646,1,2,0:0:0:0:
448,192,31746,1,0,0:0:0:0:
320,192,31846,128,0,32046:0:0:0:0:
64,192,31846,1,0,0:0:0:0:
192,192,31946,1,0,0:0:0:0:
448,192,32046,1,0,0:0:0:0:
192,192,32146,1,0,0:0:0:0:
64,192,32246,128,0,32646:0:0:0:0:
448,192,32246,1,2,0:0:0:0:
320,192,32246,1,2,0:0:0:0:
192,192,32446,1,0,0:0:0:0:
320,192,32546,1,0,0:0:0:0:
448,192,32646,1,0,0:0:0:0:
320,192,32746,1,0,0:0:0:0:
64,192,32846,128,0,33246:0:0:0:0:
192,192,32846,1,0,0:0:0:0:
320,192,32946,1,0,0:0:0:0:
448,192,33046,1,8,0:0:0:0:
192,192,33046,1,8,0:0:0:0:
320,192,33246,1,0,0:0:0:0:
448,192,33346,1,0,0:0:0:0:
64,192,33446,128,0,33646:0:0:0:0:
192,192,33446,1,0,0:0:0:0:
448,192,33546,1,0,0:0:0:0:
320,192,33646,1,0,0:0:0:0:
192,192,33746,1,0,0:0:0:0:
320,192,33846,128,0,34246:0:0:0:0:
64,192,33846,1,0,0:0:0:0:
448,192,34146,1,0,0:0:0:0:
192,192,34246,1,2,0:0:0:0:
64,192,34246,1,2,0:0:0:0:
320,192,34446,128,0,34846:0:0:0:0:
192,192,34446,1,0,0:0:0:0:
64,192,34646,1,8,0:0:0:0:
448,192,34646,1,8,0:0:0:0:
64,192,34846,1,2,0:0:0:0:
192,192,34846,1,2,0:0:0:0:
448,192,34946,1,0,0:0:0:0:
320,192,35046,128,0,35246:0:0:0:0:
64,192,35046,1,0,0:0:0:0:
192,192,35146,1,0,0:0:0:0:
448,192,35246,1,0,0:0:0:0:
64,192,35346,1,0,0:0:0:0:
448,192,35446,128,0,35846:0:0:0:0:
192,192,35446,1,2,0:0:0:0:
320,192,35446,1,2,0:0:0:0:
64,192,35546,1,0,0:0:0:0:
320,192,35646,1,0,0:0:0:0:
192,192,35746,1,0,0:0:0:0:
64,192,35846,1,0,0:0:0:0:
448,192,36046,128,0,36446:0:0:0:0:
320,192,36046,1,0,0:0:0:0:
320,192,36246,1,8,0:0:0:0:
64,192,36246,1,8,0:0:0:0:
192,192,36446,1,0,0:0:0:0:
64,192,36546,1,0,0:0:0:0:
448,192,36646,128,0,36846:0:0:0:0:
320,192,36646,1,0,0:0:0:0:
192,192,36846,1,0,0:0:0:0:
64,192,36946,1,0,0:0:0:0:
448,192,37046,1,0,0:0:0:0:
320,192,37146,1,0,0:0:0:0:
64,192,37246,1,0,0:0:0:0:
192,192,37346,1,0,0:0:0:0:
448,192,37446,1,2,0:0:0:0:
320,192,37446,1,2,0:0:0:0:
64,192,37546,1,0,0:0:0:0:
320,192,37646,1,0,0:0:0:0:
192,192,37746,1,0,0:0:0:0:
64,192,37846,1,8,0:0:0:0:
448,192,37846,1,8,0:0:0:0:
192,192,37946,1,0,0:0:0:0:
320,192,38046,1,2,0:0:0:0:
448,192,38046,1,2,0:0:0:0:
192,192,38146,1,0,0:0:0:0:
320,192,38246,1,2,0:0:0:0:
64,192,38246,1,2,0:0:0:0:
448,192,38346,1,0,0:0:0:0:
320,192,38446,1,0,0:0:0:0:
192,192,38546,1,0,0:0:0:0:
320,192,38646,1,2,0:0:0:0:
64,192,38646,1,2,0:0:0:0:
448,192,38646,128,0,39046:0:0:0:0:
192,192,38746,1,0,0:0:0:0:
320,192,38846,1,0,0:0:0:0:
64,192,39046,1,0,0:0:0:0:
320,192,39246,1,0,0:0:0:0:
448,192,39246,128,0,39646:0:0:0:0:
320,192,39446,1,8,0:0:0:0:
64,192,39446,1,8,0:0:0:0:
64,192,39646,1,0,0:0:0:0:
192,192,39746,1,0,0:0:0:0:
320,192,39846,1,0,0:0:0:0:
448,192,39846,128,0,40046:0:0:0:0:
64,192,39946,1,0,0:0:0:0:
192,192,40046,1,0,0:0:0:0:
320,192,40146,1,0,0:0:0:0:
64,192,40246,128,0,40646:0:0:0:0:
192,192,40246,1,0,0:0:0:0:
448,192,40346,1,0,0:0:0:0:
320,192,40446,1,0,0:0:0:0:
192,192,40546,1,0,0:0:0:0:
448,192,40646,1,2,0:0:0:0:
320,192,40646,1,2,0:0:0:0:
64,192,40846,128,0,41246:0:0:0:0:
192,192,40846,1,0,0:0:0:0:
320,192,40946,1,0,0:0:0:0:
192,192,41046,1,8,0:0:0:0:
448,192,41046,1,8,0:0:0:0:
448,192,41246,1,2,0:0:0:0:
320,192,41246,1,2,0:0:0:0:
192,192,41346,1,0,0:0:0:0:
64,192,41446,128,0,41646:0:0:0:0:
320,192,41446,1,0,0:0:0:0:
448,192,41546,1,0,0:0:0:0:
320,192,41646,1,0,0:0:0:0:
192,192,41746,1,0,0:0:0:0:
320,192,41846,128,0,42246:0:0:0:0:
448,192,41846,1,2,0:0:0:0:
64,192,41846,1,2,0:0:0:0:
192,192,41946,1,0,0:0:0:0:
448,192,42046,1,0,0:0:0:0:
192,192,42146,1,0,0:0:0:0:
64,192,42246,1,0,0:0:0:0:
192,192,42346,1,0,0:0:0:0:
320,192,42446,128,0,42846:0:0:0:0:
448,192,42446,1,0,0:0:0:0:
192,192,42546,1,0,0:0:0:0:
448,192,42646,1,8,0:0:0:0:
64,192,42646,1,8,0:0:0:0:
64,192,42846,1,0,0:0:0:0:
192,192,42946,1,0,0:0:0:0:
320,192,43046,128,0,43246:0:0:0:0:
448,192,43046,1,0,0:0:0:0:
64,192,43146,1,0,0:0:0:0:
192,192,43246,1,0,0:0:0:0:
448,192,43346,1,0,0:0:0:0:
192,192,43446,128,0,43846:0:0:0:0:
64,192,43446,1,0,0:0:0:0:
320,192,43546,1,0,0:0:0:0:
64,192,43646,1,0,0:0:0:0:
448,192,43846,1,2,0:0:0:0:
320,192,43846,1,2,0:0:0:0:
192,192,44046,128,0,44446:0:0:0:0:
64,192,44046,1,0,0:0:0:0:
320,192,44146,1,0,0:0:0:0:
448,192,44246,1,8,0:0:0:0:
64,192,44246,1,8,0:0:0:0:
320,192,44446,1,2,0:0:0:0:
448,192,44446,1,2,0:0:0:0:
64,192,44546,1,0,0:0:0:0:
192,192,44646,128,0,44846:0:0:0:0:
448,192,44646,1,0,0:0:0:0:
320,192,44746,1,0,0:0:0:0:
64,192,44846,1,0,0:0:0:0:
320,192,44946,1,0,0:0:0:0:
448,192,45046,128,0,45446:0:0:0:0:
64,192,45046,1,2,0:0:0:0:
192,192,45046,1,2,0:0:0:0:
320,192,45246,1,0,0:0:0:0:
192,192,45346,1,0,0:0:0:0:
64,192,45446,1,0,0:0:0:0:
192,192,45546,1,0,0:0:0:0:
448,192,45646,128,0,46046:0:0:0:0:
320,192,45646,1,0,0:0:0:0:
192,192,45746,1,0,0:0:0:0:
64,192,45846,1,8,0:0:0:0:
320,192,45846,1,8,0:0:0:0:
192,192,46046,1,0,0:0:0:0:
64,192,46146,1,0,0:0:0:0:
448,192,46246,128,0,46446:0:0:0:0:
320,192,46246,1,0,0:0:0:0:
64,192,46346,1,0,0:0:0:0:
192,192,46446,1,0,0:0:0:0:
320,192,46546,1,0,0:0:0:0:
192,192,46646,128,0,47046:0:0:0:0:
448,192,46646,1,0,0:0:0:0:
64,192,46746,1,0,0:0:0:0:
320,192,46846,1,0,0:0:0:0:
64,192,46946,1,0,0:0:0:0:
320,192,47046,1,2,0:0:0:0:
448,192,47046,1,2,0:0:0:0:
192,192,47246,128,0,47646:0:0:0:0:
320,192,47246,1,0,0:0:0:0:
448,192,47446,1,8,0:0:0:0:
64,192,47446,1,8,0:0:0:0:
448,192,47646,1,2,0:0:0:0:
320,192,47646,1,2,0:0:0:0:
64,192,47746,1,0,0:0:0:0:
192,192,47846,128,0,48046:0:0:0:0:
448,192,47846,1,0,0:0:0:0:
320,192,47946,1,0,0:0:0:0:
64,192,48046,1,0,0:0:0:0:
448,192,48146,1,0,0:0:0:0:
64,192,48246,128,0,48646:0:0:0:0:
320,192,48246,1,2,0:0:0:0:
192,192,48246,1,2,0:0:0:0:
448,192,48346,1,0,0:0:0:0:
192,192,48446,1,0,0:0:0:0:
320,192,48546,1,0,0:0:0:0:
448,192,48646,1,0,0:0:0:0:
64,192,48846,128,0,49246:0:0:0:0:
192,192,48846,1,0,0:0:0:0:
192,192,49046,1,8,0:0:0:0:
448,192,49046,1,8,0:0:0:0:
320,192,49246,1,0,0:0:0:0:
448,192,49346,1,0,0:0:0:0:
64,192,49446,128,0,49646:0:0:0:0:
192,192,49446,1,0,0:0:0:0:
320,192,49546,1,0,0:0:0:0:
448,192,49646,1,0,0:0:0:0:
320,192,49746,1,0,0:0:0:0:
64,192,49846,1,0,0:0:0:0:
192,192,49946,1,0,0:0:0:0:
448,192,50046,1,0,0:0:0:0:
320,192,50146,1,0,0:0:0:0:
64,192,50246,1,2,0:0:0:0:
192,192,50246,1,2,0:0:0:0:
448,192,50346,1,0,0:0:0:0:
192,192,50446,1,0,0:0:0:0:
320,192,50546,1,0,0:0:0:0:
448,192,50646,1,8,0:0:0:0:
64,192,50646,1,8,0:0:0:0:
320,192,50746,1,0,0:0:0:0:
192,192,50846,1,2,0:0:0:0:
64,192,50846,1,2,0:0:0:0:
320,192,50946,1,0,0:0:0:0:
192,192,51046,1,2,0:0:0:0:
448,192,51046,1,2,0:0:0:0:
64,192,51146,1,0,0:0:0:0:
192,192,51246,1,0,0:0:0:0:
320,192,51346,1,0,0:0:0:0:
192,192,51446,5,2,0:0:0:0:
448,192,51446,128,0,51846:0:0:0:0:
64,192,51646,1,0,0:0:0:0:
320,192,51846,128,0,52046:0:0:0:0:
448,192,52046,128,0,52446:0:0:0:0:
192,192,52246,1,8,0:0:0:0:
64,192,52246,1,8,0:0:0:0:
320,192,52446,128,0,52646:0:0:0:0:
448,192,52646,128,0,52846:0:0:0:0:
64,192,53046,128,0,53446:0:0:0:0:
320,192,53046,1,0,0:0:0:0:
192,192,53446,1,2,0:0:0:0:
320,192,53446,128,0,53646:0:0:0:0:
64,192,53646,128,0,54046:0:0:0:0:
448,192,53846,1,8,0:0:0:0:
192,192,53846,1,8,0:0:0:0:
320,192,54046,128,0,54246:0:0:0:0:
448,192,54046,1,2,0:0:0:0:
64,192,54246,128,0,54446:0:0:0:0:
192,192,54646,128,0,55046:0:0:0:0:
448,192,54646,1,2,0:0:0:0:
448,192,55046,128,0,55246:0:0:0:0:
192,192,55246,128,0,55646:0:0:0:0:
64,192,55446,1,8,0:0:0:0:
320,192,55446,1,8,0:0:0:0:
448,192,55646,128,0,55846:0:0:0:0:
192,192,55846,128,0,56046:0:0:0:0:
64,192,56246,128,0,56646:0:0:0:0:
448,192,56246,1,0,0:0:0:0:
448,192,56646,128,0,56846:0:0:0:0:
320,192,56646,1,2,0:0:0:0:
64,192,56846,128,0,57246:0:0:0:0:
192,192,56846,1,0,0:0:0:0:
320,192,57046,1,8,0:0:0:0:
192,192,57046,1,8,0:0:0:0:
448,192,57046,1,0,0:0:0:0:
448,192,57246,128,0,57446:0:0:0:0:
320,192,57246,1,2,0:0:0:0:
64,192,57446,128,0,57646:0:0:0:0:
192,192,57846,1,2,0:0:0:0:
320,192,57846,128,0,58246:0:0:0:0:
64,192,58246,128,0,58446:0:0:0:0:
320,192,58446,128,0,58846:0:0:0:0:
192,192,58646,1,8,0:0:0:0:
448,192,58646,1,8,0:0:0:0:
64,192,58846,128,0,59046:0:0:0:0:
320,192,59046,128,0,59246:0:0:0:0:
448,192,59446,1,0,0:0:0:0:
192,192,59446,128,0,59846:0:0:0:0:
448,192,59846,128,0,60046:0:0:0:0:
320,192,59846,1,2,0:0:0:0:
192,192,60046,128,0,60446:0:0:0:0:
64,192,60046,1,0,0:0:0:0:
64,192,60246,1,8,0:0:0:0:
320,192,60246,1,8,0:0:0:0:
448,192,60246,1,0,0:0:0:0:
448,192,60446,128,0,60646:0:0:0:0:
320,192,60446,1,2,0:0:0:0:
192,192,60646,128,0,60846:0:0:0:0:
64,192,61046,128,0,61446:0:0:0:0:
448,192,61046,1,2,0:0:0:0:
192,192,61446,128,0,61646:0:0:0:0:
64,192,61646,128,0,62046:0:0:0:0:
320,192,61846,1,8,0:0:0:0:
448,192,61846,1,8,0:0:0:0:
192,192,62046,128,0,62246:0:0:0:0:
64,192,62246,128,0,62446:0:0:0:0:
448,192,62646,1,0,0:0:0:0:
192,192,62646,128,0,63046:0:0:0:0:
448,192,63046,128,0,63246:0:0:0:0:
320,192,63046,1,2,0:0:0:0:
192,192,63246,128,0,63646:0:0:0:0:
64,192,63246,1,0,0:0:0:0:
64,192,63446,1,8,0:0:0:0:
448,192,63446,1,8,0:0:0:0:
320,192,63446,1,0,0:0:0:0:
448,192,63646,128,0,63846:0:0:0:0:
320,192,63646,1,2,0:0:0:0:
192,192,63846,128,0,64046:0:0:0:0:
64,192,63846,1,2,0:0:0:0:
320,192,64046,128,0,64246:0:0:0:0:
448,192,64246,5,2,0:0:0:0:
64,192,64246,128,0,64646:0:0:0:0:
192,192,64646,128,0,64846:0:0:0:0:
64,192,64846,128,0,65246:0:0:0:0:
320,192,65046,1,8,0:0:0:0:
448,192,65046,1,8,0:0:0:0:
192,192,65246,128,0,65446:0:0:0:0:
64,192,65446,128,0,65646:0:0:0:0:
448,192,65846,128,0,66246:0:0:0:0:
192,192,65846,1,0,0:0:0:0:
320,192,66246,1,2,0:0:0:0:
192,192,66246,128,0,66446:0:0:0:0:
448,192,66446,128,0,66846:0:0:0:0:
64,192,66646,1,8,0:0:0:0:
320,192,66646,1,8,0:0:0:0:
192,192,66846,128,0,67046:0:0:0:0:
64,192,66846,1,2,0:0:0:0:
448,192,67046,128,0,67246:0:0:0:0:
320,192,67446,128,0,67846:0:0:0:0:
64,192,67446,1,2,0:0:0:0:
64,192,67846,128,0,68046:0:0:0:0:
320,192,68046,128,0,68446:0:0:0:0:
448,192,68246,1,8,0:0:0:0:
192,192,68246,1,8,0:0:0:0:
64,192,68446,128,0,68646:0:0:0:0:
320,192,68646,128,0,68846:0:0:0:0:
448,192,69046,128,0,69446:0:0:0:0:
64,192,69046,1,0,0:0:0:0:
64,192,69446,128,0,69646:0:0:0:0:
192,192,69446,1,2,0:0:0:0:
448,192,69646,128,0,70046:0:0:0:0:
320,192,69646,1,0,0:0:0:0:
192,192,69846,1,8,0:0:0:0:
320,192,69846,1,8,0:0:0:0:
64,192,69846,1,0,0:0:0:0:
64,192,70046,128,0,70246:0:0:0:0:
192,192,70046,1,2,0:0:0:0:
448,192,70246,128,0,70446:0:0:0:0:
320,192,70646,1,2,0:0:0:0:
192,192,70646,128,0,71046:0:0:0:0:
448,192,71046,128,0,71246:0:0:0:0:
192,192,71246,128,0,71646:0:0:0:0:
320,192,71446,1,8,0:0:0:0:
64,192,71446,1,8,0:0:0:0:
448,192,71646,128,0,71846:0:0:0:0:
192,192,71846,128,0,72046:0:0:0:0:
64,192,72246,1,0,0:0:0:0:
320,192,72246,128,0,72646:0:0:0:0:
64,192,72646,128,0,72846:0:0:0:0:
192,192,72646,1,2,0:0:0:0:
320,192,72846,128,0,73246:0:0:0:0:
448,192,73046,1,8,0:0:0:0:
192,192,73046,1,8,0:0:0:0:
64,192,73246,128,0,73446:0:0:0:0:
192,192,73246,1,2,0:0:0:0:
320,192,73446,128,0,73646:0:0:0:0:
448,192,73846,128,0,74246:0:0:0:0:
64,192,73846,1,2,0:0:0:0:
320,192,74246,128,0,74446:0:0:0:0:
448,192,74446,128,0,74846:0:0:0:0:
192,192,74646,1,8,0:0:0:0:
64,192,74646,1,8,0:0:0:0:
320,192,74846,128,0,75046:0:0:0:0:
448,192,75046,128,0,75246:0:0:0:0:
64,192,75446,1,0,0:0:0:0:
320,192,75446,128,0,75846:0:0:0:0:
64,192,75846,128,0,76046:0:0:0:0:
192,192,75846,1,2,0:0:0:0:
320,192,76046,128,0,76446:0:0:0:0:
448,192,76246,1,8,0:0:0:0:
64,192,76246,1,8,0:0:0:0:
64,192,76446,128,0,76646:0:0:0:0:
192,192,76446,1,2,0:0:0:0:
320,192,76646,128,0,76846:0:0:0:0:
64,192,77046,1,2,0:0:0:0:
192,192,77046,1,2,0:0:0:0:
448,192,77246,128,0,77446:0:0:0:0:
320,192,77446,128,0,77646:0:0:0:0:
192,192,77646,128,0,77846:0:0:0:0:
448,192,77846,1,8,0:0:0:0:
320,192,77846,1,8,0:0:0:0:
64,192,77846,128,0,78046:0:0:0:0:
320,192,78046,128,0,78246:0:0:0:0:
448,192,78246,128,0,78446:0:0:0:0:
64,192,78446,128,0,78646:0:0:0:0:
448,192,78846,128,0,79046:0:0:0:0:
320,192,79046,128,0,79246:0:0:0:0:
64,192,79046,1,2,0:0:0:0:
192,192,79246,128,0,79446:0:0:0:0:
448,192,79446,1,8,0:0:0:0:
64,192,79446,128,0,79646:0:0:0:0:
320,192,79446,1,8,0:0:0:0:
448,192,79646,128,0,79846:0:0:0:0:
192,192,79646,1,2,0:0:0:0:
320,192,79846,128,0,80046:0:0:0:0:
64,192,80046,128,0,80246:0:0:0:0:
192,192,80246,1,2,0:0:0:0:
448,192,80246,1,2,0:0:0:0:
448,192,80446,128,0,80646:0:0:0:0:
320,192,80646,128,0,80846:0:0:0:0:
192,192,80846,128,0,81046:0:0:0:0:
448,192,81046,128,0,81246:0:0:0:0:
64,192,81046,1,8,0:0:0:0:
320,192,81046,1,8,0:0:0:0:
64,192,81246,128,0,81446:0:0:0:0:
320,192,81446,128,0,81646:0:0:0:0:
192,192,81646,128,0,81846:0:0:0:0:
448,192,81846,128,0,82046:0:0:0:0:
64,192,82046,128,0,82246:0:0:0:0:
448,192,82246,128,0,82446:0:0:0:0:
192,192,82246,1,2,0:0:0:0:
320,192,82446,128,0,82646:0:0:0:0:
64,192,82646,128,0,82846:0:0:0:0:
192,192,82646,1,8,0:0:0:0:
448,192,82646,1,8,0:0:0:0:
320,192,82846,1,2,0:0:0:0:
448,192,82846,128,0,83046:0:0:0:0:
192,192,83046,128,0,83246:0:0:0:0:
64,192,83046,1,2,0:0:0:0:
320,192,83246,128,0,83446:0:0:0:0:
448,192,83446,1,2,0:0:0:0:
64,192,83446,1,2,0:0:0:0:
192,192,83646,128,0,83846:0:0:0:0:
64,192,83846,128,0,84046:0:0:0:0:
320,192,84046,128,0,84246:0:0:0:0:
64,192,84246,1,8,0:0:0:0:
192,192,84246,1,8,0:0:0:0:
448,192,84246,1,8,0:0:0:0:
448,192,84446,128,0,84646:0:0:0:0:
320,192,84646,128,0,84846:0:0:0:0:
192,192,84846,128,0,85046:0:0:0:0:
448,192,85046,128,0,85246:0:0:0:0:
320,192,85246,128,0,85446:0:0:0:0:
64,192,85446,128,0,85646:0:0:0:0:
192,192,85446,1,2,0:0:0:0:
448,192,85646,128,0,85846:0:0:0:0:
320,192,85846,128,0,86046:0:0:0:0:
192,192,85846,1,8,0:0:0:0:
64,192,85846,1,8,0:0:0:0:
192,192,86046,128,0,86246:0:0:0:0:
448,192,86046,1,2,0:0:0:0:
448,192,86246,128,0,86446:0:0:0:0:
64,192,86446,128,0,86646:0:0:0:0:
448,192,86646,1,2,0:0:0:0:
192,192,86646,1,2,0:0:0:0:
320,192,86846,128,0,87046:0:0:0:0:
448,192,87046,128,0,87246:0:0:0:0:
192,192,87246,128,0,87446:0:0:0:0:
64,192,87446,1,8,0:0:0:0:
448,192,87446,1,8,0:0:0:0:
320,192,87446,128,0,87646:0:0:0:0:
64,192,87646,128,0,87846:0:0:0:0:
448,192,87846,128,0,88046:0:0:0:0:
192,192,88046,128,0,88246:0:0:0:0:
320,192,88246,128,0,88446:0:0:0:0:
448,192,88446,128,0,88646:0:0:0:0:
64,192,88646,128,0,88846:0:0:0:0:
192,192,88646,1,2,0:0:0:0:
320,192,88846,128,0,89046:0:0:0:0:
448,192,89046,128,0,89246:0:0:0:0:
192,192,89046,1,8,0:0:0:0:
64,192,89046,1,8,0:0:0:0:
192,192,89246,128,0,89446:0:0:0:0:
64,192,89246,1,2,0:0:0:0:
320,192,89446,128,0,89646:0:0:0:0:
448,192,89446,1,2,0:0:0:0:
64,192,89646,128,0,89846:0:0:0:0:
192,192,89846,1,2,0:0:0:0:
448,192,89846,1,2,0:0:0:0:
320,192,90046,128,0,90246:0:0:0:0:
64,192,90446,128,0,90646:0:0:0:0:
448,192,90646,128,0,90846:0:0:0:0:
320,192,90646,1,8,0:0:0:0:
192,192,90646,1,8,0:0:0:0:
320,192,91046,128,0,91246:0:0:0:0:
64,192,91246,128,0,91446:0:0:0:0:
448,192,91646,128,0,91846:0:0:0:0:
320,192,91846,128,0,92046:0:0:0:0:
64,192,91846,1,2,0:0:0:0:
192,192,92046,128,0,92246:0:0:0:0:
64,192,92246,1,8,0:0:0:0:
320,192,92246,1,8,0:0:0:0:
448,192,92246,128,0,92446:0:0:0:0:
64,192,92446,128,0,92646:0:0:0:0:
192,192,92446,1,2,0:0:0:0:
320,192,92646,128,0,92846:0:0:0:0:
448,192,92846,128,0,93046:0:0:0:0:
192,192,93046,1,2,0:0:0:0:
64,192,93046,1,2,0:0:0:0:
320,192,93246,128,0,93446:0:0:0:0:
192,192,93446,128,0,93646:0:0:0:0:
64,192,93646,128,0,93846:0:0:0:0:
448,192,93846,128,0,94046:0:0:0:0:
192,192,93846,1,8,0:0:0:0:
320,192,93846,1,8,0:0:0:0:
320,192,94046,128,0,94246:0:0:0:0:
64,192,94246,128,0,94446:0:0:0:0:
192,192,94446,128,0,94646:0:0:0:0:
448,192,94846,128,0,95046:0:0:0:0:
192,192,95046,128,0,95246:0:0:0:0:
64,192,95046,1,2,0:0:0:0:
320,192,95246,128,0,95446:0:0:0:0:
192,192,95446,1,8,0:0:0:0:
448,192,95446,1,8,0:0:0:0:
64,192,95446,128,0,95646:0:0:0:0:
192,192,95646,128,0,95846:0:0:0:0:
320,192,95646,1,2,0:0:0:0:
448,192,95846,128,0,96046:0:0:0:0:
64,192,95846,1,2,0:0:0:0:
320,192,96046,128,0,96246:0:0:0:0:
192,192,96246,1,2,0:0:0:0:
64,192,96246,1,2,0:0:0:0:
448,192,96446,128,0,96646:0:0:0:0:
64,192,96846,128,0,97046:0:0:0:0:
192,192,97046,1,8,0:0:0:0:
448,192,97046,1,8,0:0:0:0:
320,192,97046,128,0,97246:0:0:0:0:
192,192,97446,128,0,97646:0:0:0:0:
448,192,97646,128,0,97846:0:0:0:0:
320,192,98046,128,0,98246:0:0:0:0:
64,192,98246,128,0,98446:0:0:0:0:
192,192,98246,1,2,0:0:0:0:
192,192,98646,1,8,0:0:0:0:
64,192,98646,1,8,0:0:0:0:
448,192,98646,128,0,98846:0:0:0:0:
192,192,98846,128,0,99046:0:0:0:0:
320,192,98846,1,2,0:0:0:0:
320,192,99246,128,0,99446:0:0:0:0:
192,192,99446,1,2,0:0:0:0:
64,192,99446,1,2,0:0:0:0:
448,192,99646,128,0,99846:0:0:0:0:
320,192,99846,128,0,100046:0:0:0:0:
192,192,100046,128,0,100246:0:0:0:0:
64,192,100246,128,0,100446:0:0:0:0:
320,192,100246,1,8,0:0:0:0:
448,192,100246,1,8,0:0:0:0:
320,192,100446,128,0,100646:0:0:0:0:
448,192,100646,128,0,100846:0:0:0:0:
64,192,100846,128,0,101046:0:0:0:0:
192,192,101046,1,0,0:0:0:0:
320,192,101246,1,0,0:0:0:0:
448,192,101446,1,2,0:0:0:0:
64,192,101446,1,2,0:0:0:0:
320,192,101646,1,0,0:0:0:0:
192,192,101846,1,8,0:0:0:0:
64,192,101846,1,8,0:0:0:0:
448,192,101846,1,0,0:0:0:0:
448,192,102046,1,2,0:0:0:0:
320,192,102046,1,2,0:0:0:0:
64,192,102146,1,2,0:0:0:0:
192,192,102146,1,2,0:0:0:0:
448,192,102246,1,2,0:0:0:0:
320,192,102246,1,2,0:0:0:0:
64,192,102346,1,2,0:0:0:0:
192,192,102346,1,2,0:0:0:0:
448,192,102446,1,2,0:0:0:0:
320,192,102446,1,2,0:0:0:0:
64,192,102546,1,2,0:0:0:0:
192,192,102546,1,2,0:0:0:0:
448,192,102646,128,0,102846:0:0:0:0:
320,192,102646,1,2,0:0:0:0:
64,192,102846,128,0,103046:0:0:0:0:
192,192,103046,1,0,0:0:0:0:
320,192,103246,1,0,0:0:0:0:
192,192,103346,1,0,0:0:0:0:
64,192,103446,1,0,0:0:0:0:
320,192,103446,1,8,0:0:0:0:
448,192,103446,1,8,0:0:0:0:
192,192,103546,1,0,0:0:0:0:
320,192,103646,1,0,0:0:0:0:
448,192,103746,1,0,0:0:0:0:
192,192,103846,1,0,0:0:0:0:
320,192,103946,1,0,0:0:0:0:
64,192,104046,1,0,0:0:0:0:
192,192,104146,1,0,0:0:0:0:
448,192,104246,1,0,0:0:0:0:
64,192,104346,1,0,0:0:0:0:
320,192,104446,1,0,0:0:0:0:
192,192,104546,1,0,0:0:0:0:
448,192,104646,1,2,0:0:0:0:
64,192,104646,1,2,0:0:0:0:
192,192,104846,1,0,0:0:0:0:
320,192,104946,1,0,0:0:0:0:
448,192,105046,1,0,0:0:0:0:
192,192,105046,1,8,0:0:0:0:
64,192,105046,1,8,0:0:0:0:
320,192,105246,1,0,0:0:0:0:
192,192,105346,1,0,0:0:0:0:
64,192,105446,1,0,0:0:0:0:
320,192,105546,1,0,0:0:0:0:
448,192,105646,1,0,0:0:0:0:
192,192,105746,1,0,0:0:0:0:
320,192,105846,1,2,0:0:0:0:
448,192,105846,1,2,0:0:0:0:
64,192,105946,1,0,0:0:0:0:
192,192,106046,1,0,0:0:0:0:
448,192,106146,1,0,0:0:0:0:
320,192,106246,1,0,0:0:0:0:
64,192,106346,1,0,0:0:0:0:
448,192,106446,1,0,0:0:0:0:
192,192,106546,1,0,0:0:0:0:
64,192,106646,1,0,0:0:0:0:
448,192,106646,1,8,0:0:0:0:
320,192,106646,1,8,0:0:0:0:
192,192,106846,1,0,0:0:0:0:
320,192,106946,1,0,0:0:0:0:
448,192,107046,1,0,0:0:0:0:
64,192,107146,1,0,0:0:0:0:
320,192,107246,1,0,0:0:0:0:
192,192,107346,1,0,0:0:0:0:
448,192,107446,1,0,0:0:0:0:
320,192,107546,1,0,0:0:0:0:
192,192,107646,1,0,0:0:0:0:
320,192,107746,1,0,0:0:0:0:
64,192,107846,1,2,0:0:0:0:
448,192,107846,1,2,0:0:0:0:
192,192,108046,1,0,0:0:0:0:
320,192,108146,1,0,0:0:0:0:
64,192,108246,1,8,0:0:0:0:
192,192,108246,1,8,0:0:0:0:
448,192,108246,1,0,0:0:0:0:
320,192,108446,1,0,0:0:0:0:
192,192,108546,1,0,0:0:0:0:
64,192,108646,1,2,0:0:0:0:
320,192,108646,1,2,0:0:0:0:
448,192,108746,1,0,0:0:0:0:
192,192,108846,1,0,0:0:0:0:
64,192,108946,1,0,0:0:0:0:
320,192,109046,1,2,0:0:0:0:
448,192,109046,1,2,0:0:0:0:
320,192,109246,1,0,0:0:0:0:
192,192,109346,1,0,0:0:0:0:
448,192,109446,1,0,0:0:0:0:
320,192,109546,1,0,0:0:0:0:
64,192,109646,1,0,0:0:0:0:
192,192,109746,1,0,0:0:0:0:
64,192,109846,1,0,0:0:0:0:
320,192,109846,1,8,0:0:0:0:
448,192,109846,1,8,0:0:0:0:
448,192,110046,1,0,0:0:0:0:
320,192,110146,1,0,0:0:0:0:
64,192,110246,1,0,0:0:0:0:
192,192,110346,1,0,0:0:0:0:
320,192,110446,1,0,0:0:0:0:
64,192,110546,1,0,0:0:0:0:
448,192,110646,1,0,0:0:0:0:
320,192,110746,1,0,0:0:0:0:
64,192,110846,1,0,0:0:0:0:
192,192,110946,1,0,0:0:0:0:
320,192,111046,1,2,0:0:0:0:
448,192,111046,1,2,0:0:0:0:
192,192,111246,1,0,0:0:0:0:
64,192,111446,1,0,0:0:0:0:
448,192,111446,1,8,0:0:0:0:
320,192,111446,1,8,0:0:0:0:
192,192,111646,1,0,0:0:0:0:
320,192,111746,1,0,0:0:0:0:
64,192,111846,1,0,0:0:0:0:
192,192,111946,1,0,0:0:0:0:
448,192,112046,1,0,0:0:0:0:
320,192,112146,1,0,0:0:0:0:
64,192,112246,1,2,0:0:0:0:
192,192,112246,1,2,0:0:0:0:
448,192,112346,1,0,0:0:0:0:
320,192,112446,1,0,0:0:0:0:
64,192,112546,1,0,0:0:0:0:
448,192,112646,1,0,0:0:0:0:
192,192,112846,1,0,0:0:0:0:
320,192,113046,1,2,0:0:0:0:
448,192,113046,1,8,0:0:0:0:
64,192,113046,1,8,0:0:0:0:
192,192,113246,1,0,0:0:0:0:
64,192,113346,1,0,0:0:0:0:
320,192,113446,1,0,0:0:0:0:
192,192,113546,1,0,0:0:0:0:
448,192,113646,1,0,0:0:0:0:
64,192,113746,1,0,0:0:0:0:
192,192,113846,1,0,0:0:0:0:
448,192,113946,1,0,0:0:0:0:
320,192,114046,1,0,0:0:0:0:
192,192,114146,1,0,0:0:0:0:
448,192,114246,1,2,0:0:0:0:
64,192,114246,1,2,0:0:0:0:
192,192,114346,1,0,0:0:0:0:
320,192,114446,1,0,0:0:0:0:
448,192,114546,1,0,0:0:0:0:
64,192,114646,1,8,0:0:0:0:
192,192,114646,1,8,0:0:0:0:
320,192,114646,1,0,0:0:0:0:
64,192,114846,1,0,0:0:0:0:
320,192,114946,1,0,0:0:0:0:
192,192,115046,1,2,0:0:0:0:
448,192,115046,1,2,0:0:0:0:
320,192,115146,1,0,0:0:0:0:
64,192,115246,1,0,0:0:0:0:
192,192,115346,1,0,0:0:0:0:
448,192,115446,1,2,0:0:0:0:
320,192,115446,1,2,0:0:0:0:
192,192,115646,1,0,0:0:0:0:
320,192,115846,1,0,0:0:0:0:
192,192,115946,1,0,0:0:0:0:
448,192,116046,1,0,0:0:0:0:
64,192,116046,1,0,0:0:0:0:
320,192,116146,1,0,0:0:0:0:
448,192,116246,1,0,0:0:0:0:
192,192,116246,1,8,0:0:0:0:
64,192,116246,1,8,0:0:0:0:
64,192,116446,1,0,0:0:0:0:
192,192,116546,1,0,0:0:0:0:
320,192,116646,1,0,0:0:0:0:
192,192,116746,1,0,0:0:0:0:
448,192,116846,1,0,0:0:0:0:
320,192,116946,1,0,0:0:0:0:
64,192,117046,1,0,0:0:0:0:
448,192,117146,1,0,0:0:0:0:
320,192,117246,1,0,0:0:0:0:
192,192,117346,1,0,0:0:0:0:
64,192,117446,1,2,0:0:0:0:
448,192,117446,1,2,0:0:0:0:
320,192,117646,1,0,0:0:0:0:
192,192,117746,1,0,0:0:0:0:
64,192,117846,1,0,0:0:0:0:
320,192,117846,1,8,0:0:0:0:
448,192,117846,1,8,0:0:0:0:
192,192,118046,1,0,0:0:0:0:
448,192,118146,1,0,0:0:0:0:
320,192,118246,1,0,0:0:0:0:
192,192,118346,1,0,0:0:0:0:
64,192,118446,1,0,0:0:0:0:
320,192,118546,1,0,0:0:0:0:
192,192,118646,1,2,0:0:0:0:
64,192,118646,1,2,0:0:0:0:
448,192,118746,1,0,0:0:0:0:
320,192,118846,1,0,0:0:0:0:
64,192,118946,1,0,0:0:0:0:
192,192,119046,1,0,0:0:0:0:
448,192,119146,1,0,0:0:0:0:
64,192,119246,1,0,0:0:0:0:
320,192,119346,1,0,0:0:0:0:
448,192,119446,1,0,0:0:0:0:
64,192,119446,1,8,0:0:0:0:
192,192,119446,1,8,0:0:0:0:
320,192,119646,1,0,0:0:0:0:
192,192,119746,1,0,0:0:0:0:
64,192,119846,1,0,0:0:0:0:
448,192,119946,1,0,0:0:0:0:
192,192,120046,1,0,0:0:0:0:
320,192,120146,1,0,0:0:0:0:
64,192,120246,1,0,0:0:0:0:
448,192,120346,1,0,0:0:0:0:
320,192,120446,1,0,0:0:0:0:
192,192,120546,1,0,0:0:0:0:
448,192,120646,1,2,0:0:0:0:
64,192,120646,1,2,0:0:0:0:
320,192,120846,1,0,0:0:0:0:
192,192,120946,1,0,0:0:0:0:
448,192,121046,1,8,0:0:0:0:
320,192,121046,1,8,0:0:0:0:
64,192,121046,1,0,0:0:0:0:
192,192,121246,1,0,0:0:0:0:
320,192,121346,1,0,0:0:0:0:
448,192,121446,1,2,0:0:0:0:
192,192,121446,1,2,0:0:0:0:
64,192,121546,1,0,0:0:0:0:
320,192,121646,1,0,0:0:0:0:
448,192,121746,1,0,0:0:0:0:
192,192,121846,1,2,0:0:0:0:
64,192,121846,1,2,0:0:0:0:
192,192,122046,1,0,0:0:0:0:
448,192,122146,1,0,0:0:0:0:
320,192,122246,1,0,0:0:0:0:
64,192,122346,1,0,0:0:0:0:
192,192,122446,1,0,0:0:0:0:
320,192,122546,1,0,0:0:0:0:
448,192,122646,1,0,0:0:0:0:
192,192,122646,1,8,0:0:0:0:
64,192,122646,1,8,0:0:0:0:
320,192,122846,1,0,0:0:0:0:
192,192,122946,1,0,0:0:0:0:
64,192,123046,1,0,0:0:0:0:
320,192,123146,1,0,0:0:0:0:
192,192,123246,1,0,0:0:0:0:
448,192,123346,1,0,0:0:0:0:
64,192,123446,1,0,0:0:0:0:
448,192,123646,1,0,0:0:0:0:
320,192,123746,1,0,0:0:0:0:
64,192,123846,1,2,0:0:0:0:
192,192,123846,1,2,0:0:0:0:
320,192,124046,1,0,0:0:0:0:
448,192,124246,1,0,0:0:0:0:
64,192,124246,1,8,0:0:0:0:
192,192,124246,1,8,0:0:0:0:
320,192,124446,1,0,0:0:0:0:
192,192,124646,1,0,0:0:0:0:
64,192,124746,1,0,0:0:0:0:
320,192,124846,1,0,0:0:0:0:
192,192,124946,1,0,0:0:0:0:
448,192,125046,1,2,0:0:0:0:
320,192,125046,1,2,0:0:0:0:
64,192,125146,1,0,0:0:0:0:
448,192,125246,1,0,0:0:0:0:
320,192,125346,1,0,0:0:0:0:
192,192,125446,1,0,0:0:0:0:
320,192,125646,1,0,0:0:0:0:
192,192,125846,1,8,0:0:0:0:
64,192,125846,1,8,0:0:0:0:
448,192,125846,1,0,0:0:0:0:
320,192,126046,1,0,0:0:0:0:
64,192,126146,1,0,0:0:0:0:
192,192,126246,1,0,0:0:0:0:
320,192,126346,1,0,0:0:0:0:
64,192,126446,1,0,0:0:0:0:
448,192,126546,1,0,0:0:0:0:
320,192,126646,1,0,0:0:0:0:
64,192,126746,1,0,0:0:0:0:
192,192,126846,1,0,0:0:0:0:
320,192,126946,1,0,0:0:0:0:
64,192,127046,1,2,0:0:0:0:
448,192,127046,1,2,0:0:0:0:
320,192,127146,1,0,0:0:0:0:
192,192,127246,1,0,0:0:0:0:
64,192,127346,1,0,0:0:0:0:
448,192,127446,1,8,0:0:0:0:
320,192,127446,1,8,0:0:0:0:
192,192,127446,1,0,0:0:0:0:
64,192,127646,1,0,0:0:0:0:
192,192,127746,1,0,0:0:0:0:
320,192,127846,1,2,0:0:0:0:
448,192,127846,1,2,0:0:0:0:
64,192,127946,1,0,0:0:0:0:
448,192,128046,1,0,0:0:0:0:
320,192,128146,1,0,0:0:0:0:
192,192,128246,5,2,0:0:0:0:
64,192,128246,128,0,128646:0:0:0:0:
448,192,128446,1,0,0:0:0:0:
192,192,128646,128,0,128846:0:0:0:0:
64,192,128846,128,0,129246:0:0:0:0:
320,192,129046,1,8,0:0:0:0:
448,192,129046,1,8,0:0:0:0:
192,192,129246,128,0,129446:0:0:0:0:
64,192,129446,128,0,129646:0:0:0:0:
448,192,129846,128,0,130246:0:0:0:0:
192,192,129846,1,0,0:0:0:0:
320,192,130246,1,2,0:0:0:0:
192,192,130246,128,0,130446:0:0:0:0:
448,192,130446,128,0,130846:0:0:0:0:
64,192,130646,1,8,0:0:0:0:
320,192,130646,1,8,0:0:0:0:
192,192,130846,128,0,131046:0:0:0:0:
64,192,130846,1,2,0:0:0:0:
448,192,131046,128,0,131246:0:0:0:0:
320,192,131446,128,0,131846:0:0:0:0:
64,192,131446,1,2,0:0:0:0:
64,192,131846,128,0,132046:0:0:0:0:
320,192,132046,128,0,132446:0:0:0:0:
448,192,132246,1,8,0:0:0:0:
192,192,132246,1,8,0:0:0:0:
64,192,132446,128,0,132646:0:0:0:0:
320,192,132646,128,0,132846:0:0:0:0:
448,192,133046,128,0,133446:0:0:0:0:
64,192,133046,1,0,0:0:0:0:
64,192,133446,128,0,133646:0:0:0:0:
192,192,133446,1,2,0:0:0:0:
448,192,133646,128,0,134046:0:0:0:0:
320,192,133646,1,0,0:0:0:0:
192,192,133846,1,8,0:0:0:0:
320,192,133846,1,8,0:0:0:0:
64,192,133846,1,0,0:0:0:0:
64,192,134046,128,0,134246:0:0:0:0:
192,192,134046,1,2,0:0:0:0:
448,192,134246,128,0,134446:0:0:0:0:
320,192,134646,1,2,0:0:0:0:
192,192,134646,128,0,135046:0:0:0:0:
448,192,135046,128,0,135246:0:0:0:0:
192,192,135246,128,0,135646:0:0:0:0:
320,192,135446,1,8,0:0:0:0:
64,192,135446,1,8,0:0:0:0:
448,192,135646,128,0,135846:0:0:0:0:
192,192,135846,128,0,136046:0:0:0:0:
64,192,136246,1,0,0:0:0:0:
320,192,136246,128,0,136646:0:0:0:0:
64,192,136646,128,0,136846:0:0:0:0:
192,192,136646,1,2,0:0:0:0:
320,192,136846,128,0,137246:0:0:0:0:
448,192,136846,1,0,0:0:0:0:
448,192,137046,1,8,0:0:0:0:
192,192,137046,1,8,0:0:0:0:
64,192,137046,1,0,0:0:0:0:
64,192,137246,128,0,137446:0:0:0:0:
192,192,137246,1,2,0:0:0:0:
320,192,137446,128,0,137646:0:0:0:0:
192,192,137646,1,0,0:0:0:0:
448,192,137846,128,0,138246:0:0:0:0:
64,192,137846,1,2,0:0:0:0:
320,192,138246,128,0,138446:0:0:0:0:
448,192,138446,128,0,138846:0:0:0:0:
192,192,138646,1,8,0:0:0:0:
64,192,138646,1,8,0:0:0:0:
320,192,138846,128,0,139046:0:0:0:0:
448,192,139046,128,0,139246:0:0:0:0:
64,192,139446,1,0,0:0:0:0:
320,192,139446,128,0,139846:0:0:0:0:
64,192,139846,128,0,140046:0:0:0:0:
192,192,139846,1,2,0:0:0:0:
448,192,140046,1,0,0:0:0:0:
320,192,140046,128,0,140446:0:0:0:0:
448,192,140246,1,8,0:0:0:0:
64,192,140246,1,8,0:0:0:0:
192,192,140246,1,0,0:0:0:0:
64,192,140446,128,0,140646:0:0:0:0:
192,192,140446,1,2,0:0:0:0:
448,192,140646,1,2,0:0:0:0:
320,192,140646,128,0,140846:0:0:0:0:
64,192,140846,1,0,0:0:0:0:
192,192,140846,128,0,141046:0:0:0:0:
448,192,141046,128,0,141446:0:0:0:0:
320,192,141046,1,2,0:0:0:0:
64,192,141246,1,0,0:0:0:0:
320,192,141446,128,0,141646:0:0:0:0:
448,192,141646,128,0,142046:0:0:0:0:
192,192,141846,1,8,0:0:0:0:
64,192,141846,1,8,0:0:0:0:
320,192,142046,128,0,142246:0:0:0:0:
448,192,142246,128,0,142446:0:0:0:0:
64,192,142646,128,0,143046:0:0:0:0:
320,192,142646,1,0,0:0:0:0:
192,192,143046,1,2,0:0:0:0:
320,192,143046,128,0,143246:0:0:0:0:
64,192,143246,128,0,143646:0:0:0:0:
448,192,143446,1,8,0:0:0:0:
192,192,143446,1,8,0:0:0:0:
320,192,143646,128,0,143846:0:0:0:0:
448,192,143646,1,2,0:0:0:0:
64,192,143846,128,0,144046:0:0:0:0:
192,192,144246,128,0,144646:0:0:0:0:
448,192,144246,1,2,0:0:0:0:
448,192,144646,128,0,144846:0:0:0:0:
192,192,144846,128,0,145246:0:0:0:0:
64,192,145046,1,8,0:0:0:0:
320,192,145046,1,8,0:0:0:0:
448,192,145246,128,0,145446:0:0:0:0:
192,192,145446,128,0,145646:0:0:0:0:
64,192,145846,128,0,146246:0:0:0:0:
448,192,145846,1,0,0:0:0:0:
448,192,146246,128,0,146446:0:0:0:0:
192,192,146246,1,2,0:0:0:0:
64,192,146446,128,0,146846:0:0:0:0:
320,192,146446,1,0,0:0:0:0:
192,192,146646,1,8,0:0:0:0:
320,192,146646,1,0,0:0:0:0:
448,192,146646,1,0,0:0:0:0:
448,192,146846,128,0,147046:0:0:0:0:
192,192,146846,1,2,0:0:0:0:
64,192,147046,128,0,147246:0:0:0:0:
192,192,147446,1,2,0:0:0:0:
320,192,147446,128,0,147846:0:0:0:0:
64,192,147846,128,0,148046:0:0:0:0:
320,192,148046,128,0,148446:0:0:0:0:
192,192,148246,1,8,0:0:0:0:
448,192,148246,1,8,0:0:0:0:
64,192,148446,128,0,148646:0:0:0:0:
320,192,148646,128,0,148846:0:0:0:0:
448,192,149046,1,0,0:0:0:0:
192,192,149046,128,0,149446:0:0:0:0:
448,192,149446,128,0,149646:0:0:0:0:
320,192,149446,1,2,0:0:0:0:
192,192,149646,128,0,150046:0:0:0:0:
64,192,149846,1,8,0:0:0:0:
320,192,149846,1,8,0:0:0:0:
448,192,150046,128,0,150246:0:0:0:0:
320,192,150046,1,2,0:0:0:0:
192,192,150246,128,0,150446:0:0:0:0:
64,192,150646,128,0,151046:0:0:0:0:
448,192,150646,1,2,0:0:0:0:
192,192,151046,128,0,151246:0:0:0:0:
64,192,151246,128,0,151646:0:0:0:0:
320,192,151446,1,8,0:0:0:0:
448,192,151446,1,8,0:0:0:0:
192,192,151646,128,0,151846:0:0:0:0:
64,192,151846,128,0,152046:0:0:0:0:
448,192,152246,1,0,0:0:0:0:
192,192,152246,128,0,152646:0:0:0:0:
448,192,152646,128,0,152846:0:0:0:0:
320,192,152646,1,2,0:0:0:0:
192,192,152846,128,0,153246:0:0:0:0:
64,192,153046,1,8,0:0:0:0:
448,192,153046,1,8,0:0:0:0:
448,192,153246,128,0,153446:0:0:0:0:
320,192,153246,1,2,0:0:0:0:
192,192,153446,128,0,153846:0:0:0:0:
320,192,153846,1,2,0:0:0:0:
448,192,153846,1,2,0:0:0:0:
448,192,154446,1,0,0:0:0:0:
448,192,154646,128,0,154846:0:0:0:0:
192,192,154646,1,8,0:0:0:0:
64,192,154646,1,8,0:0:0:0:
320,192,154846,128,0,155046:0:0:0:0:
192,192,155046,128,0,155246:0:0:0:0:
64,192,155246,128,0,155446:0:0:0:0:
448,192,155446,128,0,156446:0:0:0:0:
320,192,155446,1,0,0:0:0:0:
64,192,155846,1,2,0:0:0:0:
192,192,155846,1,2,0:0:0:0:
64,192,156246,1,8,0:0:0:0:
320,192,156246,1,8,0:0:0:0:
320,192,156446,128,0,156646:0:0:0:0:
192,192,156446,1,2,0:0:0:0:
192,192,156646,128,0,156846:0:0:0:0:
64,192,156846,128,0,157446:0:0:0:0:
448,192,157046,1,2,0:0:0:0:
320,192,157046,1,2,0:0:0:0:
192,192,157446,128,0,157646:0:0:0:0:
448,192,157646,128,0,158046:0:0:0:0:
64,192,157846,1,8,0:0:0:0:
320,192,157846,1,8,0:0:0:0:
320,192,158046,128,0,158246:0:0:0:0:
64,192,158246,128,0,158446:0:0:0:0:
192,192,158446,128,0,159646:0:0:0:0:
320,192,158646,1,0,0:0:0:0:
448,192,159046,1,2,0:0:0:0:
64,192,159046,1,2,0:0:0:0:
64,192,159446,1,0,0:0:0:0:
320,192,159446,1,8,0:0:0:0:
448,192,159446,1,8,0:0:0:0:
448,192,159646,128,0,159846:0:0:0:0:
320,192,159646,1,2,0:0:0:0:
320,192,159846,128,0,160046:0:0:0:0:
64,192,159846,1,2,0:0:0:0:
64,192,160046,128,0,160246:0:0:0:0:
448,192,160246,128,0,161446:0:0:0:0:
192,192,160246,1,2,0:0:0:0:
64,192,161046,1,8,0:0:0:0:
320,192,161046,1,8,0:0:0:0:
192,192,161446,128,0,161646:0:0:0:0:
320,192,161646,128,0,162846:0:0:0:0:
448,192,161846,1,0,0:0:0:0:
448,192,162246,1,2,0:0:0:0:
192,192,162246,1,0,0:0:0:0:
64,192,162646,1,8,0:0:0:0:
192,192,162646,1,8,0:0:0:0:
448,192,162646,1,0,0:0:0:0:
64,192,162846,128,0,163046:0:0:0:0:
192,192,162846,1,2,0:0:0:0:
192,192,163046,128,0,163246:0:0:0:0:
448,192,163246,128,0,163446:0:0:0:0:
64,192,163446,1,2,0:0:0:0:
320,192,163446,128,0,164646:0:0:0:0:
64,192,164246,1,8,0:0:0:0:
448,192,164246,1,8,0:0:0:0:
192,192,164646,128,0,164846:0:0:0:0:
448,192,164846,128,0,165646:0:0:0:0:
320,192,165046,1,0,0:0:0:0:
192,192,165446,1,2,0:0:0:0:
320,192,165446,1,2,0:0:0:0:
64,192,165646,128,0,165846:0:0:0:0:
320,192,165846,128,0,166046:0:0:0:0:
192,192,165846,1,8,0:0:0:0:
448,192,165846,1,8,0:0:0:0:
192,192,166046,128,0,166246:0:0:0:0:
64,192,166046,1,2,0:0:0:0:
448,192,166246,128,0,166446:0:0:0:0:
320,192,166246,1,2,0:0:0:0:
64,192,166446,128,0,166646:0:0:0:0:
192,192,166646,1,2,0:0:0:0:
320,192,166646,1,2,0:0:0:0:
320,192,167046,128,0,167246:0:0:0:0:
64,192,167246,128,0,167446:0:0:0:0:
448,192,167446,1,8,0:0:0:0:
192,192,167446,1,8,0:0:0:0:
192,192,167646,128,0,167846:0:0:0:0:
448,192,167846,128,0,168046:0:0:0:0:
320,192,168246,128,0,168446:0:0:0:0:
192,192,168246,1,0,0:0:0:0:
64,192,168446,128,0,168646:0:0:0:0:
448,192,168646,1,2,0:0:0:0:
192,192,168646,1,2,0:0:0:0:
448,192,168846,128,0,169046:0:0:0:0:
320,192,169046,128,0,169246:0:0:0:0:
192,192,169046,1,8,0:0:0:0:
64,192,169046,1,8,0:0:0:0:
192,192,169246,128,0,169446:0:0:0:0:
448,192,169246,1,2,0:0:0:0:
448,192,169446,128,0,169646:0:0:0:0:
64,192,169646,128,0,169846:0:0:0:0:
320,192,169846,128,0,170046:0:0:0:0:
192,192,169846,1,2,0:0:0:0:
448,192,170046,128,0,170246:0:0:0:0:
192,192,170246,128,0,170446:0:0:0:0:
64,192,170446,128,0,170646:0:0:0:0:
192,192,170646,1,8,0:0:0:0:
448,192,170646,1,8,0:0:0:0:
448,192,170846,128,0,171046:0:0:0:0:
192,192,171046,128,0,171246:0:0:0:0:
448,192,171446,128,0,171646:0:0:0:0:
320,192,171446,1,0,0:0:0:0:
64,192,171646,128,0,171846:0:0:0:0:
192,192,171846,1,2,0:0:0:0:
320,192,171846,1,2,0:0:0:0:
320,192,172046,128,0,172246:0:0:0:0:
192,192,172246,128,0,172446:0:0:0:0:
64,192,172246,1,8,0:0:0:0:
448,192,172246,1,8,0:0:0:0:
448,192,172446,128,0,172646:0:0:0:0:
320,192,172446,1,2,0:0:0:0:
64,192,172646,128,0,172846:0:0:0:0:
192,192,172646,1,2,0:0:0:0:
192,192,172846,128,0,173046:0:0:0:0:
320,192,173046,1,2,0:0:0:0:
448,192,173046,1,0,0:0:0:0:
320,192,173446,128,0,173646:0:0:0:0:
448,192,173646,128,0,173846:0:0:0:0:
320,192,173846,1,8,0:0:0:0:
64,192,173846,1,8,0:0:0:0:
192,192,174046,128,0,174246:0:0:0:0:
64,192,174246,128,0,174446:0:0:0:0:
448,192,174646,128,0,174846:0:0:0:0:
192,192,174646,1,0,0:0:0:0:
320,192,174846,128,0,175046:0:0:0:0:
64,192,175046,1,2,0:0:0:0:
192,192,175046,1,2,0:0:0:0:
64,192,175246,128,0,175446:0:0:0:0:
192,192,175446,128,0,175646:0:0:0:0:
320,192,175446,1,8,0:0:0:0:
448,192,175446,1,8,0:0:0:0:
320,192,175646,128,0,175846:0:0:0:0:
64,192,175646,1,2,0:0:0:0:
448,192,175846,128,0,176046:0:0:0:0:
64,192,176046,128,0,176246:0:0:0:0:
320,192,176246,128,0,176446:0:0:0:0:
192,192,176246,1,2,0:0:0:0:
192,192,176446,128,0,176646:0:0:0:0:
448,192,176446,1,2,0:0:0:0:
448,192,176646,128,0,176846:0:0:0:0:
64,192,176846,128,0,177046:0:0:0:0:
448,192,177046,1,8,0:0:0:0:
192,192,177046,1,8,0:0:0:0:
320,192,177246,128,0,177446:0:0:0:0:
192,192,177446,128,0,177646:0:0:0:0:
448,192,177646,128,0,177846:0:0:0:0:
64,192,177846,128,0,178046:0:0:0:0:
320,192,177846,1,0,0:0:0:0:
192,192,178046,128,0,178246:0:0:0:0:
320,192,178246,128,0,178446:0:0:0:0:
64,192,178246,1,2,0:0:0:0:
448,192,178446,128,0,178646:0:0:0:0:
192,192,178646,1,8,0:0:0:0:
64,192,178646,1,8,0:0:0:0:
320,192,178746,1,0,0:0:0:0:
192,192,178846,1,2,0:0:0:0:
64,192,178846,1,0,0:0:0:0:
320,192,178946,1,2,0:0:0:0:
448,192,178946,1,2,0:0:0:0:
192,192,179046,1,2,0:0:0:0:
64,192,179046,1,2,0:0:0:0:
320,192,179146,1,2,0:0:0:0:
448,192,179146,1,2,0:0:0:0:
192,192,179246,1,2,0:0:0:0:
64,192,179246,1,2,0:0:0:0:
320,192,179346,1,2,0:0:0:0:
448,192,179346,1,2,0:0:0:0:
192,192,179446,1,2,0:0:0:0:
64,192,179446,1,2,0:0:0:0:
64,192,179646,128,0,179846:0:0:0:0:
192,192,179846,128,0,180046:0:0:0:0:
320,192,180046,128,0,180246:0:0:0:0:
64,192,180246,1,8,0:0:0:0:
192,192,180246,1,8,0:0:0:0:
448,192,180246,128,0,180446:0:0:0:0:
192,192,180446,128,0,180646:0:0:0:0:
64,192,180646,128,0,180846:0:0:0:0:
448,192,180846,128,0,181046:0:0:0:0:
64,192,181246,128,0,181446:0:0:0:0:
192,192,181446,128,0,181646:0:0:0:0:
448,192,181446,1,2,0:0:0:0:
320,192,181646,128,0,181846:0:0:0:0:
64,192,181846,1,8,0:0:0:0:
448,192,181846,128,0,182046:0:0:0:0:
192,192,181846,1,8,0:0:0:0:
64,192,182046,128,0,182246:0:0:0:0:
320,192,182046,1,2,0:0:0:0:
192,192,182246,128,0,182446:0:0:0:0:
448,192,182446,128,0,182646:0:0:0:0:
320,192,182646,1,2,0:0:0:0:
64,192,182646,1,2,0:0:0:0:
64,192,182846,128,0,183046:0:0:0:0:
192,192,183046,128,0,183246:0:0:0:0:
320,192,183246,128,0,183446:0:0:0:0:
64,192,183446,128,0,183646:0:0:0:0:
448,192,183446,1,8,0:0:0:0:
192,192,183446,1,8,0:0:0:0:
448,192,183646,128,0,183846:0:0:0:0:
192,192,183846,128,0,184046:0:0:0:0:
320,192,184046,128,0,184246:0:0:0:0:
64,192,184246,128,0,184446:0:0:0:0:
448,192,184446,128,0,184646:0:0:0:0:
64,192,184646,128,0,184846:0:0:0:0:
320,192,184646,1,2,0:0:0:0:
192,192,184846,128,0,185046:0:0:0:0:
448,192,185046,128,0,185246:0:0:0:0:
320,192,185046,1,8,0:0:0:0:
64,192,185046,1,8,0:0:0:0:
192,192,185246,1,2,0:0:0:0:
64,192,185246,128,0,185446:0:0:0:0:
320,192,185446,128,0,185646:0:0:0:0:
448,192,185446,1,2,0:0:0:0:
192,192,185646,128,0,185846:0:0:0:0:
64,192,185846,1,2,0:0:0:0:
448,192,185846,1,2,0:0:0:0:
320,192,186046,128,0,186246:0:0:0:0:
448,192,186246,128,0,186446:0:0:0:0:
192,192,186446,128,0,186646:0:0:0:0:
448,192,186646,1,8,0:0:0:0:
320,192,186646,1,0,0:0:0:0:
64,192,186646,1,8,0:0:0:0:
64,192,186846,128,0,187046:0:0:0:0:
192,192,187046,128,0,187246:0:0:0:0:
320,192,187246,128,0,187446:0:0:0:0:
64,192,187446,128,0,187646:0:0:0:0:
192,192,187646,128,0,187846:0:0:0:0:
448,192,187846,128,0,188046:0:0:0:0:
320,192,187846,1,2,0:0:0:0:
64,192,188046,128,0,188246:0:0:0:0:
192,192,188246,128,0,188446:0:0:0:0:
320,192,188246,1,8,0:0:0:0:
448,192,188246,1,8,0:0:0:0:
320,192,188446,128,0,188646:0:0:0:0:
64,192,188446,1,2,0:0:0:0:
64,192,188646,128,0,188846:0:0:0:0:
448,192,188846,128,0,189046:0:0:0:0:
64,192,189046,1,2,0:0:0:0:
320,192,189046,1,2,0:0:0:0:
192,192,189246,128,0,189446:0:0:0:0:
64,192,189446,128,0,189646:0:0:0:0:
320,192,189646,128,0,189846:0:0:0:0:
448,192,189846,1,8,0:0:0:0:
64,192,189846,1,8,0:0:0:0:
192,192,189846,128,0,190046:0:0:0:0:
448,192,190046,128,0,190246:0:0:0:0:
64,192,190246,128,0,190446:0:0:0:0:
320,192,190446,128,0,190646:0:0:0:0:
192,192,190646,128,0,190846:0:0:0:0:
64,192,190846,128,0,191046:0:0:0:0:
448,192,191046,128,0,191246:0:0:0:0:
320,192,191046,1,2,0:0:0:0:
192,192,191246,128,0,191446:0:0:0:0:
64,192,191446,128,0,191646:0:0:0:0:
320,192,191446,1,8,0:0:0:0:
448,192,191446,1,8,0:0:0:0:
320,192,191646,128,0,191846:0:0:0:0:
448,192,191646,1,2,0:0:0:0:
192,192,191846,128,0,192046:0:0:0:0:
64,192,191846,1,2,0:0:0:0:
448,192,192046,128,0,192246:0:0:0:0:
320,192,192246,1,2,0:0:0:0:
64,192,192246,1,2,0:0:0:0:
192,192,192446,128,0,192646:0:0:0:0:
448,192,192846,128,0,193046:0:0:0:0:
64,192,193046,128,0,193246:0:0:0:0:
192,192,193046,1,8,0:0:0:0:
320,192,193046,1,8,0:0:0:0:
192,192,193446,128,0,193646:0:0:0:0:
448,192,193646,128,0,193846:0:0:0:0:
64,192,194046,128,0,194246:0:0:0:0:
192,192,194246,128,0,194446:0:0:0:0:
448,192,194246,1,2,0:0:0:0:
320,192,194446,128,0,194646:0:0:0:0:
448,192,194646,1,8,0:0:0:0:
192,192,194646,1,8,0:0:0:0:
64,192,194646,128,0,194846:0:0:0:0:
448,192,194846,128,0,195046:0:0:0:0:
320,192,194846,1,2,0:0:0:0:
192,192,195046,128,0,195246:0:0:0:0:
64,192,195246,128,0,195446:0:0:0:0:
320,192,195446,1,2,0:0:0:0:
448,192,195446,1,2,0:0:0:0:
192,192,195646,128,0,195846:0:0:0:0:
320,192,195846,128,0,196046:0:0:0:0:
448,192,196046,128,0,196246:0:0:0:0:
64,192,196246,128,0,196446:0:0:0:0:
320,192,196246,1,8,0:0:0:0:
192,192,196246,1,8,0:0:0:0:
192,192,196446,128,0,196646:0:0:0:0:
448,192,196646,128,0,196846:0:0:0:0:
320,192,196846,128,0,197046:0:0:0:0:
64,192,197246,128,0,197446:0:0:0:0:
320,192,197446,128,0,197646:0:0:0:0:
448,192,197446,1,2,0:0:0:0:
192,192,197646,128,0,197846:0:0:0:0:
320,192,197846,1,8,0:0:0:0:
64,192,197846,1,8,0:0:0:0:
448,192,197846,128,0,198046:0:0:0:0:
320,192,198046,128,0,198246:0:0:0:0:
192,192,198046,1,2,0:0:0:0:
64,192,198246,128,0,198446:0:0:0:0:
448,192,198246,1,2,0:0:0:0:
192,192,198446,128,0,198646:0:0:0:0:
320,192,198646,1,2,0:0:0:0:
448,192,198646,1,2,0:0:0:0:
64,192,198846,128,0,199046:0:0:0:0:
448,192,199246,128,0,199446:0:0:0:0:
320,192,199446,1,8,0:0:0:0:
64,192,199446,1,8,0:0:0:0:
192,192,199446,128,0,199646:0:0:0:0:
320,192,199846,128,0,200046:0:0:0:0:
64,192,200046,128,0,200246:0:0:0:0:
192,192,200446,128,0,200646:0:0:0:0:
448,192,200646,128,0,200846:0:0:0:0:
320,192,200646,1,2,0:0:0:0:
320,192,201046,1,8,0:0:0:0:
448,192,201046,1,8,0:0:0:0:
64,192,201046,128,0,201246:0:0:0:0:
320,192,201246,128,0,201446:0:0:0:0:
192,192,201246,1,2,0:0:0:0:
192,192,201646,128,0,201846:0:0:0:0:
320,192,201846,1,2,0:0:0:0:
448,192,201846,1,2,0:0:0:0:
64,192,202046,128,0,202246:0:0:0:0:
192,192,202246,128,0,202446:0:0:0:0:
320,192,202446,128,0,202646:0:0:0:0:
448,192,202646,128,0,202846:0:0:0:0:
192,192,202646,1,8,0:0:0:0:
64,192,202646,1,8,0:0:0:0:
192,192,202846,128,0,203046:0:0:0:0:
64,192,203046,128,0,203246:0:0:0:0:
448,192,203246,128,0,203446:0:0:0:0:
320,192,203446,1,0,0:0:0:0:
192,192,203646,1,0,0:0:0:0:
64,192,203846,1,2,0:0:0:0:
448,192,203846,1,2,0:0:0:0:
192,192,204046,1,0,0:0:0:0:
320,192,204246,1,8,0:0:0:0:
448,192,204246,1,8,0:0:0:0:
64,192,204246,1,0,0:0:0:0:
192,192,204446,1,2,0:0:0:0:
64,192,204446,1,2,0:0:0:0:
448,192,204546,1,2,0:0:0:0:
320,192,204546,1,2,0:0:0:0:
64,192,204646,1,2,0:0:0:0:
192,192,204646,1,2,0:0:0:0:
448,192,204746,1,2,0:0:0:0:
320,192,204746,1,2,0:0:0:0:
64,192,204846,1,2,0:0:0:0:
192,192,204846,1,2,0:0:0:0:
448,192,204946,1,2,0:0:0:0:
320,192,204946,1,2,0:0:0:0:
64,192,205046,128,0,205446:0:0:0:0:
192,192,205046,128,2,205246:0:0:0:0:
320,192,205246,128,0,205446:0:0:0:0:
448,192,205446,128,0,205646:0:0:0:0:
64,192,205646,128,0,206046:0:0:0:0:
192,192,205646,128,0,205846:0:0:0:0:
320,192,205846,128,0,206046:0:0:0:0:
448,192,206046,128,0,206246:0:0:0:0:
64,192,206246,128,0,206446:0:0:0:0:
320,192,206246,128,0,206446:0:0:0:0:
192,192,206446,128,0,206646:0:0:0:0:
448,192,206646,128,0,207046:0:0:0:0:
320,192,206646,128,0,206846:0:0:0:0:
192,192,206846,128,0,207046:0:0:0:0:
64,192,207046,128,0,207246:0:0:0:0:
448,192,207246,128,0,207646:0:0:0:0:
320,192,207246,128,0,207446:0:0:0:0:
192,192,207446,128,0,207646:0:0:0:0:
64,192,207646,128,0,207846:0:0:0:0:
448,192,207846,128,0,208046:0:0:0:0:
320,192,207846,128,0,208046:0:0:0:0:
64,192,208046,128,0,208246:0:0:0:0:
192,192,208246,128,0,208646:0:0:0:0:
320,192,208246,128,0,208446:0:0:0:0:
448,192,208446,128,0,208646:0:0:0:0:
64,192,208646,128,0,208846:0:0:0:0:
192,192,208846,128,0,209246:0:0:0:0:
320,192,208846,128,0,209046:0:0:0:0:
448,192,209046,128,0,209246:0:0:0:0:
64,192,209246,128,0,209446:0:0:0:0:
192,192,209446,128,0,209646:0:0:0:0:
320,192,209446,128,0,209646:0:0:0:0:
448,192,209646,128,0,209846:0:0:0:0:
320,192,209846,128,0,210246:0:0:0:0:
64,192,209846,128,0,210046:0:0:0:0:
192,192,210046,128,0,210246:0:0:0:0:
448,192,210246,128,0,210446:0:0:0:0:
320,192,210446,128,0,210846:0:0:0:0:
64,192,210446,128,0,210646:0:0:0:0:
448,192,210646,128,0,210846:0:0:0:0:
192,192,210846,128,0,211046:0:0:0:0:
320,192,211046,128,0,211246:0:0:0:0:
64,192,211046,128,0,211246:0:0:0:0:
192,192,211246,128,0,211446:0:0:0:0:
448,192,211446,128,0,211846:0:0:0:0:
320,192,211446,128,0,211646:0:0:0:0:
192,192,211646,128,0,211846:0:0:0:0:
64,192,211846,128,0,212046:0:0:0:0:
448,192,212046,128,0,212446:0:0:0:0:
320,192,212046,128,0,212246:0:0:0:0:
192,192,212246,128,0,212446:0:0:0:0:
64,192,212446,128,0,212646:0:0:0:0:
448,192,212646,128,0,212846:0:0:0:0:
192,192,212646,128,0,212846:0:0:0:0:
320,192,212846,128,0,213046:0:0:0:0:
192,192,213046,128,0,213446:0:0:0:0:
64,192,213046,128,0,213246:0:0:0:0:
448,192,213246,128,0,213446:0:0:0:0:
320,192,213446,128,0,213646:0:0:0:0:
192,192,213646,128,0,214046:0:0:0:0:
64,192,213646,128,0,213846:0:0:0:0:
448,192,213846,128,0,214246:0:0:0:0:
320,192,214046,128,0,214246:0:0:0:0:
64,192,214246,128,0,214446:0:0:0:0:
192,192,214246,128,0,214446:0:0:0:0:
448,192,214446,128,0,214646:0:0:0:0:
320,192,214646,128,0,215046:0:0:0:0:
192,192,214646,128,0,214846:0:0:0:0:
64,192,214846,128,0,215046:0:0:0:0:
448,192,215046,128,0,215246:0:0:0:0:
320,192,215246,128,0,215646:0:0:0:0:
192,192,215246,128,0,215446:0:0:0:0:
64,192,215446,128,0,215646:0:0:0:0:
448,192,215646,128,0,215846:0:0:0:0:
320,192,215846,128,0,216046:0:0:0:0:
192,192,215846,128,0,216046:0:0:0:0:
448,192,216046,128,0,216246:0:0:0:0:
64,192,216246,128,0,216646:0:0:0:0:
192,192,216246,128,0,216446:0:0:0:0:
320,192,216446,128,0,216646:0:0:0:0:
448,192,216646,128,0,216846:0:0:0:0:
64,192,216846,128,0,217246:0:0:0:0:
192,192,216846,128,0,217046:0:0:0:0:
320,192,217046,128,0,217446:0:0:0:0:
448,192,217246,128,0,217446:0:0:0:0:
192,192,217446,128,0,217646:0:0:0:0:
64,192,217646,128,0,217846:0:0:0:0:
320,192,217846,128,0,218046:0:0:0:0:
448,192,217846,128,0,218246:0:0:0:0:
192,192,218046,128,0,218246:0:0:0:0:
64,192,218246,128,0,218446:0:0:0:0:
448,192,218446,128,0,218846:0:0:0:0:
320,192,218446,128,0,218646:0:0:0:0:
192,192,218646,128,0,218846:0:0:0:0:
64,192,218846,128,0,219046:0:0:0:0:
448,192,219046,128,0,219246:0:0:0:0:
192,192,219046,128,0,219246:0:0:0:0:
320,192,219246,128,0,219446:0:0:0:0:
64,192,219446,128,0,219846:0:0:0:0:
192,192,219446,128,0,219646:0:0:0:0:
320,192,219646,128,0,219846:0:0:0:0:
448,192,219846,128,0,220046:0:0:0:0:
64,192,220046,128,0,220446:0:0:0:0:
192,192,220046,128,0,220246:0:0:0:0:
320,192,220246,128,0,220446:0:0:0:0:
448,192,220446,128,0,220646:0:0:0:0:
64,192,220646,128,0,220846:0:0:0:0:
192,192,220646,128,0,220846:0:0:0:0:
448,192,220846,128,0,221046:0:0:0:0:
320,192,221046,128,0,221446:0:0:0:0:
192,192,221046,128,0,221246:0:0:0:0:
64,192,221246,128,0,221446:0:0:0:0:
448,192,221446,128,0,221646:0:0:0:0:
320,192,221646,128,0,222046:0:0:0:0:
192,192,221646,128,0,221846:0:0:0:0:
64,192,221846,128,0,222046:0:0:0:0:
448,192,222046,128,0,222246:0:0:0:0:
320,192,222246,128,0,222446:0:0:0:0:
192,192,222246,128,0,222446:0:0:0:0:
64,192,222446,128,0,222646:0:0:0:0:
192,192,222646,128,0,223046:0:0:0:0:
448,192,222646,128,0,222846:0:0:0:0:
320,192,222846,128,0,223046:0:0:0:0:
64,192,223046,128,0,223246:0:0:0:0:
192,192,223246,128,0,223646:0:0:0:0:
448,192,223246,128,0,223446:0:0:0:0:
64,192,223446,128,0,223646:0:0:0:0:
320,192,223646,128,0,223846:0:0:0:0:
192,192,223846,128,0,224046:0:0:0:0:
448,192,223846,128,0,224046:0:0:0:0:
320,192,224046,128,0,224246:0:0:0:0:
64,192,224246,128,0,224646:0:0:0:0:
192,192,224246,128,0,224446:0:0:0:0:
320,192,224446,128,0,224646:0:0:0:0:
448,192,224646,128,0,224846:0:0:0:0:
64,192,224846,128,0,225246:0:0:0:0:
192,192,224846,128,0,225046:0:0:0:0:
320,192,225046,128,0,225246:0:0:0:0:
448,192,225246,128,0,225446:0:0:0:0:
64,192,225446,128,0,225646:0:0:0:0:
320,192,225446,128,0,225646:0:0:0:0:
192,192,225646,128,0,225846:0:0:0:0:
320,192,225846,128,0,226246:0:0:0:0:
448,192,225846,128,0,226046:0:0:0:0:
64,192,226046,128,0,226246:0:0:0:0:
192,192,226246,128,0,226446:0:0:0:0:
320,192,226446,128,0,226846:0:0:0:0:
448,192,226446,128,0,226646:0:0:0:0:
64,192,226646,128,0,226846:0:0:0:0:
192,192,226846,128,0,227046:0:0:0:0:
320,192,227046,128,0,227246:0:0:0:0:
448,192,227046,128,0,227246:0:0:0:0:
64,192,227246,128,0,227446:0:0:0:0:
192,192,227446,128,0,227846:0:0:0:0:
320,192,227446,128,0,227646:0:0:0:0:
448,192,227646,128,0,227846:0:0:0:0:
64,192,227846,128,0,228046:0:0:0:0:
192,192,228046,128,0,228446:0:0:0:0:
320,192,228046,128,0,228246:0:0:0:0:
448,192,228246,128,0,228446:0:0:0:0:
64,192,228446,128,0,228646:0:0:0:0:
448,192,228646,128,0,228846:0:0:0:0:
192,192,228646,128,0,228846:0:0:0:0:
320,192,228846,128,0,229046:0:0:0:0:
64,192,229046,128,0,229246:0:0:0:0:
192,192,229046,128,0,229246:0:0:0:0:
448,192,229246,128,0,230046:0:0:0:0:
320,192,229446,128,0,229846:0:0:0:0:
192,192,229646,128,0,230246:0:0:0:0:
64,192,229846,128,0,230446:0:0:0:0:
320,192,230046,128,0,230646:0:0:0:0:
448,192,230246,128,0,230646:0:0:0:0:
192,192,230446,128,0,230646:0:0:0:0:
64,192,230646,128,2,231046:0:0:0:0:
448,192,231046,1,0,0:0:0:0:
64,192,231246,128,0,231646:0:0:0:0:
192,192,231246,1,0,0:0:0:0:
192,192,231446,1,8,0:0:0:0:
448,192,231446,1,8,0:0:0:0:
320,192,231646,1,0,0:0:0:0:
448,192,231746,1,0,0:0:0:0:
64,192,231846,128,0,232046:0:0:0:0:
192,192,231846,1,0,0:0:0:0:
448,192,231946,1,0,0:0:0:0:
320,192,232046,1,0,0:0:0:0:
192,192,232146,1,0,0:0:0:0:
320,192,232246,128,0,232646:0:0:0:0:
448,192,232246,1,0,0:0:0:0:
64,192,232346,1,0,0:0:0:0:
192,192,232446,1,0,0:0:0:0:
448,192,232546,1,0,0:0:0:0:
192,192,232646,1,2,0:0:0:0:
64,192,232646,1,2,0:0:0:0:
448,192,232746,1,0,0:0:0:0:
320,192,232846,128,0,233246:0:0:0:0:
64,192,232846,1,0,0:0:0:0:
192,192,232946,1,0,0:0:0:0:
448,192,233046,1,8,0:0:0:0:
64,192,233046,1,8,0:0:0:0:
192,192,233246,1,2,0:0:0:0:
64,192,233346,1,0,0:0:0:0:
320,192,233446,128,0,233646:0:0:0:0:
448,192,233446,1,0,0:0:0:0:
64,192,233546,1,0,0:0:0:0:
192,192,233646,1,0,0:0:0:0:
448,192,233746,1,0,0:0:0:0:
192,192,233846,128,0,234246:0:0:0:0:
320,192,233846,1,2,0:0:0:0:
64,192,233846,1,2,0:0:0:0:
448,192,233946,1,0,0:0:0:0:
64,192,234046,1,0,0:0:0:0:
320,192,234146,1,0,0:0:0:0:
448,192,234246,1,0,0:0:0:0:
320,192,234346,1,0,0:0:0:0:
192,192,234446,128,0,234846:0:0:0:0:
64,192,234446,1,0,0:0:0:0:
320,192,234546,1,0,0:0:0:0:
64,192,234646,1,8,0:0:0:0:
448,192,234646,1,8,0:0:0:0:
448,192,234846,1,0,0:0:0:0:
320,192,234946,1,0,0:0:0:0:
192,192,235046,128,0,235246:0:0:0:0:
64,192,235046,1,0,0:0:0:0:
448,192,235146,1,0,0:0:0:0:
320,192,235246,1,0,0:0:0:0:
64,192,235346,1,0,0:0:0:0:
448,192,235446,128,0,235846:0:0:0:0:
320,192,235446,1,0,0:0:0:0:
192,192,235546,1,0,0:0:0:0:
320,192,235646,1,0,0:0:0:0:
192,192,235846,1,2,0:0:0:0:
64,192,235846,1,2,0:0:0:0:
448,192,236046,128,0,236446:0:0:0:0:
320,192,236046,1,0,0:0:0:0:
192,192,236146,1,0,0:0:0:0:
320,192,236246,1,8,0:0:0:0:
64,192,236246,1,8,0:0:0:0:
64,192,236446,1,2,0:0:0:0:
192,192,236546,1,0,0:0:0:0:
448,192,236646,128,0,236846:0:0:0:0:
320,192,236646,1,0,0:0:0:0:
192,192,236746,1,0,0:0:0:0:
64,192,236846,1,0,0:0:0:0:
320,192,237046,128,0,237446:0:0:0:0:
448,192,237046,1,2,0:0:0:0:
192,192,237046,1,2,0:0:0:0:
64,192,237146,1,0,0:0:0:0:
448,192,237246,1,0,0:0:0:0:
192,192,237346,1,0,0:0:0:0:
64,192,237446,1,0,0:0:0:0:
192,192,237546,1,0,0:0:0:0:
320,192,237646,128,0,238046:0:0:0:0:
448,192,237646,1,0,0:0:0:0:
192,192,237746,1,0,0:0:0:0:
64,192,237846,1,8,0:0:0:0:
448,192,237846,1,8,0:0:0:0:
192,192,238046,1,0,0:0:0:0:
64,192,238146,1,0,0:0:0:0:
320,192,238246,128,0,238446:0:0:0:0:
448,192,238246,1,0,0:0:0:0:
192,192,238346,1,0,0:0:0:0:
64,192,238446,1,0,0:0:0:0:
64,192,238646,128,0,239046:0:0:0:0:
192,192,238646,1,0,0:0:0:0:
448,192,238746,1,0,0:0:0:0:
320,192,238846,1,0,0:0:0:0:
192,192,238946,1,0,0:0:0:0:
448,192,239046,1,2,0:0:0:0:
320,192,239046,1,2,0:0:0:0:
64,192,239246,128,0,239646:0:0:0:0:
192,192,239246,1,0,0:0:0:0:
320,192,239346,1,0,0:0:0:0:
192,192,239446,1,8,0:0:0:0:
448,192,239446,1,8,0:0:0:0:
448,192,239646,1,2,0:0:0:0:
320,192,239646,1,2,0:0:0:0:
192,192,239746,1,0,0:0:0:0:
64,192,239846,128,0,240046:0:0:0:0:
320,192,239846,1,0,0:0:0:0:
448,192,239946,1,0,0:0:0:0:
192,192,240046,1,0,0:0:0:0:
448,192,240146,1,0,0:0:0:0:
192,192,240246,128,0,240646:0:0:0:0:
320,192,240246,1,2,0:0:0:0:
64,192,240246,1,2,0:0:0:0:
448,192,240346,1,0,0:0:0:0:
64,192,240446,1,0,0:0:0:0:
448,192,240546,1,0,0:0:0:0:
320,192,240646,1,0,0:0:0:0:
448,192,240746,1,0,0:0:0:0:
192,192,240846,128,0,241246:0:0:0:0:
64,192,240846,1,0,0:0:0:0:
320,192,240946,1,0,0:0:0:0:
448,192,241046,1,8,0:0:0:0:
64,192,241046,1,8,0:0:0:0:
320,192,241246,1,0,0:0:0:0:
448,192,241346,1,0,0:0:0:0:
192,192,241446,128,0,241646:0:0:0:0:
64,192,241446,1,0,0:0:0:0:
320,192,241546,1,0,0:0:0:0:
448,192,241646,1,0,0:0:0:0:
64,192,241746,1,0,0:0:0:0:
192,192,241846,1,0,0:0:0:0:
448,192,241946,1,0,0:0:0:0:
320,192,242046,1,0,0:0:0:0:
192,192,242146,1,0,0:0:0:0:
64,192,242246,1,2,0:0:0:0:
320,192,242246,1,2,0:0:0:0:
192,192,242446,1,0,0:0:0:0:
320,192,242546,1,0,0:0:0:0:
448,192,242646,1,8,0:0:0:0:
64,192,242646,1,8,0:0:0:0:
320,192,242746,1,0,0:0:0:0:
64,192,242846,1,2,0:0:0:0:
192,192,242846,1,2,0:0:0:0:
320,192,242946,1,0,0:0:0:0:
448,192,243046,1,2,0:0:0:0:
192,192,243046,1,2,0:0:0:0:
64,192,243146,1,0,0:0:0:0:
320,192,243246,1,0,0:0:0:0:
192,192,243346,1,0,0:0:0:0:
448,192,243446,128,2,243846:0:0:0:0:
64,192,243846,1,0,0:0:0:0:
448,192,244046,128,0,244446:0:0:0:0:
320,192,244046,1,0,0:0:0:0:
320,192,244246,1,8,0:0:0:0:
64,192,244246,1,8,0:0:0:0:
192,192,244446,1,0,0:0:0:0:
64,192,244546,1,0,0:0:0:0:
448,192,244646,128,0,244846:0:0:0:0:
320,192,244646,1,0,0:0:0:0:
64,192,244746,1,0,0:0:0:0:
192,192,244846,1,0,0:0:0:0:
320,192,244946,1,0,0:0:0:0:
192,192,245046,128,0,245446:0:0:0:0:
64,192,245046,1,0,0:0:0:0:
448,192,245146,1,0,0:0:0:0:
320,192,245246,1,0,0:0:0:0:
64,192,245346,1,0,0:0:0:0:
320,192,245446,1,2,0:0:0:0:
448,192,245446,1,2,0:0:0:0:
64,192,245546,1,0,0:0:0:0:
192,192,245646,128,0,246046:0:0:0:0:
448,192,245646,1,0,0:0:0:0:
320,192,245746,1,0,0:0:0:0:
64,192,245846,1,8,0:0:0:0:
448,192,245846,1,8,0:0:0:0:
320,192,246046,1,2,0:0:0:0:
448,192,246146,1,0,0:0:0:0:
192,192,246246,128,0,246446:0:0:0:0:
64,192,246246,1,0,0:0:0:0:
448,192,246346,1,0,0:0:0:0:
320,192,246446,1,0,0:0:0:0:
64,192,246546,1,0,0:0:0:0:
320,192,246646,128,0,247046:0:0:0:0:
192,192,246646,1,2,0:0:0:0:
448,192,246646,1,2,0:0:0:0:
64,192,246746,1,0,0:0:0:0:
448,192,246846,1,0,0:0:0:0:
192,192,246946,1,0,0:0:0:0:
64,192,247046,1,0,0:0:0:0:
192,192,247146,1,0,0:0:0:0:
320,192,247246,128,0,247646:0:0:0:0:
448,192,247246,1,0,0:0:0:0:
192,192,247346,1,0,0:0:0:0:
448,192,247446,1,8,0:0:0:0:
64,192,247446,1,8,0:0:0:0:
64,192,247646,1,0,0:0:0:0:
192,192,247746,1,0,0:0:0:0:
320,192,247846,128,0,248046:0:0:0:0:
448,192,247846,1,0,0:0:0:0:
64,192,247946,1,0,0:0:0:0:
192,192,248046,1,0,0:0:0:0:
448,192,248146,1,0,0:0:0:0:
64,192,248246,128,0,248646:0:0:0:0:
192,192,248246,1,0,0:0:0:0:
320,192,248346,1,0,0:0:0:0:
192,192,248446,1,0,0:0:0:0:
320,192,248646,1,2,0:0:0:0:
448,192,248646,1,2,0:0:0:0:
64,192,248846,128,0,249246:0:0:0:0:
192,192,248846,1,0,0:0:0:0:
320,192,248946,1,0,0:0:0:0:
192,192,249046,1,8,0:0:0:0:
448,192,249046,1,8,0:0:0:0:
448,192,249246,1,2,0:0:0:0:
320,192,249346,1,0,0:0:0:0:
64,192,249446,128,0,249646:0:0:0:0:
192,192,249446,1,0,0:0:0:0:
320,192,249546,1,0,0:0:0:0:
448,192,249646,1,0,0:0:0:0:
192,192,249846,128,0,250246:0:0:0:0:
64,192,249846,1,2,0:0:0:0:
320,192,249846,1,2,0:0:0:0:
448,192,249946,1,0,0:0:0:0:
64,192,250046,1,0,0:0:0:0:
320,192,250146,1,0,0:0:0:0:
448,192,250246,1,0,0:0:0:0:
320,192,250346,1,0,0:0:0:0:
192,192,250446,128,0,250846:0:0:0:0:
64,192,250446,1,0,0:0:0:0:
320,192,250546,1,0,0:0:0:0:
448,192,250646,1,8,0:0:0:0:
64,192,250646,1,8,0:0:0:0:
320,192,250846,1,0,0:0:0:0:
448,192,250946,1,0,0:0:0:0:
192,192,251046,128,0,251246:0:0:0:0:
64,192,251046,1,0,0:0:0:0:
320,192,251146,1,0,0:0:0:0:
448,192,251246,1,0,0:0:0:0:
448,192,251446,128,0,251846:0:0:0:0:
320,192,251446,1,0,0:0:0:0:
64,192,251546,1,0,0:0:0:0:
192,192,251646,1,0,0:0:0:0:
320,192,251746,1,0,0:0:0:0:
64,192,251846,1,2,0:0:0:0:
192,192,251846,1,2,0:0:0:0:
448,192,252046,128,0,252446:0:0:0:0:
320,192,252046,1,0,0:0:0:0:
192,192,252146,1,0,0:0:0:0:
320,192,252246,1,8,0:0:0:0:
64,192,252246,1,8,0:0:0:0:
64,192,252446,1,2,0:0:0:0:
192,192,252446,1,2,0:0:0:0:
320,192,252546,1,0,0:0:0:0:
448,192,252646,128,0,252846:0:0:0:0:
192,192,252646,1,0,0:0:0:0:
64,192,252746,1,0,0:0:0:0:
320,192,252846,1,0,0:0:0:0:
64,192,252946,1,0,0:0:0:0:
320,192,253046,128,0,253446:0:0:0:0:
192,192,253046,1,2,0:0:0:0:
448,192,253046,1,2,0:0:0:0:
64,192,253146,1,0,0:0:0:0:
448,192,253246,1,0,0:0:0:0:
64,192,253346,1,0,0:0:0:0:
192,192,253446,1,0,0:0:0:0:
64,192,253546,1,0,0:0:0:0:
320,192,253646,128,0,254046:0:0:0:0:
448,192,253646,1,0,0:0:0:0:
192,192,253746,1,0,0:0:0:0:
64,192,253846,1,8,0:0:0:0:
448,192,253846,1,8,0:0:0:0:
192,192,254046,1,0,0:0:0:0:
64,192,254146,1,0,0:0:0:0:
320,192,254246,128,0,254446:0:0:0:0:
448,192,254246,1,0,0:0:0:0:
192,192,254346,1,0,0:0:0:0:
64,192,254446,1,0,0:0:0:0:
448,192,254546,1,0,0:0:0:0:
320,192,254646,1,0,0:0:0:0:
64,192,254746,1,0,0:0:0:0:
192,192,254846,1,0,0:0:0:0:
320,192,254946,1,0,0:0:0:0:
448,192,255046,1,2,0:0:0:0:
192,192,255046,1,2,0:0:0:0:
320,192,255246,1,0,0:0:0:0:
192,192,255346,1,0,0:0:0:0:
64,192,255446,1,8,0:0:0:0:
448,192,255446,1,8,0:0:0:0:
192,192,255546,1,0,0:0:0:0:
448,192,255646,1,2,0:0:0:0:
320,192,255646,1,2,0:0:0:0:
192,192,255746,1,0,0:0:0:0:
64,192,255846,1,2,0:0:0:0:
320,192,255846,1,2,0:0:0:0:
448,192,255946,1,0,0:0:0:0:
320,192,256046,1,0,0:0:0:0:
192,192,256146,1,0,0:0:0:0:
320,192,256246,1,2,0:0:0:0:
64,192,256246,1,2,0:0:0:0:
448,192,256246,128,0,256646:0:0:0:0:
192,192,256346,1,0,0:0:0:0:
320,192,256446,1,0,0:0:0:0:
64,192,256546,1,0,0:0:0:0:
192,192,256646,1,0,0:0:0:0:
64,192,256746,1,0,0:0:0:0:
320,192,256846,1,0,0:0:0:0:
448,192,256846,128,0,257246:0:0:0:0:
192,192,256946,1,0,0:0:0:0:
320,192,257046,1,8,0:0:0:0:
64,192,257046,1,8,0:0:0:0:
64,192,257246,1,0,0:0:0:0:
192,192,257346,1,0,0:0:0:0:
320,192,257446,1,0,0:0:0:0:
448,192,257446,128,0,257646:0:0:0:0:
64,192,257546,1,0,0:0:0:0:
192,192,257646,1,0,0:0:0:0:
320,192,257746,1,0,0:0:0:0:
64,192,257846,128,0,258246:0:0:0:0:
192,192,257846,1,0,0:0:0:0:
448,192,257946,1,0,0:0:0:0:
192,192,258046,1,0,0:0:0:0:
320,192,258146,1,0,0:0:0:0:
448,192,258246,1,2,0:0:0:0:
320,192,258346,1,0,0:0:0:0:
64,192,258446,128,0,258846:0:0:0:0:
192,192,258446,1,0,0:0:0:0:
320,192,258546,1,0,0:0:0:0:
192,192,258646,1,8,0:0:0:0:
448,192,258646,1,8,0:0:0:0:
320,192,258846,1,2,0:0:0:0:
448,192,258846,1,2,0:0:0:0:
64,192,259046,128,0,259246:0:0:0:0:
192,192,259046,1,0,0:0:0:0:
448,192,259146,1,0,0:0:0:0:
320,192,259246,1,0,0:0:0:0:
192,192,259346,1,0,0:0:0:0:
320,192,259446,128,0,259846:0:0:0:0:
448,192,259446,1,2,0:0:0:0:
64,192,259446,1,2,0:0:0:0:
192,192,259546,1,0,0:0:0:0:
448,192,259646,1,0,0:0:0:0:
192,192,259746,1,0,0:0:0:0:
64,192,259846,1,0,0:0:0:0:
192,192,259946,1,0,0:0:0:0:
320,192,260046,128,0,260446:0:0:0:0:
448,192,260046,1,0,0:0:0:0:
192,192,260146,1,0,0:0:0:0:
448,192,260246,1,8,0:0:0:0:
64,192,260246,1,8,0:0:0:0:
64,192,260446,1,0,0:0:0:0:
192,192,260546,1,0,0:0:0:0:
320,192,260646,128,0,260846:0:0:0:0:
448,192,260646,1,0,0:0:0:0:
64,192,260746,1,0,0:0:0:0:
192,192,260846,1,0,0:0:0:0:
448,192,260946,1,0,0:0:0:0:
192,192,261046,128,0,261446:0:0:0:0:
64,192,261046,1,0,0:0:0:0:
320,192,261146,1,0,0:0:0:0:
448,192,261246,1,0,0:0:0:0:
64,192,261346,1,0,0:0:0:0:
448,192,261446,1,2,0:0:0:0:
320,192,261446,1,2,0:0:0:0:
192,192,261646,128,0,262046:0:0:0:0:
64,192,261646,1,0,0:0:0:0:
320,192,261746,1,0,0:0:0:0:
448,192,261846,1,8,0:0:0:0:
64,192,261846,1,8,0:0:0:0:
320,192,262046,1,2,0:0:0:0:
448,192,262046,1,2,0:0:0:0:
192,192,262246,128,0,262446:0:0:0:0:
64,192,262246,1,0,0:0:0:0:
320,192,262346,1,0,0:0:0:0:
448,192,262446,1,0,0:0:0:0:
448,192,262646,128,0,263046:0:0:0:0:
320,192,262646,1,2,0:0:0:0:
192,192,262646,1,2,0:0:0:0:
320,192,262846,1,0,0:0:0:0:
64,192,262946,1,0,0:0:0:0:
192,192,263046,1,0,0:0:0:0:
64,192,263146,1,0,0:0:0:0:
448,192,263246,128,0,263646:0:0:0:0:
320,192,263246,1,0,0:0:0:0:
192,192,263346,1,0,0:0:0:0:
64,192,263446,1,8,0:0:0:0:
320,192,263446,1,8,0:0:0:0:
192,192,263646,1,0,0:0:0:0:
64,192,263746,1,0,0:0:0:0:
448,192,263846,128,0,264046:0:0:0:0:
320,192,263846,1,0,0:0:0:0:
64,192,263946,1,0,0:0:0:0:
192,192,264046,1,0,0:0:0:0:
320,192,264146,1,0,0:0:0:0:
192,192,264246,128,0,264646:0:0:0:0:
64,192,264246,1,0,0:0:0:0:
448,192,264346,1,0,0:0:0:0:
320,192,264446,1,0,0:0:0:0:
64,192,264546,1,0,0:0:0:0:
320,192,264646,1,2,0:0:0:0:
448,192,264646,1,2,0:0:0:0:
192,192,264846,128,0,265246:0:0:0:0:
448,192,264846,1,0,0:0:0:0:
320,192,264946,1,0,0:0:0:0:
448,192,265046,1,8,0:0:0:0:
64,192,265046,1,8,0:0:0:0:
448,192,265246,1,2,0:0:0:0:
320,192,265246,1,2,0:0:0:0:
64,192,265346,1,0,0:0:0:0:
192,192,265446,128,0,265646:0:0:0:0:
320,192,265446,1,0,0:0:0:0:
448,192,265546,1,0,0:0:0:0:
64,192,265646,1,0,0:0:0:0:
448,192,265746,1,0,0:0:0:0:
64,192,265846,128,0,266246:0:0:0:0:
320,192,265846,1,2,0:0:0:0:
192,192,265846,1,2,0:0:0:0:
448,192,265946,1,0,0:0:0:0:
192,192,266046,1,0,0:0:0:0:
320,192,266146,1,0,0:0:0:0:
448,192,266246,1,0,0:0:0:0:
320,192,266346,1,0,0:0:0:0:
64,192,266446,128,0,266846:0:0:0:0:
192,192,266446,1,0,0:0:0:0:
320,192,266546,1,0,0:0:0:0:
192,192,266646,1,8,0:0:0:0:
448,192,266646,1,8,0:0:0:0:
320,192,266846,1,0,0:0:0:0:
448,192,266946,1,0,0:0:0:0:
64,192,267046,128,0,267246:0:0:0:0:
192,192,267046,1,0,0:0:0:0:
320,192,267146,1,0,0:0:0:0:
448,192,267246,1,0,0:0:0:0:
320,192,267346,1,0,0:0:0:0:
64,192,267446,1,0,0:0:0:0:
192,192,267546,1,0,0:0:0:0:
448,192,267646,1,0,0:0:0:0:
320,192,267746,1,0,0:0:0:0:
64,192,267846,1,2,0:0:0:0:
192,192,267846,1,2,0:0:0:0:
448,192,267946,1,0,0:0:0:0:
192,192,268046,1,0,0:0:0:0:
320,192,268146,1,0,0:0:0:0:
448,192,268246,1,8,0:0:0:0:
64,192,268246,1,8,0:0:0:0:
320,192,268346,1,0,0:0:0:0:
192,192,268446,1,2,0:0:0:0:
64,192,268446,1,2,0:0:0:0:
320,192,268546,1,0,0:0:0:0:
192,192,268646,1,2,0:0:0:0:
448,192,268646,1,2,0:0:0:0:
64,192,268746,1,0,0:0:0:0:
192,192,268846,1,0,0:0:0:0:
320,192,268946,1,0,0:0:0:0:
192,192,269046,1,2,0:0:0:0:
448,192,269046,1,2,0:0:0:0:
64,192,269046,128,0,269446:0:0:0:0:
320,192,269146,1,0,0:0:0:0:
192,192,269246,1,0,0:0:0:0:
448,192,269346,1,0,0:0:0:0:
320,192,269446,1,0,0:0:0:0:
448,192,269546,1,0,0:0:0:0:
192,192,269646,1,0,0:0:0:0:
64,192,269646,128,0,270046:0:0:0:0:
320,192,269746,1,0,0:0:0:0:
192,192,269846,1,8,0:0:0:0:
448,192,269846,1,8,0:0:0:0:
448,192,270046,1,0,0:0:0:0:
320,192,270146,1,0,0:0:0:0:
192,192,270246,1,0,0:0:0:0:
64,192,270246,128,0,270446:0:0:0:0:
448,192,270346,1,0,0:0:0:0:
320,192,270446,1,0,0:0:0:0:
192,192,270546,1,0,0:0:0:0:
448,192,270646,128,0,271046:0:0:0:0:
320,192,270646,1,0,0:0:0:0:
64,192,270746,1,0,0:0:0:0:
320,192,270846,1,0,0:0:0:0:
192,192,270946,1,0,0:0:0:0:
64,192,271046,1,2,0:0:0:0:
192,192,271146,1,0,0:0:0:0:
448,192,271246,128,0,271646:0:0:0:0:
320,192,271246,1,0,0:0:0:0:
192,192,271346,1,0,0:0:0:0:
320,192,271446,1,8,0:0:0:0:
64,192,271446,1,8,0:0:0:0:
192,192,271646,1,2,0:0:0:0:
64,192,271646,1,2,0:0:0:0:
448,192,271846,128,0,272046:0:0:0:0:
320,192,271846,1,0,0:0:0:0:
64,192,271946,1,0,0:0:0:0:
192,192,272046,1,0,0:0:0:0:
320,192,272146,1,0,0:0:0:0:
192,192,272246,128,0,272646:0:0:0:0:
64,192,272246,1,2,0:0:0:0:
448,192,272246,1,2,0:0:0:0:
320,192,272346,1,0,0:0:0:0:
64,192,272446,1,0,0:0:0:0:
320,192,272546,1,0,0:0:0:0:
448,192,272646,1,0,0:0:0:0:
320,192,272746,1,0,0:0:0:0:
192,192,272846,128,0,273246:0:0:0:0:
64,192,272846,1,0,0:0:0:0:
320,192,272946,1,0,0:0:0:0:
64,192,273046,1,8,0:0:0:0:
448,192,273046,1,8,0:0:0:0:
448,192,273246,1,0,0:0:0:0:
320,192,273346,1,0,0:0:0:0:
192,192,273446,128,0,273646:0:0:0:0:
64,192,273446,1,0,0:0:0:0:
448,192,273546,1,0,0:0:0:0:
320,192,273646,1,0,0:0:0:0:
64,192,273746,1,0,0:0:0:0:
320,192,273846,128,0,274246:0:0:0:0:
448,192,273846,1,0,0:0:0:0:
192,192,273946,1,0,0:0:0:0:
64,192,274046,1,0,0:0:0:0:
448,192,274146,1,0,0:0:0:0:
64,192,274246,1,2,0:0:0:0:
192,192,274246,1,2,0:0:0:0:
320,192,274446,128,0,274846:0:0:0:0:
448,192,274446,1,0,0:0:0:0:
192,192,274546,1,0,0:0:0:0:
64,192,274646,1,8,0:0:0:0:
448,192,274646,1,8,0:0:0:0:
192,192,274846,1,2,0:0:0:0:
64,192,274846,1,2,0:0:0:0:
320,192,275046,128,0,275246:0:0:0:0:
448,192,275046,1,0,0:0:0:0:
192,192,275146,1,0,0:0:0:0:
64,192,275246,1,0,0:0:0:0:
64,192,275446,128,0,275846:0:0:0:0:
192,192,275446,1,2,0:0:0:0:
320,192,275446,1,2,0:0:0:0:
192,192,275646,1,0,0:0:0:0:
448,192,275746,1,0,0:0:0:0:
320,192,275846,1,0,0:0:0:0:
448,192,275946,1,0,0:0:0:0:
64,192,276046,128,0,276446:0:0:0:0:
192,192,276046,1,0,0:0:0:0:
320,192,276146,1,0,0:0:0:0:
448,192,276246,1,8,0:0:0:0:
192,192,276246,1,8,0:0:0:0:
320,192,276446,1,0,0:0:0:0:
448,192,276546,1,0,0:0:0:0:
64,192,276646,128,0,276846:0:0:0:0:
192,192,276646,1,0,0:0:0:0:
448,192,276746,1,0,0:0:0:0:
320,192,276846,1,0,0:0:0:0:
192,192,276946,1,0,0:0:0:0:
320,192,277046,128,0,277446:0:0:0:0:
448,192,277046,1,0,0:0:0:0:
64,192,277146,1,0,0:0:0:0:
192,192,277246,1,0,0:0:0:0:
448,192,277346,1,0,0:0:0:0:
192,192,277446,1,2,0:0:0:0:
64,192,277446,1,2,0:0:0:0:
320,192,277646,128,0,278046:0:0:0:0:
64,192,277646,1,0,0:0:0:0:
192,192,277746,1,0,0:0:0:0:
64,192,277846,1,8,0:0:0:0:
448,192,277846,1,8,0:0:0:0:
64,192,278046,1,2,0:0:0:0:
192,192,278046,1,2,0:0:0:0:
448,192,278146,1,0,0:0:0:0:
320,192,278246,128,0,278446:0:0:0:0:
192,192,278246,1,0,0:0:0:0:
64,192,278346,1,0,0:0:0:0:
448,192,278446,1,0,0:0:0:0:
64,192,278546,1,0,0:0:0:0:
448,192,278646,128,0,279046:0:0:0:0:
192,192,278646,1,2,0:0:0:0:
320,192,278646,1,2,0:0:0:0:
64,192,278746,1,0,0:0:0:0:
320,192,278846,1,0,0:0:0:0:
192,192,278946,1,0,0:0:0:0:
64,192,279046,1,0,0:0:0:0:
192,192,279146,1,0,0:0:0:0:
448,192,279246,128,0,279646:0:0:0:0:
320,192,279246,1,0,0:0:0:0:
192,192,279346,1,0,0:0:0:0:
320,192,279446,1,8,0:0:0:0:
64,192,279446,1,8,0:0:0:0:
192,192,279646,1,0,0:0:0:0:
64,192,279746,1,0,0:0:0:0:
448,192,279846,128,0,280046:0:0:0:0:
320,192,279846,1,0,0:0:0:0:
192,192,279946,1,0,0:0:0:0:
64,192,280046,1,0,0:0:0:0:
192,192,280146,1,0,0:0:0:0:
448,192,280246,1,0,0:0:0:0:
320,192,280346,1,0,0:0:0:0:
64,192,280446,1,0,0:0:0:0:
192,192,280546,1,0,0:0:0:0:
448,192,280646,1,2,0:0:0:0:
320,192,280646,1,2,0:0:0:0:
64,192,280746,1,0,0:0:0:0:
320,192,280846,1,0,0:0:0:0:
192,192,280946,1,0,0:0:0:0:
64,192,281046,1,8,0:0:0:0:
448,192,281046,1,8,0:0:0:0:
192,192,281146,1,0,0:0:0:0:
320,192,281246,1,2,0:0:0:0:
448,192,281246,1,2,0:0:0:0:
192,192,281346,1,0,0:0:0:0:
320,192,281446,1,2,0:0:0:0:
64,192,281446,1,2,0:0:0:0:
448,192,281546,1,0,0:0:0:0:
320,192,281646,1,0,0:0:0:0:
192,192,281746,1,0,0:0:0:0:
64,192,281846,5,2,0:0:0:0:
448,192,281846,1,2,0:0:0:0:
320,192,281946,1,0,0:0:0:0:
448,192,282046,1,0,0:0:0:0:
192,192,282146,1,0,0:0:0:0:
320,192,282246,1,0,0:0:0:0:
64,192,282346,1,0,0:0:0:0:
448,192,282446,1,0,0:0:0:0:
320,192,282546,1,0,0:0:0:0:
192,192,282646,1,0,0:0:0:0:
448,192,282646,1,8,0:0:0:0:
320,192,282746,1,0,0:0:0:0:
64,192,282846,1,0,0:0:0:0:
192,192,282946,1,0,0:0:0:0:
448,192,283046,1,0,0:0:0:0:
320,192,283146,1,0,0:0:0:0:
64,192,283246,1,0,0:0:0:0:
448,192,283346,1,0,0:0:0:0:
192,192,283446,128,0,284046:0:0:0:0:
320,192,283846,1,2,0:0:0:0:
448,192,284046,1,0,0:0:0:0:
320,192,284146,1,0,0:0:0:0:
64,192,284246,128,0,284446:0:0:0:0:
192,192,284246,1,0,0:0:0:0:
448,192,284246,1,8,0:0:0:0:
320,192,284446,1,2,0:0:0:0:
448,192,284546,1,0,0:0:0:0:
192,192,284646,1,0,0:0:0:0:
320,192,284746,1,0,0:0:0:0:
448,192,284846,1,0,0:0:0:0:
192,192,284946,1,0,0:0:0:0:
64,192,285046,1,2,0:0:0:0:
192,192,285146,1,0,0:0:0:0:
448,192,285246,1,0,0:0:0:0:
320,192,285346,1,0,0:0:0:0:
64,192,285446,1,0,0:0:0:0:
448,192,285546,1,0,0:0:0:0:
192,192,285646,1,0,0:0:0:0:
320,192,285746,1,0,0:0:0:0:
64,192,285846,1,0,0:0:0:0:
192,192,285846,1,8,0:0:0:0:
448,192,285946,1,0,0:0:0:0:
320,192,286046,1,0,0:0:0:0:
64,192,286146,1,0,0:0:0:0:
192,192,286246,1,0,0:0:0:0:
320,192,286346,1,0,0:0:0:0:
64,192,286446,1,0,0:0:0:0:
192,192,286546,1,0,0:0:0:0:
320,192,286646,128,0,287246:0:0:0:0:
192,192,287046,1,2,0:0:0:0:
64,192,287246,1,0,0:0:0:0:
192,192,287346,1,0,0:0:0:0:
64,192,287446,128,0,287646:0:0:0:0:
320,192,287446,1,0,0:0:0:0:
448,192,287446,1,8,0:0:0:0:
448,192,287646,1,2,0:0:0:0:
192,192,287746,1,0,0:0:0:0:
320,192,287846,1,0,0:0:0:0:
64,192,287946,1,0,0:0:0:0:
192,192,288046,1,0,0:0:0:0:
448,192,288146,1,0,0:0:0:0:
320,192,288246,1,2,0:0:0:0:
192,192,288346,1,0,0:0:0:0:
448,192,288446,1,0,0:0:0:0:
320,192,288546,1,0,0:0:0:0:
64,192,288646,1,0,0:0:0:0:
192,192,288746,1,0,0:0:0:0:
320,192,288846,1,0,0:0:0:0:
192,192,288946,1,0,0:0:0:0:
448,192,289046,1,8,0:0:0:0:
64,192,289046,1,0,0:0:0:0:
320,192,289146,1,0,0:0:0:0:
192,192,289246,1,0,0:0:0:0:
320,192,289346,1,0,0:0:0:0:
448,192,289446,1,0,0:0:0:0:
192,192,289546,1,0,0:0:0:0:
64,192,289646,1,0,0:0:0:0:
448,192,289746,1,0,0:0:0:0:
64,192,289846,128,0,290446:0:0:0:0:
192,192,290246,1,2,0:0:0:0:
320,192,290446,1,0,0:0:0:0:
448,192,290446,128,0,290646:0:0:0:0:
64,192,290646,1,0,0:0:0:0:
192,192,290646,1,8,0:0:0:0:
320,192,290846,1,2,0:0:0:0:
192,192,290946,1,0,0:0:0:0:
448,192,291046,1,0,0:0:0:0:
64,192,291146,1,0,0:0:0:0:
192,192,291246,1,0,0:0:0:0:
320,192,291346,1,0,0:0:0:0:
448,192,291446,128,0,292046:0:0:0:0:
64,192,291446,1,2,0:0:0:0:
64,192,292046,128,0,292246:0:0:0:0:
320,192,292046,1,0,0:0:0:0:
192,192,292246,1,0,0:0:0:0:
448,192,292246,1,8,0:0:0:0:
320,192,292346,1,0,0:0:0:0:
448,192,292446,1,0,0:0:0:0:
192,192,292546,1,0,0:0:0:0:
64,192,292646,1,0,0:0:0:0:
192,192,292746,1,0,0:0:0:0:
448,192,292846,1,0,0:0:0:0:
320,192,292946,1,0,0:0:0:0:
64,192,293046,1,0,0:0:0:0:
192,192,293146,1,0,0:0:0:0:
320,192,293246,1,0,0:0:0:0:
448,192,293346,1,0,0:0:0:0:
64,192,293446,1,2,0:0:0:0:
192,192,293546,1,0,0:0:0:0:
448,192,293646,1,0,0:0:0:0:
64,192,293746,1,0,0:0:0:0:
320,192,293846,1,8,0:0:0:0:
448,192,293846,1,0,0:0:0:0:
192,192,293946,1,0,0:0:0:0:
64,192,294046,1,2,0:0:0:0:
448,192,294146,1,0,0:0:0:0:
192,192,294246,1,0,0:0:0:0:
320,192,294346,1,0,0:0:0:0:
448,192,294446,1,0,0:0:0:0:
320,192,294546,1,0,0:0:0:0:
64,192,294646,128,0,294846:0:0:0:0:
192,192,294646,1,2,0:0:0:0:
448,192,294846,128,0,295046:0:0:0:0:
192,192,295046,128,0,295246:0:0:0:0:
320,192,295246,128,0,295446:0:0:0:0:
64,192,295446,128,0,295646:0:0:0:0:
448,192,295446,1,8,0:0:0:0:
192,192,295646,128,0,295846:0:0:0:0:
448,192,295846,128,0,296046:0:0:0:0:
64,192,296046,128,0,296246:0:0:0:0:
320,192,296246,128,0,296846:0:0:0:0:
192,192,296646,1,2,0:0:0:0:
64,192,296846,1,0,0:0:0:0:
448,192,297046,128,0,297246:0:0:0:0:
192,192,297046,1,8,0:0:0:0:
192,192,297246,128,0,297446:0:0:0:0:
320,192,297246,1,2,0:0:0:0:
320,192,297446,128,0,297646:0:0:0:0:
64,192,297646,128,0,297846:0:0:0:0:
448,192,297846,1,2,0:0:0:0:
192,192,297846,128,0,298046:0:0:0:0:
320,192,298046,128,0,298246:0:0:0:0:
448,192,298246,128,0,298446:0:0:0:0:
192,192,298446,128,0,298646:0:0:0:0:
320,192,298646,128,0,298846:0:0:0:0:
64,192,298646,1,8,0:0:0:0:
64,192,298846,128,0,299046:0:0:0:0:
448,192,299046,128,0,299246:0:0:0:0:
320,192,299246,128,0,299446:0:0:0:0:
64,192,299446,128,0,300246:0:0:0:0:
448,192,299846,1,2,0:0:0:0:
320,192,300246,1,8,0:0:0:0:
448,192,300246,128,0,300446:0:0:0:0:
320,192,300446,128,0,300646:0:0:0:0:
192,192,300446,1,2,0:0:0:0:
64,192,300646,128,0,300846:0:0:0:0:
192,192,300846,128,0,301046:0:0:0:0:
448,192,301046,128,0,301246:0:0:0:0:
320,192,301046,1,2,0:0:0:0:
320,192,301246,128,0,301446:0:0:0:0:
192,192,301446,128,0,301646:0:0:0:0:
448,192,301646,128,0,301846:0:0:0:0:
64,192,301846,128,0,302046:0:0:0:0:
320,192,301846,1,8,0:0:0:0:
320,192,302046,128,0,302246:0:0:0:0:
192,192,302246,128,0,302446:0:0:0:0:
448,192,302446,128,0,302646:0:0:0:0:
320,192,302646,128,0,303446:0:0:0:0:
192,192,303046,1,2,0:0:0:0:
64,192,303446,1,0,0:0:0:0:
448,192,303446,1,8,0:0:0:0:
192,192,303646,1,2,0:0:0:0:
320,192,303846,1,0,0:0:0:0:
448,192,304046,1,0,0:0:0:0:
64,192,304246,128,0,304846:0:0:0:0:
320,192,304246,1,2,0:0:0:0:
192,192,304846,1,0,0:0:0:0:
320,192,305046,1,8,0:0:0:0:
448,192,305046,1,0,0:0:0:0:
192,192,305246,1,0,0:0:0:0:
64,192,305446,1,0,0:0:0:0:
320,192,305646,1,0,0:0:0:0:
448,192,305846,1,0,0:0:0:0:
320,192,306246,1,2,0:0:0:0:
64,192,306646,1,8,0:0:0:0:
192,192,306846,1,2,0:0:0:0:
320,192,307046,1,0,0:0:0:0:
