osu file format v14

[General]
AudioFilename: audio.mp3
AudioLeadIn: 0
PreviewTime: 286912
Countdown: 1
SampleSet: Drum
StackLeniency: 0.2
Mode: 0
LetterboxInBreaks: 0
WidescreenStoryboard: 0

[Editor]
Bookmarks: 14673,57658,79150,86315,107807,114971,165121,166912,186613,187061,200942,315568,322509,326315,329897,351389,372882
DistanceSpacing: 1.2
BeatDivisor: 4
GridSize: 4
TimelineZoom: 2.9

[Metadata]
Title:Midwest Choppers
TitleUnicode:Midwest Choppers
Artist:Tech N9ne feat. D-Loc, Dalima & Krizz Kaliko
ArtistUnicode:Tech N9ne feat. D-Loc, Dalima & Krizz Kaliko
Creator:Kalindraz
Version:Gangsta
Source:
Tags:Rap alternate strange music label hiphop Misery Loves Kompany Collabos
BeatmapID:1391136
BeatmapSetID:656648

[Difficulty]
HPDrainRate:5.5
CircleSize:4
OverallDifficulty:8
ApproachRate:9.7
SliderMultiplier:2.2
SliderTickRate:1

[Events]
//Background and Video events
0,0,"bg.png",0,0
//Break Periods
//Storyboard Layer 0 (Background)
//Storyboard Layer 1 (Fail)
//Storyboard Layer 2 (Pass)
//Storyboard Layer 3 (Foreground)
//Storyboard Layer 4 (Overlay)
//Storyboard Sound Samples

[TimingPoints]
400,447.761194029851,4,3,0,50,1,0
29056,-100,4,3,0,50,0,1
57713,-90.9090909090909,4,3,0,50,0,0
115026,-90.9090909090909,4,3,0,50,0,1
143683,-90.9090909090909,4,3,0,50,0,0
200997,-90.9090909090909,4,3,0,50,0,1
229653,-83.3333333333333,4,3,0,50,0,0
286967,-83.3333333333333,4,3,0,50,0,1
315623,-83.3333333333333,4,3,0,50,0,0

[Colours]
Combo1 : 62,62,62
Combo2 : 135,14,207
Combo3 : 78,0,155
Combo4 : 111,111,111

[HitObjects]
80,152,400,37,6,0:0:0:0:
112,328,1295,1,8,0:0:0:0:
112,328,2414,5,6,0:0:0:0:
80,152,2638,1,6,0:0:0:0:
112,328,3086,1,8,0:0:0:0:
256,176,3982,37,6,0:0:0:0:
480,64,4877,1,0,0:0:0:0:
256,176,5997,5,6,0:0:0:0:
480,64,6220,1,6,0:0:0:0:
256,176,6668,1,8,0:0:0:0:
480,336,7564,37,6,0:0:0:0:
384,160,8459,1,8,0:0:0:0:
480,336,9579,5,6,0:0:0:0:
384,160,9802,1,6,0:0:0:0:
480,336,10250,1,8,0:0:0:0:
92,360,11146,5,6,0:0:0:0:
148,120,11594,1,6,0:0:0:0:
4,208,12041,1,8,0:2:0:0:
236,264,12489,1,0,0:0:0:0:
56,96,12937,5,8,0:2:0:0:
128,64,13049,1,2,0:0:0:0:
200,88,13161,1,2,0:0:0:0:
256,144,13273,1,2,0:0:0:0:
377,288,13385,1,2,0:0:0:0:
388,208,13497,1,2,0:0:0:0:
401,129,13608,1,2,0:0:0:0:
200,88,13832,5,2,0:0:0:0:
200,88,14056,1,2,0:0:0:0:
29,317,14168,2,0,L|13:189,1,110,2|0,0:0|0:0,0:0:0:0:
236,264,14504,37,0,1:0:0:0:
236,264,14616,1,0,1:0:0:0:
108,304,14728,1,4,1:0:0:0:
16,208,14840,6,0,P|16:176|24:144,1,55
56,80,15064,1,0,0:0:0:0:
128,40,15176,1,2,0:2:0:0:
208,48,15288,1,0,0:0:0:0:
272,96,15400,1,2,0:2:0:0:
352,120,15511,1,0,0:0:0:0:
424,80,15623,2,0,P|428:52|424:24,2,55,8|0|2,0:2|0:0|0:2,0:0:0:0:
352,120,15959,1,0,0:0:0:0:
296,184,16071,2,0,P|292:220|296:248,1,55,2|0,0:2|0:0,0:0:0:0:
324,316,16295,1,0,0:0:0:0:
400,344,16407,1,0,0:0:0:0:
468,300,16519,5,2,0:2:0:0:
392,268,16631,1,0,0:0:0:0:
324,316,16743,2,0,P|284:324|256:324,1,55,4|0,0:0|0:0,0:0:0:0:
188,316,16967,2,0,P|156:304|128:284,1,55,4|0,0:0|0:0,0:0:0:0:
88,228,17191,1,2,0:2:0:0:
88,228,17302,1,0,0:0:0:0:
76,148,17414,1,8,0:2:0:0:
76,148,17526,1,0,0:0:0:0:
105,70,17638,1,2,0:2:0:0:
228,38,17750,5,0,0:0:0:0:
311,0,17862,1,2,0:2:0:0:
366,73,17974,1,0,0:0:0:0:
284,114,18086,2,0,L|274:180,1,55
24,292,18310,21,4,1:0:0:0:
24,292,18534,6,0,P|60:288|92:292,1,55
160,308,18758,1,2,0:2:0:0:
236,340,18870,1,0,0:0:0:0:
316,328,18982,1,2,0:2:0:0:
380,276,19094,1,0,0:0:0:0:
404,196,19205,1,8,0:2:0:0:
324,220,19317,1,0,0:0:0:0:
240,228,19429,1,2,0:2:0:0:
160,204,19541,1,0,0:0:0:0:
92,160,19653,2,0,P|92:120|100:84,1,55,2|0,0:2|0:0,0:0:0:0:
128,32,19877,2,0,P|156:20|184:16,1,55
260,28,20101,37,2,0:2:0:0:
324,80,20213,1,0,0:0:0:0:
400,44,20325,2,0,P|440:48|472:64,1,55,4|0,0:0|0:0,0:0:0:0:
508,116,20549,2,0,P|512:148|508:180,1,55,4|0,0:0|0:0,0:0:0:0:
496,252,20773,1,2,0:2:0:0:
444,316,20885,1,0,0:0:0:0:
368,348,20997,1,8,0:2:0:0:
288,344,21108,1,0,0:0:0:0:
216,304,21220,21,2,0:0:0:0:
188,224,21332,2,0,P|216:220|248:224,1,55,2|0,0:0|0:0,0:0:0:0:
165,370,21556,1,2,0:0:0:0:
77,244,21668,2,0,L|71:187,1,55,2|0,0:0|0:0,0:0:0:0:
118,11,21892,21,4,1:0:0:0:
118,11,22116,1,0,0:0:0:0:
202,3,22228,1,0,0:0:0:0:
274,43,22340,2,0,P|278:107|262:155,1,110,2|0,0:2|0:0,0:0:0:0:
149,161,22676,1,0,0:0:0:0:
77,214,22788,5,8,0:2:0:0:
77,214,22900,1,0,0:0:0:0:
54,298,23011,1,2,0:2:0:0:
54,298,23123,1,0,0:0:0:0:
110,358,23235,1,2,0:2:0:0:
194,358,23347,6,0,P|222:338|246:294,1,55
387,168,23571,1,0,0:0:0:0:
387,168,23683,21,2,0:2:0:0:
311,136,23795,1,0,0:0:0:0:
236,100,23907,2,0,P|204:100|168:108,1,55,4|0,0:0|0:0,0:0:0:0:
108,148,24131,2,0,P|80:176|64:200,1,55,4|0,0:0|0:0,0:0:0:0:
16,288,24355,21,2,0:2:0:0:
16,288,24467,1,0,0:0:0:0:
176,224,24579,5,8,0:2:0:0:
176,224,24691,1,0,0:0:0:0:
71,188,24802,37,0,0:0:0:0:
71,188,24914,1,2,0:0:0:0:
132,332,25026,6,0,B|192:340|192:340|192:340,1,55,2|0,0:0|0:0,0:0:0:0:
468,304,25250,2,0,B|408:296|408:296|408:296,1,55,2|0,0:0|0:0,0:0:0:0:
308,348,25474,38,0,P|300:312|300:280,1,55,4|0,0:0|0:0,0:0:0:0:
300,208,25698,1,0,0:0:0:0:
300,208,25810,1,0,0:0:0:0:
448,204,25922,2,0,P|408:192|388:192,1,55,4|0,0:0|0:0,0:0:0:0:
300,208,26146,1,0,0:0:0:0:
300,208,26258,1,0,0:0:0:0:
152,208,26370,6,0,P|200:212|216:208,1,55,8|0,1:2|0:0,0:0:0:0:
300,208,26594,1,0,0:0:0:0:
300,208,26705,1,0,0:0:0:0:
304,64,26817,2,0,P|308:96|304:140,1,55,4|0,0:0|0:0,0:0:0:0:
228,160,27041,1,0,0:0:0:0:
228,160,27153,1,0,0:0:0:0:
152,208,27265,38,0,L|72:220,1,55,8|0,1:2|0:0,0:0:0:0:
16,228,27489,1,2,0:0:0:0:
16,228,27601,1,2,0:0:0:0:
96,108,27713,2,0,L|41:98,1,55,2|2,0:0|0:0,0:0:0:0:
92,340,27937,2,0,L|164:328,1,55,2|0,0:0|0:0,0:0:0:0:
360,124,28161,5,2,0:0:0:0:
400,352,28385,1,2,0:0:0:0:
400,352,28497,1,2,0:0:0:0:
452,88,28720,1,2,0:0:0:0:
384,40,28832,1,0,1:0:0:0:
304,52,28944,1,0,1:0:0:0:
264,124,29056,38,0,P|248:168|248:232,1,110,4|0,1:0|0:0,0:0:0:0:
276,336,29504,1,2,0:2:0:0:
276,336,29616,1,0,0:0:0:0:
276,336,29728,1,2,0:2:0:0:
276,336,29840,1,0,0:0:0:0:
276,336,29952,2,0,L|160:320,1,110,8|0,0:2|0:0,0:0:0:0:
76,288,30288,1,0,0:0:0:0:
76,288,30400,2,0,B|52:208|52:208|76:112,1,165,2|0,0:2|0:0,0:0:0:0:
100,28,31071,5,4,0:3:0:0:
180,228,31295,1,4,0:3:0:0:
180,228,31407,1,0,0:0:0:0:
180,228,31519,2,0,L|188:352,1,110,0|8,0:0|0:2,0:0:0:0:
312,384,31967,1,2,0:2:0:0:
440,340,32191,1,2,0:2:0:0:
440,340,32302,1,0,0:0:0:0:
440,340,32414,2,0,L|444:208,1,110,0|4,0:0|0:0,0:0:0:0:
448,120,32862,37,2,0:2:0:0:
264,140,33086,1,2,0:2:0:0:
264,140,33198,1,0,0:0:0:0:
264,140,33310,2,0,L|268:72,1,55,2|0,0:2|0:0,0:0:0:0:
352,68,33534,2,0,L|364:192,1,110,8|0,0:2|0:0,0:0:0:0:
253,249,33870,1,0,0:0:0:0:
253,249,33982,2,0,L|263:139,1,110,2|2,0:2|0:2,0:0:0:0:
148,68,34429,6,0,L|160:192,1,110,2|4,0:2|0:0,0:0:0:0:
100,244,34765,1,0,0:0:0:0:
100,244,34877,2,0,L|112:368,1,110,4|0,0:0|0:0,0:0:0:0:
208,324,35325,1,8,0:2:0:0:
196,220,35549,2,0,P|253:232|308:224,1,110,2|0,0:2|0:0,0:0:0:0:
444,124,35885,2,0,P|386:111|332:120,1,110,2|0,0:2|0:0,0:0:0:0:
388,208,36220,37,4,1:0:0:0:
256,140,36444,2,0,L|240:16,1,110,2|0,0:2|0:0,0:0:0:0:
25,142,36892,2,0,L|40:252,1,110,2|8,0:2|0:2,0:0:0:0:
104,336,37340,2,0,L|176:344,1,55,2|0,0:2|0:0,0:0:0:0:
292,364,37564,1,2,0:2:0:0:
292,364,37676,1,0,0:0:0:0:
292,364,37788,2,0,P|280:296|280:296,1,55,2|0,0:2|0:0,0:0:0:0:
240,128,38011,6,0,L|264:240,1,110,2|4,0:2|0:0,0:0:0:0:
368,235,38347,1,0,0:0:0:0:
368,235,38459,2,0,L|380:164,1,55,4|0,0:0|0:0,0:0:0:0:
392,104,38683,2,0,L|404:33,1,55,2|0,0:0|0:0,0:0:0:0:
216,20,38907,38,0,L|240:132,1,110,8|0,0:2|0:0,0:0:0:0:
4,152,39355,1,2,0:0:0:0:
96,44,39579,1,2,0:0:0:0:
36,248,39802,5,4,0:0:0:0:
36,248,39914,1,0,0:0:0:0:
36,248,40026,2,0,L|44:304,1,55,0|0,0:0|0:0,0:0:0:0:
172,364,40250,37,4,0:0:0:0:
172,364,40362,1,0,0:0:0:0:
172,364,40474,2,0,L|180:308,1,55,0|0,0:0|0:0,0:0:0:0:
288,200,40698,5,8,1:2:0:0:
288,200,40810,1,0,0:0:0:0:
288,200,40922,2,0,L|296:256,1,55,0|0,0:0|0:0,0:0:0:0:
424,316,41146,37,4,0:0:0:0:
424,316,41258,1,0,0:0:0:0:
424,316,41370,2,0,L|432:260,1,55,0|0,0:0|0:0,0:0:0:0:
444,156,41594,5,8,0:2:0:0:
444,156,41705,1,2,0:0:0:0:
444,156,41817,1,2,0:0:0:0:
444,156,41929,1,2,0:0:0:0:
444,156,42041,38,0,L|504:144,1,55,2|0,0:0|0:0,0:0:0:0:
280,44,42265,2,0,L|226:54,1,55,2|0,0:0|0:0,0:0:0:0:
24,96,42489,5,2,0:0:0:0:
72,368,42713,1,2,0:0:0:0:
72,368,42825,1,2,0:0:0:0:
4,240,43049,1,2,0:0:0:0:
84,220,43161,1,0,1:0:0:0:
160,252,43273,1,0,1:0:0:0:
208,320,43385,38,0,P|268:324|320:312,1,110,4|0,1:0|0:0,0:0:0:0:
452,240,43832,1,2,0:2:0:0:
452,240,43944,1,0,0:0:0:0:
452,240,44056,2,0,L|456:164,1,55,2|0,0:2|0:0,0:0:0:0:
368,96,44280,2,0,L|356:224,1,110,8|2,0:2|0:2,0:0:0:0:
252,208,44616,1,0,0:0:0:0:
252,208,44728,2,0,L|236:52,1,137.5,2|0,0:2|0:0,0:0:0:0:
96,56,45400,5,4,0:0:0:0:
20,192,45623,1,4,0:0:0:0:
20,192,45735,1,0,0:0:0:0:
19,191,45847,2,0,L|30:301,1,110,2|8,0:2|0:2,0:0:0:0:
136,160,46295,1,2,0:0:0:0:
252,208,46519,1,2,0:2:0:0:
252,208,46631,1,0,0:0:0:0:
252,208,46743,2,0,L|241:317,1,110,2|4,0:2|0:0,0:0:0:0:
376,384,47191,38,0,L|364:260,1,110,2|2,0:2|0:2,0:0:0:0:
440,220,47526,1,0,0:0:0:0:
440,220,47638,1,2,0:2:0:0:
440,220,47750,1,0,0:0:0:0:
440,220,47862,2,0,L|424:88,1,110,8|2,0:2|0:0,0:0:0:0:
304,112,48198,1,0,0:0:0:0:
304,112,48310,2,0,L|290:221,1,110,2|0,0:2|0:0,0:0:0:0:
172,316,48758,6,0,P|112:324|64:316,1,110,2|4,0:0|0:0,0:0:0:0:
4,268,49094,1,0,0:0:0:0:
4,268,49205,2,0,L|0:140,1,110,4|0,0:0|0:0,0:0:0:0:
48,68,49653,1,8,0:2:0:0:
120,208,49877,2,0,B|164:220|164:220|240:208,1,110,2|0,0:2|0:0,0:0:0:0:
312,24,50213,2,0,B|268:12|268:12|192:24,1,110,2|0,0:2|0:0,0:0:0:0:
216,112,50549,37,4,1:0:0:0:
456,116,50773,2,0,L|340:104,1,110,2|0,0:2|0:0,0:0:0:0:
320,296,51220,2,0,L|429:307,1,110,2|8,0:2|0:2,0:0:0:0:
488,208,51668,2,0,L|429:205,1,55,2|0,0:2|0:0,0:0:0:0:
307,198,51892,1,2,0:2:0:0:
307,198,52004,1,0,0:0:0:0:
307,198,52116,2,0,L|231:194,1,55,2|0,0:2|0:0,0:0:0:0:
32,183,52340,6,0,L|147:189,1,110,2|4,0:2|0:0,0:0:0:0:
217,106,52676,1,0,0:0:0:0:
217,106,52788,2,0,L|157:102,1,55,4|0,0:0|0:0,0:0:0:0:
81,99,53011,2,0,L|21:95,1,55,2|0,0:2|0:0,0:0:0:0:
22,270,53235,2,0,L|141:276,1,110,8|0,0:2|0:0,0:0:0:0:
324,328,53683,1,2,0:2:0:0:
256,192,53907,1,2,0:2:0:0:
484,352,54131,37,4,0:0:0:0:
484,352,54243,1,0,0:0:0:0:
484,352,54355,2,0,L|476:288,1,55,0|0,0:0|0:0,0:0:0:0:
332,244,54579,5,4,0:0:0:0:
332,244,54691,1,0,0:0:0:0:
332,244,54802,2,0,L|340:180,1,55,0|0,0:0|0:0,0:0:0:0:
464,212,55026,37,8,1:2:0:0:
464,212,55138,1,0,0:0:0:0:
464,212,55250,2,0,L|456:148,1,55,0|0,0:0|0:0,0:0:0:0:
352,100,55474,5,4,0:0:0:0:
352,100,55586,1,0,0:0:0:0:
352,100,55698,2,0,L|360:36,1,55,0|0,0:0|0:0,0:0:0:0:
208,56,55922,37,8,1:2:0:0:
208,56,56034,1,2,0:0:0:0:
208,56,56146,1,2,0:0:0:0:
208,56,56258,1,2,0:0:0:0:
208,56,56370,6,0,L|152:64,1,55,2|0,0:0|0:0,0:0:0:0:
0,192,56594,2,0,L|54:184,1,55,2|0,0:0|0:0,0:0:0:0:
196,164,56817,37,0,0:0:0:0:
481,101,57041,1,0,0:0:0:0:
481,101,57153,1,0,0:0:0:0:
373,10,57377,1,0,0:0:0:0:
360,90,57489,1,0,0:0:0:0:
378,170,57601,1,0,0:0:0:0:
433,235,57713,37,4,1:0:0:0:
433,235,57937,37,0,0:0:0:0:
380,296,58049,1,0,0:0:0:0:
304,320,58161,1,2,0:2:0:0:
228,296,58273,1,0,0:0:0:0:
184,232,58385,1,2,0:2:0:0:
124,180,58497,1,0,0:0:0:0:
48,192,58608,1,8,0:2:0:0:
12,264,58720,1,0,0:0:0:0:
68,320,58832,1,2,0:2:0:0:
144,304,58944,1,0,0:0:0:0:
184,232,59056,6,0,P|196:204|200:172,1,60.5000018463135,2|0,0:2|0:0,0:0:0:0:
196,100,59280,2,0,P|200:64|220:24,1,60.5000018463135
284,12,59504,1,2,0:2:0:0:
364,16,59616,1,0,0:0:0:0:
432,52,59728,2,0,P|448:96|448:128,1,60.5000018463135,4|0,0:0|0:0,0:0:0:0:
452,188,59952,2,0,P|448:232|436:256,1,60.5000018463135,4|0,0:0|0:0,0:0:0:0:
240,296,60176,6,0,P|240:260|224:220,1,60.5000018463135,2|0,0:0|0:2,0:0:0:0:
204,156,60400,1,8,0:2:0:0:
204,156,60511,1,0,0:0:0:0:
168,12,60623,6,0,P|168:48|184:88,1,60.5000018463135,2|0,0:2|0:0,0:0:0:0:
204,156,60847,1,2,0:2:0:0:
204,156,60959,1,0,0:0:0:0:
296,124,61071,2,0,L|364:104,1,60.5000018463135
488,68,61295,5,4,1:0:0:0:
488,68,61519,5,0,0:0:0:0:
480,148,61631,1,0,0:0:0:0:
472,228,61743,1,2,0:2:0:0:
464,308,61855,1,0,0:0:0:0:
400,264,61967,1,2,0:2:0:0:
320,256,62079,1,0,0:0:0:0:
248,288,62191,1,8,0:2:0:0:
216,360,62302,1,0,0:0:0:0:
168,304,62414,2,0,P|165:267|174:236,1,60.5000018463135,2|0,0:2|0:0,0:0:0:0:
201,171,62638,2,0,P|233:187|255:210,1,60.5000018463135,2|0,0:2|0:0,0:0:0:0:
303,264,62862,2,0,P|271:283|240:291,1,60.5000018463135,0|0,0:0|0:0,0:0:0:0:
100,344,63086,6,0,L|92:388,2,40.333334564209,2|0|0,0:2|0:0|0:0,0:0:0:0:
24,276,63310,2,0,P|24:236|32:204,1,60.5000018463135,4|0,0:0|0:0,0:0:0:0:
56,104,63534,2,0,L|48:64,2,40.333334564209,4|0|0,0:0|0:0|0:0,0:0:0:0:
124,156,63758,2,0,L|184:152,1,60.5000018463135,2|0,0:2|0:0,0:0:0:0:
284,144,63982,5,8,0:2:0:0:
308,48,64094,2,0,P|276:48|248:52,1,60.5000018463135,0|2,0:0|0:0,0:0:0:0:
184,151,64317,37,0,0:2:0:0:
160,247,64429,2,0,P|192:247|220:243,1,60.5000018463135,2|2,0:0|0:0,0:0:0:0:
340,224,64653,2,0,P|371:228|404:252,1,60.5000018463135,0|0,0:2|0:0,0:0:0:0:
476,304,64877,37,4,1:0:0:0:
476,304,65101,2,0,L|504:272,2,40.333334564209
408,360,65325,2,0,P|372:364|336:356,1,60.5000018463135,2|0,0:2|0:0,0:0:0:0:
280,316,65549,2,0,P|256:284|244:252,1,60.5000018463135,2|0,0:2|0:0,0:0:0:0:
189,181,65773,21,8,0:2:0:0:
338,213,65885,1,0,0:0:0:0:
338,213,65997,1,2,0:2:0:0:
185,93,66108,37,8,0:2:0:0:
380,134,66220,1,2,0:2:0:0:
380,134,66332,1,0,0:0:0:0:
291,73,66444,38,0,L|275:139,1,60.5000018463135,0|0,0:0|0:0,0:0:0:0:
247,265,66668,37,2,0:2:0:0:
176,296,66780,1,0,0:0:0:0:
96,296,66892,1,4,0:0:0:0:
36,244,67004,1,0,0:0:0:0:
20,168,67116,1,4,0:0:0:0:
40,92,67228,1,0,0:0:0:0:
108,48,67340,1,2,0:2:0:0:
188,44,67452,1,0,0:0:0:0:
328,160,67564,21,8,0:2:0:0:
404,194,67676,1,0,0:0:0:0:
474,152,67788,1,2,0:2:0:0:
470,41,67900,5,2,0:0:0:0:
394,9,68011,1,0,0:0:0:0:
323,54,68123,1,0,0:0:0:0:
401,94,68235,38,0,L|404:168,1,60.5000018463135
284,320,68459,37,4,0:0:0:0:
417,336,68571,2,0,P|452:344|481:359,2,60.5000018463135,0|0|0,0:0|0:0|0:0,0:0:0:0:
284,320,68907,1,4,0:0:0:0:
411,257,69019,2,0,P|445:246|477:243,2,60.5000018463135,0|0|0,0:0|0:0|0:0,0:0:0:0:
284,320,69355,1,8,1:2:0:0:
359,195,69467,2,0,P|383:167|410:150,2,60.5000018463135,0|0|0,0:0|0:0|0:0,0:0:0:0:
284,320,69802,1,4,0:0:0:0:
287,160,69914,2,0,P|295:123|310:94,2,60.5000018463135,0|0|0,0:0|0:0|0:0,0:0:0:0:
200,324,70250,5,8,1:2:0:0:
19,240,70362,1,2,0:0:0:0:
200,156,70474,1,2,0:0:0:0:
56,324,70586,5,2,0:0:0:0:
236,240,70698,1,4,0:0:0:0:
56,156,70810,1,2,0:0:0:0:
128,240,70922,37,2,0:0:0:0:
128,240,71034,1,2,0:0:0:0:
16,52,71146,5,0,0:0:0:0:
92,46,71258,1,0,0:0:0:0:
159,86,71370,1,0,0:0:0:0:
200,156,71482,2,0,L|320:112,1,121.000003692627
428,72,71817,37,0,0:0:0:0:
428,156,71929,1,0,0:0:0:0:
432,356,72041,5,4,1:0:0:0:
432,356,72265,38,0,L|420:224,1,121.000003692627,0|2,0:0|0:2,0:0:0:0:
512,324,72601,1,0,0:0:0:0:
348,320,72713,2,0,L|340:236,1,60.5000018463135,2|0,0:2|0:0,0:0:0:0:
256,228,72937,6,0,L|266:348,1,121.000003692627,8|2,0:2|0:2,0:0:0:0:
342,259,73273,1,0,0:0:0:0:
176,256,73385,2,0,L|181:316,1,60.5000018463135,2|0,0:2|0:0,0:0:0:0:
104,356,73608,38,0,L|93:235,1,121.000003692627,0|2,0:0|0:2,0:0:0:0:
181,316,73944,1,0,0:0:0:0:
20,324,74056,2,0,L|13:260,1,60.5000018463135,4|0,0:0|0:0,0:0:0:0:
37,52,74280,21,4,0:0:0:0:
109,84,74392,1,0,0:0:0:0:
181,52,74504,1,2,0:2:0:0:
253,84,74616,1,0,0:0:0:0:
325,52,74728,1,8,0:2:0:0:
181,52,74952,22,0,L|173:116,1,60.5000018463135,2|0,0:2|0:0,0:0:0:0:
181,316,75176,2,0,L|173:252,1,60.5000018463135,2|0,0:2|0:0,0:0:0:0:
237,184,75400,1,0,0:0:0:0:
117,184,75511,1,0,0:0:0:0:
349,184,75623,5,4,1:0:0:0:
349,184,75847,2,0,P|352:224|360:248,1,60.5000018463135
512,272,76071,5,2,0:2:0:0:
440,244,76183,1,0,0:0:0:0:
364,264,76295,1,2,0:2:0:0:
296,308,76407,1,0,0:0:0:0:
224,340,76519,1,2,0:2:0:0:
224,340,76631,2,0,P|188:344|160:336,1,60.5000018463135,0|8,0:0|0:2,0:0:0:0:
96,296,76855,2,0,P|92:256|96:232,1,60.5000018463135,0|2,0:2|0:2,0:0:0:0:
108,156,77079,2,0,L|144:96,1,60.5000018463135
196,48,77302,1,0,0:0:0:0:
196,48,77414,6,0,P|232:44|264:48,1,60.5000018463135,2|0,0:2|0:0,0:0:0:0:
332,72,77638,2,0,P|372:76|396:72,1,60.5000018463135,4|0,0:0|0:0,0:0:0:0:
468,52,77862,1,4,0:0:0:0:
444,128,77974,1,0,0:0:0:0:
472,204,78086,1,2,0:2:0:0:
448,280,78198,1,0,0:0:0:0:
480,352,78310,2,0,P|440:344|416:344,1,60.5000018463135
348,356,78534,1,2,0:0:0:0:
276,376,78646,1,0,0:0:0:0:
208,352,78758,2,0,P|192:292|216:236,1,121.000003692627,2|2,0:2|0:0,0:0:0:0:
264,184,79094,1,0,0:0:0:0:
51,122,79205,5,4,1:0:0:0:
51,122,79429,5,0,0:0:0:0:
139,213,79579,1,0,0:0:0:0:
14,243,79728,1,0,0:0:0:0:
264,184,79877,2,0,L|220:136,1,60.5000018463135,2|0,0:2|0:0,0:0:0:0:
181,94,80101,1,8,0:2:0:0:
301,63,80250,1,0,0:0:0:0:
390,155,80400,1,0,0:0:0:0:
264,184,80549,1,2,0:2:0:0:
412,312,80698,2,0,L|400:196,1,80.6666691284181
382,74,80997,38,0,L|390:162,2,80.6666691284181,2|0|0,0:2|0:0|0:0,0:0:0:0:
264,184,81444,1,4,0:0:0:0:
331,318,81594,2,0,L|423:310,1,80.6666691284181
389,154,81892,1,8,0:2:0:0:
181,94,82041,1,0,0:0:0:0:
301,63,82191,1,0,0:0:0:0:
264,184,82340,2,0,L|171:184,2,80.6666691284181
74,180,82788,6,0,L|35:272,1,80.6666691284181,4|0,0:0|0:0,0:0:0:0:
107,368,83086,1,0,0:0:0:0:
183,184,83235,2,0,L|144:276,1,80.6666691284181,4|0,0:0|0:0,0:0:0:0:
217,374,83534,1,0,0:0:0:0:
294,189,83683,38,0,L|255:281,1,80.6666691284181,8|0,1:2|0:0,0:0:0:0:
327,378,83982,1,0,0:0:0:0:
404,193,84131,2,0,L|365:285,1,80.6666691284181,4|0,0:0|0:0,0:0:0:0:
437,383,84429,1,0,0:0:0:0:
404,193,84579,38,0,L|396:132,1,60.5000018463135,8|2,1:2|0:0,0:0:0:0:
356,56,84802,1,2,0:0:0:0:
356,56,84914,1,2,0:0:0:0:
283,79,85026,1,0,0:0:0:0:
283,79,85138,2,0,P|242:75|211:83,1,60.5000018463135,2|2,0:0|0:0,0:0:0:0:
156,120,85362,1,0,0:0:0:0:
76,128,85474,1,0,0:0:0:0:
4,96,85586,1,0,0:0:0:0:
79,67,85698,6,0,L|75:135,1,60.5000018463135,0|0,0:0|0:0,0:0:0:0:
168,336,85922,2,0,L|164:268,1,60.5000018463135,0|0,0:0|0:0,0:0:0:0:
72,256,86146,5,0,1:0:0:0:
68,340,86258,1,0,1:0:0:0:
160,176,86370,5,4,1:0:0:0:
236,156,86482,1,0,0:0:0:0:
312,180,86594,1,0,0:0:0:0:
352,248,86705,1,0,0:0:0:0:
348,328,86817,1,2,0:2:0:0:
304,260,86929,1,0,0:0:0:0:
312,180,87041,1,2,0:2:0:0:
376,132,87153,1,0,0:0:0:0:
456,128,87265,5,8,0:2:0:0:
436,52,87377,1,0,0:0:0:0:
368,8,87489,1,2,0:2:0:0:
288,16,87601,1,0,0:0:0:0:
236,72,87713,1,2,0:2:0:0:
236,72,87825,1,0,0:0:0:0:
236,72,87937,2,0,L|172:64,1,60.5000018463135
96,64,88161,38,0,P|80:96|76:128,1,60.5000018463135,2|0,0:2|0:0,0:0:0:0:
32,184,88385,2,0,P|34:219|46:249,1,60.5000018463135,4|0,0:0|0:0,0:0:0:0:
120,232,88608,1,4,0:0:0:0:
200,224,88720,1,0,0:0:0:0:
208,304,88832,1,2,0:2:0:0:
128,312,88944,1,0,0:0:0:0:
120,232,89056,22,0,L|112:164,1,60.5000018463135,8|0,0:2|0:0,0:0:0:0:
288,124,89280,2,0,L|296:185,1,60.5000018463135,2|0,0:2|0:0,0:0:0:0:
316,300,89504,1,2,0:2:0:0:
316,300,89616,1,0,0:0:0:0:
380,384,89728,1,0,0:0:0:0:
380,384,89840,1,0,0:0:0:0:
440,303,89952,5,0,0:0:0:0:
506,240,90064,2,0,L|452:182,1,60.5000018463135,4|0,1:0|0:0,0:0:0:0:
316,300,90288,1,0,0:0:0:0:
382,238,90400,2,0,L|328:180,1,60.5000018463135,2|0,0:2|0:0,0:0:0:0:
189,307,90623,1,2,0:0:0:0:
256,244,90735,1,0,0:0:0:0:
169,218,90847,37,8,0:2:0:0:
169,218,90959,1,0,0:0:0:0:
100,280,91071,2,0,L|103:344,1,60.5000018463135,2|0,0:2|0:0,0:0:0:0:
255,243,91295,6,0,L|256:172,1,60.5000018463135,2|0,0:2|0:0,0:0:0:0:
112,120,91519,1,0,0:0:0:0:
112,120,91631,1,0,0:2:0:0:
112,120,91743,5,2,0:2:0:0:
160,60,91855,1,0,0:0:0:0:
236,32,91967,1,4,0:0:0:0:
312,56,92079,1,0,0:0:0:0:
368,112,92191,1,4,0:0:0:0:
364,188,92302,1,0,0:0:0:0:
360,268,92414,1,2,0:2:0:0:
356,348,92526,1,0,0:0:0:0:
428,316,92638,21,8,0:2:0:0:
360,268,92750,1,0,0:0:0:0:
280,272,92862,2,0,L|224:308,1,60.5000018463135,2|0,0:0|0:0,0:0:0:0:
24,200,93086,1,2,0:2:0:0:
92,248,93198,1,2,0:0:0:0:
172,244,93310,2,0,L|236:204,1,60.5000018463135,2|0,0:2|0:0,0:0:0:0:
353,187,93534,6,0,L|359:267,1,80.6666691284181,4|0,1:0|0:0,0:0:0:0:
437,236,93832,2,0,L|503:190,1,80.6666691284181,0|2,0:0|0:2,0:0:0:0:
432,133,94131,2,0,L|358:98,1,80.6666691284181
136,40,94429,21,8,0:2:0:0:
76,92,94541,1,0,0:0:0:0:
64,168,94653,1,2,0:2:0:0:
104,236,94765,1,0,0:0:0:0:
176,272,94877,2,0,P|216:264|244:268,1,60.5000018463135,2|0,0:2|0:0,0:0:0:0:
312,280,95101,2,0,P|348:284|372:280,1,60.5000018463135,0|0,0:0|0:0,0:0:0:0:
448,264,95325,37,2,0:2:0:0:
428,188,95437,1,0,0:0:0:0:
460,116,95549,1,4,0:0:0:0:
448,40,95661,1,0,0:0:0:0:
384,84,95773,1,4,0:0:0:0:
308,104,95885,1,0,0:0:0:0:
232,84,95997,1,2,0:2:0:0:
176,28,96108,1,0,0:0:0:0:
156,104,96220,2,0,P|134:127|106:145,1,60.5000018463135,8|0,0:2|0:0,0:0:0:0:
152,212,96444,2,0,P|121:221|88:223,1,60.5000018463135,2|2,0:2|0:0,0:0:0:0:
96,304,96668,2,0,P|64:296|35:282,1,60.5000018463135,0|0,0:0|0:0,0:0:0:0:
16,208,96892,1,0,0:0:0:0:
16,208,97004,1,0,0:0:0:0:
156,104,97116,22,0,L|120:30,1,80.6666691284181,4|0,0:0|0:0,0:0:0:0:
251,107,97414,2,0,L|206:173,1,80.6666691284181,0|4,0:0|0:0,0:0:0:0:
208,28,97713,2,0,L|288:33,1,80.6666691284181
460,80,98011,21,8,1:2:0:0:
420,148,98123,1,0,0:0:0:0:
384,216,98235,1,0,0:0:0:0:
344,284,98347,1,0,0:0:0:0:
308,212,98459,1,4,0:0:0:0:
384,216,98571,1,0,0:0:0:0:
424,284,98683,1,0,0:0:0:0:
388,356,98795,1,0,0:0:0:0:
308,348,98907,5,8,1:2:0:0:
308,348,99019,1,2,0:0:0:0:
228,340,99131,1,2,0:0:0:0:
228,340,99243,1,2,0:0:0:0:
148,328,99355,1,4,0:0:0:0:
148,328,99467,1,2,0:0:0:0:
72,316,99579,2,0,L|68:240,1,60.5000018463135,2|0,0:0|0:0,0:0:0:0:
76,68,99802,6,0,P|136:92|208:72,1,121.000003692627
268,60,100138,1,0,0:0:0:0:
344,36,100250,2,0,P|356:72|364:108,1,60.5000018463135
371,191,100474,2,0,P|361:219|354:249,2,60.5000018463135,0|0|4,0:0|0:0|1:0,0:0:0:0:
472,88,100810,1,0,0:0:0:0:
472,88,100922,21,0,0:0:0:0:
444,164,101034,1,0,0:0:0:0:
372,192,101146,1,2,0:2:0:0:
296,180,101258,1,0,0:0:0:0:
220,156,101370,1,2,0:2:0:0:
144,168,101482,1,0,0:0:0:0:
96,232,101594,1,8,0:2:0:0:
112,308,101705,1,0,0:0:0:0:
176,356,101817,1,2,0:2:0:0:
256,348,101929,1,0,0:0:0:0:
304,284,102041,2,0,P|308:244|300:204,2,60.5000018463135,2|0|0,0:2|0:0|0:0,0:0:0:0:
144,168,102377,1,0,0:0:0:0:
144,168,102489,22,0,P|180:172|208:164,1,60.5000018463135,2|0,0:2|0:0,0:0:0:0:
300,156,102713,1,4,0:0:0:0:
300,156,102825,1,0,0:0:0:0:
316,72,102937,2,0,P|344:80|372:104,1,60.5000018463135,4|0,0:0|0:0,0:0:0:0:
320,236,103161,2,0,P|348:228|376:204,1,60.5000018463135,2|0,0:2|0:0,0:0:0:0:
404,8,103385,2,0,P|428:40|436:68,1,60.5000018463135,8|0,0:2|0:0,0:0:0:0:
408,300,103608,2,0,P|432:268|440:240,1,60.5000018463135,2|0,0:2|0:0,0:0:0:0:
504,152,103832,1,2,0:2:0:0:
504,152,103944,1,0,0:0:0:0:
504,152,104056,2,0,L|416:152,1,60.5000018463135,0|0,0:0|0:0,0:0:0:0:
244,196,104280,6,0,P|236:228|236:260,1,60.5000018463135,4|0,1:0|0:0,0:0:0:0:
248,332,104504,1,0,0:0:0:0:
248,332,104616,2,0,P|288:344|320:344,2,60.5000018463135,0|2|0,0:0|0:2|0:0,0:0:0:0:
180,292,104952,1,2,0:2:0:0:
100,288,105064,1,0,0:0:0:0:
28,324,105176,5,8,0:2:0:0:
100,288,105288,1,0,0:0:0:0:
120,212,105400,1,2,0:2:0:0:
92,140,105511,1,0,0:0:0:0:
44,76,105623,2,0,P|76:60|108:52,1,60.5000018463135,2|0,0:2|0:0,0:0:0:0:
180,40,105847,6,0,P|224:32|260:28,1,60.5000018463135
408,76,106071,37,2,0:2:0:0:
360,140,106183,1,0,0:0:0:0:
364,220,106295,1,4,0:0:0:0:
424,272,106407,1,0,0:0:0:0:
504,268,106519,1,4,0:0:0:0:
448,212,106631,1,0,0:0:0:0:
364,220,106743,1,2,0:2:0:0:
304,268,106855,1,0,0:0:0:0:
236,312,106967,2,0,P|196:316|164:312,1,60.5000018463135,8|0,0:2|0:0,0:0:0:0:
104,284,107191,2,0,P|88:248|80:200,2,60.5000018463135,2|0|2,0:0|0:0|0:2,0:0:0:0:
108,368,107526,21,2,0:0:0:0:
208,120,107750,1,0,0:0:0:0:
292,40,107862,6,0,L|396:32,1,80.6666691284181
472,100,108161,1,0,0:0:0:0:
308,152,108310,2,0,L|412:144,1,80.6666691284181,0|0,0:0|0:0,0:0:0:0:
488,212,108608,1,0,0:0:0:0:
364,284,108758,38,0,B|360:328|360:328|368:376,2,80.6666691284181,8|0|0,0:2|0:0|0:0,0:0:0:0:
232,360,109205,2,0,B|237:324|237:324|233:280,2,80.6666691284181,0|0|0,0:0|0:0|0:0,0:0:0:0:
120,384,109653,2,0,B|112:340|112:340|120:308|120:308|112:260,1,121.000003692627
104,160,109952,1,0,0:0:0:0:
104,160,110101,5,0,0:0:0:0:
8,184,110250,1,0,0:0:0:0:
136,60,110400,1,0,0:0:0:0:
200,136,110549,37,8,0:2:0:0:
104,160,110698,1,0,0:2:0:0:
232,36,110847,1,0,0:0:0:0:
296,112,110997,5,0,0:0:0:0:
200,136,111146,1,0,0:0:0:0:
328,12,111295,1,0,0:0:0:0:
360,252,111444,38,0,L|376:156,1,80.6666691284181,4|0,0:0|0:0,0:0:0:0:
392,88,111743,1,0,0:0:0:0:
196,220,111892,6,0,L|292:236,1,80.6666691284181,4|0,0:0|0:0,0:0:0:0:
360,252,112191,1,0,0:0:0:0:
228,56,112340,38,0,L|212:152,1,80.6666691284181,8|0,1:2|0:0,0:0:0:0:
196,220,112638,1,0,0:0:0:0:
392,88,112788,6,0,L|296:72,1,80.6666691284181,4|0,0:0|0:0,0:0:0:0:
228,56,113086,1,0,0:0:0:0:
136,288,113235,37,8,1:2:0:0:
212,300,113347,1,2,0:0:0:0:
272,248,113459,2,0,P|276:212|268:176,1,60.5000018463135,2|0,0:0|0:0,0:0:0:0:
28,244,113683,1,2,0:0:0:0:
28,244,113795,1,2,0:0:0:0:
28,244,113907,1,2,0:0:0:0:
244,380,114131,1,2,0:0:0:0:
176,120,114355,1,2,0:0:0:0:
176,120,114467,1,2,0:0:0:0:
244,380,114691,1,2,0:0:0:0:
316,352,114802,1,0,1:0:0:0:
388,324,114914,1,0,1:0:0:0:
464,296,115026,5,4,1:0:0:0:
412,104,115250,1,0,0:0:0:0:
228,144,115474,1,2,0:2:0:0:
228,144,115586,1,0,0:0:0:0:
228,144,115698,2,0,L|276:92,1,60.5000018463135,2|0,0:2|0:0,0:0:0:0:
348,48,115922,2,0,P|416:24|472:44,1,121.000003692627,8|0,0:2|0:0,0:0:0:0:
488,136,116258,1,0,0:0:0:0:
488,136,116370,2,0,P|412:184|336:140,1,181.500005538941,2|0,0:2|0:0,0:0:0:0:
264,64,117041,37,4,0:3:0:0:
28,192,117265,1,4,0:3:0:0:
104,24,117489,1,0,0:0:0:0:
104,24,117601,1,0,0:0:0:0:
104,24,117713,2,0,B|112:68|112:68|104:148,1,121.000003692627,8|2,0:2|0:2,0:0:0:0:
92,308,118161,1,2,0:2:0:0:
92,308,118273,1,0,0:0:0:0:
92,308,118385,2,0,L|152:300,1,60.5000018463135,0|0,0:0|0:0,0:0:0:0:
296,280,118608,5,4,0:0:0:0:
92,308,118832,2,0,L|236:288,1,121.000003692627,2|2,0:2|0:2,0:0:0:0:
296,280,119168,1,0,0:0:0:0:
296,280,119280,1,2,0:2:0:0:
296,280,119392,1,0,0:0:0:0:
296,280,119504,2,0,P|300:212|276:144,1,121.000003692627,8|0,0:2|0:0,0:0:0:0:
248,88,119840,1,0,0:0:0:0:
248,88,119952,2,0,L|128:80,1,121.000003692627,2|2,0:2|0:2,0:0:0:0:
308,20,120400,37,2,0:2:0:0:
492,84,120623,1,4,0:0:0:0:
492,84,120735,1,0,0:0:0:0:
492,84,120847,2,0,P|504:136|492:204,1,121.000003692627,4|0,0:0|0:0,0:0:0:0:
448,280,121295,1,8,0:2:0:0:
340,368,121519,6,0,L|348:248,1,121.000003692627,2|0,0:2|0:0,0:0:0:0:
268,156,121855,2,0,L|260:276,1,121.000003692627,2|0,0:2|0:0,0:0:0:0:
192,356,122191,37,4,1:0:0:0:
64,284,122414,2,0,B|56:208|56:208|72:160,1,121.000003692627,2|0,0:2|0:0,0:0:0:0:
208,20,122862,2,0,B|216:96|216:96|200:144,1,121.000003692627,2|8,0:2|0:2,0:0:0:0:
100,80,123310,1,2,0:2:0:0:
168,220,123534,1,2,0:2:0:0:
168,220,123646,1,0,0:0:0:0:
168,220,123758,2,0,L|236:216,1,60.5000018463135,2|0,0:2|0:0,0:0:0:0:
424,212,123982,6,0,L|301:216,1,121.000003692627,2|4,0:2|0:0,0:0:0:0:
248,136,124317,1,0,0:0:0:0:
248,136,124429,2,0,L|316:132,1,60.5000018463135,4|0,0:0|0:0,0:0:0:0:
388,128,124653,2,0,L|456:124,1,60.5000018463135,2|0,0:0|0:0,0:0:0:0:
408,40,124877,38,0,L|285:44,1,121.000003692627,8|0,0:2|0:0,0:0:0:0:
120,48,125325,1,2,0:0:0:0:
20,228,125549,1,2,0:0:0:0:
40,144,125773,5,4,0:0:0:0:
40,144,125885,1,0,0:0:0:0:
40,144,125997,2,0,L|48:216,1,60.5000018463135
172,280,126220,37,4,0:0:0:0:
172,280,126332,1,0,0:0:0:0:
172,280,126444,2,0,L|178:219,1,60.5000018463135
280,84,126668,5,8,1:2:0:0:
280,84,126780,1,0,0:0:0:0:
280,84,126892,2,0,L|288:156,1,60.5000018463135
360,332,127116,37,4,0:0:0:0:
360,332,127228,1,0,0:0:0:0:
360,332,127340,2,0,L|366:271,1,60.5000018463135
432,32,127564,5,8,0:2:0:0:
452,108,127676,1,2,0:0:0:0:
472,184,127788,1,2,0:0:0:0:
492,260,127900,1,2,0:0:0:0:
512,336,128011,2,0,L|436:340,1,60.5000018463135,2|0,0:0|0:0,0:0:0:0:
248,276,128235,2,0,L|308:273,1,60.5000018463135,2|0,0:0|0:0,0:0:0:0:
492,260,128459,37,2,0:0:0:0:
320,120,128683,1,2,0:0:0:0:
320,120,128795,1,2,0:0:0:0:
48,244,129019,1,2,0:0:0:0:
128,236,129131,1,0,1:0:0:0:
208,224,129243,1,0,1:0:0:0:
288,212,129355,5,4,1:0:0:0:
288,368,129579,1,0,0:0:0:0:
135,296,129802,1,2,0:2:0:0:
135,296,129914,1,0,0:0:0:0:
135,296,130026,2,0,L|127:228,1,60.5000018463135
116,152,130250,2,0,B|112:72|112:72|140:32,1,121.000003692627,8|2,0:2|0:2,0:0:0:0:
256,38,130586,1,0,0:0:0:0:
256,38,130698,2,0,B|280:72|280:72|276:184,1,151.250004615784,2|0,0:2|0:0,0:0:0:0:
264,336,131370,37,4,0:0:0:0:
488,264,131594,1,4,0:0:0:0:
488,264,131705,1,0,0:0:0:0:
488,264,131817,1,0,0:0:0:0:
380,368,132041,2,0,B|376:320|376:320|384:296|384:296|380:240,1,121.000003692627,8|2,0:2|0:2,0:0:0:0:
268,127,132489,1,2,0:2:0:0:
268,127,132601,1,0,0:0:0:0:
268,127,132713,2,0,L|264:63,1,60.5000018463135,2|0,0:2|0:0,0:0:0:0:
268,8,132937,6,0,B|264:56|264:56|272:80|272:80|268:136,1,121.000003692627,4|2,0:0|0:2,0:0:0:0:
264,220,133273,1,0,0:0:0:0:
264,220,133385,1,2,0:2:0:0:
264,220,133497,1,0,0:0:0:0:
264,220,133608,1,2,0:2:0:0:
264,220,133720,1,0,0:0:0:0:
264,220,133832,2,0,P|200:236|140:228,1,121.000003692627,8|2,0:2|0:0,0:0:0:0:
92,176,134168,1,0,0:0:0:0:
92,176,134280,2,0,L|88:48,1,121.000003692627,2|0,0:2|0:0,0:0:0:0:
8,192,134728,37,2,0:0:0:0:
76,348,134952,1,4,0:0:0:0:
76,348,135064,1,0,0:0:0:0:
76,348,135176,2,0,P|144:352|200:332,1,121.000003692627,4|0,0:0|0:0,0:0:0:0:
288,288,135623,1,8,0:2:0:0:
468,196,135847,6,0,B|416:192|416:192|392:200|392:200|348:196,1,121.000003692627,2|0,0:2|0:0,0:0:0:0:
208,112,136183,2,0,B|252:116|252:116|276:108|276:108|328:112,1,121.000003692627,2|0,0:2|0:0,0:0:0:0:
440,96,136519,37,4,1:0:0:0:
268,184,136743,2,0,B|208:196|208:196|136:180,1,121.000003692627,2|0,0:2|0:0,0:0:0:0:
144,44,137191,2,0,B|204:32|204:32|276:48,1,121.000003692627,2|8,0:2|0:2,0:0:0:0:
340,112,137638,1,2,0:2:0:0:
64,112,137862,1,2,0:2:0:0:
64,112,137974,1,0,0:0:0:0:
64,112,138086,2,0,L|68:176,1,60.5000018463135,2|0,0:2|0:0,0:0:0:0:
80,364,138310,6,0,L|72:236,1,121.000003692627,2|4,0:2|0:0,0:0:0:0:
152,176,138646,1,0,0:0:0:0:
152,176,138758,2,0,L|156:244,1,60.5000018463135,4|0,0:0|0:0,0:0:0:0:
160,316,138982,2,0,L|164:384,1,60.5000018463135,2|0,0:2|0:0,0:0:0:0:
248,360,139205,38,0,L|240:232,1,121.000003692627,8|0,0:2|0:0,0:0:0:0:
280,140,139653,1,2,0:2:0:0:
480,260,139877,1,2,0:2:0:0:
456,100,140101,5,4,0:0:0:0:
456,100,140213,1,0,0:0:0:0:
456,100,140325,2,0,L|452:164,1,60.5000018463135
356,272,140549,37,4,0:0:0:0:
356,272,140661,1,0,0:0:0:0:
356,272,140773,2,0,L|352:211,1,60.5000018463135
240,72,140997,5,8,1:2:0:0:
240,72,141108,1,0,0:0:0:0:
240,72,141220,2,0,L|236:136,1,60.5000018463135
144,308,141444,37,4,0:0:0:0:
144,308,141556,1,0,0:0:0:0:
144,308,141668,2,0,L|140:247,1,60.5000018463135
60,27,141892,5,8,1:2:0:0:
52,104,142004,1,2,0:0:0:0:
44,184,142116,1,2,0:0:0:0:
36,264,142228,1,2,0:0:0:0:
28,344,142340,38,0,L|96:340,1,60.5000018463135,2|0,0:0|0:0,0:0:0:0:
296,168,142564,2,0,L|235:171,1,60.5000018463135,2|0,0:0|0:0,0:0:0:0:
44,184,142788,5,2,0:0:0:0:
256,368,143011,1,2,0:0:0:0:
256,368,143123,1,2,0:0:0:0:
188,68,143347,1,2,0:0:0:0:
260,96,143459,1,0,1:0:0:0:
332,124,143571,1,0,1:0:0:0:
408,152,143683,22,0,P|416:184|416:224,1,60.5000018463135,4|0,1:0|0:0,0:0:0:0:
404,288,143907,1,0,0:0:0:0:
256,368,144019,6,0,L|248:300,1,60.5000018463135,0|2,0:0|0:2,0:0:0:0:
320,260,144243,1,0,0:0:0:0:
176,340,144355,2,0,L|168:272,1,60.5000018463135,2|0,0:2|0:0,0:0:0:0:
240,232,144579,1,8,0:2:0:0:
96,312,144691,2,0,L|88:244,1,60.5000018463135,0|2,0:0|0:2,0:0:0:0:
160,204,144914,1,0,0:0:0:0:
116,124,145026,6,0,B|180:96|184:136|244:116,1,121.000003692627,2|0,0:2|0:0,0:0:0:0:
324,96,145362,1,0,0:0:0:0:
404,52,145474,5,2,0:2:0:0:
404,52,145698,5,4,0:0:0:0:
332,16,145810,1,0,0:0:0:0:
252,16,145922,1,4,0:0:0:0:
180,44,146034,1,0,0:0:0:0:
128,104,146146,1,2,0:2:0:0:
204,124,146258,1,0,0:0:0:0:
240,196,146370,1,8,0:2:0:0:
232,276,146482,1,0,0:0:0:0:
172,328,146594,1,2,0:2:0:0:
96,336,146705,1,0,0:0:0:0:
28,272,146817,22,0,B|28:228|28:228|16:196|16:196|16:152,1,121.000003692627,2|0,0:2|0:0,0:0:0:0:
96,180,147153,1,0,0:0:0:0:
232,276,147265,6,0,P|272:276|308:284,1,60.5000018463135,4|0,1:0|0:0,0:0:0:0:
404,308,147489,1,0,0:0:0:0:
404,308,147601,1,0,0:0:0:0:
448,244,147713,1,2,0:2:0:0:
448,244,147825,1,0,0:0:0:0:
472,168,147937,1,2,0:2:0:0:
472,168,148049,1,0,0:0:0:0:
444,96,148161,2,0,P|400:88|376:88,1,60.5000018463135,8|0,0:2|0:0,0:0:0:0:
304,96,148385,2,0,P|272:100|236:96,1,60.5000018463135,2|0,0:2|0:0,0:0:0:0:
168,76,148608,2,0,P|124:68|100:68,1,60.5000018463135,2|0,0:2|0:0,0:0:0:0:
36,100,148832,1,0,0:0:0:0:
36,100,148944,1,0,0:0:0:0:
20,176,149056,6,0,P|24:208|20:244,1,60.5000018463135,2|0,0:2|0:0,0:0:0:0:
100,248,149280,2,0,P|87:277|66:306,1,60.5000018463135,4|0,0:0|0:0,0:0:0:0:
140,344,149504,2,0,P|114:363|81:378,1,60.5000018463135,4|0,0:0|0:0,0:0:0:0:
12,352,149728,1,2,0:2:0:0:
12,352,149840,1,0,0:0:0:0:
184,256,149952,22,0,B|232:252|232:252|256:260|256:260|304:256,1,121.000003692627,8|2,0:2|0:0,0:0:0:0:
140,344,150288,1,0,0:0:0:0:
140,344,150400,2,0,L|220:336,1,60.5000018463135,2|2,0:2|0:0,0:0:0:0:
328,332,150623,2,0,L|408:324,1,60.5000018463135,0|0,0:2|0:0,0:0:0:0:
472,172,150847,21,4,1:0:0:0:
436,100,150959,1,0,0:0:0:0:
364,68,151071,1,0,0:0:0:0:
284,76,151183,1,0,0:0:0:0:
212,108,151295,1,2,0:2:0:0:
136,88,151407,1,0,0:0:0:0:
64,40,151519,22,0,P|49:67|48:104,1,60.5000018463135,2|0,0:2|0:0,0:0:0:0:
52,192,151743,2,0,P|53:223|70:255,1,60.5000018463135,8|0,0:2|0:0,0:0:0:0:
252,372,151967,5,2,0:2:0:0:
196,312,152079,1,0,0:0:0:0:
256,252,152191,1,2,0:2:0:0:
256,252,152302,1,0,0:0:0:0:
332,272,152414,1,0,0:0:0:0:
332,272,152526,1,0,0:0:0:0:
408,256,152638,1,2,0:2:0:0:
408,256,152750,1,0,0:0:0:0:
432,100,152862,21,4,0:0:0:0:
400,28,152974,1,0,0:0:0:0:
324,12,153086,2,0,P|296:20|264:20,1,60.5000018463135,4|0,0:0|0:0,0:0:0:0:
180,28,153310,37,2,0:2:0:0:
368,316,153534,5,8,0:2:0:0:
384,240,153646,1,0,0:0:0:0:
456,272,153758,1,2,0:2:0:0:
436,348,153870,1,2,0:0:0:0:
368,316,153982,2,0,B|308:308|308:308|232:316,1,121.000003692627,0|0,0:0|0:0,0:0:0:0:
176,344,154317,1,0,0:0:0:0:
176,264,154429,5,4,0:0:0:0:
8,316,154541,2,0,P|36:305|66:301,2,60.5000018463135
176,264,154877,1,4,0:0:0:0:
19,205,154989,2,0,P|48:210|76:222,2,60.5000018463135
176,264,155325,1,8,1:2:0:0:
92,121,155437,2,0,P|115:140|133:164,2,60.5000018463135
176,264,155773,1,4,0:0:0:0:
193,77,155885,2,0,P|203:105|207:135,2,60.5000018463135
288,144,156220,37,8,1:2:0:0:
356,172,156332,1,2,0:0:0:0:
428,168,156444,1,2,0:0:0:0:
496,136,156556,1,2,0:0:0:0:
364,28,156668,5,4,0:0:0:0:
360,100,156780,1,2,0:0:0:0:
356,172,156892,1,2,0:0:0:0:
352,244,157004,1,0,0:0:0:0:
180,352,157116,38,0,L|172:288,1,60.5000018463135,0|0,0:0|0:0,0:0:0:0:
160,212,157340,1,0,0:0:0:0:
20,232,157452,6,0,L|84:224,2,60.5000018463135,0|0|0,0:0|0:0|0:0,0:0:0:0:
67,118,157788,1,0,1:0:0:0:
161,14,157900,1,0,1:0:0:0:
80,36,158011,5,4,1:0:0:0:
144,92,158123,1,0,0:0:0:0:
224,96,158235,1,0,0:0:0:0:
296,64,158347,1,0,0:0:0:0:
352,8,158459,2,0,P|376:64|344:128,2,121.000003692627,2|2|8,0:2|0:2|0:2,0:0:0:0:
296,64,159019,1,0,0:0:0:0:
284,140,159131,2,0,P|304:172|328:192,1,60.5000018463135,2|0,0:2|0:0,0:0:0:0:
392,220,159355,2,0,P|423:233|446:250,1,60.5000018463135,2|0,0:2|0:0,0:0:0:0:
456,328,159579,1,0,0:0:0:0:
456,328,159691,1,0,0:0:0:0:
384,300,159802,2,0,P|349:292|316:292,1,60.5000018463135,2|0,0:0|0:0,0:0:0:0:
244,300,160026,21,4,0:0:0:0:
259,384,160138,1,0,0:0:0:0:
178,359,160250,2,0,B|154:316|154:316|150:287|150:287|125:242,1,121.000003692627,4|2,0:0|0:2,0:0:0:0:
244,300,160586,1,0,0:0:0:0:
102,384,160698,2,0,B|78:341|78:341|74:312|74:312|49:267,1,121.000003692627,8|2,0:2|0:2,0:0:0:0:
244,300,161034,1,0,0:0:0:0:
312,220,161146,5,2,0:2:0:0:
312,220,161258,1,0,0:0:0:0:
416,240,161370,1,0,0:0:0:0:
416,240,161482,1,0,0:0:0:0:
380,320,161594,6,0,P|348:308|316:304,1,60.5000018463135,4|0,1:0|0:0,0:0:0:0:
244,300,161817,1,0,0:0:0:0:
168,312,161929,1,0,0:0:0:0:
112,368,162041,1,2,0:2:0:0:
112,368,162153,1,0,0:0:0:0:
168,312,162265,1,2,0:2:0:0:
152,236,162377,1,0,0:0:0:0:
84,196,162489,1,8,0:2:0:0:
8,212,162601,1,0,0:0:0:0:
8,212,162713,2,0,P|0:168|0:140,1,60.5000018463135,2|0,0:2|0:0,0:0:0:0:
24,76,162937,2,0,P|48:56|84:44,1,60.5000018463135,2|0,0:2|0:0,0:0:0:0:
152,36,163161,2,0,P|204:36|228:44,1,60.5000018463135,0|0,0:0|0:0,0:0:0:0:
284,76,163385,5,2,0:2:0:0:
360,92,163497,1,0,0:0:0:0:
436,72,163608,1,4,0:0:0:0:
476,4,163720,1,0,0:0:0:0:
476,4,163832,1,4,0:0:0:0:
436,72,163944,1,0,0:0:0:0:
436,152,164056,1,2,0:2:0:0:
460,228,164168,1,0,0:0:0:0:
384,212,164280,1,8,0:2:0:0:
304,208,164392,1,0,0:0:0:0:
240,256,164504,2,0,P|224:292|224:320,1,60.5000018463135,2|0,0:0|0:0,0:0:0:0:
144,316,164728,2,0,P|140:286|127:259,1,60.5000018463135,2|0,0:2|0:0,0:0:0:0:
48,276,164952,1,2,0:2:0:0:
48,276,165064,1,0,0:0:0:0:
41,178,165213,6,0,P|109:186|153:170,1,100.833336410523,2|0,0:2|0:0,0:0:0:0:
76,80,165511,1,0,0:0:0:0:
140,178,165661,2,0,P|208:168|260:190,1,121.000003692627,2|0,0:2|0:0,0:0:0:0:
192,286,165996,1,0,0:0:0:0:
256,187,166146,2,0,P|316:194|363:176,1,100.833336410523,2|0,0:2|0:0,0:0:0:0:
308,79,166444,1,0,0:0:0:0:
353,181,166594,2,0,P|430:171|489:194,1,141.166670974732,2|0,0:2|0:0,0:0:0:0:
424,285,166967,21,2,0:2:0:0:
348,264,167079,1,0,0:0:0:0:
272,276,167191,1,4,0:0:0:0:
212,324,167302,1,0,0:0:0:0:
136,336,167414,1,4,0:0:0:0:
72,292,167526,1,0,0:0:0:0:
56,216,167638,1,2,0:2:0:0:
88,144,167750,1,0,0:0:0:0:
160,108,167862,2,0,P|196:100|232:100,1,60.5000018463135,8|0,0:2|0:0,0:0:0:0:
220,180,168086,2,0,P|255:191|286:209,1,60.5000018463135,2|2,0:2|0:0,0:0:0:0:
348,236,168310,1,0,0:0:0:0:
428,228,168422,1,0,0:0:0:0:
476,164,168534,1,0,0:0:0:0:
480,84,168646,1,0,0:0:0:0:
432,20,168758,6,0,P|400:20|368:12,1,60.5000018463135,4|0,0:0|0:0,0:0:0:0:
344,88,168982,2,0,P|316:72|292:49,1,60.5000018463135,0|0,0:0|0:0,0:0:0:0:
236,104,169205,2,0,P|220:76|210:44,1,60.5000018463135,4|0,0:0|0:0,0:0:0:0:
133,61,169429,2,0,P|132:29|141:-3,1,60.5000018463135,0|0,0:0|0:0,0:0:0:0:
60,12,169653,2,0,P|49:47|48:92,1,60.5000018463135,8|0,1:2|0:0,0:0:0:0:
60,148,169877,2,0,P|68:183|89:223,1,60.5000018463135,0|0,0:0|0:0,0:0:0:0:
132,264,170101,2,0,P|157:290|195:314,1,60.5000018463135,4|0,0:0|0:0,0:0:0:0:
249,331,170325,2,0,P|284:341|328:343,1,60.5000018463135,0|0,0:0|0:0,0:0:0:0:
388,344,170549,37,8,1:2:0:0:
388,344,170773,5,0,0:0:0:0:
352,276,170885,1,0,0:0:0:0:
352,196,170997,1,0,0:0:0:0:
376,120,171108,1,0,0:0:0:0:
432,64,171220,1,0,0:0:0:0:
376,120,171332,1,0,0:0:0:0:
312,76,171444,1,0,0:0:0:0:
244,116,171556,1,0,0:0:0:0:
176,80,171668,1,0,0:0:0:0:
184,160,171780,1,0,0:0:0:0:
160,236,171892,1,0,0:0:0:0:
96,280,172004,1,0,0:0:0:0:
20,292,172116,5,0,1:0:0:0:
12,208,172228,1,0,1:0:0:0:
0,64,172340,21,4,1:0:0:0:
76,84,172452,1,0,0:0:0:0:
152,56,172564,1,0,0:0:0:0:
216,8,172676,1,0,0:0:0:0:
224,88,172788,1,2,0:2:0:0:
232,168,172900,1,0,0:0:0:0:
240,244,173011,1,2,0:2:0:0:
248,324,173123,1,0,0:0:0:0:
316,284,173235,5,8,0:2:0:0:
316,284,173347,1,0,0:0:0:0:
396,280,173459,1,2,0:2:0:0:
396,280,173571,1,0,0:0:0:0:
468,312,173683,1,2,0:2:0:0:
468,312,173795,1,0,0:0:0:0:
508,380,173907,1,0,0:0:0:0:
508,380,174019,1,0,0:0:0:0:
468,312,174131,37,2,0:2:0:0:
464,232,174243,1,0,0:0:0:0:
460,152,174355,1,4,0:0:0:0:
456,72,174467,1,0,0:0:0:0:
392,116,174579,1,4,0:0:0:0:
312,124,174691,1,0,0:0:0:0:
244,88,174802,1,2,0:2:0:0:
252,168,174914,1,0,0:0:0:0:
260,248,175026,1,8,0:2:0:0:
188,216,175138,1,0,0:0:0:0:
108,212,175250,1,2,0:2:0:0:
40,256,175362,1,0,0:0:0:0:
40,256,175474,22,0,P|48:220|48:188,1,60.5000018463135,2|0,0:2|0:0,0:0:0:0:
208,40,175698,1,0,0:0:0:0:
208,40,175810,1,0,0:0:0:0:
208,40,175922,21,4,1:0:0:0:
216,120,176034,1,0,0:0:0:0:
280,168,176146,1,0,0:0:0:0:
356,152,176258,1,0,0:0:0:0:
404,88,176370,2,0,P|408:52|400:20,1,60.5000018463135,2|0,0:2|0:0,0:0:0:0:
324,24,176594,2,0,P|320:64|328:92,1,60.5000018463135,2|0,0:2|0:0,0:0:0:0:
356,152,176817,1,8,0:2:0:0:
408,212,176929,1,0,0:0:0:0:
460,272,177041,1,2,0:2:0:0:
384,284,177153,1,0,0:0:0:0:
320,332,177265,2,0,L|244:328,1,60.5000018463135,2|0,0:2|0:0,0:0:0:0:
188,292,177489,2,0,L|116:288,1,60.5000018463135,0|0,0:0|0:0,0:0:0:0:
56,256,177713,5,2,0:2:0:0:
36,180,177825,1,0,0:0:0:0:
76,112,177937,1,4,0:0:0:0:
156,108,178049,1,0,0:0:0:0:
204,172,178161,1,4,0:0:0:0:
184,248,178273,1,0,0:0:0:0:
184,328,178385,1,2,0:2:0:0:
252,368,178497,1,0,0:0:0:0:
328,348,178608,1,8,0:2:0:0:
352,272,178720,1,0,0:0:0:0:
344,192,178832,1,2,0:0:0:0:
328,116,178944,2,0,P|350:86|374:71,1,60.5000018463135,0|2,0:2|0:2,0:0:0:0:
440,40,179168,1,0,0:0:0:0:
468,112,179280,1,0,0:2:0:0:
480,188,179392,2,0,P|480:232|472:256,1,60.5000018463135,0|4,0:0|1:0,0:0:0:0:
436,316,179616,37,0,0:0:0:0:
364,348,179728,2,0,P|320:352|296:348,1,60.5000018463135,0|0,0:0|0:0,0:0:0:0:
240,304,179952,1,2,0:2:0:0:
180,352,180064,2,0,P|136:356|112:352,1,60.5000018463135,0|2,0:0|0:2,0:0:0:0:
64,296,180288,1,0,0:0:0:0:
36,224,180400,2,0,P|40:196|52:164,1,60.5000018463135,8|0,0:2|0:0,0:0:0:0:
68,88,180623,2,0,P|97:71|131:68,1,60.5000018463135,2|0,0:2|0:0,0:0:0:0:
184,116,180847,2,0,P|183:149|168:180,1,60.5000018463135,2|0,0:2|0:0,0:0:0:0:
97,204,181071,2,0,P|67:186|48:158,1,60.5000018463135,0|0,0:0|0:0,0:0:0:0:
68,88,181295,5,2,0:2:0:0:
140,52,181407,1,0,0:0:0:0:
184,116,181519,1,4,0:0:0:0:
256,84,181631,1,0,0:0:0:0:
320,128,181743,1,4,0:0:0:0:
272,192,181855,1,0,0:0:0:0:
280,272,181967,1,2,0:2:0:0:
340,324,182079,1,0,0:0:0:0:
420,316,182191,1,8,0:2:0:0:
360,264,182302,1,0,0:0:0:0:
280,272,182414,1,2,0:2:0:0:
208,304,182526,1,2,0:0:0:0:
128,308,182638,2,0,P|96:304|72:288,1,60.5000018463135,0|0,0:0|0:0,0:0:0:0:
28,224,182862,2,0,P|24:192|28:156,1,60.5000018463135,0|0,0:0|0:0,0:0:0:0:
44,88,183086,37,4,0:0:0:0:
112,48,183198,1,0,0:0:0:0:
192,48,183310,1,0,0:0:0:0:
256,92,183422,1,0,0:0:0:0:
280,168,183534,1,4,0:0:0:0:
240,236,183646,1,0,0:0:0:0:
240,316,183758,1,0,0:0:0:0:
296,372,183870,1,0,0:0:0:0:
376,380,183982,1,8,1:2:0:0:
440,336,184094,1,0,0:0:0:0:
452,260,184205,1,0,0:0:0:0:
420,188,184317,1,0,0:0:0:0:
348,156,184429,2,0,L|276:164,1,60.5000018463135,4|0,0:0|0:0,0:0:0:0:
208,156,184653,2,0,L|136:164,1,60.5000018463135,0|0,0:0|0:0,0:0:0:0:
105,237,184877,21,8,1:2:0:0:
105,237,184989,1,2,0:0:0:0:
105,382,185101,1,2,0:0:0:0:
105,382,185213,1,2,0:0:0:0:
9,306,185325,1,4,0:0:0:0:
9,306,185437,1,2,0:0:0:0:
209,310,185549,1,2,0:0:0:0:
209,310,185661,1,0,0:0:0:0:
105,298,185773,6,0,L|105:234,2,60.5000018463135,0|0|0,0:0|0:0|0:0,0:0:0:0:
68,164,186108,1,0,0:0:0:0:
1,107,186220,2,0,P|26:87|63:78,1,60.5000018463135
200,100,186444,1,0,1:0:0:0:
268,164,186556,1,0,1:0:0:0:
252,24,186668,2,0,P|196:16|132:40,1,121.000003692627,0|0,0:0|0:0,0:0:0:0:
200,100,187004,1,0,0:0:0:0:
268,164,187116,37,0,0:0:0:0:
268,164,187228,1,0,0:0:0:0:
432,120,187340,5,0,0:0:0:0:
432,120,187452,1,0,0:0:0:0:
352,72,187564,5,8,0:2:0:0:
352,152,187676,1,0,0:0:0:0:
352,232,187788,1,2,0:2:0:0:
428,216,187900,1,0,0:0:0:0:
496,252,188011,1,2,0:2:0:0:
508,328,188123,1,0,0:0:0:0:
452,384,188235,1,0,0:0:0:0:
444,304,188347,1,0,0:0:0:0:
496,252,188459,5,2,0:2:0:0:
492,172,188571,1,0,0:0:0:0:
440,112,188683,1,4,0:0:0:0:
360,104,188795,1,0,0:0:0:0:
284,128,188907,2,0,P|252:128|216:120,1,60.5000018463135,4|0,0:0|0:0,0:0:0:0:
144,112,189131,2,0,P|104:108|80:112,1,60.5000018463135,2|0,0:2|0:0,0:0:0:0:
24,160,189355,1,8,0:2:0:0:
12,236,189467,1,0,0:0:0:0:
64,292,189579,2,0,P|72:316|72:352,2,60.5000018463135,2|0|2,0:2|0:0|0:2,0:0:0:0:
116,232,189914,1,0,0:0:0:0:
192,208,190026,2,0,P|228:208|260:212,1,60.5000018463135,0|0,0:0|0:0,0:0:0:0:
324,244,190250,37,4,1:0:0:0:
344,168,190362,1,0,0:0:0:0:
360,92,190474,1,0,0:0:0:0:
381,16,190586,1,0,0:0:0:0:
419,84,190698,2,0,P|393:92|351:89,1,60.5000018463135
285,63,190922,2,0,P|248:59|223:60,1,60.5000018463135
117,74,191146,21,8,0:2:0:0:
37,82,191258,1,0,0:0:0:0:
117,74,191370,1,2,0:2:0:0:
37,82,191482,1,0,0:0:0:0:
0,223,191594,1,2,0:2:0:0:
96,214,191705,1,0,0:0:0:0:
0,223,191817,1,0,0:0:0:0:
96,214,191929,1,0,0:0:0:0:
144,140,192041,37,2,0:2:0:0:
188,204,192153,1,0,0:0:0:0:
188,284,192265,1,4,0:0:0:0:
152,356,192377,1,0,0:0:0:0:
72,364,192489,1,4,0:0:0:0:
112,296,192601,1,0,0:0:0:0:
188,284,192713,1,2,0:2:0:0:
264,304,192825,1,0,0:0:0:0:
344,304,192937,2,0,P|376:264|368:172,1,121.000003692627,8|2,0:2|0:0,0:0:0:0:
304,228,193273,1,0,0:0:0:0:
460,260,193385,22,0,P|464:224|460:196,1,60.5000018463135,2|2,0:2|0:0,0:0:0:0:
440,124,193608,1,0,0:0:0:0:
64,192,193832,1,4,1:0:0:0:
64,192,194056,5,0,0:0:0:0:
8,136,194168,1,0,0:0:0:0:
48,68,194280,1,2,0:2:0:0:
124,80,194392,1,0,0:0:0:0:
136,156,194504,21,2,0:2:0:0:
512,72,194728,1,8,0:2:0:0:
512,72,194952,21,2,0:2:0:0:
432,64,195064,1,0,0:0:0:0:
352,56,195176,1,2,0:2:0:0:
272,48,195288,1,0,0:0:0:0:
196,36,195400,21,0,0:0:0:0:
400,356,195623,1,2,0:2:0:0:
400,356,195847,21,4,0:0:0:0:
404,276,195959,1,0,0:0:0:0:
408,196,196071,21,4,0:0:0:0:
136,288,196295,1,2,0:2:0:0:
480,240,196519,1,8,0:2:0:0:
176,212,196743,21,2,0:2:0:0:
176,212,196855,2,0,P|176:172|172:148,2,60.5000018463135,2|0|0,0:0|0:0|0:0,0:0:0:0:
136,288,197191,1,0,0:0:0:0:
68,328,197302,1,0,0:0:0:0:
16,268,197414,5,4,0:0:0:0:
84,228,197526,1,0,0:0:0:0:
136,288,197638,1,0,0:0:0:0:
204,324,197750,1,0,0:0:0:0:
284,320,197862,1,4,0:0:0:0:
348,276,197974,1,0,0:0:0:0:
376,204,198086,1,0,0:0:0:0:
368,124,198198,1,0,0:0:0:0:
328,56,198310,2,0,P|296:48|260:48,1,60.5000018463135,8|0,1:2|0:0,0:0:0:0:
200,84,198534,1,0,0:0:0:0:
128,112,198646,1,0,0:0:0:0:
48,104,198758,1,4,0:0:0:0:
96,40,198870,1,0,0:0:0:0:
128,112,198982,1,0,0:0:0:0:
142,187,199094,1,0,0:0:0:0:
104,256,199205,21,8,1:2:0:0:
68,184,199317,1,2,0:0:0:0:
142,187,199429,1,2,0:0:0:0:
261,283,199541,37,2,0:0:0:0:
293,351,199653,1,4,0:0:0:0:
219,350,199765,1,2,0:0:0:0:
228,196,199877,2,0,L|256:132,1,60.5000018463135,2|2,0:0|0:0,0:0:0:0:
296,40,200101,5,2,0:0:0:0:
496,128,200325,1,2,0:0:0:0:
496,128,200437,1,2,0:0:0:0:
417,343,200661,1,2,0:0:0:0:
353,299,200773,1,0,1:0:0:0:
293,351,200885,1,0,1:0:0:0:
477,291,200997,37,4,1:0:0:0:
384,188,201220,2,0,B|371:126|371:126|377:68,1,121.000003692627,0|2,0:0|0:2,0:0:0:0:
224,64,201668,1,2,0:2:0:0:
224,64,201780,1,0,0:0:0:0:
224,64,201892,2,0,B|230:122|230:122|216:192,1,121.000003692627,8|0,0:2|0:0,0:0:0:0:
196,264,202228,1,0,0:0:0:0:
196,264,202340,2,0,P|108:288|72:216,1,181.500005538941,2|0,0:2|0:0,0:0:0:0:
96,92,203011,5,4,0:3:0:0:
284,248,203235,1,4,0:3:0:0:
284,248,203347,1,0,0:0:0:0:
284,248,203459,1,0,0:0:0:0:
440,220,203683,2,0,P|452:152|428:96,1,121.000003692627,8|2,0:2|0:2,0:0:0:0:
360,24,204131,1,2,0:2:0:0:
360,24,204243,1,0,0:0:0:0:
360,24,204355,2,0,L|360:88,1,60.5000018463135
392,292,204579,38,0,P|452:304|512:272,1,121.000003692627,4|2,0:0|0:2,0:0:0:0:
440,216,205026,1,2,0:2:0:0:
440,216,205138,1,0,0:0:0:0:
440,216,205250,1,2,0:2:0:0:
440,216,205362,1,0,0:0:0:0:
440,216,205474,6,0,P|380:204|320:236,1,121.000003692627,8|0,0:2|0:0,0:0:0:0:
288,296,205810,1,0,0:0:0:0:
288,296,205922,2,0,P|232:312|160:296,1,121.000003692627,2|2,0:2|0:2,0:0:0:0:
40,212,206370,37,2,0:2:0:0:
156,48,206594,1,4,0:0:0:0:
156,48,206705,1,0,0:0:0:0:
156,48,206817,1,4,0:0:0:0:
0,120,207041,1,0,0:0:0:0:
80,300,207265,5,8,0:2:0:0:
128,184,207489,2,0,B|204:172|204:172|264:184,1,121.000003692627,2|0,0:2|0:0,0:0:0:0:
292,296,207825,2,0,B|216:308|216:308|156:296,1,121.000003692627,2|0,0:2|0:0,0:0:0:0:
313,184,208161,37,4,1:0:0:0:
128,184,208385,2,0,P|120:236|152:296,1,121.000003692627,2|0,0:2|0:0,0:0:0:0:
292,296,208832,2,0,P|321:244|314:185,1,121.000003692627,2|8,0:2|0:2,0:0:0:0:
224,112,209280,1,2,0:2:0:0:
80,348,209504,1,2,0:2:0:0:
80,348,209616,1,0,0:0:0:0:
80,348,209728,1,2,0:2:0:0:
36,112,209952,5,2,0:2:0:0:
292,44,210176,1,4,0:0:0:0:
216,64,210288,1,0,0:0:0:0:
140,84,210400,1,4,0:0:0:0:
36,112,210623,1,2,0:0:0:0:
400,20,210847,1,8,0:2:0:0:
36,112,211071,1,0,0:0:0:0:
400,20,211295,2,0,P|416:80|404:140,1,121.000003692627,2|2,0:0|0:0,0:0:0:0:
364,220,211743,37,4,0:0:0:0:
364,220,211855,1,0,0:0:0:0:
364,220,211967,2,0,P|336:224|304:224,1,60.5000018463135
160,184,212191,5,4,0:0:0:0:
160,184,212302,1,0,0:0:0:0:
160,184,212414,2,0,P|188:180|220:180,1,60.5000018463135
332,84,212638,37,8,1:2:0:0:
332,84,212750,1,0,0:0:0:0:
332,84,212862,2,0,P|336:112|336:144,1,60.5000018463135
204,328,213086,5,4,0:0:0:0:
204,328,213198,1,0,0:0:0:0:
204,328,213310,2,0,P|200:300|200:268,1,60.5000018463135
416,348,213534,37,8,0:2:0:0:
448,276,213646,1,2,0:0:0:0:
448,196,213758,1,2,0:0:0:0:
400,136,213870,1,2,0:0:0:0:
324,112,213982,6,0,L|256:132,1,60.5000018463135,2|0,0:0|0:0,0:0:0:0:
200,267,214205,2,0,L|258:250,1,60.5000018463135,2|0,0:0|0:0,0:0:0:0:
448,196,214429,37,2,0:0:0:0:
184,164,214653,1,2,0:0:0:0:
184,164,214765,1,2,0:0:0:0:
336,240,214989,1,2,0:0:0:0:
368,312,215101,1,0,1:0:0:0:
336,384,215213,1,0,1:0:0:0:
368,168,215325,5,4,1:0:0:0:
508,96,215549,1,0,0:0:0:0:
316,36,215773,1,2,0:2:0:0:
316,36,215885,1,0,0:0:0:0:
316,36,215997,1,2,0:2:0:0:
316,36,216108,1,0,0:0:0:0:
316,36,216220,2,0,L|328:160,1,121.000003692627,8|2,0:2|0:2,0:0:0:0:
336,240,216556,1,0,0:0:0:0:
336,240,216668,2,0,B|275:243|275:243|244:227|244:227|183:230,1,151.250004615784,2|0,0:2|0:0,0:0:0:0:
0,128,217340,37,4,0:0:0:0:
164,44,217564,1,4,0:0:0:0:
164,44,217676,1,0,0:0:0:0:
164,44,217788,1,0,0:0:0:0:
124,152,218011,2,0,P|188:160|236:132,1,121.000003692627,8|2,0:2|0:2,0:0:0:0:
223,51,218459,1,2,0:2:0:0:
223,51,218571,1,0,0:0:0:0:
223,51,218683,2,0,L|163:43,1,60.5000018463135,2|0,0:2|0:0,0:0:0:0:
47,198,218907,6,0,P|40:139|63:84,1,121.000003692627,4|2,0:0|0:2,0:0:0:0:
124,152,219355,1,2,0:2:0:0:
124,152,219467,1,0,0:0:0:0:
124,152,219579,1,2,0:2:0:0:
124,152,219691,1,0,0:0:0:0:
124,152,219802,2,0,B|132:216|132:216|120:272,1,121.000003692627,8|2,0:2|0:0,0:0:0:0:
188,320,220138,1,0,0:0:0:0:
188,320,220250,2,0,B|252:328|252:328|308:316,1,121.000003692627,2|0,0:2|0:0,0:0:0:0:
484,296,220698,37,2,0:0:0:0:
336,88,220922,1,4,0:0:0:0:
336,88,221034,1,0,0:0:0:0:
336,88,221146,1,4,0:0:0:0:
464,204,221370,1,0,0:0:0:0:
222,199,221594,1,8,0:2:0:0:
400,24,221817,2,0,B|416:84|416:84|404:148,1,121.000003692627,2|0,0:2|0:0,0:0:0:0:
222,199,222153,2,0,B|206:139|206:139|218:75,1,121.000003692627,2|0,0:2|0:0,0:0:0:0:
350,277,222489,5,4,1:0:0:0:
336,88,222713,2,0,B|281:74|281:74|217:82,1,121.000003692627,2|0,0:2|0:0,0:0:0:0:
232,284,223161,2,0,B|296:292|296:292|350:278,1,121.000003692627,2|8,0:2|0:2,0:0:0:0:
400,180,223608,1,2,0:2:0:0:
144,192,223832,1,2,0:2:0:0:
144,192,223944,1,0,0:0:0:0:
144,192,224056,1,2,0:2:0:0:
340,364,224280,37,2,0:2:0:0:
312,116,224504,1,4,0:0:0:0:
320,196,224616,1,0,0:0:0:0:
328,276,224728,1,4,0:0:0:0:
340,364,224952,1,2,0:2:0:0:
300,32,225176,1,8,0:2:0:0:
340,364,225400,1,0,0:0:0:0:
300,32,225623,2,0,P|220:36|180:56,1,121.000003692627,2|2,0:2|0:2,0:0:0:0:
124,120,226071,5,4,0:0:0:0:
124,120,226183,1,0,0:0:0:0:
124,120,226295,2,0,P|124:160|132:184,1,60.5000018463135
340,236,226519,1,4,0:0:0:0:
340,236,226631,1,0,0:0:0:0:
340,236,226743,2,0,P|340:196|332:172,1,60.5000018463135
120,264,226967,1,8,1:2:0:0:
120,264,227079,1,0,0:0:0:0:
120,264,227191,2,0,P|148:264|184:256,1,60.5000018463135
328,92,227414,1,4,0:0:0:0:
328,92,227526,1,0,0:0:0:0:
328,92,227638,2,0,P|300:92|264:100,1,60.5000018463135
211,331,227862,37,8,1:2:0:0:
283,363,227974,1,2,0:0:0:0:
363,363,228086,1,2,0:0:0:0:
423,315,228198,1,2,0:0:0:0:
467,244,228310,6,0,L|459:176,1,60.5000018463135,2|0,0:0|0:0,0:0:0:0:
244,97,228534,2,0,L|251:157,1,60.5000018463135,2|0,0:0|0:0,0:0:0:0:
283,363,228758,37,2,0:0:0:0:
333,161,228982,1,2,0:0:0:0:
389,218,229094,1,2,0:0:0:0:
459,183,229205,1,2,0:0:0:0:
447,105,229317,1,2,0:0:0:0:
369,88,229429,1,0,1:0:0:0:
369,88,229541,2,0,L|304:80,1,60.5000018463135,0|4,1:0|1:0,0:0:0:0:
188,112,229765,5,0,0:0:0:0:
120,152,229877,1,0,0:0:0:0:
40,156,229989,1,0,0:0:0:0:
16,80,230101,1,2,0:2:0:0:
95,92,230213,2,0,P|115:124|119:156,1,65.9999979858399,0|2,0:0|0:2,0:0:0:0:
116,232,230437,1,0,0:0:0:0:
72,300,230549,2,0,P|48:312|8:316,2,65.9999979858399,8|0|2,0:2|0:0|0:2,0:0:0:0:
116,232,230885,1,0,0:0:0:0:
188,196,230997,1,2,0:2:0:0:
264,216,231108,2,0,P|328:228|392:200,1,131.99999597168,0|0,0:0|0:0,0:0:0:0:
448,152,231444,5,2,0:2:0:0:
388,100,231556,1,0,0:0:0:0:
316,132,231668,2,0,L|332:272,1,131.99999597168,4|4,0:0|0:0,0:0:0:0:
160,360,232004,37,0,0:0:0:0:
199,291,232116,1,2,0:2:0:0:
239,360,232228,1,0,0:0:0:0:
64,268,232340,6,0,L|78:136,1,131.99999597168,8|2,0:2|0:2,0:0:0:0:
88,56,232676,1,0,0:0:0:0:
88,56,232788,1,2,0:2:0:0:
164,84,232900,1,0,0:0:0:0:
244,88,233011,1,0,0:0:0:0:
316,56,233123,1,0,0:0:0:0:
372,0,233235,5,4,1:0:0:0:
316,56,233347,1,0,0:0:0:0:
312,136,233459,1,0,0:0:0:0:
364,196,233571,1,0,0:0:0:0:
444,204,233683,1,2,0:2:0:0:
416,132,233795,1,0,0:0:0:0:
364,196,233907,1,2,0:2:0:0:
308,252,234019,1,0,0:0:0:0:
232,280,234131,2,0,P|168:264|136:200,1,131.99999597168,8|2,0:2|0:2,0:0:0:0:
216,200,234467,1,0,0:0:0:0:
112,340,234579,21,2,0:2:0:0:
112,340,234691,1,0,0:0:0:0:
48,200,234802,1,0,0:0:0:0:
48,200,234914,1,0,0:0:0:0:
96,52,235026,5,2,0:2:0:0:
172,72,235138,1,0,0:0:0:0:
248,56,235250,1,4,0:0:0:0:
320,20,235362,1,0,0:0:0:0:
372,80,235474,1,4,0:0:0:0:
304,120,235586,1,0,0:0:0:0:
284,196,235698,2,0,B|276:248|276:248|296:340,2,131.99999597168,2|8|2,0:2|0:2|0:0,0:0:0:0:
304,120,236258,1,0,0:0:0:0:
380,148,236370,1,2,0:2:0:0:
404,224,236482,1,2,0:0:0:0:
380,300,236594,1,0,0:2:0:0:
304,324,236705,1,0,0:0:0:0:
228,300,236817,22,0,L|216:156,1,131.99999597168,4|0,1:0|0:0,0:0:0:0:
304,228,237153,1,0,0:0:0:0:
140,264,237265,2,0,L|128:120,2,131.99999597168,2|2|8,0:2|0:2|0:2,0:0:0:0:
48,80,237937,21,2,0:2:0:0:
120,48,238049,1,0,0:0:0:0:
196,72,238161,2,0,P|216:96|224:136,1,65.9999979858399,2|0,0:2|0:0,0:0:0:0:
212,208,238385,2,0,P|212:244|220:280,1,65.9999979858399,0|0,0:0|0:0,0:0:0:0:
420,372,238608,22,0,P|440:308|400:244,1,131.99999597168,2|4,0:2|0:0,0:0:0:0:
360,316,238944,1,0,0:0:0:0:
492,224,239056,2,0,P|444:180|364:184,1,131.99999597168,4|2,0:0|0:2,0:0:0:0:
411,253,239392,1,0,0:0:0:0:
387,92,239504,2,0,P|326:114|293:187,1,131.99999597168,8|2,0:2|0:2,0:0:0:0:
379,177,239840,1,2,0:0:0:0:
452,152,239952,21,0,0:0:0:0:
512,100,240064,1,0,0:0:0:0:
452,48,240176,1,0,0:0:0:0:
380,16,240288,1,0,0:0:0:0:
304,52,240400,22,0,L|292:208,1,131.99999597168,4|0,0:0|0:0,0:0:0:0:
392,96,240735,1,0,0:0:0:0:
220,80,240847,2,0,L|208:236,1,131.99999597168,4|0,0:0|0:0,0:0:0:0:
392,96,241183,1,0,0:0:0:0:
136,108,241295,2,0,L|124:264,1,131.99999597168,8|0,1:2|0:0,0:0:0:0:
392,96,241631,1,0,0:0:0:0:
52,136,241743,2,0,L|40:292,1,131.99999597168,4|0,0:0|0:0,0:0:0:0:
84,348,242079,1,0,0:0:0:0:
84,348,242191,21,8,1:2:0:0:
164,340,242302,1,2,0:0:0:0:
244,332,242414,1,2,0:0:0:0:
324,320,242526,1,2,0:0:0:0:
416,304,242638,22,0,B|424:228|424:228|408:168,1,131.99999597168,4|2,0:0|0:0,0:0:0:0:
328,224,242974,1,0,0:0:0:0:
508,200,243086,2,0,L|472:72,1,131.99999597168,0|0,0:0|0:0,0:0:0:0:
416,4,243422,1,0,0:0:0:0:
376,88,243534,2,0,P|340:92|304:88,1,65.9999979858399,0|0,0:0|0:0,0:0:0:0:
64,48,243758,5,0,1:0:0:0:
72,168,243870,1,0,1:0:0:0:
80,284,243982,6,0,L|232:292,2,131.99999597168,4|0|2,1:0|0:0|0:2,0:0:0:0:
292,300,244653,1,2,0:2:0:0:
328,228,244765,1,0,0:0:0:0:
304,152,244877,6,0,L|164:176,1,131.99999597168,8|2,0:2|0:2,0:0:0:0:
108,128,245213,1,0,0:0:0:0:
164,72,245325,2,0,L|300:48,1,131.99999597168,2|0,0:2|0:0,0:0:0:0:
376,16,245661,2,0,P|408:32|436:60,1,65.9999979858399,0|2,0:0|0:2,0:0:0:0:
480,120,245885,37,0,0:0:0:0:
412,160,245997,1,4,0:0:0:0:
400,236,246108,1,0,0:0:0:0:
468,276,246220,1,4,0:0:0:0:
432,344,246332,1,0,0:0:0:0:
356,368,246444,1,2,0:2:0:0:
284,336,246556,1,0,0:0:0:0:
204,348,246668,6,0,B|196:296|196:296|204:260|204:260|196:204,1,131.99999597168,8|2,0:2|0:2,0:0:0:0:
192,140,247004,1,0,0:0:0:0:
116,168,247116,1,2,0:2:0:0:
48,124,247228,1,0,0:0:0:0:
68,48,247340,1,0,0:0:0:0:
140,20,247452,1,0,0:0:0:0:
208,60,247564,38,0,P|248:64|288:56,1,65.9999979858399,4|0,1:0|0:0,0:0:0:0:
352,44,247788,1,0,0:0:0:0:
432,56,247900,2,0,P|440:88|440:128,1,65.9999979858399,0|2,0:0|0:2,0:0:0:0:
436,200,248123,2,0,P|421:229|397:252,1,65.9999979858399,0|2,0:2|0:2,0:0:0:0:
323,276,248347,1,0,0:0:0:0:
256,236,248459,2,0,P|196:208|124:244,1,131.99999597168,8|2,0:2|0:2,0:0:0:0:
192,288,248795,1,0,0:0:0:0:
308,176,248907,22,0,P|260:144|228:136,1,65.9999979858399,2|0,0:2|0:0,0:0:0:0:
132,144,249131,2,0,P|104:160|76:180,1,65.9999979858399,0|0,0:0|0:0,0:0:0:0:
4,248,249355,21,2,0:2:0:0:
12,168,249467,1,0,0:0:0:0:
20,88,249579,6,0,L|84:68,1,65.9999979858399,4|0,0:0|0:0,0:0:0:0:
160,44,249802,2,0,P|192:34|248:40,1,65.9999979858399,4|0,0:0|0:0,0:0:0:0:
296,72,250026,1,2,0:2:0:0:
376,84,250138,1,0,0:0:0:0:
448,52,250250,1,8,0:2:0:0:
484,208,250474,1,2,0:0:0:0:
484,208,250586,1,0,0:0:0:0:
484,208,250698,38,0,L|476:352,1,131.99999597168,2|0,0:2|0:2,0:0:0:0:
396,344,251034,1,0,0:0:0:0:
316,344,251146,2,0,L|308:212,2,131.99999597168,4|0|2,1:0|0:0|0:2,0:0:0:0:
160,320,251817,5,2,0:2:0:0:
96,272,251929,2,0,P|60:268|24:272,2,65.9999979858399,0|8|0,0:0|0:2|0:0,0:0:0:0:
168,236,252265,1,2,0:2:0:0:
232,188,252377,2,0,P|268:184|304:188,2,65.9999979858399,0|2|0,0:0|0:2|0:0,0:0:0:0:
160,152,252713,1,0,0:0:0:0:
160,152,252825,1,0,0:0:0:0:
128,80,252937,37,2,0:2:0:0:
208,84,253049,1,0,0:0:0:0:
284,108,253161,1,4,0:0:0:0:
360,84,253273,1,0,0:0:0:0:
440,96,253385,1,4,0:0:0:0:
484,164,253497,2,0,P|488:196|488:240,2,65.9999979858399,0|2|0,0:0|0:2|0:0,0:0:0:0:
440,96,253832,2,0,L|372:208,1,131.99999597168,8|2,0:2|0:2,0:0:0:0:
328,276,254168,1,2,0:0:0:0:
284,344,254280,1,0,0:0:0:0:
216,300,254392,1,0,0:0:0:0:
136,300,254504,1,0,0:0:0:0:
68,344,254616,1,0,0:0:0:0:
32,272,254728,5,4,0:0:0:0:
84,212,254840,1,0,0:0:0:0:
88,132,254952,1,0,0:0:0:0:
36,72,255064,1,0,0:0:0:0:
16,148,255176,1,4,0:0:0:0:
88,132,255288,1,0,0:0:0:0:
156,88,255400,1,0,0:0:0:0:
176,12,255511,1,0,0:0:0:0:
176,12,255623,6,0,L|256:20,1,65.9999979858399,8|0,1:2|0:0,0:0:0:0:
396,168,255847,2,0,L|330:161,1,65.9999979858399,0|0,0:0|0:0,0:0:0:0:
212,148,256071,5,4,0:0:0:0:
212,148,256183,1,0,0:0:0:0:
364,24,256295,1,0,0:0:0:0:
364,24,256407,1,0,0:0:0:0:
396,168,256519,37,8,1:2:0:0:
404,252,256631,1,2,0:0:0:0:
364,328,256743,1,2,0:0:0:0:
288,368,256855,5,2,0:0:0:0:
288,368,257079,37,2,0:0:0:0:
288,368,257191,1,2,0:0:0:0:
172,194,257414,5,2,0:0:0:0:
172,194,257638,37,2,0:0:0:0:
298,88,257750,1,2,0:0:0:0:
325,250,257862,1,2,0:0:0:0:
204,104,257974,1,2,0:0:0:0:
358,161,258086,1,0,1:0:0:0:
232,266,258198,1,0,1:0:0:0:
240,24,258310,22,0,P|301:6|372:40,2,131.99999597168,4|0|2,1:0|0:0|0:2,0:0:0:0:
298,88,258870,1,0,0:0:0:0:
376,108,258982,2,0,P|392:144|392:180,1,65.9999979858399,2|0,0:2|0:0,0:0:0:0:
456,220,259205,2,0,P|388:200|320:228,1,131.99999597168,8|2,0:2|0:2,0:0:0:0:
280,280,259541,1,0,0:0:0:0:
220,332,259653,2,0,P|192:340|152:340,1,65.9999979858399,2|0,0:2|0:0,0:0:0:0:
84,304,259877,2,0,P|64:240|84:176,1,131.99999597168,0|2,0:0|0:2,0:0:0:0:
176,52,260325,5,4,0:0:0:0:
256,40,260437,1,0,0:0:0:0:
336,28,260549,22,0,L|324:160,1,131.99999597168,4|2,0:0|0:2,0:0:0:0:
244,120,260885,1,0,0:0:0:0:
416,16,260997,2,0,L|404:148,1,131.99999597168,8|2,0:2|0:2,0:0:0:0:
392,272,261332,1,0,0:0:0:0:
432,372,261444,1,2,0:2:0:0:
496,292,261556,1,0,0:0:0:0:
324,352,261668,2,0,L|252:340,1,65.9999979858399,0|0,0:0|0:0,0:0:0:0:
180,380,261892,22,0,P|221:326|202:252,1,131.99999597168,4|0,1:0|0:0,0:0:0:0:
172,196,262228,1,0,0:0:0:0:
125,260,262340,2,0,P|101:228|94:192,1,65.9999979858399,2|0,0:2|0:0,0:0:0:0:
20,171,262564,2,0,P|93:171|135:117,2,131.99999597168,2|8|2,0:2|0:2|0:2,0:0:0:0:
58,103,263123,1,0,0:0:0:0:
111,44,263235,22,0,P|63:26|12:37,2,87.9999973144532,2|0|0,0:2|0:0|0:0,0:0:0:0:
316,124,263907,6,0,P|352:124|380:116,1,65.9999979858399,4|0,0:0|0:0,0:0:0:0:
428,52,264131,2,0,P|416:104|440:180,1,131.99999597168,4|2,0:0|0:2,0:0:0:0:
480,248,264467,1,0,0:0:0:0:
400,248,264579,2,0,P|336:236|276:264,1,131.99999597168,8|2,0:2|0:0,0:0:0:0:
220,320,264914,1,0,0:0:0:0:
139,325,265026,2,0,P|171:253|279:265,1,197.99999395752,2|0,0:2|0:0,0:0:0:0:
220,320,265474,22,0,L|160:184,1,131.99999597168,4|0,1:0|0:0,0:0:0:0:
196,68,265810,1,0,0:0:0:0:
310,127,265922,6,0,L|364:248,1,131.99999597168,2|2,0:2|0:2,0:0:0:0:
332,368,266258,1,0,0:0:0:0:
332,368,266370,1,8,0:2:0:0:
288,272,266482,1,0,0:0:0:0:
288,272,266594,1,2,0:2:0:0:
156,236,266705,2,0,L|145:170,1,65.9999979858399,0|2,0:0|0:2,0:0:0:0:
424,320,266929,2,0,L|436:392,1,65.9999979858399,0|0,0:0|0:0,0:0:0:0:
128,384,267153,2,0,L|138:318,1,65.9999979858399,0|2,0:0|0:2,0:0:0:0:
156,236,267377,5,0,0:0:0:0:
140,160,267489,1,4,0:0:0:0:
100,92,267601,1,0,0:0:0:0:
28,64,267713,1,4,0:0:0:0:
64,136,267825,1,0,0:0:0:0:
140,160,267937,1,2,0:2:0:0:
216,140,268049,1,0,0:0:0:0:
272,84,268161,1,8,0:2:0:0:
344,56,268273,1,0,0:0:0:0:
420,80,268385,1,2,0:2:0:0:
480,132,268497,22,0,P|492:160|500:196,1,65.9999979858399,2|0,0:0|0:0,0:0:0:0:
414,360,268720,2,0,P|402:332|394:296,1,65.9999979858399
499,194,268944,1,0,0:0:0:0:
499,194,269056,21,4,0:0:0:0:
471,270,269168,1,0,0:0:0:0:
395,298,269280,1,0,0:0:0:0:
323,266,269392,1,0,0:0:0:0:
295,190,269504,1,4,0:0:0:0:
267,114,269616,1,0,0:0:0:0:
191,86,269728,1,0,0:0:0:0:
119,118,269840,1,0,0:0:0:0:
91,194,269952,22,0,P|91:234|99:266,1,65.9999979858399,8|0,1:2|0:0,0:0:0:0:
216,332,270176,1,0,0:0:0:0:
204,252,270288,2,0,L|192:180,1,65.9999979858399,0|4,0:0|0:0,0:0:0:0:
376,56,270511,2,0,L|386:121,1,65.9999979858399
403,213,270735,1,0,0:0:0:0:
403,213,270847,6,0,P|367:205|327:205,1,65.9999979858399,8|2,1:2|0:0,0:0:0:0:
235,209,271071,1,2,0:0:0:0:
344,296,271183,1,2,0:0:0:0:
337,204,271295,38,0,L|321:132,1,65.9999979858399,6|0,0:0|0:0,0:0:0:0:
231,89,271519,1,2,0:0:0:0:
152,28,271631,1,2,0:0:0:0:
112,120,271743,38,0,P|180:124|240:76,1,131.99999597168,0|0,0:0|0:0,0:0:0:0:
152,28,272079,1,0,0:0:0:0:
152,28,272191,2,0,P|112:24|76:32,1,65.9999979858399
20,132,272414,5,0,0:0:0:0:
36,236,272526,1,0,0:0:0:0:
56,336,272638,22,0,B|112:328|112:328|136:336|136:336|196:328,1,131.99999597168,4|0,1:0|0:0,0:0:0:0:
256,372,272974,1,0,0:0:0:0:
256,292,273086,1,2,0:2:0:0:
328,328,273198,2,0,B|368:332|368:332|401:326|401:326|400:328,2,65.9999979858399,0|2|0,0:0|0:2|0:0,0:0:0:0:
256,292,273534,1,8,0:2:0:0:
240,216,273646,1,0,0:0:0:0:
264,140,273758,1,2,0:2:0:0:
336,108,273870,1,0,0:0:0:0:
416,116,273982,2,0,P|440:160|424:244,1,131.99999597168,2|0,0:2|0:0,0:0:0:0:
384,304,274317,2,0,L|232:296,1,131.99999597168,0|0,0:0|0:0,0:0:0:0:
172,292,274653,5,4,0:0:0:0:
92,296,274765,1,0,0:0:0:0:
28,340,274877,1,4,0:0:0:0:
20,260,274989,1,0,0:0:0:0:
12,180,275101,1,2,0:2:0:0:
8,100,275213,1,0,0:0:0:0:
80,132,275325,2,0,P|120:140|164:136,1,65.9999979858399,8|0,0:2|0:0,0:0:0:0:
224,136,275549,2,0,P|256:135|289:128,1,65.9999979858399,2|0,0:2|0:0,0:0:0:0:
368,108,275773,1,2,0:2:0:0:
436,68,275885,1,0,0:0:0:0:
368,28,275997,1,0,0:0:0:0:
368,108,276108,38,0,P|372:148|384:176,1,65.9999979858399,0|4,0:0|1:0,0:0:0:0:
428,236,276332,2,0,P|436:276|432:316,1,65.9999979858399,0|0,0:0|0:0,0:0:0:0:
376,356,276556,1,0,0:0:0:0:
296,364,276668,1,2,0:2:0:0:
236,312,276780,1,0,0:0:0:0:
172,264,276892,1,2,0:2:0:0:
96,248,277004,1,0,0:0:0:0:
120,324,277116,1,8,0:2:0:0:
172,264,277228,1,0,0:0:0:0:
216,200,277340,1,2,0:2:0:0:
260,136,277452,1,0,0:0:0:0:
296,68,277564,1,2,0:2:0:0:
216,68,277676,1,0,0:0:0:0:
260,136,277788,1,0,0:0:0:0:
336,176,277900,1,0,0:0:0:0:
412,185,278011,5,2,0:2:0:0:
384,110,278123,1,0,0:0:0:0:
336,176,278235,1,4,0:0:0:0:
353,253,278347,1,0,0:0:0:0:
416,300,278459,1,4,0:0:0:0:
348,340,278571,1,0,0:0:0:0:
268,344,278683,1,2,0:2:0:0:
196,312,278795,1,0,0:0:0:0:
132,264,278907,2,0,L|15:193,1,131.99999597168,8|2,0:2|0:0,0:0:0:0:
25,117,279243,1,0,0:0:0:0:
92,76,279355,2,0,L|160:117,1,65.9999979858399,2|2,0:2|0:0,0:0:0:0:
225,133,279579,37,0,0:2:0:0:
225,133,279691,1,0,0:0:0:0:
225,133,279802,2,0,P|277:93|278:7,1,131.99999597168,4|0,1:0|0:0,0:0:0:0:
209,52,280138,1,0,0:0:0:0:
209,52,280250,2,0,L|330:121,2,131.99999597168,2|2|8,0:2|0:2|0:2,0:0:0:0:
248,224,280922,5,2,0:2:0:0:
324,240,281034,1,0,0:0:0:0:
400,220,281146,1,2,0:2:0:0:
440,152,281258,1,0,0:0:0:0:
444,72,281370,1,0,0:0:0:0:
388,16,281482,1,0,0:0:0:0:
312,0,281594,37,2,0:2:0:0:
316,80,281705,1,0,0:0:0:0:
320,160,281817,1,4,0:0:0:0:
324,240,281929,1,0,0:0:0:0:
328,320,282041,22,0,P|298:332|256:332,1,65.9999979858399,4|0,0:0|0:0,0:0:0:0:
197,123,282265,2,0,P|222:142|243:178,1,65.9999979858399,2|0,0:2|0:0,0:0:0:0:
92,333,282489,2,0,P|95:300|117:265,1,65.9999979858399,8|0,0:2|0:0,0:0:0:0:
280,248,282713,5,2,0:2:0:0:
280,248,282825,1,2,0:0:0:0:
184,332,282937,1,0,0:0:0:0:
184,332,283049,1,0,0:0:0:0:
160,204,283161,1,0,0:0:0:0:
160,204,283273,1,0,0:0:0:0:
284,340,283385,38,0,L|368:332,1,65.9999979858399,4|0,0:0|0:0,0:0:0:0:
108,272,283608,2,0,L|42:278,1,65.9999979858399,0|0,0:0|0:0,0:0:0:0:
280,248,283832,6,0,L|364:240,1,65.9999979858399,4|0,0:0|0:0,0:0:0:0:
80,188,284056,2,0,L|8:196,1,65.9999979858399,0|0,0:0|0:0,0:0:0:0:
256,132,284280,37,8,1:2:0:0:
240,36,284504,5,0,0:0:0:0:
346,164,284616,1,0,0:0:0:0:
181,193,284728,1,4,0:0:0:0:
329,68,284840,1,0,0:0:0:0:
272,226,284952,1,0,0:0:0:0:
164,97,285064,1,0,0:0:0:0:
256,132,285176,37,8,1:2:0:0:
256,132,285288,1,2,0:0:0:0:
256,132,285400,1,2,0:0:0:0:
256,132,285511,1,2,0:0:0:0:
24,112,285735,1,2,0:0:0:0:
24,112,285847,1,2,0:0:0:0:
456,144,286071,1,2,0:0:0:0:
256,12,286295,1,2,0:0:0:0:
256,12,286407,1,2,0:0:0:0:
284,280,286631,5,2,0:0:0:0:
284,280,286743,1,0,1:0:0:0:
408,212,286855,1,0,1:0:0:0:
418,357,286967,38,0,L|280:352,1,131.99999597168,4|0,1:0|0:0,0:0:0:0:
76,220,287414,1,2,0:2:0:0:
1,194,287526,1,0,0:0:0:0:
7,115,287638,1,2,0:2:0:0:
80,93,287750,1,0,0:0:0:0:
124,156,287862,2,0,B|192:172|192:172|256:156,1,131.99999597168,8|0,0:2|0:0,0:0:0:0:
332,140,288198,1,0,0:0:0:0:
332,140,288310,2,0,B|432:120|432:120|464:220,1,197.99999395752,2|0,0:2|0:0,0:0:0:0:
496,340,288982,5,4,0:3:0:0:
272,384,289205,1,4,0:3:0:0:
272,384,289317,1,0,0:0:0:0:
272,384,289429,1,0,0:0:0:0:
251,253,289653,2,0,L|275:405,1,131.99999597168,8|2,0:2|0:2,0:0:0:0:
64,312,290101,1,2,0:2:0:0:
56,232,290213,1,0,0:0:0:0:
48,152,290325,1,0,0:0:0:0:
64,312,290549,37,4,0:0:0:0:
141,114,290773,2,0,L|273:94,1,131.99999597168,2|2,0:2|0:2,0:0:0:0:
349,82,291108,1,0,0:0:0:0:
349,82,291220,1,2,0:2:0:0:
349,82,291332,1,0,0:0:0:0:
349,82,291444,2,0,B|373:126|373:126|365:218,1,131.99999597168,8|0,0:2|0:0,0:0:0:0:
477,290,291780,1,0,0:0:0:0:
477,290,291892,2,0,B|453:246|453:246|461:154,1,131.99999597168,2|2,0:2|0:2,0:0:0:0:
469,74,292340,5,2,0:2:0:0:
353,306,292564,2,0,L|273:314,1,65.9999979858399,4|0,0:0|0:0,0:0:0:0:
205,322,292788,2,0,B|185:262|185:262|197:190,1,131.99999597168,4|0,0:0|0:0,0:0:0:0:
209,90,293235,1,8,0:2:0:0:
0,216,293459,38,0,L|136:204,1,131.99999597168,2|2,0:2|0:2,0:0:0:0:
327,182,293795,2,0,L|195:193,1,131.99999597168,2|2,0:2|0:2,0:0:0:0:
188,280,294131,1,4,1:0:0:0:
52,128,294355,2,0,L|192:112,1,131.99999597168,2|0,0:2|0:0,0:0:0:0:
188,280,294802,2,0,L|56:294,1,131.99999597168,2|8,0:2|0:2,0:0:0:0:
0,216,295250,1,2,0:2:0:0:
312,184,295474,1,2,0:2:0:0:
392,176,295586,1,0,0:0:0:0:
348,108,295698,1,2,0:2:0:0:
360,284,295922,5,2,0:2:0:0:
344,24,296146,1,4,0:0:0:0:
344,24,296258,1,0,0:0:0:0:
344,24,296370,1,4,0:0:0:0:
220,288,296594,1,2,0:0:0:0:
496,272,296817,2,0,L|424:144,1,131.99999597168,8|0,0:2|0:0,0:0:0:0:
344,24,297265,1,2,0:0:0:0:
364,372,297489,1,2,0:0:0:0:
168,308,297713,37,4,0:0:0:0:
168,308,297825,1,0,0:0:0:0:
168,308,297937,2,0,L|244:296,1,65.9999979858399,0|0,0:0|0:0,0:0:0:0:
414,268,298161,5,4,0:0:0:0:
414,268,298273,1,0,0:0:0:0:
414,268,298385,2,0,L|338:280,1,65.9999979858399,0|0,0:0|0:0,0:0:0:0:
102,318,298608,37,8,1:2:0:0:
102,318,298720,1,0,0:0:0:0:
102,318,298832,2,0,L|178:306,1,65.9999979858399,0|0,0:0|0:0,0:0:0:0:
479,257,299056,5,4,0:0:0:0:
479,257,299168,1,0,0:0:0:0:
479,257,299280,2,0,L|403:269,1,65.9999979858399,0|0,0:0|0:0,0:0:0:0:
284,284,299504,37,8,0:2:0:0:
284,284,299616,1,2,0:0:0:0:
284,284,299728,1,2,0:0:0:0:
284,284,299840,1,2,0:0:0:0:
284,284,299952,6,0,L|264:208,1,65.9999979858399,2|0,0:0|0:0,0:0:0:0:
303,56,300176,2,0,L|320:120,1,65.9999979858399,2|0,0:0|0:0,0:0:0:0:
380,352,300400,37,2,0:0:0:0:
132,244,300623,1,2,0:0:0:0:
132,244,300735,1,2,0:0:0:0:
304,152,300959,5,2,0:0:0:0:
304,152,301071,1,0,1:0:0:0:
472,184,301183,1,0,1:0:0:0:
412,37,301295,38,0,L|274:42,1,131.99999597168,4|0,1:0|0:0,0:0:0:0:
88,220,301743,1,2,0:2:0:0:
13,246,301855,1,0,0:0:0:0:
19,325,301967,1,2,0:2:0:0:
92,347,302079,1,0,0:0:0:0:
136,284,302191,2,0,P|196:268|272:280,1,131.99999597168,8|2,0:2|0:2,0:0:0:0:
344,304,302526,1,0,0:0:0:0:
344,304,302638,2,0,P|380:240|324:168,1,164.9999949646,2|0,0:2|0:0,0:0:0:0:
200,152,303310,5,4,0:0:0:0:
60,68,303534,1,4,0:0:0:0:
60,68,303646,1,0,0:0:0:0:
60,68,303758,1,0,0:0:0:0:
191,52,303982,2,0,L|60:68,1,131.99999597168,8|2,0:2|0:2,0:0:0:0:
440,64,304429,1,2,0:2:0:0:
362,71,304541,1,0,0:0:0:0:
285,79,304653,1,2,0:2:0:0:
440,64,304877,37,4,0:0:0:0:
288,364,305101,2,0,L|272:228,1,131.99999597168,2|2,0:2|0:2,0:0:0:0:
212,180,305437,1,0,0:0:0:0:
212,180,305549,1,2,0:2:0:0:
212,180,305661,1,0,0:0:0:0:
212,180,305773,2,0,B|148:168|148:168|80:184,1,131.99999597168,8|2,0:2|0:0,0:0:0:0:
8,80,306108,1,0,0:0:0:0:
8,80,306220,2,0,B|73:95|73:95|137:83,1,131.99999597168,2|0,0:2|0:0,0:0:0:0:
304,52,306668,5,2,0:0:0:0:
456,124,306892,2,0,P|468:160|464:192,1,65.9999979858399,4|0,0:0|0:0,0:0:0:0:
448,276,307116,2,0,P|380:292|316:276,1,131.99999597168,4|0,0:0|0:0,0:0:0:0:
252,204,307564,1,8,0:2:0:0:
104,120,307788,38,0,L|111:251,1,131.99999597168,2|0,0:2|0:2,0:0:0:0:
119,383,308123,2,0,L|112:252,1,131.99999597168,2|2,0:2|0:2,0:0:0:0:
0,204,308459,5,4,1:0:0:0:
220,192,308683,2,0,L|228:324,1,131.99999597168,2|0,0:2|0:0,0:0:0:0:
8,336,309131,2,0,L|0:204,1,131.99999597168,2|8,0:2|0:2,0:0:0:0:
100,52,309579,1,2,0:2:0:0:
352,116,309802,1,2,0:2:0:0:
372,192,309914,1,0,0:0:0:0:
296,172,310026,1,2,0:2:0:0:
384,0,310250,37,2,0:2:0:0:
464,280,310474,1,4,0:0:0:0:
464,280,310586,1,0,0:0:0:0:
464,280,310698,1,4,0:0:0:0:
172,212,310922,1,2,0:2:0:0:
384,0,311146,1,8,0:2:0:0:
464,280,311370,1,0,0:0:0:0:
172,212,311594,2,0,L|264:116,1,131.99999597168,2|2,0:2|0:2,0:0:0:0:
440,92,312041,5,4,0:0:0:0:
440,92,312153,1,0,0:0:0:0:
440,92,312265,2,0,L|448:164,1,65.9999979858399,0|0,0:0|0:0,0:0:0:0:
468,316,312489,37,4,0:0:0:0:
468,316,312601,1,0,0:0:0:0:
468,316,312713,2,0,L|460:244,1,65.9999979858399,0|0,0:0|0:0,0:0:0:0:
432,26,312937,5,8,1:2:0:0:
432,26,313049,1,0,0:0:0:0:
432,26,313161,2,0,L|440:98,1,65.9999979858399,0|0,0:0|0:0,0:0:0:0:
476,382,313385,37,4,0:0:0:0:
476,382,313497,1,0,0:0:0:0:
476,382,313608,2,0,L|468:310,1,65.9999979858399,0|0,0:0|0:0,0:0:0:0:
256,264,313832,5,8,1:2:0:0:
256,264,313944,1,2,0:0:0:0:
256,264,314056,1,2,0:0:0:0:
256,264,314168,1,2,0:0:0:0:
256,264,314280,38,0,L|324:256,1,65.9999979858399,2|0,0:0|0:0,0:0:0:0:
488,160,314504,2,0,L|422:167,1,65.9999979858399,2|0,0:0|0:0,0:0:0:0:
160,188,314728,5,2,0:0:0:0:
160,188,314840,1,2,0:0:0:0:
184,356,314952,37,2,0:0:0:0:
184,356,315064,1,2,0:0:0:0:
352,332,315176,5,2,0:0:0:0:
352,332,315288,1,2,0:0:0:0:
328,164,315400,37,2,0:0:0:0:
328,164,315511,1,2,0:0:0:0:
96,280,315623,5,4,1:0:0:0:
416,236,315847,1,0,0:0:0:0:
32,208,316071,1,2,0:2:0:0:
476,308,316295,1,2,0:2:0:0:
100,52,316519,38,0,P|108:84|108:120,1,65.9999979858399,8|0,0:2|0:0,0:0:0:0:
32,208,316743,21,2,0:2:0:0:
112,208,316855,1,0,0:0:0:0:
176,252,316967,2,0,L|336:228,1,131.99999597168,2|0,0:2|0:0,0:0:0:0:
380,264,317302,1,0,0:0:0:0:
440,212,317414,5,2,0:2:0:0:
388,152,317526,1,0,0:0:0:0:
384,72,317638,1,4,0:0:0:0:
444,20,317750,1,0,0:0:0:0:
456,100,317862,1,4,0:0:0:0:
388,152,317974,1,0,0:0:0:0:
308,164,318086,22,0,L|163:163,1,131.99999597168,2|10,0:2|0:2,0:0:0:0:
66,161,318422,1,0,0:0:0:0:
171,66,318534,2,0,L|236:51,1,65.9999979858399,2|0,0:2|0:0,0:0:0:0:
228,284,318758,2,0,L|167:258,1,65.9999979858399,2|0,0:2|0:0,0:0:0:0:
66,161,318982,1,0,0:0:0:0:
66,161,319094,1,0,0:0:0:0:
15,82,319205,21,4,1:0:0:0:
80,28,319317,1,0,0:0:0:0:
164,16,319429,1,0,0:0:0:0:
232,68,319541,1,0,0:0:0:0:
268,144,319653,6,0,P|296:176|328:184,1,65.9999979858399,2|0,0:2|0:0,0:0:0:0:
400,184,319877,1,2,0:2:0:0:
501,90,319989,6,0,P|459:98|436:121,1,65.9999979858399,0|8,0:2|0:2,0:0:0:0:
400,184,320213,1,0,0:2:0:0:
432,319,320325,38,0,P|445:278|436:247,1,65.9999979858399,2|0,0:2|0:0,0:0:0:0:
400,184,320549,1,2,0:2:0:0:
312,280,320661,2,0,L|232:284,1,65.9999979858399,0|2,0:0|0:2,0:0:0:0:
108,280,320885,1,0,0:0:0:0:
108,280,320997,21,2,0:2:0:0:
88,204,321108,1,0,0:0:0:0:
128,136,321220,2,0,L|208:128,1,65.9999979858399,4|0,0:0|0:0,0:0:0:0:
264,164,321444,5,4,0:0:0:0:
344,172,321556,1,0,0:0:0:0:
420,144,321668,1,2,0:2:0:0:
460,76,321780,1,0,0:0:0:0:
380,72,321892,22,0,P|368:36|372:0,2,65.9999979858399,8|0|2,0:2|0:0|0:2,0:0:0:0:
448,224,322228,37,0,0:0:0:0:
448,224,322340,2,0,P|452:256|448:296,1,65.9999979858399,2|0,0:0|0:0,0:0:0:0:
344,332,322564,5,0,0:2:0:0:
244,352,322676,1,0,0:0:0:0:
344,332,322788,37,4,1:0:0:0:
244,352,322900,1,0,0:0:0:0:
121,220,323011,5,2,0:0:0:0:
121,220,323235,1,0,0:0:0:0:
199,228,323347,1,0,0:0:0:0:
269,194,323459,1,2,0:2:0:0:
305,123,323571,1,0,0:0:0:0:
296,44,323683,37,8,0:2:0:0:
296,44,323907,5,2,0:2:0:0:
296,44,324019,1,0,0:0:0:0:
452,136,324131,37,2,0:2:0:0:
452,136,324243,1,0,0:0:0:0:
416,48,324355,6,0,P|380:76|364:108,1,65.9999979858399
332,180,324579,1,2,0:2:0:0:
405,319,324691,38,0,P|398:273|379:243,1,65.9999979858399,0|4,0:0|0:0,0:0:0:0:
332,180,324914,1,0,0:2:0:0:
176,174,325026,6,0,P|218:191|253:189,1,65.9999979858399,4|0,0:0|0:0,0:0:0:0:
332,180,325250,1,2,0:2:0:0:
240,104,325362,1,0,0:0:0:0:
45,56,325474,37,8,0:2:0:0:
45,56,325698,5,2,0:2:0:0:
149,77,325810,1,2,0:0:0:0:
73,152,325922,37,0,0:0:0:0:
176,174,326034,1,0,0:0:0:0:
100,250,326146,5,0,0:0:0:0:
203,271,326258,1,0,0:0:0:0:
123,351,326370,38,0,L|53:364,1,65.9999979858399,4|0,0:0|0:0,0:0:0:0:
176,174,326594,2,0,L|241:161,1,65.9999979858399,2|0,0:2|0:0,0:0:0:0:
480,184,326817,21,4,0:0:0:0:
400,184,326929,1,0,0:0:0:0:
336,228,327041,1,0,0:0:0:0:
308,304,327153,1,0,0:0:0:0:
316,384,327265,1,8,1:2:0:0:
240,356,327377,1,0,0:0:0:0:
160,352,327489,2,0,L|152:260,1,65.9999979858399
104,192,327713,21,4,0:0:0:0:
36,104,327825,1,0,0:0:0:0:
104,192,327937,1,0,0:0:0:0:
36,104,328049,2,0,L|28:32,1,65.9999979858399,0|8,0:0|1:2,0:0:0:0:
164,96,328273,21,2,0:0:0:0:
239,116,328385,1,2,0:0:0:0:
316,96,328497,1,2,0:0:0:0:
383,45,328608,21,4,0:0:0:0:
512,51,328720,1,2,0:0:0:0:
403,122,328832,1,2,0:0:0:0:
448,2,328944,1,2,0:0:0:0:
479,128,329056,5,4,0:0:0:0:
479,128,329280,37,2,0:0:0:0:
403,122,329392,1,2,0:0:0:0:
489,206,329504,5,2,0:0:0:0:
413,200,329616,1,2,0:0:0:0:
501,281,329728,37,2,0:0:0:0:
425,275,329840,1,2,0:0:0:0:
456,352,329952,5,4,1:0:0:0:
456,352,330288,5,0,0:0:0:0:
376,352,330400,1,2,0:2:0:0:
300,332,330511,1,0,0:0:0:0:
228,300,330623,2,0,P|220:272|224:232,2,65.9999979858399,2|0|8,0:2|0:0|0:2,0:0:0:0:
164,348,330959,1,0,0:0:0:0:
84,356,331071,1,2,0:2:0:0:
24,304,331183,1,0,0:0:0:0:
28,224,331295,2,0,P|88:228|140:168,1,131.99999597168,2|0,0:2|0:0,0:0:0:0:
64,156,331631,1,0,0:0:0:0:
64,156,331743,5,2,0:2:0:0:
32,84,331855,1,0,0:0:0:0:
76,20,331967,1,4,0:0:0:0:
152,4,332079,1,0,0:0:0:0:
204,64,332191,1,4,0:0:0:0:
272,104,332302,1,0,0:0:0:0:
352,92,332414,1,2,0:2:0:0:
416,44,332526,1,0,0:0:0:0:
340,16,332638,1,8,0:2:0:0:
352,92,332750,1,0,0:0:0:0:
340,172,332862,1,2,0:2:0:0:
304,244,332974,1,0,0:0:0:0:
256,308,333086,2,0,P|220:316|192:316,1,65.9999979858399,2|0,0:2|0:0,0:0:0:0:
40,200,333310,1,0,0:0:0:0:
40,200,333422,1,0,0:0:0:0:
40,200,333534,37,4,1:0:0:0:
112,168,333646,1,0,0:0:0:0:
188,188,333758,2,0,P|228:188|260:180,1,65.9999979858399,0|0,0:0|0:0,0:0:0:0:
320,140,333982,1,2,0:2:0:0:
268,80,334094,1,0,0:0:0:0:
216,20,334205,2,0,P|184:32|148:32,1,65.9999979858399,2|0,0:2|0:0,0:0:0:0:
72,36,334429,1,8,0:2:0:0:
24,100,334541,2,0,P|16:132|20:168,2,65.9999979858399,0|2|0,0:0|0:2|0:0,0:0:0:0:
72,36,334877,2,0,P|100:76|108:108,1,65.9999979858399,2|0,0:2|0:0,0:0:0:0:
116,172,335101,2,0,P|116:212|104:248,1,65.9999979858399,0|0,0:0|0:0,0:0:0:0:
76,308,335325,5,2,0:2:0:0:
152,332,335437,1,0,0:0:0:0:
228,316,335549,1,4,0:0:0:0:
280,256,335661,1,0,0:0:0:0:
292,176,335773,1,4,0:0:0:0:
252,108,335885,1,0,0:0:0:0:
216,180,335997,1,2,0:2:0:0:
292,176,336108,1,0,0:0:0:0:
352,128,336220,1,8,0:2:0:0:
360,48,336332,1,0,0:0:0:0:
424,96,336444,1,2,0:0:0:0:
456,168,336556,1,0,0:0:0:0:
440,244,336668,1,2,0:2:0:0:
168,332,336892,21,0,0:0:0:0:
168,332,337900,1,0,0:0:0:0:
108,280,338011,5,8,0:2:0:0:
28,272,338123,1,0,0:0:0:0:
60,344,338235,1,2,0:2:0:0:
108,280,338347,1,0,0:0:0:0:
112,200,338459,1,2,0:2:0:0:
80,128,338571,1,0,0:0:0:0:
20,76,338683,1,0,0:0:0:0:
96,56,338795,1,0,0:0:0:0:
172,40,338907,22,0,P|183:70|188:104,1,65.9999979858399,2|0,0:2|0:0,0:0:0:0:
184,316,339131,1,4,0:0:0:0:
264,304,339243,1,0,0:0:0:0:
344,292,339355,2,0,P|352:252|352:216,1,65.9999979858399,4|0,0:0|0:0,0:0:0:0:
292,144,339579,2,0,P|364:164|428:116,1,131.99999597168,2|8,0:2|0:2,0:0:0:0:
348,88,339914,1,0,0:0:0:0:
280,44,340026,21,2,0:2:0:0:
224,100,340138,1,2,0:0:0:0:
152,128,340250,1,0,0:0:0:0:
76,108,340362,1,0,0:0:0:0:
24,48,340474,1,0,0:0:0:0:
36,128,340586,1,0,0:0:0:0:
52,204,340698,21,4,0:0:0:0:
52,204,340773,1,0,0:0:0:0:
52,204,340847,2,0,L|63:267,1,43.9999986572266
80,352,341034,1,0,0:0:0:0:
232,356,341146,5,4,0:0:0:0:
232,356,341220,1,0,0:0:0:0:
232,356,341295,2,0,L|248:277,1,43.9999986572266
256,204,341482,1,0,0:0:0:0:
296,20,341594,37,8,1:2:0:0:
368,56,341705,1,0,0:0:0:0:
436,92,341817,1,0,0:0:0:0:
504,128,341929,1,0,0:0:0:0:
488,308,342041,5,4,0:0:0:0:
424,260,342153,1,0,0:0:0:0:
344,252,342265,1,0,0:0:0:0:
272,284,342377,1,0,0:0:0:0:
200,328,342489,37,8,2:0:0:0:
200,328,342564,1,0,0:0:0:0:
200,328,342638,2,0,L|184:260,1,43.9999986572266,0|2,1:2|0:0,0:0:0:0:
153,111,342825,5,2,0:0:0:0:
377,143,343049,37,2,0:0:0:0:
377,143,343161,1,2,0:0:0:0:
377,143,343385,5,2,0:0:0:0:
237,321,343608,37,2,0:0:0:0:
237,321,343720,1,2,0:0:0:0:
237,321,343944,5,2,0:0:0:0:
153,111,344056,1,0,1:0:0:0:
377,143,344168,1,0,1:0:0:0:
134,240,344280,1,4,1:0:0:0:
275,62,344392,1,0,1:0:0:0:
358,272,344504,38,0,B|432:296|428:256|500:276,1,131.99999597168,4|2,1:0|0:2,0:0:0:0:
464,352,344840,1,0,0:0:0:0:
396,200,344952,2,0,P|352:192|304:208,1,65.9999979858399,2|0,0:2|0:0,0:0:0:0:
237,321,345176,2,0,B|173:309|173:353|105:337,1,131.99999597168,8|2,0:2|0:2,0:0:0:0:
24,316,345511,1,0,0:0:0:0:
220,232,345623,2,0,B|156:220|156:264|88:248,1,131.99999597168,2|0,0:2|0:0,0:0:0:0:
16,224,345959,1,0,0:0:0:0:
112,168,346071,1,2,0:2:0:0:
12,120,346183,1,0,0:0:0:0:
100,72,346295,6,0,B|156:76|156:76|187:61|187:61|247:65,1,131.99999597168,4|4,0:0|0:0,0:0:0:0:
140,0,346631,1,0,0:0:0:0:
208,144,346743,2,0,L|284:148,1,65.9999979858399,2|0,0:2|0:0,0:0:0:0:
432,152,346967,37,8,0:2:0:0:
492,100,347079,1,0,0:0:0:0:
416,72,347191,2,0,P|368:96|356:120,1,65.9999979858399,2|0,0:2|0:0,0:0:0:0:
348,208,347414,5,2,0:2:0:0:
348,208,347526,1,0,0:0:0:0:
324,336,347638,37,0,0:0:0:0:
324,336,347750,1,0,0:0:0:0:
448,288,347862,5,4,1:0:0:0:
448,288,347974,1,0,0:0:0:0:
256,264,348086,38,0,B|188:252|188:252|120:268,1,131.99999597168,0|2,0:0|0:2,0:0:0:0:
188,336,348422,1,0,0:0:0:0:
296,188,348534,2,0,L|232:176,1,65.9999979858399,2|0,0:2|0:0,0:0:0:0:
148,180,348758,2,0,L|84:196,1,65.9999979858399,8|0,0:2|0:0,0:0:0:0:
188,104,348982,1,2,0:2:0:0:
188,104,349094,1,0,0:0:0:0:
120,52,349205,2,0,P|188:64|252:48,1,131.99999597168,2|0,0:2|0:0,0:0:0:0:
336,24,349541,1,0,0:0:0:0:
436,88,349653,1,2,0:2:0:0:
344,140,349765,1,0,0:0:0:0:
448,204,349877,6,0,L|464:348,1,131.99999597168,4|4,0:0|0:0,0:0:0:0:
388,368,350213,1,0,0:0:0:0:
312,344,350325,2,0,P|280:336|240:336,1,65.9999979858399,2|0,0:2|0:0,0:0:0:0:
168,356,350549,2,0,P|128:360|100:352,1,65.9999979858399,8|0,0:2|0:0,0:0:0:0:
44,300,350773,1,0,0:0:0:0:
128,236,350885,1,0,0:0:0:0:
32,180,350997,1,0,0:2:0:0:
116,116,351108,1,0,0:0:0:0:
24,64,351220,2,0,B|76:22|76:22|144:20,1,131.99999597168,0|4,0:2|1:0,0:0:0:0:
328,120,351556,5,0,0:0:0:0:
408,116,351668,1,0,0:0:0:0:
464,60,351780,1,0,0:0:0:0:
488,136,351892,1,2,0:2:0:0:
484,216,352004,1,0,0:0:0:0:
456,292,352116,1,2,0:2:0:0:
388,252,352228,1,0,0:0:0:0:
308,260,352340,1,8,0:2:0:0:
256,320,352452,2,0,P|224:332|188:332,1,65.9999979858399,0|2,0:0|0:2,0:0:0:0:
208,252,352676,1,0,0:0:0:0:
130,236,352788,2,0,P|103:214|85:183,1,65.9999979858399,2|0,0:2|0:0,0:0:0:0:
164,164,353011,1,0,0:0:0:0:
138,88,353123,1,0,0:0:0:0:
220,76,353235,5,2,2:0:0:0:
296,100,353347,2,0,L|368:88,1,65.9999979858399,0|4,0:0|0:0,0:0:0:0:
424,136,353571,1,0,0:0:0:0:
424,136,353683,1,4,0:0:0:0:
440,212,353795,1,0,0:0:0:0:
416,288,353907,2,0,L|344:296,1,65.9999979858399,2|0,0:2|0:0,0:0:0:0:
292,240,354131,22,0,P|316:300|284:364,1,131.99999597168,8|2,0:2|0:2,0:0:0:0:
236,300,354467,1,2,0:0:0:0:
224,184,354579,2,0,P|296:160|364:188,1,131.99999597168,0|0,0:0|0:0,0:0:0:0:
292,240,354914,1,0,0:0:0:0:
236,300,355026,21,4,0:0:0:0:
160,276,355138,1,0,0:0:0:0:
80,284,355250,1,0,0:0:0:0:
16,332,355362,1,0,0:0:0:0:
92,356,355474,1,4,0:0:0:0:
80,284,355586,1,0,0:0:0:0:
68,204,355698,1,0,0:0:0:0:
56,124,355810,1,0,0:0:0:0:
67,38,355922,6,0,P|101:45|129:71,1,65.9999979858399,8|0,1:2|0:0,0:0:0:0:
166,162,356146,1,0,0:0:0:0:
166,162,356258,1,0,0:0:0:0:
41,261,356370,6,0,P|48:226|74:198,1,65.9999979858399,4|0,0:0|0:0,0:0:0:0:
166,162,356594,1,0,0:0:0:0:
166,162,356706,1,0,0:0:0:0:
265,287,356817,38,0,P|230:279|202:253,1,65.9999979858399,8|0,1:2|0:0,0:0:0:0:
166,162,357041,1,0,0:0:0:0:
166,162,357153,1,0,0:0:0:0:
290,63,357265,6,0,P|282:97|256:125,1,65.9999979858399,4|0,0:0|0:0,0:0:0:0:
166,162,357489,1,0,0:0:0:0:
166,162,357601,1,0,0:0:0:0:
76,88,357713,22,0,P|133:56|210:61,1,131.99999597168
263,120,358049,1,0,0:0:0:0:
263,120,358161,2,0,P|303:132|351:128,1,65.9999979858399,0|0,0:0|0:0,0:0:0:0:
492,112,358385,21,0,0:0:0:0:
392,16,358497,1,0,0:0:0:0:
376,200,358608,6,0,L|392:316,2,87.9999973144532,4|0|0,1:0|0:0|0:0,0:0:0:0:
340,368,359056,1,2,0:2:0:0:
340,368,359504,38,0,L|152:348,1,175.999994628906,8|0,0:2|0:0,0:0:0:0:
76,284,359952,2,0,L|64:188,2,87.9999973144532,0|0|0,0:0|0:0|0:0,0:0:0:0:
52,112,360400,2,0,L|236:92,1,175.999994628906,2|0,0:2|0:0,0:0:0:0:
335,71,360847,1,4,0:0:0:0:
366,254,360997,1,0,0:0:0:0:
187,189,361146,1,0,0:0:0:0:
405,157,361295,1,8,0:2:0:0:
226,92,361444,1,0,0:0:0:0:
258,277,361594,1,0,0:2:0:0:
298,176,361743,2,0,P|242:152|182:200,1,131.99999597168
124,320,362079,5,0,0:0:0:0:
124,320,362191,5,0,0:0:0:0:
172,256,362302,1,0,0:0:0:0:
248,240,362414,1,0,0:0:0:0:
320,268,362526,1,0,0:0:0:0:
400,272,362638,22,0,P|436:224|412:136,1,131.99999597168,2|2,0:2|0:2,0:0:0:0:
360,200,362974,1,0,0:0:0:0:
504,136,363086,2,0,P|468:88|392:84,1,131.99999597168,8|2,0:2|0:2,0:0:0:0:
427,155,363422,1,0,0:0:0:0:
400,80,363534,21,2,0:2:0:0:
324,52,363646,1,0,0:0:0:0:
244,64,363758,1,0,0:0:0:0:
200,128,363870,1,0,0:0:0:0:
196,208,363982,22,0,P|200:252|216:280,1,65.9999979858399,2|0,0:2|0:0,0:0:0:0:
302,271,364205,2,0,P|315:240|316:208,1,65.9999979858399,4|0,0:0|0:0,0:0:0:0:
144,324,364429,2,0,P|180:348|208:352,1,65.9999979858399,4|0,0:0|0:0,0:0:0:0:
312,352,364653,2,0,P|343:343|369:324,1,65.9999979858399,2|0,0:2|0:0,0:0:0:0:
424,264,364877,21,8,0:2:0:0:
412,184,364989,1,0,0:0:0:0:
400,104,365101,1,2,0:0:0:0:
388,24,365213,1,0,0:0:0:0:
328,76,365325,2,0,P|272:96|200:76,1,131.99999597168,2|0,0:2|0:2,0:0:0:0:
152,140,365661,1,0,0:0:0:0:
208,196,365773,6,0,P|270:178|332:198,1,131.99999597168,4|0,1:0|0:0,0:0:0:0:
388,256,366108,1,0,0:0:0:0:
432,324,366220,6,0,P|460:292|464:236,1,87.9999973144532
476,164,366519,1,0,0:0:0:0:
344,331,366668,2,0,L|444:323,1,87.9999973144532,8|0,0:2|0:0,0:0:0:0:
476,164,366967,1,0,0:0:0:0:
384,0,367116,2,0,P|380:43|392:85,1,87.9999973144532
476,164,367414,1,0,0:0:0:0:
288,80,367564,6,0,L|192:72,1,87.9999973144532
16,104,367862,1,0,0:0:0:0:
0,224,368011,2,0,P|48:224|88:204,1,87.9999973144532,4|0,0:0|0:0,0:0:0:0:
116,72,368310,1,0,0:0:0:0:
140,268,368459,2,0,P|84:316|172:368,1,175.999994628906,8|0,0:2|0:0,0:0:0:0:
373,378,368907,2,0,P|429:323|373:268,1,175.999994628906
256,324,369355,5,4,0:0:0:0:
256,244,369467,1,0,0:0:0:0:
256,164,369579,1,0,0:0:0:0:
256,84,369691,1,0,0:0:0:0:
256,4,369802,1,4,0:0:0:0:
256,4,370026,22,0,L|216:72,1,65.9999979858399,0|0,0:0|0:0,0:0:0:0:
368,192,370250,2,0,L|334:135,1,65.9999979858399,8|0,1:2|0:0,0:0:0:0:
176,136,370474,2,0,L|136:204,1,65.9999979858399,0|0,0:0|0:0,0:0:0:0:
444,328,370698,2,0,L|410:271,1,65.9999979858399,4|0,0:0|0:0,0:0:0:0:
104,268,370922,2,0,L|64:336,1,65.9999979858399,0|0,0:0|0:0,0:0:0:0:
256,376,371146,5,8,1:2:0:0:
256,376,371258,1,2,0:0:0:0:
256,376,371370,1,2,0:0:0:0:
256,376,371482,1,2,0:0:0:0:
256,52,371705,1,2,0:0:0:0:
256,52,371817,1,2,0:0:0:0:
120,192,372041,1,0,0:0:0:0:
392,192,372265,1,0,0:0:0:0:
392,192,372377,1,0,0:0:0:0:
392,192,372489,2,0,P|352:172|320:168,1,65.9999979858399,0|0,0:0|0:0,0:0:0:0:
188,74,372713,2,0,P|190:118|203:148,1,65.9999979858399,0|0,0:0|0:0,0:0:0:0:
256,312,372937,5,0,0:0:0:0:
