osu file format v14

[General]
AudioFilename: audio.mp3
AudioLeadIn: 0
PreviewTime: 73544
Countdown: 1
SampleSet: Soft
StackLeniency: 0.3
Mode: 0
LetterboxInBreaks: 0
WidescreenStoryboard: 1

[Editor]
Bookmarks: 22334,29582,44488,59257,62873,62988,63104,63219,63334,74027,88776,103575,118197,132967,147736,158813,162505,177274,180967,185813,186505,201274,216044,230813,238197,245582,259890,264044,278813,292659,300104
DistanceSpacing: 1
BeatDivisor: 4
GridSize: 4
TimelineZoom: 1.900001

[Metadata]
Title:Speedom (WWC2) (feat. Eminem & Krizz Kaliko)
TitleUnicode:Speedom (WWC2) (feat. Eminem & Krizz Kaliko)
Artist:Tech N9ne
ArtistUnicode:Tech N9ne
Creator:Mismagius
Version:Intense
Source:
Tags:hip hop rap english twista worldwide choppers hytaa special effects
BeatmapID:3530695
BeatmapSetID:757802

[Difficulty]
HPDrainRate:4
CircleSize:4
OverallDifficulty:8.5
ApproachRate:9.2
SliderMultiplier:2.2
SliderTickRate:1

[Events]
//Background and Video events
0,0,"wallpaper-2924699.jpg",0,0
//Break Periods
2,162705,173012
2,215897,222397
//Storyboard Layer 0 (Background)
//Storyboard Layer 1 (Fail)
//Storyboard Layer 2 (Pass)
//Storyboard Layer 3 (Foreground)
//Storyboard Layer 4 (Overlay)
//Storyboard Sound Samples

[TimingPoints]
44,461.538461538462,4,2,9,70,1,0
5582,-66.6666666666667,4,2,9,70,0,0
5813,-100,4,2,9,70,0,0
7428,-66.6666666666667,4,2,9,70,0,0
7659,-100,4,2,9,70,0,0
20120,-66.6666666666667,4,2,9,70,0,0
20351,-100,4,2,9,70,0,0
22197,-66.6666666666667,4,2,9,70,0,0
22428,-100,4,2,9,70,0,0
36101,-100,4,2,9,10,0,0
36159,-100,4,2,9,70,0,0
36217,-100,4,2,9,10,0,0
36274,-100,4,2,9,70,0,0
36447,-100,4,2,9,10,0,0
36505,-100,4,2,9,70,0,0
49197,-66.6666666666667,4,2,9,70,0,0
49428,-100,4,2,9,70,0,0
49486,-100,4,2,9,10,0,0
49544,-100,4,2,9,70,0,0
49601,-100,4,2,9,10,0,0
49659,-100,4,2,9,70,0,0
49717,-100,4,2,9,10,0,0
49774,-100,4,2,9,70,0,0
49832,-100,4,2,9,10,0,0
49890,-100,4,2,9,70,0,0
55428,-66.6666666666667,4,2,9,70,0,0
55774,-100,4,2,9,70,0,0
57274,-250,4,2,9,70,0,0
58197,-100,4,2,9,70,0,0
73890,-100,4,2,9,70,0,1
84582,-100,4,2,9,10,0,1
84659,-100,4,2,9,70,0,1
84736,-100,4,2,9,10,0,1
84813,-100,4,2,9,70,0,1
84890,-100,4,2,9,10,0,1
84967,-100,4,2,9,70,0,1
89582,-83.3333333333333,4,2,9,70,0,1
89928,-83.3333333333333,4,2,9,5,0,1
90044,-83.3333333333333,4,2,9,70,0,1
90274,-100,4,2,9,70,0,1
94428,-55.5555555555556,4,2,9,70,0,1
95120,-90.9090909090909,4,2,9,70,0,1
96044,-100,4,2,9,70,0,1
96967,-76.9230769230769,4,2,9,70,0,1
97313,-76.9230769230769,4,2,9,5,0,1
97428,-76.9230769230769,4,2,9,70,0,1
97659,-100,4,2,9,70,0,1
99044,-100,4,2,9,5,0,1
99120,-100,4,2,9,70,0,1
99197,-100,4,2,9,5,0,1
99274,-100,4,2,9,70,0,1
99351,-100,4,2,9,5,0,1
99428,-100,4,2,9,70,0,1
99505,-100,4,2,9,10,0,1
99582,-100,4,2,9,70,0,1
99659,-100,4,2,9,5,0,1
99736,-100,4,2,9,70,0,1
101582,-55.5555555555556,4,2,9,70,0,1
102505,-90.9090909090909,4,2,9,70,0,1
102967,-55.5555555555556,4,2,9,70,0,1
103082,-55.5555555555556,4,2,9,5,0,1
103428,-100,4,2,9,70,0,0
105659,-100,4,2,9,40,0,0
105736,-100,4,2,9,70,0,0
109890,-133.333333333333,4,2,9,70,0,0
110582,-100,4,2,9,70,0,0
124947,-100,4,2,9,5,0,0
125005,-100,4,2,9,70,0,0
125063,-100,4,2,9,5,0,0
125120,-100,4,2,9,70,0,0
138101,-100,4,2,9,10,0,0
138159,-100,4,2,9,70,0,0
138217,-100,4,2,9,10,0,0
138274,-100,4,2,9,70,0,0
138332,-100,4,2,9,10,0,0
138390,-100,4,2,9,70,0,0
138447,-100,4,2,9,10,0,0
138505,-100,4,2,9,70,0,0
143659,-100,4,2,9,5,0,0
143736,-100,4,2,9,70,0,0
143813,-100,4,2,9,5,0,0
143890,-100,4,2,9,70,0,0
143967,-100,4,2,9,5,0,0
144044,-100,4,2,9,70,0,0
145890,-166.666666666667,4,2,9,70,0,0
146813,-100,4,2,9,70,0,0
158813,-55.5555555555556,4,2,9,70,0,0
160197,-66.6666666666667,4,2,9,70,0,0
161659,-66.6666666666667,4,2,9,5,0,0
161736,-66.6666666666667,4,2,9,70,0,0
161813,-66.6666666666667,4,2,9,5,0,0
161890,-66.6666666666667,4,2,9,70,0,0
161967,-66.6666666666667,4,2,9,5,0,0
162044,-66.6666666666667,4,2,9,70,0,0
162120,-66.6666666666667,4,2,9,5,0,0
162197,-66.6666666666667,4,2,9,70,0,0
162274,-66.6666666666667,4,2,9,5,0,0
162351,-66.6666666666667,4,2,9,70,0,0
162428,-66.6666666666667,4,2,9,5,0,0
162505,-66.6666666666667,4,2,9,70,0,0
169890,-100,4,2,9,70,0,0
177159,-100,4,2,9,5,0,0
177274,-100,4,2,9,70,0,0
186505,-100,4,2,9,70,0,1
197197,-100,4,2,9,5,0,1
197274,-100,4,2,9,70,0,1
197351,-100,4,2,9,5,0,1
197428,-100,4,2,9,70,0,1
197505,-100,4,2,9,5,0,1
197582,-100,4,2,9,70,0,1
202197,-83.3333333333333,4,2,9,70,0,1
202543,-83.3333333333333,4,2,9,5,0,1
202659,-83.3333333333333,4,2,9,70,0,1
202890,-100,4,2,9,70,0,1
207044,-55.5555555555556,4,2,9,70,0,1
207736,-90.9090909090909,4,2,9,70,0,1
208659,-100,4,2,9,70,0,1
209582,-83.3333333333333,4,2,9,70,0,1
210274,-100,4,2,9,70,0,1
211659,-100,4,2,9,5,0,1
211736,-100,4,2,9,70,0,1
211813,-100,4,2,9,5,0,1
211890,-100,4,2,9,70,0,1
211967,-100,4,2,9,5,0,1
212044,-100,4,2,9,70,0,1
212120,-100,4,2,9,5,0,1
212197,-100,4,2,9,70,0,1
212274,-100,4,2,9,5,0,1
212351,-100,4,2,9,70,0,1
214197,-55.5555555555556,4,2,9,70,0,1
215120,-90.9090909090909,4,2,9,70,0,1
215582,-55.5555555555556,4,2,9,70,0,1
215697,-55.5555555555556,4,2,9,5,0,1
216044,-100,4,2,9,70,0,0
245063,-100,4,2,9,5,0,0
245120,-100,4,2,9,70,0,0
248467,-100,4,2,9,5,0,0
248582,-100,4,2,9,70,0,0
250890,-66.6666666666667,4,2,9,70,0,0
251120,-100,4,2,9,70,0,0
256428,-66.6666666666667,4,2,9,70,0,0
256659,-100,4,2,9,70,0,0
264044,-100,4,2,9,70,0,1
274736,-100,4,2,9,10,0,1
274813,-100,4,2,9,70,0,1
274890,-100,4,2,9,10,0,1
274967,-100,4,2,9,70,0,1
275044,-100,4,2,9,10,0,1
275120,-100,4,2,9,70,0,1
279736,-83.3333333333333,4,2,9,70,0,1
280428,-100,4,2,9,70,0,1
284351,-55.5555555555556,4,2,9,70,0,1
285274,-90.9090909090909,4,2,9,70,0,1
286197,-100,4,2,9,70,0,1
287120,-76.9230769230769,4,2,9,70,0,1
287813,-100,4,2,9,70,0,1
289197,-100,4,2,9,5,0,1
289274,-100,4,2,9,70,0,1
289351,-100,4,2,9,5,0,1
289428,-100,4,2,9,70,0,1
289505,-100,4,2,9,5,0,1
289582,-100,4,2,9,70,0,1
289659,-100,4,2,9,5,0,1
289736,-100,4,2,9,70,0,1
289813,-100,4,2,9,5,0,1
289890,-100,4,2,9,70,0,1
292659,-100,4,2,9,70,0,0

[Colours]
Combo1 : 155,156,133
Combo2 : 255,255,128
Combo3 : 226,221,24
Combo4 : 152,166,74

[HitObjects]
90,167,44,6,0,P|76:137|76:108,2,55,4|0|0,3:1|2:2|2:2,2:2:0:0:
155,208,390,1,0,2:2:0:0:
155,208,505,2,0,P|167:232|170:259,1,55,2|2,2:2|2:2,0:0:0:0:
246,272,736,2,0,P|237:298|220:319,1,55,0|2,1:2|2:2,0:0:0:0:
153,358,967,1,2,2:2:0:0:
153,358,1082,1,0,2:2:0:0:
153,358,1197,2,0,L|86:351,1,55,2|0,2:2|2:2,2:2:0:0:
54,288,1428,2,0,L|-13:281,2,55,2|2|2,1:2|2:2|2:2,0:0:0:0:
169,185,1890,6,0,P|202:115|185:69,1,110,2|2,1:2|2:2,2:2:0:0:
157,24,2236,1,0,2:2:0:0:
157,24,2351,2,0,P|212:15|224:20,1,55,2|2,2:2|2:2,0:0:0:0:
287,40,2582,1,0,1:2:0:0:
287,40,2697,2,0,P|322:83|323:96,2,55,2|2|0,2:2|2:2|2:2,2:2:0:0:
247,107,3044,1,2,2:2:0:0:
247,107,3159,1,0,1:2:0:0:
247,107,3274,2,0,L|241:168,1,55,2|2,1:2|1:2,0:0:0:0:
318,152,3505,2,0,L|312:213,1,55,2|0,1:2|1:2,2:2:0:0:
253,256,3736,6,0,L|391:228,1,110,2|2,1:2|2:2,2:2:0:0:
430,196,4082,1,0,2:2:0:0:
430,196,4197,2,0,P|442:235|439:257,1,55,2|2,2:2|2:2,0:0:0:0:
495,310,4428,1,0,1:2:0:0:
495,310,4543,2,0,P|475:346|458:359,1,55,2|0,2:2|2:2,2:2:0:0:
389,368,4774,1,2,2:2:0:0:
331,315,4890,2,0,L|302:249,1,55,2|0,2:2|2:2,0:0:0:0:
238,295,5120,2,0,L|267:361,2,55,2|2|2,1:2|2:2|2:2,0:0:0:0:
29,193,5582,6,0,B|46:210|46:210|113:194,1,82.5000031471254,2|0,1:1|2:2,2:2:0:0:
178,177,5813,5,2,2:2:0:0:
178,177,5928,1,0,2:2:0:0:
178,177,6044,2,0,P|185:137|172:107,1,55,2|2,2:2|2:2,0:0:0:0:
130,66,6274,1,0,1:2:0:0:
206,52,6390,2,0,P|199:12|212:-18,2,55,2|0|2,2:2|2:2|2:2,0:0:0:0:
259,107,6736,1,2,2:2:0:0:
335,115,6851,1,0,1:2:0:0:
409,93,6967,2,0,L|465:76,1,55,2|2,1:2|1:2,2:2:0:0:
498,9,7197,1,2,1:2:0:0:
412,223,7428,6,0,B|421:237|421:237|402:320,1,82.5000031471254,2|0,1:1|0:0,0:0:0:0:
360,363,7659,6,0,P|318:368|300:360,1,55,2|0,2:2|2:2,2:2:0:0:
240,323,7890,2,0,P|272:283|263:215,1,110,2|2,0:2|1:2,0:2:0:0:
214,170,8236,2,0,P|188:158|146:161,1,55,2|0,0:2|0:2,0:0:0:0:
145,81,8467,2,0,P|118:90|90:122,1,55,2|0,0:2|0:2,0:0:0:0:
67,178,8697,1,2,0:2:0:0:
69,255,8813,2,0,P|68:283|87:321,2,55,2|0|2,1:2|0:0|0:2,0:2:0:0:
145,266,9159,6,0,L|228:254,1,55,2|0,0:2|1:2,0:0:0:0:
221,183,9390,2,0,L|304:171,2,55,2|2|0,0:2|0:2|0:2,0:0:0:0:
153,145,9736,2,0,L|70:157,1,55,2|0,0:2|0:2,0:2:0:0:
57,87,9967,2,0,L|-26:99,2,55,0|2|0,1:2|0:2|0:2,0:0:0:0:
109,30,10313,1,2,0:2:0:0:
109,30,10428,2,0,L|192:18,1,55,0|0,0:2|1:2,0:2:0:0:
227,65,10659,1,2,1:2:0:0:
303,55,10774,1,0,1:2:0:0:
379,45,10890,1,2,1:2:0:0:
455,35,11005,1,0,1:2:0:0:
455,35,11120,6,0,P|465:69|462:102,1,55,2|2,1:2|0:2,0:0:0:0:
405,138,11351,1,0,0:2:0:0:
458,193,11467,2,0,P|448:227|451:260,1,55,2|0,0:2|0:2,0:0:0:0:
480,316,11697,1,2,0:2:0:0:
419,364,11813,2,0,L|329:350,1,55,2|2,1:2|0:2,0:2:0:0:
316,295,12044,2,0,L|226:281,1,55,2|0,0:2|0:2,0:0:0:0:
200,330,12274,1,2,0:2:0:0:
200,330,12390,1,2,0:2:0:0:
200,330,12505,2,0,P|126:331|88:354,1,110,2|2,1:2|0:2,0:2:0:0:
26,381,12851,1,2,0:2:0:0:
32,303,12967,6,0,P|32:259|26:239,1,55,2|0,1:2|0:2,0:2:0:0:
83,193,13197,1,2,0:2:0:0:
156,216,13313,2,0,P|156:260|150:280,1,55,2|0,0:2|0:2,0:2:0:0:
224,309,13544,2,0,P|192:340|174:350,1,55,2|2,0:2|1:2,0:0:0:0:
235,230,13774,2,0,P|266:198|284:188,1,55,2|2,0:2|0:2,0:0:0:0:
350,173,14005,1,2,0:2:0:0:
423,194,14120,1,2,0:2:0:0:
465,258,14236,1,2,1:2:0:0:
465,258,14351,2,0,L|451:328,1,55,2|0,1:2|1:2,0:0:0:0:
378,327,14582,2,0,L|364:397,1,55,2|0,1:2|1:2,0:0:0:0:
314,275,14813,5,6,3:1:0:0:
449,147,15044,2,0,L|460:81,1,55,2|0,0:2|0:2,0:2:0:0:
497,26,15274,2,0,L|386:65,1,110,2|2,0:2|1:2,0:2:0:0:
342,121,15620,1,0,0:2:0:0:
272,87,15736,2,0,P|270:49|276:26,1,55,2|0,3:2|0:2,0:0:0:0:
342,121,15967,2,0,L|231:160,2,110,2|2|2,0:2|1:2|0:2,0:2:0:0:
407,161,16544,1,0,0:2:0:0:
474,198,16659,6,0,L|487:282,1,55,2|2,3:2|0:2,0:0:0:0:
405,258,16890,2,0,L|418:342,1,55,0|2,0:2|0:2,0:0:0:0:
319,206,17120,2,0,L|332:290,1,55,2|2,0:2|0:2,0:0:0:0:
250,266,17351,2,0,L|263:350,1,55,0|2,1:2|0:2,0:0:0:0:
194,363,17582,1,0,3:2:0:0:
194,363,17697,1,2,0:2:0:0:
194,363,17813,2,0,P|149:374|126:371,1,55,2|0,0:2|1:2,0:0:0:0:
72,337,18044,2,0,P|61:292|64:269,1,55,2|0,1:2|1:2,1:2:0:0:
98,215,18274,2,0,P|143:204|166:207,1,55,0|2,1:2|1:2,1:2:0:0:
215,247,18505,5,2,3:2:0:0:
288,270,18620,1,2,0:2:0:0:
362,249,18736,2,0,L|375:168,2,55,0|2|2,0:2|0:2|0:2,0:0:0:0:
386,322,19082,2,0,L|373:403,1,55,0|2,0:2|1:2,0:0:0:0:
305,348,19313,1,2,0:2:0:0:
288,270,19428,2,0,L|275:189,2,55,0|2|2,3:2|0:2|0:2,0:0:0:0:
150,340,19890,2,0,L|82:329,1,55,2|0,1:2|0:2,0:2:0:0:
25,240,20120,6,0,B|45:252|45:252|101:232,1,82.5000031471254,2|2,0:1|0:2,0:2:0:0:
174,209,20351,5,0,3:2:0:0:
193,134,20467,1,2,0:2:0:0:
149,70,20582,1,2,0:2:0:0:
75,46,20697,1,2,0:2:0:0:
9,87,20813,2,0,P|12:124|22:147,1,55,0|2,0:2|0:2,0:0:0:0:
86,177,21044,2,0,P|94:203|95:230,1,55,0|2,1:2|0:2,0:0:0:0:
57,297,21274,1,0,3:2:0:0:
57,297,21390,1,2,0:2:0:0:
57,297,21505,2,0,P|115:288|170:316,2,110,2|2|2,0:2|1:2|1:2,0:2:0:0:
12,360,22082,1,2,1:2:0:0:
12,360,22197,6,0,B|18:330|18:330|1:263,1,82.5000031471254,6|0,3:1|0:2,0:2:0:0:
45,213,22428,2,0,P|34:157|45:104,2,110,2|2|0,0:2|0:2|1:2,0:2:0:0:
111,253,23005,1,2,0:2:0:0:
187,246,23120,1,0,3:2:0:0:
244,193,23236,1,2,0:2:0:0:
249,116,23351,1,2,0:2:0:0:
203,53,23467,2,0,P|176:45|144:47,1,55,2|0,0:2|1:2,0:0:0:0:
165,125,23697,2,0,P|140:138|119:162,2,55,2|2|0,0:2|0:2|0:2,0:2:0:0:
231,161,24044,1,0,3:2:0:0:
307,152,24159,1,0,0:2:0:0:
356,93,24274,2,0,P|359:46|350:23,1,55,2|0,0:2|0:2,0:2:0:0:
283,63,24505,2,0,P|237:71|170:27,1,110,2|0,0:2|1:2,0:2:0:0:
118,88,24851,1,2,0:2:0:0:
118,88,24967,6,0,L|55:99,1,55,0|2,3:2|0:2,0:0:0:0:
87,170,25197,2,0,L|24:181,2,55,0|2|0,0:2|1:2|1:2,0:0:0:0:
139,227,25544,2,0,P|157:260|160:288,1,55,2|0,1:2|1:2,0:0:0:0:
163,357,25774,1,2,1:2:0:0:
163,357,25890,2,0,P|199:346|220:328,1,55,0|2,3:2|0:2,0:0:0:0:
250,269,26120,2,0,P|301:289|355:284,2,110,2|2|0,0:2|0:2|1:2,0:2:0:0:
208,203,26697,5,2,0:2:0:0:
208,125,26813,1,0,3:2:0:0:
260,69,26928,1,2,0:2:0:0:
335,53,27044,1,2,0:2:0:0:
401,91,27159,1,0,0:2:0:0:
423,164,27274,2,0,L|411:221,2,55,2|2|2,1:2|0:2|0:2,0:2:0:0:
476,107,27620,1,0,0:2:0:0:
255,295,27967,5,2,0:1:0:0:
255,295,28197,1,2,0:1:0:0:
174,16,28659,6,0,L|162:89,1,55,2|2,0:1|0:1,0:0:0:0:
242,74,28890,2,0,L|230:147,1,55,0|2,0:1|0:1,0:0:0:0:
158,145,29120,2,0,L|146:218,1,55,2|0,0:1|0:1,0:0:0:0:
226,203,29351,2,0,L|214:276,1,55,2|2,0:1|0:1,0:0:0:0:
151,298,29582,6,0,P|114:301|90:309,2,55,6|2|2,3:1|0:1|0:1,0:1:0:0:
205,352,29928,1,2,0:1:0:0:
280,370,30044,2,0,L|350:353,1,55,0|0,0:1|0:1,0:1:0:0:
370,289,30274,2,0,L|440:272,1,55,2|2,0:1|0:1,0:0:0:0:
454,205,30505,1,8,0:1:0:0:
454,205,30620,2,0,P|461:165|455:142,2,55,2|2|0,0:1|0:1|0:1,0:0:0:0:
382,173,30967,1,2,0:1:0:0:
307,155,31082,1,0,0:1:0:0:
232,136,31197,2,0,L|174:150,1,55,2|0,0:1|0:1,0:1:0:0:
285,79,31428,6,0,L|343:65,1,55,2|0,0:1|0:1,0:0:0:0:
387,5,31659,1,2,3:1:0:0:
458,33,31774,1,2,0:1:0:0:
410,93,31890,2,0,L|431:176,1,55,2|2,3:1|0:1,0:1:0:0:
493,115,32120,2,0,L|514:198,1,55,2|0,0:1|0:1,0:0:0:0:
446,217,32351,1,10,2:1:0:0:
446,217,32467,2,0,L|467:300,1,55,0|2,0:1|0:1,0:0:0:0:
390,303,32697,2,0,L|411:386,2,55,2|2|2,0:1|0:1|0:1,0:0:0:0:
325,258,33044,2,0,P|286:250|258:253,1,55,2|0,0:1|0:1,0:1:0:0:
198,274,33274,5,2,3:1:0:0:
124,298,33390,1,2,0:1:0:0:
56,262,33505,1,2,0:1:0:0:
18,194,33620,1,0,0:1:0:0:
18,194,33736,2,0,P|15:157|21:131,2,55,2|0|0,0:1|0:1|0:1,0:0:0:0:
92,172,34082,2,0,P|116:143|138:129,2,55,2|8|2,0:1|0:1|0:3,0:0:0:0:
162,204,34428,2,0,L|230:210,1,55,0|2,0:1|0:1,0:1:0:0:
260,144,34659,2,0,L|328:150,1,55,2|0,0:1|0:1,0:0:0:0:
358,84,34890,2,0,L|426:90,1,55,2|0,0:1|0:1,0:0:0:0:
446,163,35120,5,0,0:1:0:0:
446,163,35236,2,0,L|514:169,2,55,0|2|0,0:1|3:1|0:1,0:0:0:0:
381,205,35582,2,0,P|376:245|381:270,1,55,0|2,3:1|0:1,0:1:0:0:
308,292,35813,2,0,P|332:323|353:337,1,55,0|0,0:1|0:1,0:1:0:0:
292,211,36044,2,0,P|252:206|227:211,2,55,10|0|0,0:1|0:1|0:1,0:1:0:0:
340,150,36390,2,0,P|380:145|404:150,2,55,2|0|0,0:1|3:1|0:1,0:1:0:0:
268,119,36736,2,0,L|252:56,1,55,2|0,3:1|0:1,0:1:0:0:
178,52,36967,5,6,3:1:0:0:
102,38,37082,2,0,P|79:96|117:180,1,110,2|0,0:1|0:1,0:1:0:0:
150,186,37428,1,2,0:1:0:0:
87,141,37544,2,0,P|64:199|102:283,1,110,2|0,0:1|0:1,0:1:0:0:
135,289,37890,1,10,0:1:0:0:
72,244,38006,2,0,P|49:302|87:386,1,110,2|0,0:1|0:1,0:1:0:0:
129,372,38351,2,0,L|196:360,1,55,2|0,0:1|0:1,0:0:0:0:
228,299,38582,2,0,L|295:287,1,55,0|0,0:1|0:1,0:1:0:0:
338,235,38813,5,2,3:1:0:0:
338,235,38928,2,0,P|359:280|358:303,2,55,2|0|0,0:1|3:1|0:1,0:1:0:0:
340,154,39274,1,2,3:1:0:0:
340,154,39389,2,0,P|386:170|402:187,2,55,2|0|0,0:1|3:1|0:1,0:1:0:0:
284,95,39736,1,10,0:1:0:0:
284,95,39851,2,0,P|328:74|352:74,2,55,2|0|0,3:1|0:0|3:1,0:1:0:0:
217,135,40197,6,0,B|186:119|186:119|129:133,2,73.3333333333333,2|0|0,3:1|3:1|3:1,0:0:0:0:
273,221,40659,5,2,3:1:0:0:
273,221,40774,2,0,P|281:277|256:333,1,110,2|0,0:1|0:1,0:1:0:0:
197,366,41120,1,2,0:1:0:0:
197,366,41235,2,0,P|141:374|85:349,1,110,2|0,0:1|0:1,0:1:0:0:
52,290,41582,1,10,0:1:0:0:
52,290,41697,2,0,P|44:234|69:178,1,110,2|0,0:1|0:1,0:1:0:0:
141,182,42044,2,0,P|151:139|148:115,1,55,2|0,0:1|0:1,0:0:0:0:
223,104,42274,2,0,P|199:66|180:51,1,55,0|0,0:1|0:1,0:1:0:0:
120,28,42505,5,2,3:1:0:0:
45,47,42620,1,2,0:1:0:0:
26,200,42851,5,0,0:1:0:0:
101,219,42966,1,2,3:1:0:0:
26,200,43082,2,0,L|43:318,1,110,2|0,0:1|0:1,0:0:0:0:
116,327,43428,2,0,L|124:389,1,55,2|2,3:1|3:1,3:1:0:0:
187,290,43659,2,0,L|195:227,1,55,0|0,3:1|3:1,3:1:0:0:
256,330,43890,2,0,L|264:392,1,55,2|0,3:1|3:1,0:0:0:0:
327,293,44121,2,0,L|335:230,1,55,0|0,3:1|3:1,0:0:0:0:
408,258,44351,6,0,L|425:139,1,110,6|0,3:1|0:2,0:1:0:0:
487,104,44697,1,0,0:1:0:0:
487,104,44813,2,0,P|445:73|423:70,1,55,0|0,0:1|0:1,0:0:0:0:
394,12,45044,2,0,L|324:33,1,55,2|0,0:1|0:1,0:1:0:0:
282,77,45274,6,0,L|212:55,2,55,8|0|0,2:1|0:1|0:1,0:0:0:0:
310,149,45620,1,0,0:1:0:0:
310,149,45736,2,0,L|379:170,1,55,2|0,0:1|0:1,0:1:0:0:
408,239,45967,1,0,0:1:0:0:
408,239,46082,1,0,0:1:0:0:
408,239,46197,6,0,P|442:202|442:133,1,110,2|0,0:1|3:1,0:1:0:0:
427,68,46544,1,0,0:1:0:0:
353,46,46659,1,0,3:1:0:0:
288,87,46774,1,0,0:1:0:0:
265,161,46890,2,0,P|220:175|196:169,1,55,2|0,0:1|0:1,0:1:0:0:
195,248,47120,2,0,P|153:226|140:204,1,55,8|0,0:1|0:1,0:0:0:0:
80,184,47351,5,2,0:1:0:0:
80,184,47467,1,2,0:1:0:0:
80,184,47582,2,0,L|65:106,1,55,2|2,0:1|0:1,0:0:0:0:
38,250,47813,2,0,L|23:328,1,55,2|2,0:1|0:1,0:1:0:0:
99,354,48044,5,2,3:1:0:0:
99,354,48159,1,0,0:1:0:0:
99,354,48274,2,0,P|143:354|178:338,1,55,0|2,0:1|0:1,0:0:0:0:
223,319,48505,2,0,P|254:287|267:251,2,55,0|0|0,0:1|0:1|0:1,0:1:0:0:
191,248,48851,2,0,P|191:204|175:169,2,55,2|8|0,0:1|0:1|0:1,0:1:0:0:
114,227,49197,6,0,B|101:208|101:208|122:130,1,82.5000031471254,2|0,0:2|0:1,0:1:0:0:
135,75,49428,5,2,0:3:0:0:
203,111,49544,1,2,0:3:0:0:
270,74,49659,1,2,0:3:0:0:
338,110,49775,1,2,0:3:0:0:
403,70,49890,2,0,L|462:52,1,55,2|0,0:3|0:3,0:3:0:0:
500,116,50120,6,0,P|505:147|500:177,1,55,2|0,3:1|0:1,0:0:0:0:
426,150,50351,2,0,P|423:177|428:204,1,55,2|2,3:1|0:1,0:0:0:0:
476,264,50582,1,2,0:1:0:0:
403,290,50697,1,0,0:1:0:0:
330,317,50813,2,0,L|321:374,1,55,10|0,0:1|0:1,0:1:0:0:
273,258,51044,2,0,L|282:201,2,55,0|2|0,0:1|0:1|3:1,0:0:0:0:
214,308,51390,1,2,0:1:0:0:
214,308,51505,2,0,P|172:308|156:302,1,55,0|0,3:1|0:1,0:0:0:0:
118,369,51736,6,0,P|88:339|81:323,1,55,4|2,3:1|0:1,0:1:0:0:
61,253,51967,1,2,0:1:0:0:
61,253,52082,2,0,P|61:211|66:195,1,55,0|2,0:1|0:1,0:0:0:0:
102,131,52313,1,0,0:1:0:0:
102,131,52428,2,0,P|108:104|106:77,1,55,0|2,0:1|0:1,0:0:0:0:
34,47,52659,2,0,P|27:73|29:100,2,55,8|2|0,0:1|0:1|0:1,0:1:0:0:
97,2,53005,1,0,0:1:0:0:
97,2,53120,2,0,L|164:14,1,55,2|0,0:1|0:1,0:0:0:0:
210,76,53351,1,0,0:1:0:0:
210,76,53467,1,2,0:1:0:0:
210,76,53582,6,0,L|274:63,1,55,0|0,3:1|0:1,0:0:0:0:
340,54,53813,2,0,L|353:118,1,55,2|0,3:1|0:1,0:0:0:0:
362,184,54044,2,0,L|298:197,1,55,2|0,3:1|0:1,0:0:0:0:
232,206,54274,2,0,L|219:142,1,55,0|2,3:1|0:1,0:0:0:0:
210,76,54505,1,8,0:1:0:0:
210,76,54620,1,2,3:1:0:0:
210,76,54736,2,0,P|153:73|136:79,1,55,0|0,0:1|3:1,0:0:0:0:
100,126,54967,6,0,B|80:133|80:133|14:119,2,73.3333333333333,2|0|0,3:1|3:1|3:1,0:0:0:0:
160,177,55428,6,0,B|169:199|169:199|118:300|118:300|132:324,1,165.000006294251,2|0,3:2|0:1,0:1:0:0:
186,378,55774,1,0,0:1:0:0:
186,378,55890,6,0,L|273:360,1,55,2|0,0:1|0:1,0:0:0:0:
271,296,56120,1,0,0:1:0:0:
271,296,56236,2,0,L|358:278,2,55,2|8|2,0:1|0:1|0:1,0:0:0:0:
199,267,56582,2,0,P|193:219|197:199,1,55,0|0,0:1|0:1,0:0:0:0:
123,181,56813,2,0,P|152:142|169:131,2,55,2|0|0,0:1|0:1|0:1,0:0:0:0:
79,244,57159,1,2,0:1:0:0:
79,244,57274,6,0,L|41:233,2,22,4|0|0,0:3|0:2|0:2,0:2:0:0:
92,323,57620,2,0,L|54:312,2,22,4|0|0,0:3|0:2|0:2,0:2:0:0:
150,269,57967,2,0,L|188:280,1,22,4|0,0:3|0:2,0:2:0:0:
218,335,58197,5,8,2:1:0:0:
294,320,58313,1,2,3:1:0:0:
369,305,58428,1,0,3:2:0:0:
445,291,58544,1,0,3:2:0:0:
445,291,58659,2,0,P|455:251|456:226,1,55,2|0,3:1|3:2,0:0:0:0:
503,175,58890,2,0,P|481:139|464:121,1,55,0|0,3:2|3:2,0:0:0:0:
402,97,59120,5,0,0:2:0:0:
402,97,59236,2,0,L|421:32,2,55,2|2|0,0:2|0:2|0:2,0:0:0:0:
363,164,59582,2,0,P|318:136|262:146,1,110,2|2,0:2|0:2,0:2:0:0:
226,212,59928,1,0,0:2:0:0:
263,279,60044,2,0,P|209:287|164:259,1,110,8|2,0:3|0:2,0:2:0:0:
91,287,60390,1,2,0:2:0:0:
91,287,60505,2,0,P|92:240|97:227,1,55,2|0,0:2|0:2,0:0:0:0:
143,173,60736,1,0,0:2:0:0:
143,173,60851,6,0,L|27:202,1,110,2|0,0:2|0:2,0:2:0:0:
36,122,61197,2,0,L|152:93,1,110,2|0,0:2|0:2,0:2:0:0:
184,29,61544,1,0,0:2:0:0:
184,29,61659,2,0,L|253:46,1,55,2|0,0:2|0:2,0:2:0:0:
276,109,61890,2,0,L|345:91,1,55,8|0,0:3|0:2,0:2:0:0:
369,30,62120,1,2,0:2:0:0:
441,56,62236,1,0,0:2:0:0:
484,119,62351,1,2,0:2:0:0:
481,196,62467,1,0,0:2:0:0:
481,196,62582,2,0,L|469:235,4,27.5,0|0|0|0|0,0:2|0:2|0:2|0:2|0:2,0:0:0:0:
303,270,63044,6,0,P|254:261|191:299,1,110,2|2,0:1|0:1,0:0:0:0:
149,343,63390,1,0,0:2:0:0:
149,343,63505,2,0,P|126:290|127:281,1,55,2|0,0:2|0:2,0:0:0:0:
48,294,63736,2,0,P|69:240|76:234,1,55,8|0,0:3|0:2,0:0:0:0:
11,188,63967,2,0,P|64:165|73:166,1,55,2|0,0:2|0:2,0:0:0:0:
59,86,64197,2,0,P|112:107|118:114,1,55,2|0,0:2|0:2,0:2:0:0:
165,47,64428,2,0,P|187:100|186:109,1,55,2|0,0:2|0:2,0:2:0:0:
155,168,64659,5,0,0:2:0:0:
155,168,64774,1,0,0:2:0:0:
155,168,64890,2,0,P|220:170|259:129,2,110,2|2|0,0:2|0:2|0:2,0:2:0:0:
95,217,65467,1,2,0:2:0:0:
95,217,65582,2,0,P|99:272|109:298,1,55,8|0,0:3|0:2,0:0:0:0:
170,301,65813,2,0,P|174:328|173:355,1,55,2|0,0:2|0:2,0:0:0:0:
232,248,66044,2,0,P|236:193|246:167,1,55,2|0,0:2|0:2,0:2:0:0:
278,313,66275,2,0,P|282:340|281:367,1,55,2|0,0:2|0:2,0:2:0:0:
341,254,66505,5,0,0:2:0:0:
341,254,66620,2,0,L|396:261,2,55,2|2|2,0:2|0:2|0:2,0:0:0:0:
371,182,66967,2,0,L|426:189,2,55,2|0|0,0:2|0:2|0:2,0:2:0:0:
354,104,67313,1,2,0:2:0:0:
354,104,67428,2,0,L|409:111,2,55,8|0|0,0:3|0:2|0:2,0:0:0:0:
302,45,67774,2,0,L|247:38,1,55,2|0,0:2|0:2,0:0:0:0:
176,7,68005,2,0,P|213:52|204:114,1,110,2|0,0:2|0:2,0:2:0:0:
182,173,68351,6,0,L|105:182,1,55,2|0,0:1|0:2,0:0:0:0:
52,160,68582,2,0,L|61:237,1,55,2|0,0:2|0:2,0:0:0:0:
39,290,68813,2,0,L|116:281,1,55,2|0,0:2|0:2,0:2:0:0:
169,303,69044,2,0,L|160:226,1,55,0|2,0:2|0:2,0:2:0:0:
182,173,69274,2,0,L|173:96,1,55,8|0,0:3|0:2,0:0:0:0:
244,228,69505,2,0,L|250:282,1,55,0|2,0:2|0:2,0:0:0:0:
313,327,69736,2,0,L|316:354,6,27.5,0|0|0|0|0|0|0,0:2|0:2|0:2|0:2|0:2|0:2|0:2,0:0:0:0:
353,261,70197,6,0,P|381:266|420:248,1,55,2|2,0:1|0:2,0:2:0:0:
465,208,70428,1,0,0:2:0:0:
465,208,70544,2,0,P|471:138|438:103,2,110,2|2|0,0:2|0:2|0:2,0:2:0:0:
399,168,71120,2,0,L|336:153,1,55,8|0,0:3|0:2,0:2:0:0:
298,93,71351,1,0,0:2:0:0:
226,122,71467,1,2,0:2:0:0:
181,59,71582,2,0,L|149:51,6,27.5,0|0|0|0|0|0|0,0:2|0:2|0:2|0:2|0:2|0:2|0:2,0:0:0:0:
152,131,72044,5,2,3:2:0:0:
152,131,72159,2,0,P|135:176|145:237,1,110,2|2,0:2|3:2,0:0:0:0:
219,215,72505,2,0,P|236:260|226:321,1,110,2|2,0:2|0:2,0:0:0:0:
163,364,72851,1,0,0:2:0:0:
94,327,72967,5,2,3:2:0:0:
94,327,73082,2,0,B|107:294|107:294|81:220,1,110,2|2,0:2|3:2,0:0:0:0:
53,151,73428,2,0,B|28:80|28:80|41:47,1,110,2|2,0:2|0:1,0:0:0:0:
192,13,73890,6,0,P|231:52|290:45,1,110,4|2,3:1|0:2,0:2:0:0:
350,10,74236,1,0,0:2:0:0:
350,10,74351,2,0,P|361:50|359:71,1,55,0|0,0:2|0:2,0:2:0:0:
324,131,74582,1,2,0:2:0:0:
324,131,74697,1,2,0:2:0:0:
324,131,74813,2,0,P|324:158|334:184,1,55,10|2,0:2|0:2,0:0:0:0:
403,218,75044,2,0,P|412:243|413:271,2,55,2|2|2,0:2|0:2|0:2,0:0:0:0:
296,329,75505,6,0,L|182:351,2,110,2|0|2,0:1|0:2|3:1,0:2:0:0:
342,267,76082,1,0,0:2:0:0:
342,267,76197,2,0,P|346:221|338:198,1,55,0|0,3:2|0:2,0:0:0:0:
414,180,76428,2,0,P|384:144|362:134,1,55,2|2,0:2|0:2,0:2:0:0:
299,141,76659,2,0,P|295:95|303:72,1,55,10|2,0:2|0:2,0:2:0:0:
225,57,76890,2,0,P|254:21|276:11,2,55,2|2|2,0:2|0:2|0:2,0:2:0:0:
184,122,77236,1,0,0:2:0:0:
184,122,77351,6,0,P|126:126|74:96,2,110,2|4|2,0:1|3:1|0:1,0:2:0:0:
244,170,77928,1,0,0:2:0:0:
244,170,78044,2,0,L|237:227,1,55,0|0,0:2|0:2,0:2:0:0:
181,277,78274,2,0,P|228:301|243:300,1,55,2|2,0:2|0:2,0:0:0:0:
294,341,78505,2,0,P|344:324|354:313,1,55,10|2,0:2|0:2,0:0:0:0:
419,306,78736,2,0,P|443:259|442:244,2,55,2|2|2,0:2|0:2|0:2,0:0:0:0:
356,165,79197,6,0,L|475:141,2,110,2|0|2,0:1|0:0|3:1,0:2:0:0:
307,225,79774,1,0,0:2:0:0:
307,225,79890,2,0,L|237:213,1,55,0|0,3:2|0:2,0:2:0:0:
187,255,80120,1,2,0:2:0:0:
187,255,80236,1,2,0:2:0:0:
187,255,80351,2,0,L|117:243,1,55,10|2,0:2|0:2,0:0:0:0:
56,231,80582,2,0,L|68:161,1,55,2|2,0:2|0:2,0:0:0:0:
80,100,80813,2,0,L|150:112,2,55,2|0|2,3:2|0:2|3:1,0:2:0:0:
94,23,81159,1,0,0:2:0:0:
94,23,81274,6,0,L|234:47,1,110,4|2,3:1|0:1,0:2:0:0:
253,106,81620,1,0,0:0:0:0:
253,106,81736,2,0,P|278:72|282:46,1,55,0|0,0:2|0:2,0:0:0:0:
342,13,81967,2,0,L|401:5,1,55,2|2,0:2|0:2,0:0:0:0:
382,81,82197,2,0,L|441:73,1,55,10|2,0:2|0:2,0:2:0:0:
422,149,82428,2,0,L|481:141,2,55,2|2|2,0:2|0:2|0:2,0:2:0:0:
393,220,82774,1,0,0:2:0:0:
393,220,82890,6,0,P|328:217|284:245,2,110,2|0|2,0:1|3:2|3:1,0:2:0:0:
424,290,83467,1,0,0:2:0:0:
424,290,83582,2,0,P|474:287|485:280,1,55,0|0,3:2|0:2,0:2:0:0:
501,211,83813,2,0,P|498:161|491:150,1,55,2|2,3:2|0:2,0:0:0:0:
435,110,84044,6,0,B|428:89|428:89|448:19,2,73.3333333333333,10|0|0,0:2|3:0|3:0,0:0:0:0:
357,177,84505,6,0,B|350:198|350:198|370:268,2,73.3333333333333,2|0|0,3:2|3:2|3:2,0:2:0:0:
276,111,84967,6,0,P|234:120|172:85,1,110,4|2,3:1|0:1,0:2:0:0:
215,25,85313,1,0,0:2:0:0:
215,25,85428,2,0,P|162:13|148:18,1,55,0|0,0:2|0:2,0:2:0:0:
87,27,85659,2,0,L|103:91,1,55,2|2,0:2|0:2,0:0:0:0:
27,106,85890,2,0,L|43:170,1,55,10|2,0:2|0:2,0:0:0:0:
116,151,86120,2,0,L|132:215,2,55,2|2|2,0:2|0:2|0:2,0:0:0:0:
242,62,86582,6,0,P|311:88|422:8,1,220,2|2,0:1|3:1,0:2:0:0:
256,192,87159,12,2,88428,0:1:0:0:
129,33,88659,6,0,P|188:98|174:187,1,165,4|0,3:1|0:2,0:2:0:0:
113,203,89120,2,0,P|109:241|117:274,1,55,0|0,0:2|0:2,0:2:0:0:
82,329,89351,2,0,P|120:333|153:325,1,55,0|0,0:2|0:2,0:2:0:0:
217,284,89582,6,2,B|255:313|255:313|407:260,1,197.99999395752,10|0,0:2|0:0,0:1:0:0:
477,235,90044,1,0,0:0:0:0:
477,235,90159,1,0,0:1:0:0:
477,235,90274,2,0,P|478:187|476:174,1,55,2|0,0:1|0:2,0:0:0:0:
399,174,90505,2,0,P|398:126|400:113,1,55,0|0,0:2|0:2,0:2:0:0:
450,61,90736,2,0,L|324:86,2,110,2|0|0,3:1|3:2|0:2,0:2:0:0:
384,200,91428,6,0,L|258:225,1,110,10|0,0:2|0:2,0:2:0:0:
217,272,91774,1,0,0:2:0:0:
217,272,91890,2,0,P|198:221|199:207,1,55,2|0,0:1|0:2,0:0:0:0:
121,213,92120,2,0,P|143:163|154:154,1,55,2|0,0:1|0:2,0:0:0:0:
209,123,92351,6,0,P|144:138|49:76,1,165,6|0,3:1|0:2,0:2:0:0:
29,23,92813,1,2,0:1:0:0:
29,23,92928,2,0,P|73:17|89:21,2,55,0|2|0,0:2|0:1|0:2,0:0:0:0:
61,94,93274,2,0,L|48:227,1,110,8|2,0:2|0:1,0:0:0:0:
45,280,93620,1,0,0:0:0:0:
45,280,93736,2,0,L|38:346,1,55,0|0,0:2|0:0,0:0:0:0:
104,377,93967,1,2,0:1:0:0:
35,59,94428,6,0,B|58:92|68:111|68:111|76:92|86:75|86:75|96:92|104:110|104:110|112:91|130:57,1,197.99999395752,2|0,3:2|3:2,1:1:0:0:
194,103,94774,2,0,B|217:136|227:155|227:155|235:136|245:119|245:119|255:136|263:154|263:154|271:135|289:101,1,197.99999395752,2|0,2:2|2:2,1:1:0:0:
393,134,95120,2,0,P|350:189|414:273,1,181.500005538941,10|2,2:2|2:2,1:1:0:0:
404,271,95813,1,2,0:1:0:0:
266,352,96044,6,0,P|220:317|151:332,1,110,4|2,3:1|0:1,0:2:0:0:
103,357,96390,1,0,0:2:0:0:
103,357,96505,2,0,P|94:313|98:292,1,55,0|0,0:2|0:2,0:2:0:0:
22,276,96736,2,0,P|46:238|64:226,1,55,0|0,0:2|0:2,0:2:0:0:
46,128,96967,6,2,B|85:157|85:157|242:103,1,214.49999018097,10|0,0:2|0:0,0:1:0:0:
344,105,97428,1,0,0:0:0:0:
344,105,97544,1,0,0:1:0:0:
344,105,97659,2,0,L|353:48,1,55,2|0,0:1|0:2,0:2:0:0:
431,34,97890,6,0,L|413:148,1,110,0|2,3:2|3:1,0:2:0:0:
452,209,98236,1,0,0:2:0:0:
452,209,98351,2,0,L|434:323,1,110,0|0,3:2|0:2,0:2:0:0:
380,373,98697,1,0,0:2:0:0:
380,373,98813,2,0,P|361:341|359:309,1,55,10|0,0:2|3:2,0:0:0:0:
333,237,99120,6,0,B|297:249|297:249|252:233,1,73.3333333333333,0|2,3:2|3:1,0:2:0:0:
287,152,99428,6,0,B|251:140|251:140|206:156,1,73.3333333333333,0|0,3:2|3:2,0:2:0:0:
131,208,99736,6,0,P|144:149|126:103,1,110,4|2,3:1|0:1,0:2:0:0:
86,35,100082,1,0,0:2:0:0:
86,35,100197,2,0,L|153:25,1,55,2|0,0:1|0:1,0:1:0:0:
206,66,100428,2,0,L|273:56,1,55,0|0,0:2|0:2,0:2:0:0:
324,13,100659,1,8,0:2:0:0:
324,13,100774,1,0,0:0:0:0:
324,13,100890,2,0,P|301:75|316:127,2,110,2|0|2,0:1|0:2|0:1,0:0:0:0:
35,59,101813,6,0,B|58:92|68:111|68:111|76:92|86:75|86:75|96:92|104:110|104:110|112:91|130:57,1,197.99999395752,2|0,3:1|3:1,1:1:0:0:
194,103,102159,2,0,B|217:136|227:155|227:155|235:136|245:119|245:119|255:136|263:154|263:154|271:135|289:101,1,197.99999395752,2|0,2:2|2:2,1:1:0:0:
393,134,102505,2,0,P|350:189|414:273,1,181.500005538941,10|2,2:2|2:2,1:1:0:0:
486,234,102967,6,0,B|498:263|498:263|476:353,1,98.9999969787599,2|0,0:1|0:2,0:2:0:0:
363,98,103428,6,0,P|368:58|345:14,2,73.3333333333333,0|0|0,0:2|0:0|0:0,0:2:0:0:
276,154,103890,2,0,P|271:194|294:238,2,73.3333333333333,2|0|2,0:2|0:2|0:2,0:2:0:0:
195,89,104351,2,0,L|184:46,2,36.6666666666667,2|2|2,0:2|0:2|0:2,0:0:0:0:
131,170,104659,2,0,L|112:249,2,73.3333333333333,2|0|2,0:2|0:2|0:2,0:2:0:0:
66,102,105159,5,0,0:2:0:0:
66,102,105274,2,0,P|54:62|56:34,2,44,2|0|0,0:2|0:2|0:2,0:0:0:0:
131,63,105582,1,2,0:2:0:0:
201,138,105736,2,0,L|291:123,1,73.3333333333333,2|0,0:2|0:2,0:0:0:0:
318,32,106044,1,0,0:0:0:0:
318,32,106197,2,0,L|408:47,2,73.3333333333333,2|0|0,0:2|0:2|0:0,0:0:0:0:
227,82,106659,2,0,P|208:37|213:-2,1,73.3333333333333,2|2,0:2|0:2,0:0:0:0:
314,116,106967,2,0,P|333:161|328:200,2,73.3333333333333,0|2|0,0:2|0:2|0:0,0:0:0:0:
233,180,107428,1,0,0:0:0:0:
233,180,107582,2,0,L|143:195,2,73.3333333333333,2|2|0,0:2|0:2|0:0,0:0:0:0:
288,267,108044,2,0,L|378:282,2,73.3333333333333,2|0|0,0:2|0:0|0:0,0:0:0:0:
209,333,108505,1,2,0:2:0:0:
209,333,108659,2,0,L|119:348,1,73.3333333333333
59,275,108967,5,2,0:2:0:0:
59,275,109044,1,2,0:2:0:0:
59,275,109120,1,2,0:2:0:0:
123,194,109274,1,2,0:2:0:0:
123,194,109351,1,2,0:2:0:0:
123,194,109428,2,0,P|126:147|116:122,2,73.3333333333333,2|2|2,0:2|0:2|0:2,0:2:0:0:
37,165,109890,6,0,P|27:117|181:60,1,247.500009441376,4|2,0:3|0:2,0:2:0:0:
286,160,110813,5,0,3:2:0:0:
286,160,110905,1,0,0:0:0:0:
286,160,110997,2,0,L|362:148,1,44,2|0,0:2|0:0,0:0:0:0:
402,140,111182,1,0,0:2:0:0:
402,140,111274,2,0,L|478:128,1,73.3333333333333,2|0,0:2|0:0,0:2:0:0:
492,205,111505,1,0,3:2:0:0:
492,205,111582,2,0,L|448:211,1,36.6666666666667,2|0,0:0|0:0,0:0:0:0:
410,273,111774,2,0,L|311:288,1,91.6666666666667,2|0,0:0|0:2,0:0:0:0:
304,290,112044,1,0,0:0:0:0:
291,292,112121,1,0,0:0:0:0:
278,294,112197,2,0,L|200:306,1,73.3333333333333,2|0,0:2|0:0,0:2:0:0:
111,328,112505,1,2,0:0:0:0:
141,241,112659,5,0,3:2:0:0:
141,241,112751,1,0,0:0:0:0:
141,241,112844,2,0,P|147:186|129:141,1,88,2|0,0:0|0:0,0:0:0:0:
68,127,113120,1,2,0:2:0:0:
68,127,113197,1,2,0:2:0:0:
68,127,113274,1,0,0:2:0:0:
68,127,113351,2,0,L|57:73,1,36.6666666666667,2|0,3:2|0:0,0:2:0:0:
137,11,113582,6,0,P|169:15|203:35,1,55,2|0,0:2|0:2,0:0:0:0:
266,15,113813,2,0,P|285:40|295:78,1,55,2|0,0:2|0:2,0:2:0:0:
297,74,113986,1,0,0:2:0:0:
300,87,114044,2,0,P|295:119|276:153,1,55,2|0,0:2|0:2,0:2:0:0:
275,156,114245,1,0,0:0:0:0:
258,168,114332,2,0,P|262:200|286:240,1,68.75,2|0,0:2|0:0,0:0:0:0:
369,245,114620,6,0,L|358:322,1,55,2|0,0:2|0:2,0:2:0:0:
342,321,114813,1,0,0:0:0:0:
325,313,114864,2,0,L|316:375,2,48.8888888888889,2|0|0,0:2|0:2|0:2,0:2:0:0:
264,264,115172,2,0,L|210:272,1,48.8888888888889,2|0,0:0|0:2,0:0:0:0:
201,274,115351,1,2,0:2:0:0:
151,278,115457,6,0,P|143:237|150:206,1,68.75,2|0,0:0|0:0,0:0:0:0:
152,197,115659,1,0,0:2:0:0:
215,147,115774,1,0,0:2:0:0:
215,147,115890,2,0,L|202:84,1,55,2|2,0:2|0:2,0:0:0:0:
202,83,116092,1,0,0:0:0:0:
198,71,116178,2,0,L|185:8,1,55,2|0,0:2|0:2,0:0:0:0:
183,4,116351,1,0,3:2:0:0:
256,192,116467,12,2,118082,0:2:0:0:
96,56,118197,5,4,3:1:0:0:
96,56,118313,2,0,L|84:122,1,55,0|0,0:1|0:1,0:1:0:0:
164,104,118544,2,0,L|152:170,2,55,2|0|0,0:1|0:1|0:1,0:0:0:0:
232,152,118890,2,0,L|220:218,1,55,2|0,0:1|0:1,0:0:0:0:
312,159,119120,2,0,L|300:93,1,55,10|0,0:1|0:1,0:0:0:0:
380,111,119351,2,0,L|368:45,2,55,0|2|0,0:1|0:1|0:1,0:0:0:0:
448,63,119697,2,0,L|436:-3,2,55,2|2|0,0:1|0:1|0:1,0:0:0:0:
460,141,120044,6,0,L|472:207,1,55,2|2,0:1|0:1,0:0:0:0:
424,256,120274,1,0,3:1:0:0:
424,256,120390,1,2,0:1:0:0:
424,256,120505,2,0,P|388:272|363:272,1,55,2|0,3:1|0:1,0:1:0:0:
296,260,120736,1,0,0:1:0:0:
296,260,120851,2,0,P|264:236|251:215,1,55,2|0,0:1|0:1,0:0:0:0:
228,151,121082,2,0,P|232:111|244:90,2,55,2|2|0,0:1|0:1|0:1,0:0:0:0:
180,212,121428,2,0,L|121:232,1,55,2|2,0:1|0:1,0:0:0:0:
54,255,121659,2,0,L|34:196,1,55,2|0,0:1|0:1,0:1:0:0:
4,132,121890,6,0,L|24:73,2,55,2|2|0,3:1|0:1|0:1,0:0:0:0:
79,152,122236,2,0,P|51:213|55:261,1,110,2|2,0:1|0:1,0:1:0:0:
59,270,122524,1,0,0:0:0:0:
63,285,122582,2,0,L|47:356,1,55,2|0,0:1|0:1,0:1:0:0:
131,325,122813,2,0,L|115:396,2,55,8|2|2,0:1|0:1|0:1,0:1:0:0:
204,299,123159,1,0,0:1:0:0:
204,299,123274,2,0,L|220:228,2,55,2|0|0,0:1|0:1|0:1,0:0:0:0:
249,361,123620,2,0,P|282:363|314:351,1,55,2|0,0:1|0:1,0:0:0:0:
347,284,123851,1,2,0:1:0:0:
347,284,123967,6,0,P|373:278|401:281,1,55,0|0,3:1|0:1,0:1:0:0:
467,242,124197,2,0,P|449:220|426:206,1,55,2|0,3:1|0:1,0:1:0:0:
393,136,124428,2,0,P|419:129|446:132,1,55,0|2,0:1|0:1,0:0:0:0:
512,93,124658,2,0,P|494:71|471:57,1,55,8|0,0:1|0:1,0:0:0:0:
395,39,124890,2,0,L|335:54,1,55,2|2,0:1|0:1,0:1:0:0:
293,112,125120,5,2,3:1:0:0:
225,150,125236,1,0,0:1:0:0:
149,138,125351,1,0,3:1:0:0:
94,82,125467,1,2,0:1:0:0:
94,82,125582,6,0,P|86:45|87:22,1,55,0|2,3:1|0:1,0:1:0:0:
74,164,125813,1,2,0:1:0:0:
74,164,125928,2,0,P|82:201|81:224,2,55,2|0|0,0:1|0:1|0:1,0:1:0:0:
149,138,126274,2,0,L|209:124,1,55,2|2,0:1|0:1,0:1:0:0:
278,108,126505,1,10,0:1:0:0:
278,108,126620,1,0,0:1:0:0:
278,108,126736,2,0,L|338:94,1,55,0|0,0:1|0:1,0:0:0:0:
380,35,126967,2,0,P|404:68|408:101,1,55,2|0,0:1|0:1,0:0:0:0:
483,74,127197,2,0,P|476:114|456:140,1,55,0|2,0:1|0:1,0:1:0:0:
410,176,127428,6,0,L|427:235,1,55,0|0,3:1|0:1,0:0:0:0:
347,225,127659,2,0,L|364:284,1,55,2|0,3:1|0:1,0:0:0:0:
263,203,127890,2,0,L|280:262,1,55,2|0,3:1|0:1,0:0:0:0:
200,252,128121,2,0,L|217:311,1,55,0|2,3:1|0:1,0:0:0:0:
154,351,128351,1,10,0:1:0:0:
154,351,128428,1,0,0:0:0:0:
154,351,128505,1,0,0:0:0:0:
154,351,128582,2,0,P|123:358|86:343,1,55,2|0,0:1|3:1,0:1:0:0:
31,318,128813,6,0,P|22:283|27:253,2,55,2|2|2,3:1|0:1|0:1,0:1:0:0:
100,284,129159,2,0,P|109:249|104:219,1,55,2|0,0:1|3:1,0:0:0:0:
50,178,129390,1,2,0:1:0:0:
50,178,129505,2,0,P|49:150|57:124,1,55,2|0,0:1|0:1,0:0:0:0:
124,86,129736,2,0,L|16:62,2,110,2|2|10,0:1|0:1|0:1,0:1:0:0:
171,146,130313,1,0,0:1:0:0:
247,154,130428,1,0,0:1:0:0:
316,120,130544,2,0,P|323:87|319:58,1,55,2|0,0:1|0:1,0:1:0:0:
397,41,130774,2,0,P|378:12|355:-4,2,55,2|0|0,0:1|0:1|0:1,0:1:0:0:
456,90,131120,6,0,L|444:159,1,55,2|0,3:1|0:1,0:1:0:0:
389,196,131351,1,0,0:1:0:0:
389,196,131467,1,0,0:1:0:0:
389,196,131582,2,0,L|377:265,2,36.6666666666667,2|2|2,3:1|0:1|0:1,0:0:0:0:
370,176,131813,2,0,L|308:181,1,55,2|0,0:1|0:1,0:1:0:0:
253,134,132044,5,2,3:1:0:0:
178,116,132159,1,0,3:1:0:0:
108,148,132274,1,0,3:1:0:0:
70,215,132390,1,2,3:1:0:0:
78,291,132505,2,0,L|102:358,1,55,0|0,3:1|3:1,0:1:0:0:
167,374,132736,1,2,3:1:0:0:
167,374,132851,6,0,L|191:307,1,55,2|0,3:1|3:1,0:0:0:0:
260,301,133082,1,0,0:1:0:0:
260,301,133197,2,0,L|284:368,1,55,2|0,0:1|0:1,0:1:0:0:
351,377,133428,2,0,L|375:310,1,55,2|0,0:1|0:1,0:1:0:0:
443,303,133659,1,2,0:1:0:0:
443,303,133774,2,0,L|467:236,2,55,0|8|0,0:1|0:1|0:1,0:0:0:0:
383,253,134120,2,0,L|359:186,1,55,2|0,0:1|0:1,0:0:0:0:
425,153,134351,2,0,L|401:86,1,55,2|0,0:1|0:1,0:1:0:0:
329,93,134582,1,2,0:1:0:0:
329,93,134697,2,0,L|305:26,1,55,2|2,0:1|0:1,0:0:0:0:
238,11,134928,5,0,0:1:0:0:
238,11,134986,1,0,0:1:0:0:
238,11,135044,2,0,P|219:38|214:78,1,55,2|0,3:1|0:1,0:1:0:0:
137,57,135274,2,0,P|142:89|167:121,1,55,2|0,3:1|0:1,0:1:0:0:
233,143,135505,1,0,0:1:0:0:
233,143,135620,1,2,0:1:0:0:
233,143,135736,2,0,P|246:167|249:194,1,55,8|0,0:1|0:1,0:1:0:0:
326,203,135967,2,0,P|318:229|301:250,2,55,2|0|0,0:1|0:1|0:1,0:1:0:0:
399,178,136313,2,0,L|387:110,1,55,2|0,0:1|0:1,0:0:0:0:
466,129,136544,2,0,L|454:61,2,55,2|0|0,0:1|3:1|0:1,0:0:0:0:
479,205,136890,6,0,L|491:273,2,55,2|0|0,0:1|0:1|0:1,0:0:0:0:
399,178,137236,2,0,L|387:110,1,55,2|0,0:1|0:1,0:0:0:0:
313,110,137467,2,0,L|301:42,2,55,2|8|0,0:1|0:1|0:1,0:0:0:0:
244,146,137813,2,0,L|256:214,1,55,2|0,0:1|0:1,0:1:0:0:
278,291,138044,5,2,0:1:0:0:
278,291,138159,1,0,0:1:0:0:
278,291,138274,1,0,0:1:0:0:
278,291,138390,1,2,0:1:0:0:
278,291,138505,6,0,P|236:316|214:317,1,55,0|0,0:1|0:1,0:1:0:0:
180,375,138736,2,0,P|132:362|116:348,1,55,2|0,3:1|0:1,0:0:0:0:
51,365,138967,2,0,P|25:323|24:301,2,55,2|0|0,3:1|0:1|0:1,0:0:0:0:
129,360,139313,1,0,0:1:0:0:
95,289,139428,2,0,L|105:227,2,55,8|2|0,0:1|0:1|0:1,0:0:0:0:
174,275,139774,1,0,0:1:0:0:
174,275,139890,2,0,L|184:213,1,55,2|0,3:1|0:1,0:0:0:0:
131,163,140120,2,0,L|141:101,1,55,0|0,3:1|0:1,0:0:0:0:
128,32,140351,6,0,P|156:30|188:47,1,55,0|0,3:1|0:1,0:1:0:0:
230,106,140582,1,2,0:1:0:0:
230,106,140697,2,0,P|255:116|282:114,1,55,0|0,0:1|0:1,0:0:0:0:
355,89,140928,2,0,P|376:72|388:47,1,55,0|2,0:1|0:1,0:0:0:0:
314,24,141159,1,2,0:1:0:0:
355,89,141274,2,0,L|371:160,1,55,10|0,0:1|0:1,0:0:0:0:
305,189,141505,2,0,L|321:260,2,55,2|0|0,0:1|0:1|0:1,0:0:0:0:
229,172,141851,2,0,L|213:101,1,55,2|0,0:1|0:1,0:0:0:0:
144,90,142082,1,2,0:1:0:0:
144,90,142197,6,0,P|128:48|129:30,1,55,0|0,3:1|0:1,0:1:0:0:
129,170,142428,2,0,P|87:151|75:138,1,55,2|0,3:1|0:1,0:0:0:0:
174,237,142659,2,0,P|132:253|114:252,1,55,0|0,3:1|0:1,0:1:0:0:
253,252,142890,2,0,P|234:293|221:305,1,55,2|0,3:1|0:1,0:0:0:0:
303,187,143120,2,0,P|261:171|243:172,1,55,8|0,3:1|3:1,0:1:0:0:
383,172,143351,2,0,P|364:130|351:118,1,55,2|0,3:1|3:1,0:1:0:0:
450,217,143582,6,0,B|465:189|465:189|456:138,2,73.3333333333333,0|0|0,3:1|3:1|3:1,0:1:0:0:
374,259,144044,2,0,P|371:309|376:333,1,55,0|0,3:1|0:1,0:1:0:0:
293,376,144274,2,0,P|290:326|295:302,1,55,2|0,0:1|0:1,0:0:0:0:
259,250,144505,1,2,0:1:0:0:
184,233,144620,1,0,0:1:0:0:
207,306,144736,1,0,0:1:0:0:
207,306,144851,2,0,L|146:322,2,55,2|8|0,0:1|0:1|0:1,0:0:0:0:
259,250,145197,2,0,L|320:234,1,55,2|0,0:1|0:1,0:0:0:0:
386,213,145428,1,2,0:1:0:0:
386,213,145544,1,0,0:1:0:0:
386,213,145659,2,0,P|391:177|386:150,1,55,0|2,0:1|0:1,0:1:0:0:
327,113,145890,6,0,B|317:101|317:101|335:44,1,65.9999979858399,4|0,0:3|0:1,0:1:0:0:
414,16,146236,2,0,B|424:28|424:28|406:85,1,65.9999979858399,4|0,0:3|0:1,0:1:0:0:
482,108,146582,2,0,L|469:144,1,32.99999899292,4|0,0:3|0:1,0:1:0:0:
484,215,146813,5,8,0:1:0:0:
423,262,146928,1,0,3:1:0:0:
346,247,147044,1,2,3:1:0:0:
297,187,147159,1,0,3:1:0:0:
220,172,147274,1,0,3:1:0:0:
159,219,147390,1,2,3:1:0:0:
151,295,147505,2,0,L|164:362,2,55,0|2|0,3:1|3:1|3:1,0:0:0:0:
84,254,147828,1,0,0:1:0:0:
84,254,147934,2,0,P|56:253|11:267,2,62.8571428571429,0|0|0,0:0|0:0|0:1,0:0:0:0:
24,70,148582,5,0,0:0:0:0:
24,70,148659,2,0,L|20:30,2,36.6666666666667,10|0|0,0:1|0:1|0:1,0:0:0:0:
79,123,148890,2,0,L|75:163,2,36.6666666666667,2|0|0,0:1|0:1|0:1,0:0:0:0:
147,87,149120,2,0,P|173:77|229:76,1,55,2|0,0:1|0:1,0:1:0:0:
274,94,149351,1,0,0:1:0:0:
333,151,149467,1,0,0:1:0:0:
333,151,149582,6,0,P|343:177|344:233,1,55,2|0,0:1|0:1,0:0:0:0:
279,242,149813,2,0,L|261:313,1,55,0|2,3:1|0:1,0:1:0:0:
348,289,150044,2,0,L|366:360,1,55,0|0,3:1|0:1,0:1:0:0:
371,350,150217,1,0,0:1:0:0:
380,357,150274,2,0,L|443:357,1,55,2|2,0:1|0:1,0:0:0:0:
427,279,150505,2,0,L|490:279,1,55,10|0,0:1|0:1,0:1:0:0:
435,201,150736,2,0,L|372:201,1,55,2|0,0:1|0:1,0:1:0:0:
370,192,150909,1,0,0:1:0:0:
360,183,150967,2,0,L|297:183,1,55,2|0,0:1|0:1,0:1:0:0:
295,174,151139,1,2,0:1:0:0:
285,165,151197,2,0,L|222:165,1,55,2|0,0:1|0:1,0:0:0:0:
164,205,151428,6,0,P|153:167|156:141,1,55,2|2,3:1|0:1,0:1:0:0:
178,78,151659,1,2,0:1:0:0:
189,68,151736,1,0,0:1:0:0:
200,58,151813,1,0,0:1:0:0:
211,48,151890,2,0,L|281:57,2,55,2|0|0,0:1|0:1|0:1,0:1:0:0:
145,6,152236,1,2,0:1:0:0:
145,6,152351,2,0,L|75:15,1,55,8|0,0:1|0:1,0:0:0:0:
87,23,152524,1,0,0:1:0:0:
83,33,152582,2,0,L|13:42,1,55,2|2,0:1|0:1,0:0:0:0:
6,114,152813,5,0,0:1:0:0:
80,131,152928,1,0,0:1:0:0:
155,148,153044,1,2,0:1:0:0:
191,215,153159,5,2,0:1:0:0:
265,198,153274,1,0,0:1:0:0:
340,181,153390,1,2,0:1:0:0:
415,164,153505,2,0,L|424:108,1,55,2|0,3:1|0:1,0:0:0:0:
394,243,153736,2,0,L|403:299,1,55,2|0,3:1|0:1,0:0:0:0:
340,181,153967,2,0,L|349:125,1,55,2|0,0:1|0:1,0:0:0:0:
317,256,154197,2,0,L|326:312,1,55,10|0,0:1|0:1,0:0:0:0:
265,359,154428,2,0,P|234:365|202:352,1,55,2|0,0:1|0:0,0:0:0:0:
202,353,154601,1,0,0:0:0:0:
194,344,154659,2,0,P|163:338|131:351,1,55,2|0,3:1|0:1,0:1:0:0:
72,380,154890,1,2,3:1:0:0:
139,175,155120,5,0,3:1:0:0:
139,175,155178,1,0,0:1:0:0:
139,175,155236,2,0,P|147:129|141:103,1,55,2|0,0:1|0:1,0:1:0:0:
140,107,155428,1,0,0:0:0:0:
128,95,155531,2,0,P|127:59|133:42,2,48.8888888888889,2|0|0,0:1|0:1|0:1,0:1:0:0:
66,138,155838,2,0,P|56:124|47:94,2,24.4444444444444,0|0|0,0:0|0:1|0:0,0:0:0:0:
36,212,156044,2,0,L|48:268,1,55,10|0,0:1|0:1,0:1:0:0:
55,273,156217,1,0,0:1:0:0:
64,278,156274,2,0,L|76:334,1,55,2|0,0:1|0:1,0:1:0:0:
152,343,156505,6,0,L|207:329,1,55,2|2,0:1|0:1,0:0:0:0:
288,370,156736,1,2,0:1:0:0:
288,370,156794,1,2,0:1:0:0:
288,370,156851,1,2,0:1:0:0:
353,329,156967,2,0,L|408:343,1,55,2|2,3:1|0:1,0:0:0:0:
409,265,157197,2,0,L|464:279,1,55,0|2,3:1|0:1,0:0:0:0:
390,181,157428,2,0,L|445:195,1,55,2|2,3:1|0:1,0:0:0:0:
446,117,157658,2,0,L|490:128,2,27.5,2|0|0,3:1|0:1|0:1,0:0:0:0:
401,52,157890,5,10,0:1:0:0:
346,105,158005,1,0,3:1:0:0:
269,100,158120,1,2,0:1:0:0:
258,95,158197,1,2,0:0:0:0:
249,88,158274,1,2,0:0:0:0:
243,78,158351,2,0,P|234:52|234:36,1,27.5,2|0,3:1|0:0,0:0:0:0:
166,17,158505,1,2,0:0:0:0:
155,20,158582,1,2,0:1:0:0:
152,30,158659,1,2,3:1:0:0:
141,33,158736,1,2,0:1:0:0:
131,50,158813,6,0,B|72:14|72:14|101:102|101:102|92:99|92:99|128:195,1,263.99999194336,4|0,2:2|0:2,0:2:0:0:
277,328,159505,2,0,B|251:336|251:336|261:307|261:307|370:323,1,131.99999597168
467,104,160197,6,0,B|475:120|475:120|448:227,2,110.000004196167,0|2|0,0:2|0:2|0:2,0:2:0:0:
388,147,160659,6,0,B|396:131|396:131|369:24,2,110.000004196167,2|0|2,0:2|0:2|0:2,0:2:0:0:
309,104,161120,6,0,B|317:120|317:120|290:227,2,110.000004196167,0|2|0,0:2|0:2|0:2,0:2:0:0:
212,52,161582,6,0,P|184:48|152:54,1,55.0000020980836,2|0,0:2|0:2,0:2:0:0:
212,52,161736,6,0,P|229:29|240:0,1,55.0000020980836,0|0,0:2|0:2,0:2:0:0:
212,52,161890,6,0,P|222:78|243:102,1,55.0000020980836,2|0,0:2|0:2,0:2:0:0:
212,52,162044,6,0,P|201:25|180:1,1,55.0000020980836,0|0,0:2|0:2,0:2:0:0:
212,52,162198,6,0,P|240:55|272:50,1,55.0000020980836,2|0,0:2|0:2,0:2:0:0:
212,52,162352,6,0,P|194:74|183:104,1,55.0000020980836,0|0,0:2|0:2,0:2:0:0:
171,178,162505,5,2,3:2:0:0:
256,192,173582,12,0,177159,0:0:0:0:
83,68,177274,6,0,L|100:163,1,55,2|0,3:1|0:1,0:0:0:0:
107,198,177505,1,0,0:1:0:0:
177,167,177620,2,0,L|194:262,1,55,2|0,0:1|0:1,0:0:0:0:
201,297,177851,1,0,0:1:0:0:
261,248,177967,2,0,P|304:250|331:264,1,55,2|0,0:1|0:1,0:0:0:0:
353,187,178197,2,0,P|381:218|391:247,1,55,8|0,0:1|0:1,0:0:0:0:
419,299,178428,1,0,0:1:0:0:
494,280,178544,2,0,P|492:322|478:349,2,55,2|0|0,0:1|0:1|0:1,0:0:0:0:
461,209,178890,2,0,P|463:166|477:139,1,55,2|0,0:1|0:1,0:0:0:0:
504,88,179120,5,0,0:1:0:0:
429,66,179236,1,0,0:1:0:0:
354,44,179351,2,0,L|282:61,1,55,0|2,3:1|0:1,0:1:0:0:
278,130,179582,2,0,L|206:113,1,55,2|0,3:1|0:1,0:1:0:0:
202,44,179813,2,0,L|130:61,1,55,0|2,0:1|0:1,0:0:0:0:
72,73,180044,1,8,0:1:0:0:
123,130,180159,1,2,0:1:0:0:
72,187,180274,1,0,0:1:0:0:
130,252,180390,1,0,0:1:0:0:
130,252,180447,1,0,0:1:0:0:
130,252,180505,2,0,L|117:307,2,55,2|0|0,0:1|0:1|3:1,0:0:0:0:
206,241,180851,1,2,0:1:0:0:
243,308,180967,5,0,3:2:0:0:
307,350,181082,1,0,0:2:0:0:
380,329,181197,1,2,0:2:0:0:
422,265,181313,1,0,0:2:0:0:
401,192,181428,1,0,0:2:0:0:
337,150,181544,1,2,0:2:0:0:
264,171,181659,1,0,0:2:0:0:
223,236,181774,1,2,0:2:0:0:
159,278,181889,5,4,0:3:0:0:
86,257,182004,1,0,0:2:0:0:
44,193,182120,1,0,0:2:0:0:
65,120,182235,1,4,0:3:0:0:
129,78,182351,1,0,0:2:0:0:
202,99,182466,1,0,0:2:0:0:
240,166,182582,2,0,P|285:177|316:169,1,55,4|0,0:3|0:2,0:0:0:0:
345,93,182813,5,4,0:3:0:0:
416,120,182928,1,0,0:2:0:0:
487,148,183044,1,0,0:2:0:0:
423,189,183159,1,4,0:3:0:0:
359,231,183275,1,0,0:2:0:0:
430,258,183390,1,0,0:2:0:0:
501,286,183506,1,4,0:3:0:0:
437,327,183621,1,0,0:2:0:0:
373,369,183736,2,0,L|310:349,1,55,8|0,0:1|3:2,0:0:0:0:
249,322,183967,2,0,L|186:302,1,55,0|0,3:2|3:2,0:0:0:0:
124,278,184197,5,0,3:2:0:0:
153,206,184313,1,0,3:2:0:0:
90,160,184428,1,0,3:2:0:0:
119,88,184544,1,0,0:2:0:0:
51,52,184659,2,0,L|98:-2,1,62.8571428571429,0|0,0:2|0:0,0:0:0:0:
119,88,184890,1,0,0:2:0:0:
144,84,184976,1,0,0:2:0:0:
172,83,185063,1,0,0:0:0:0:
172,83,185207,2,0,L|186:141,1,55,2|0,0:2|0:2,0:0:0:0:
125,233,185428,5,2,0:2:0:0:
142,252,185505,1,2,0:2:0:0:
166,260,185582,1,2,0:2:0:0:
191,258,185659,1,0,0:0:0:0:
268,190,185813,5,2,0:2:0:0:
341,152,185928,1,0,0:2:0:0:
419,176,186044,1,2,0:2:0:0:
457,249,186159,1,0,0:2:0:0:
433,327,186275,1,2,0:1:0:0:
215,373,186505,6,0,L|194:255,1,110,4|2,3:1|0:2,0:2:0:0:
122,238,186851,1,0,0:2:0:0:
122,238,186967,2,0,P|110:189|117:164,1,55,0|0,0:2|0:2,0:2:0:0:
173,141,187197,1,2,0:2:0:0:
173,141,187313,1,2,0:2:0:0:
173,141,187428,2,0,P|172:113|161:88,1,55,10|2,0:2|0:2,0:0:0:0:
221,39,187659,2,0,P|201:20|175:10,2,55,2|2|2,0:2|0:2|0:2,0:0:0:0:
355,113,188120,6,0,P|416:117|465:85,2,110,2|0|2,0:1|0:2|3:1,0:2:0:0:
300,167,188697,1,0,0:2:0:0:
300,167,188813,2,0,L|309:231,1,55,0|0,3:2|0:2,0:0:0:0:
318,298,189044,1,2,0:2:0:0:
251,335,189159,1,2,0:2:0:0:
178,308,189274,2,0,P|170:255|176:237,1,55,10|2,0:2|0:2,0:2:0:0:
97,228,189505,2,0,P|128:184|145:176,2,55,2|2|2,0:2|0:2|0:2,0:2:0:0:
63,297,189851,1,0,0:2:0:0:
63,297,189967,6,0,L|27:177,2,110,2|4|2,0:1|3:1|0:1,0:2:0:0:
90,369,190544,1,0,0:2:0:0:
90,369,190659,2,0,P|133:372|156:362,1,55,0|0,0:2|0:2,0:2:0:0:
191,307,190890,1,2,0:2:0:0:
261,276,191005,1,2,0:2:0:0:
331,306,191120,2,0,L|345:370,1,55,10|2,0:2|0:2,0:0:0:0:
413,328,191351,2,0,L|427:264,2,55,2|2|2,0:2|0:2|0:2,0:0:0:0:
354,184,191813,6,0,P|409:190|469:147,1,110,2|0,0:1|0:0,0:2:0:0:
483,92,192159,1,0,0:0:0:0:
483,92,192274,2,0,L|466:22,1,55,2|0,3:1|0:2,0:0:0:0:
397,10,192505,2,0,L|380:80,1,55,0|0,3:2|0:2,0:2:0:0:
316,101,192736,1,2,0:2:0:0:
241,119,192851,1,2,0:2:0:0:
166,137,192967,2,0,P|161:94|166:77,1,55,10|2,0:2|0:2,0:0:0:0:
93,52,193197,2,0,P|119:18|135:9,1,55,2|2,0:2|0:2,0:0:0:0:
84,130,193428,2,0,P|69:154|47:170,1,55,2|0,3:2|0:2,0:2:0:0:
10,45,193658,2,0,P|17:72|13:99,1,55,2|0,3:1|0:2,0:2:0:0:
48,171,193890,6,0,P|87:161|152:199,1,110,4|2,3:1|0:1,0:2:0:0:
86,239,194236,1,0,0:0:0:0:
120,307,194351,2,0,L|174:300,1,55,0|0,0:2|0:2,0:0:0:0:
235,251,194582,1,2,0:2:0:0:
235,251,194697,1,2,0:2:0:0:
235,251,194813,2,0,P|250:278|252:315,1,55,10|2,0:2|0:2,0:2:0:0:
329,314,195044,2,0,P|320:343|295:371,1,55,2|2,0:2|0:2,0:2:0:0:
322,232,195274,1,2,0:2:0:0:
322,232,195390,1,0,0:2:0:0:
322,232,195505,6,0,P|376:237|429:189,2,110,2|0|2,0:1|3:2|3:1,0:2:0:0:
264,179,196082,1,0,0:2:0:0:
264,179,196197,2,0,L|176:196,1,55,0|0,3:2|0:2,0:2:0:0:
167,254,196428,1,2,3:2:0:0:
92,233,196544,1,2,0:2:0:0:
17,212,196659,2,0,P|12:162|16:147,1,55,10|2,0:2|3:2,0:0:0:0:
39,85,196890,2,0,P|70:46|84:38,1,55,2|2,0:2|3:2,0:0:0:0:
112,110,197120,6,0,B|136:121|136:121|197:107,2,73.3333333333333,2|0|0,3:2|3:2|3:2,0:2:0:0:
163,20,197582,6,0,P|208:62|265:47,1,110,4|2,3:1|0:1,0:2:0:0:
308,3,197928,1,0,0:2:0:0:
308,3,198044,2,0,P|327:35|330:65,1,55,0|0,0:2|0:2,0:2:0:0:
413,71,198274,1,2,0:2:0:0:
413,71,198390,1,2,0:2:0:0:
413,71,198505,2,0,P|394:103|370:121,1,55,10|2,0:2|0:2,0:0:0:0:
310,144,198736,2,0,L|325:202,2,55,2|2|2,0:2|0:2|0:2,0:0:0:0:
167,84,199197,6,0,P|90:139|115:259,1,220,2|2,0:1|3:1,0:2:0:0:
256,192,199774,12,2,201044,0:1:0:0:
232,335,201274,6,0,P|276:316|341:324,1,110,4|2,3:1|0:1,0:2:0:0:
399,367,201620,1,0,0:2:0:0:
399,367,201736,2,0,P|413:324|410:300,1,55,0|0,0:2|0:2,0:2:0:0:
488,298,201967,2,0,P|467:257|448:242,1,55,0|0,0:2|0:2,0:2:0:0:
380,206,202197,6,2,B|341:52|341:52|386:87,1,197.99999395752,10|0,0:2|0:0,0:1:0:0:
467,55,202659,1,0,0:0:0:0:
467,55,202774,1,0,0:1:0:0:
467,55,202890,2,0,L|456:117,1,55,2|0,0:1|0:2,0:0:0:0:
439,183,203120,6,0,L|377:172,1,55,0|0,0:2|0:2,0:2:0:0:
308,160,203351,2,0,L|297:222,1,55,2|0,3:1|0:0,0:2:0:0:
280,288,203581,2,0,L|218:277,1,55,0|0,3:2|0:0,0:0:0:0:
148,264,203813,1,0,0:2:0:0:
148,264,203928,1,0,0:2:0:0:
148,264,204044,2,0,P|91:278|54:273,1,55,10|0,0:2|0:2,0:2:0:0:
23,249,204274,1,0,0:2:0:0:
23,249,204390,1,0,0:2:0:0:
23,249,204505,2,0,P|9:192|14:155,1,55,2|0,0:1|0:2,0:0:0:0:
61,139,204736,2,0,P|118:125|155:130,1,55,2|0,0:1|0:2,0:0:0:0:
161,186,204967,6,0,P|223:195|270:161,1,110,6|0,3:1|0:2,0:2:0:0:
301,105,205313,1,0,0:2:0:0:
301,105,205428,2,0,P|301:67|294:47,1,55,2|0,0:1|0:2,0:2:0:0:
343,174,205659,2,0,P|369:147|379:128,1,55,2|0,0:1|0:2,0:2:0:0:
296,250,205890,2,0,P|358:253|415:275,2,110,8|2|0,0:2|0:1|0:2,0:0:0:0:
221,272,206467,1,0,0:0:0:0:
182,338,206582,1,2,0:1:0:0:
35,59,207044,6,0,B|58:92|68:111|68:111|76:92|86:75|86:75|96:92|104:110|104:110|112:91|130:57,1,197.99999395752,2|0,3:2|3:2,1:1:0:0:
194,103,207390,2,0,B|217:136|227:155|227:155|235:136|245:119|245:119|255:136|263:154|263:154|271:135|289:101,1,197.99999395752,2|0,2:2|2:2,1:1:0:0:
393,134,207736,2,0,P|350:189|414:273,1,181.500005538941,10|2,2:2|2:2,1:1:0:0:
405,271,208428,1,2,0:1:0:0:
275,355,208659,6,0,L|148:336,1,110,4|2,3:1|0:1,0:2:0:0:
98,372,209005,1,0,0:2:0:0:
98,372,209120,2,0,P|90:323|93:310,1,55,0|0,0:2|0:2,0:2:0:0:
17,292,209351,2,0,P|45:251|57:244,1,55,0|0,0:2|0:2,0:2:0:0:
130,224,209582,6,2,B|183:22|183:22|127:65,1,263.99999194336,10|0,0:2|0:0,0:1:0:0:
62,29,210159,1,0,0:1:0:0:
62,29,210274,2,0,P|56:70|65:95,1,55,2|0,0:1|0:2,0:2:0:0:
20,149,210505,6,0,L|77:158,1,55,0|0,3:2|0:0,0:2:0:0:
130,224,210736,2,0,L|187:233,1,55,2|0,3:1|0:2,0:0:0:0:
233,173,210967,2,0,L|290:182,1,55,0|0,3:2|0:0,0:2:0:0:
343,248,211198,2,0,L|400:257,1,55,0|0,0:2|0:2,0:0:0:0:
460,213,211428,6,0,B|471:187|471:187|456:138,2,73.3333333333333,10|0|0,0:2|0:0|3:2,0:0:0:0:
505,293,211890,6,0,B|516:319|516:319|501:368,2,73.3333333333333,2|0|0,3:1|3:2|3:2,0:2:0:0:
396,269,212351,6,0,P|375:218|390:161,1,110,4|2,3:1|0:1,0:2:0:0:
449,120,212697,1,0,0:2:0:0:
449,120,212813,2,0,P|456:73|454:57,1,55,2|0,0:1|0:1,0:1:0:0:
379,81,213044,2,0,P|358:48|337:32,1,55,0|0,0:2|0:2,0:2:0:0:
303,102,213274,2,0,P|236:112|194:84,2,110,8|2|0,0:2|0:1|0:2,0:2:0:0:
379,81,213851,1,0,0:2:0:0:
324,26,213967,1,2,0:1:0:0:
35,59,214428,6,0,B|58:92|68:111|68:111|76:92|86:75|86:75|96:92|104:110|104:110|112:91|130:57,1,197.99999395752,2|0,3:2|3:2,1:1:0:0:
194,103,214774,2,0,B|217:136|227:155|227:155|235:136|245:119|245:119|255:136|263:154|263:154|271:135|289:101,1,197.99999395752,2|0,2:2|2:2,1:1:0:0:
393,134,215120,2,0,P|350:189|414:273,1,181.500005538941,10|2,2:2|2:2,1:1:0:0:
486,234,215582,6,0,B|498:263|498:263|476:353,1,98.9999969787599,2|0,0:1|0:2,0:2:0:0:
256,74,222967,5,2,0:1:0:0:
411,45,223197,2,0,P|405:80|398:97,1,55,0|0,0:2|0:2,0:0:0:0:
377,114,223428,1,0,3:2:0:0:
367,136,223505,2,0,P|371:166|378:188,1,36.6666666666667
458,359,223890,6,0,L|512:349,2,55,0|2|2,0:2|0:2|0:2,0:0:0:0:
398,309,224236,1,0,0:2:0:0:
398,309,224351,2,0,L|344:319,2,55,2|0|0,0:2|0:2|0:2,0:0:0:0:
450,251,224697,2,0,P|460:212|456:182,1,55,2|2,0:2|0:2,0:0:0:0:
382,209,224928,1,0,0:2:0:0:
382,209,225044,2,0,P|361:174|337:155,1,55,2|2,0:2|0:2,0:2:0:0:
289,127,225274,5,0,3:2:0:0:
289,127,225390,2,0,L|303:64,1,55,2|2,0:2|0:2,0:0:0:0:
227,73,225620,1,0,0:2:0:0:
227,73,225736,2,0,L|241:10,2,36.6666666666667,2|0|0,0:2|0:2|0:2,0:0:0:0:
212,122,225967,2,0,L|131:140,1,55,2|0,0:2|0:2,0:2:0:0:
99,183,226197,2,0,P|83:147|84:119,2,55,2|0|0,0:2|0:2|0:2,0:0:0:0:
124,256,226544,2,0,P|140:292|139:320,2,55,2|2|0,0:2|0:2|0:2,0:0:0:0:
186,210,226890,2,0,L|267:192,1,55,2|0,0:2|0:2,0:0:0:0:
290,140,227120,5,0,3:2:0:0:
290,140,227236,2,0,P|312:167|316:204,2,55,2|2|0,0:2|0:2|0:2,0:0:0:0:
218,111,227582,2,0,P|196:84|192:47,1,55,2|0,0:2|0:2,0:0:0:0:
113,67,227813,2,0,P|116:32|139:3,1,55,2|0,0:2|0:2,0:0:0:0:
137,144,228044,5,2,3:2:0:0:
62,161,228159,1,2,0:2:0:0:
79,236,228274,1,0,0:2:0:0:
154,219,228390,2,0,L|164:258,2,36.6666666666667,2|0|0,0:2|0:0|0:0,0:2:0:0:
264,153,228736,5,0,0:2:0:0:
264,153,228851,1,0,0:2:0:0:
264,153,228967,2,0,L|276:94,1,55,2|2,3:2|0:2,0:0:0:0:
343,65,229197,1,0,0:2:0:0:
343,65,229313,2,0,L|355:124,1,55,2|0,0:2|3:2,0:0:0:0:
357,133,229505,1,2,0:2:0:0:
360,147,229582,1,0,0:2:0:0:
363,161,229659,2,0,L|375:220,1,55,0|0,0:2|0:2,0:2:0:0:
450,206,229890,2,0,L|438:265,1,55,2|0,3:2|0:2,0:0:0:0:
371,295,230120,1,0,0:2:0:0:
371,295,230236,2,0,L|383:354,1,55,2|0,0:2|3:2,0:0:0:0:
455,372,230467,1,0,0:2:0:0:
455,372,230582,1,2,0:1:0:0:
495,222,230736,5,0,0:2:0:0:
495,222,230813,2,0,P|490:195|492:161,2,44,2|0|0,0:2|0:2|0:2,0:0:0:0:
459,289,231120,2,0,P|436:273|413:247,2,36.6666666666667,2|0|0,0:2|0:2|0:2,0:0:0:0:
363,375,231390,2,0,P|336:370|302:372,2,55,0|0|2,0:0|0:0|0:2,0:0:0:0:
339,274,231736,5,8,0:1:0:0:
263,284,231851,1,0,0:2:0:0:
186,295,231967,2,0,L|110:310,1,73.3333333333333
129,215,232274,2,0,L|47:230,2,73.3333333333333,0|8|0,0:0|0:1|0:0,0:0:0:0:
205,120,232659,5,0,0:0:0:0:
205,120,232751,2,0,P|209:88|207:68,2,44,2|0|0,0:2|0:2|0:2,0:0:0:0:
240,190,233028,2,0,P|265:170|278:154,2,44,2|0|0,0:2|0:2|0:2,0:0:0:0:
215,264,233305,2,0,P|247:268|267:266,2,44,2|0|0,0:2|0:2|0:2,0:0:0:0:
160,321,233582,2,0,P|105:323|85:332,1,73.3333333333333,8|0,0:1|0:0,0:2:0:0:
54,261,233838,2,0,P|20:297|12:316,1,48.8888888888889,0|8,0:0|0:1,0:0:0:0:
135,214,234095,2,0,P|94:176|74:168,2,73.3333333333333,2|8|2,0:2|0:1|0:2,0:2:0:0:
210,248,234556,5,0,0:2:0:0:
210,248,234710,2,0,L|284:237,1,73.3333333333333,2|2,0:2|0:2,0:0:0:0:
236,162,235018,1,0,0:2:0:0:
236,162,235172,2,0,L|310:151,1,73.3333333333333,2|2,0:2|0:2,0:0:0:0:
374,224,235479,5,0,0:0:0:0:
374,224,235582,2,0,L|448:213,1,73.3333333333333,2|2,0:2|0:2,0:0:0:0:
400,138,235890,1,2,0:2:0:0:
400,138,235992,2,0,L|474:127,1,73.3333333333333,0|0,0:2|0:0,0:0:0:0:
283,16,236351,5,0,0:2:0:0:
283,16,236467,2,0,P|295:57|290:81,1,55,0|2,0:2|0:2,0:0:0:0:
334,133,236697,2,0,P|293:145|269:140,1,55,2|0,0:2|0:2,0:2:0:0:
221,94,236928,2,0,P|193:94|168:104,2,55,2|0|2,0:2|0:2|0:2,0:2:0:0:
212,170,237274,2,0,L|227:256,2,73.3333333333333,8|0|0,0:1|0:0|0:0,0:0:0:0:
116,208,237736,2,0,L|27:192,1,55,0|0,0:2|0:2,0:0:0:0:
16,135,237967,1,10,0:1:0:0:
156,72,238197,6,0,L|146:12,2,55,2|0|0,3:1|0:1|0:1,0:0:0:0:
226,105,238544,2,0,P|254:156|244:214,1,110,2|0,0:1|0:1,0:1:0:0:
175,232,238890,1,2,3:1:0:0:
152,305,239005,1,0,0:1:0:0:
205,359,239120,1,8,0:1:0:0:
279,337,239236,2,0,P|337:335|387:372,1,110,2|0,0:1|0:1,0:1:0:0:
442,318,239582,2,0,L|499:307,1,55,2|0,0:1|0:1,0:0:0:0:
458,239,239813,2,0,L|515:228,1,55,10|0,0:1|0:1,0:0:0:0:
470,160,240044,6,0,L|413:171,2,55,2|0|0,3:1|0:1|0:1,0:0:0:0:
495,86,240390,2,0,P|443:62|381:84,1,110,2|0,0:1|0:1,0:1:0:0:
351,138,240736,1,2,3:1:0:0:
278,162,240851,1,0,0:1:0:0:
206,132,240967,1,8,0:1:0:0:
168,65,241082,1,2,0:1:0:0:
45,261,241428,6,0,L|63:331,1,55,0|2,0:1|0:1,0:0:0:0:
129,281,241659,2,0,L|147:351,1,55,10|0,0:1|0:1,0:0:0:0:
213,301,241890,2,0,L|231:371,2,55,2|0|0,3:1|0:1|0:1,0:0:0:0:
190,226,242236,2,0,P|244:198|300:212,1,110,2|0,0:1|0:1,0:1:0:0:
347,258,242582,1,2,3:1:0:0:
422,272,242697,1,0,0:1:0:0:
488,231,242813,1,8,0:1:0:0:
508,157,242928,2,0,L|391:134,1,110,2|0,0:1|0:1,0:1:0:0:
327,162,243274,6,0,P|322:115|327:98,1,55,2|0,0:1|0:1,0:1:0:0:
252,77,243505,2,0,P|281:40|297:31,1,55,10|0,0:1|0:1,0:1:0:0:
225,159,243736,1,2,2:1:0:0:
149,142,243851,1,0,0:1:0:0:
132,218,243967,1,0,0:1:0:0:
208,235,244082,2,0,P|238:298|230:338,1,110,2|0,0:1|0:1,0:1:0:0:
155,352,244428,1,2,0:1:0:0:
138,276,244544,1,0,0:1:0:0:
62,293,244659,1,0,0:1:0:0:
45,217,244774,2,0,L|75:73,1,137.5,2|0,0:1|0:1,0:1:0:0:
78,62,245120,5,2,0:1:0:0:
387,12,245582,6,0,P|399:39|400:80,2,55,0|0|2,0:2|0:2|0:2,0:2:0:0:
323,56,245928,1,0,0:2:0:0:
245,54,246044,2,0,P|248:81|259:106,1,55,0|2,0:2|0:2,0:0:0:0:
329,139,246274,2,0,P|340:163|343:191,1,55,0|0,0:2|0:2,0:0:0:0:
285,242,246505,2,0,P|339:234|393:265,2,110,2|2|2,0:2|0:2|0:2,0:0:0:0:
162,336,247197,5,0,0:0:0:0:
88,359,247313,2,0,P|85:319|91:300,1,55,2|0,0:0|0:0,0:0:0:0:
150,258,247544,1,2,0:0:0:0:
150,258,247659,2,0,P|144:231|149:204,2,55,0|2|0,0:0|0:0|0:0,0:0:0:0:
219,292,248005,1,2,0:0:0:0:
287,258,248120,1,0,0:0:0:0:
357,290,248236,2,0,L|471:269,1,110,2|0,0:0|0:0,0:0:0:0:
491,197,248582,1,2,0:0:0:0:
341,158,248813,2,0,P|324:119|340:53,1,110,2|0,0:0|0:0,0:0:0:0:
414,16,249159,5,2,0:0:0:0:
483,47,249274,2,0,L|496:103,1,55,2|0,0:2|0:2,0:0:0:0:
429,140,249505,2,0,L|442:196,1,55,2|0,0:2|0:2,0:2:0:0:
375,233,249736,2,0,L|388:289,2,55,0|2|0,0:0|0:0|0:0,0:0:0:0:
301,207,250082,1,2,0:0:0:0:
301,207,250197,1,0,0:0:0:0:
301,207,250313,1,0,0:0:0:0:
243,284,250428,2,0,P|181:298|134:277,1,110,2|2,0:2|0:2,0:2:0:0:
7,141,250890,6,0,B|33:132|33:132|95:152,1,82.5000031471254,2|0,0:1|0:2,0:2:0:0:
158,171,251120,5,0,0:2:0:0:
226,135,251236,1,0,0:2:0:0:
292,172,251351,1,2,0:2:0:0:
360,136,251467,1,0,0:2:0:0:
426,174,251582,2,0,L|441:234,2,55,2|0|2,0:2|0:2|0:2,0:0:0:0:
491,132,251928,2,0,L|476:72,1,55,2|0,0:2|0:2,0:2:0:0:
412,37,252159,1,2,0:2:0:0:
412,37,252274,2,0,P|359:52|306:41,1,110,2|2,0:2|0:2,0:2:0:0:
214,210,252736,5,0,0:2:0:0:
214,210,252851,2,0,P|215:167|210:149,2,55,2|2|0,0:2|0:2|0:2,0:0:0:0:
182,280,253197,2,0,L|102:296,1,55,2|0,0:2|0:2,0:2:0:0:
69,239,253428,2,0,L|-11:255,2,55,2|0|0,0:2|0:2|0:2,0:0:0:0:
77,162,253774,2,0,L|-3:178,2,55,2|0|0,0:2|0:2|0:2,0:0:0:0:
130,105,254120,2,0,P|180:112|248:69,1,110,2|2,0:2|0:2,0:2:0:0:
365,8,254582,5,0,0:2:0:0:
391,79,254697,1,0,0:2:0:0:
418,151,254813,2,0,L|488:166,2,55,2|0|2,0:2|0:2|0:2,0:0:0:0:
347,183,255159,2,0,L|277:168,1,55,0|2,0:2|0:2,0:0:0:0:
234,128,255390,1,0,0:2:0:0:
234,128,255505,2,0,P|221:159|223:187,2,55,0|2|0,0:2|0:2|0:2,0:2:0:0:
276,64,255851,1,0,0:2:0:0:
276,64,255967,2,0,L|160:86,1,110,2|2,0:2|0:2,0:2:0:0:
104,40,256313,1,0,0:2:0:0:
104,40,256428,6,0,B|85:25|85:25|97:82,1,82.5000031471254,2|0,0:1|0:2,0:2:0:0:
41,136,256659,6,0,L|32:190,1,55,2|2,0:2|0:2,0:0:0:0:
109,189,256890,2,0,L|100:243,1,55,2|2,0:2|0:2,0:0:0:0:
177,242,257120,2,0,L|168:296,2,55,2|2|0,0:2|0:2|0:2,0:0:0:0:
247,208,257467,2,0,L|256:154,2,55,2|0|2,0:2|0:2|0:2,0:2:0:0:
281,277,257813,2,0,P|336:306|384:295,1,110,2|2,0:2|0:2,0:2:0:0:
458,165,258274,5,2,0:2:0:0:
458,165,258390,2,0,L|514:176,2,55,2|0|2,0:2|0:2|0:2,0:2:0:0:
406,106,258736,2,0,L|350:95,1,55,2|0,0:2|0:2,0:0:0:0:
309,31,258967,2,0,P|277:79|291:139,1,110,2|0,0:2|0:2,0:2:0:0:
347,173,259313,2,0,P|353:226|322:270,1,110,2|0,0:2|0:2,0:2:0:0:
278,206,259659,2,0,L|218:228,1,55,2|0,0:2|0:2,0:2:0:0:
153,250,259890,5,6,3:2:0:0:
256,192,260005,12,4,263120,0:2:0:0:
38,234,264044,6,0,P|94:225|152:266,1,110,4|2,3:1|0:2,0:2:0:0:
208,211,264390,1,0,0:2:0:0:
208,211,264505,2,0,P|219:261|216:279,1,55,0|0,0:2|0:2,0:2:0:0:
248,335,264736,1,2,0:2:0:0:
324,345,264851,1,2,0:2:0:0:
400,355,264967,2,0,L|411:293,1,55,10|2,0:2|0:2,0:0:0:0:
481,272,265197,2,0,L|492:210,2,55,2|2|2,0:2|0:2|0:2,0:0:0:0:
383,151,265659,6,0,P|339:186|289:173,2,110,2|0|2,0:1|0:2|3:1,0:2:0:0:
455,177,266236,1,0,0:2:0:0:
455,177,266351,2,0,P|460:144|453:118,1,55,0|0,3:2|0:2,0:0:0:0:
418,55,266582,1,2,0:2:0:0:
345,29,266697,1,2,0:2:0:0:
271,53,266813,2,0,P|261:96|266:120,1,55,10|2,0:2|0:2,0:2:0:0:
187,124,267044,2,0,P|210:161|230:174,2,55,2|2|2,0:2|0:2|0:2,0:2:0:0:
136,65,267390,1,0,0:2:0:0:
136,65,267505,6,0,L|23:100,2,110,2|4|2,0:1|3:1|0:1,0:2:0:0:
192,11,268082,1,0,0:2:0:0:
192,11,268197,2,0,L|252:20,1,55,0|0,0:2|0:2,0:2:0:0:
289,95,268428,1,2,0:2:0:0:
289,95,268544,1,2,0:2:0:0:
289,95,268659,2,0,L|349:86,1,55,10|2,0:2|0:2,0:0:0:0:
420,75,268890,2,0,L|480:66,2,55,2|2|2,0:2|0:2|0:2,0:0:0:0:
382,224,269351,6,0,P|321:219|272:250,2,110,2|0|2,0:1|0:0|3:1,0:2:0:0:
446,179,269928,1,0,0:2:0:0:
446,179,270044,2,0,P|460:228|458:242,1,55,0|0,3:2|0:2,0:2:0:0:
435,303,270274,1,2,0:2:0:0:
359,318,270390,1,2,0:2:0:0:
288,286,270505,2,0,L|226:299,1,55,10|2,0:2|0:2,0:0:0:0:
177,349,270736,2,0,L|115:336,2,55,2|2|2,0:2|0:2|3:2,0:0:0:0:
250,384,271082,1,0,0:2:0:0:
250,384,271197,2,0,P|255:325|250:314,1,55,2|0,3:1|0:2,0:2:0:0:
215,265,271428,6,0,P|281:283|336:255,1,110,4|2,3:1|0:1,0:2:0:0:
372,214,271774,1,0,0:0:0:0:
372,214,271890,2,0,L|356:149,1,55,0|0,0:2|0:2,0:0:0:0:
304,105,272120,1,2,0:2:0:0:
378,85,272236,1,2,0:2:0:0:
325,29,272351,2,0,P|294:26|268:33,2,55,10|2|2,0:2|0:2|0:2,0:2:0:0:
378,85,272697,1,2,0:2:0:0:
378,85,272813,2,0,P|407:94|434:92,1,55,2|0,0:2|0:2,0:2:0:0:
478,154,273044,6,0,L|492:42,2,110,2|0|2,0:1|3:2|3:1,0:2:0:0:
411,192,273620,1,0,0:2:0:0:
411,192,273736,2,0,L|401:266,1,55,0|0,3:2|0:2,0:2:0:0:
397,323,273967,1,2,3:2:0:0:
326,354,274082,1,2,0:2:0:0:
253,327,274197,1,10,0:2:0:0:
210,262,274313,1,2,3:2:0:0:
220,186,274428,2,0,P|224:151|218:126,1,55,2|2,0:2|3:2,0:0:0:0:
147,157,274659,6,0,B|119:173|119:173|73:159,2,73.3333333333333,2|0|0,3:2|3:2|3:2,0:2:0:0:
170,56,275120,2,0,P|217:38|273:57,1,110,4|2,3:1|0:1,0:2:0:0:
324,113,275467,1,0,0:2:0:0:
324,113,275582,2,0,L|399:103,1,55,0|0,0:2|0:2,0:2:0:0:
455,97,275813,1,2,0:2:0:0:
465,173,275928,1,2,0:2:0:0:
475,249,276044,1,10,0:2:0:0:
399,259,276159,1,2,0:2:0:0:
323,269,276274,2,0,L|335:331,1,55,2|2,0:2|0:2,0:0:0:0:
399,259,276505,2,0,L|387:197,1,55,2|0,0:2|0:2,0:2:0:0:
335,142,276736,6,0,P|407:165|508:71,1,220,2|2,0:1|3:1,0:2:0:0:
256,192,277313,12,2,278582,0:1:0:0:
137,32,278813,6,0,P|151:83|138:137,1,110,4|2,3:1|0:1,0:2:0:0:
76,185,279159,1,0,0:2:0:0:
76,185,279274,2,0,L|93:247,1,55,0|0,0:2|0:2,0:2:0:0:
163,212,279505,2,0,L|180:274,1,55,0|0,0:2|0:2,0:2:0:0:
133,346,279736,6,2,B|118:323|118:323|306:376|306:376|355:358,1,263.99999194336,10|0,0:2|0:0,0:1:0:0:
372,281,280313,1,0,0:1:0:0:
372,281,280428,2,0,L|442:299,1,55,2|0,0:1|0:2,0:0:0:0:
448,220,280659,2,0,L|394:206,1,55,0|0,0:2|0:2,0:2:0:0:
340,150,280890,2,0,P|323:175|319:200,1,55,2|0,3:1|0:0,0:2:0:0:
242,207,281120,2,0,P|247:236|262:257,1,55,0|0,3:2|0:0,0:0:0:0:
328,313,281351,1,0,0:2:0:0:
328,313,281467,1,0,0:2:0:0:
328,313,281582,6,0,P|257:305|217:331,1,110,10|0,0:2|0:2,0:2:0:0:
160,363,281928,1,0,0:2:0:0:
160,363,282044,2,0,P|149:316|153:299,1,55,2|0,0:1|0:2,0:0:0:0:
76,287,282274,2,0,P|101:245|116:236,1,55,2|0,0:1|0:2,0:0:0:0:
177,211,282505,2,0,P|194:152|177:105,1,110,6|0,3:1|0:2,0:2:0:0:
133,51,282851,1,0,0:2:0:0:
133,51,282967,2,0,L|58:71,1,55,2|0,0:1|0:2,0:2:0:0:
210,32,283197,2,0,L|285:12,1,55,2|0,0:1|0:2,0:2:0:0:
302,84,283428,2,0,P|359:112|411:99,1,110,8|2,0:2|0:1,0:0:0:0:
454,45,283774,1,0,0:0:0:0:
483,116,283890,2,0,L|474:192,1,55,0|0,0:2|0:0,0:0:0:0:
404,197,284120,1,2,0:1:0:0:
35,59,284582,6,0,B|58:92|68:111|68:111|76:92|86:75|86:75|96:92|104:110|104:110|112:91|130:57,1,197.99999395752,2|0,3:2|3:2,1:1:0:0:
194,103,284928,2,0,B|217:136|227:155|227:155|235:136|245:119|245:119|255:136|263:154|263:154|271:135|289:101,1,197.99999395752,2|0,2:2|2:2,1:1:0:0:
393,134,285274,2,0,P|350:189|414:273,1,181.500005538941,10|2,2:2|2:2,1:1:0:0:
404,271,285967,1,2,0:1:0:0:
285,367,286197,6,0,P|252:313|264:258,1,110,4|2,3:1|0:1,0:2:0:0:
304,207,286544,1,0,0:2:0:0:
304,207,286659,2,0,P|276:196|226:196,1,55,0|0,0:2|0:2,0:2:0:0:
237,116,286890,2,0,P|209:128|174:163,1,55,0|0,0:2|0:2,0:2:0:0:
124,201,287120,6,2,B|110:238|110:238|76:60|76:60|55:133,1,285.99998690796,10|0,0:2|0:0,0:1:0:0:
23,196,287697,1,0,0:1:0:0:
23,196,287813,2,0,L|35:259,1,55,2|0,0:1|0:2,0:2:0:0:
14,325,288044,6,0,P|61:324|82:310,1,55,0|0,3:2|0:0,0:2:0:0:
112,258,288274,2,0,P|138:250|165:254,1,55,2|0,3:1|0:2,0:0:0:0:
220,307,288505,2,0,P|267:306|288:292,1,55,0|0,3:2|0:0,0:2:0:0:
318,240,288735,2,0,P|344:232|371:236,1,55,0|0,0:2|0:2,0:0:0:0:
433,283,288967,6,0,B|450:310|450:310|435:358,2,73.3333333333333,10|0|0,0:2|0:0|3:2,0:0:0:0:
488,196,289428,6,0,B|505:169|505:169|490:121,2,73.3333333333333,2|0|0,3:1|3:2|3:2,0:2:0:0:
394,151,289890,6,0,P|339:187|273:172,1,110,4|2,3:1|0:1,0:2:0:0:
229,217,290236,1,0,0:2:0:0:
229,217,290351,2,0,P|221:176|227:155,1,55,2|0,0:1|0:1,0:1:0:0:
279,110,290582,2,0,P|281:82|273:56,1,55,0|0,0:2|0:2,0:2:0:0:
205,19,290813,2,0,L|81:44,1,110,8|2,0:2|0:1,0:2:0:0:
23,17,291159,1,0,0:0:0:0:
23,17,291274,2,0,P|20:58|27:81,1,55,0|0,0:2|0:2,0:0:0:0:
49,143,291505,1,2,0:1:0:0:
205,19,291967,6,0,B|217:53|217:53|233:37|233:37|245:52|245:52|259:18,1,110,2|0,3:2|3:2,1:1:0:0:
319,81,292313,2,0,B|331:115|331:115|347:99|347:99|359:114|359:114|373:80,1,110,2|0,2:2|2:2,1:1:0:0:
470,95,292659,2,0,P|438:141|494:231,1,165,10|2,2:2|2:2,1:1:0:0:
