osu file format v14

[General]
AudioFilename: audio2.mp3
AudioLeadIn: 0
PreviewTime: 693184
Countdown: 1
SampleSet: Normal
StackLeniency: 0.2
Mode: 0
LetterboxInBreaks: 0
WidescreenStoryboard: 1

[Editor]
Bookmarks: 193120,205740,215214,218372,227846,240488,265751,278366,290998,301754,303629,316261,322593,328892,365225,371541,396786,422067,470055,478707,492398,559851,575089,582223,582700,588414,591518,591756,592232,593423,593899,594137,595089,596042,596518,596994,597470,597947,598899,599375,599851,600804,601280,601756,602708,603661,605566,611280,613185,620803,631042,634136,634316,645565,676041,693184,723652,738898,746518,752231,757946
DistanceSpacing: 0.5
BeatDivisor: 3
GridSize: 8
TimelineZoom: 1.9

[Metadata]
Title:Curse Bride
TitleUnicode:Curse Bride
Artist:TEARS OF TRAGEDY
ArtistUnicode:TEARS OF TRAGEDY
Creator:Kite
Version:Anathema
Source:
Tags:foxy grandpa foxygrandpa haruka walküre records oyster brothers records tod japanese rock metal statice oybr-001 2016 beethoven fur elise
BeatmapID:1432297
BeatmapSetID:677195

[Difficulty]
HPDrainRate:6
CircleSize:4.5
OverallDifficulty:8.5
ApproachRate:9.5
SliderMultiplier:2.2
SliderTickRate:1

[Events]
//Background and Video events
0,0,"artist mri.jpg",0,0
//Break Periods
2,481497,490846
//Storyboard Layer 0 (Background)
//Storyboard Layer 1 (Fail)
//Storyboard Layer 2 (Pass)
//Storyboard Layer 3 (Foreground)
//Storyboard Layer 4 (Overlay)
//Storyboard Sound Samples

[TimingPoints]
193097,395.126769838657,4,1,1,80,1,0
193294,-100,4,1,10,80,0,0
194084,-100,4,1,1,80,0,0
197048,-100,4,1,10,80,0,0
198134,-100,4,1,1,50,0,0
198628,387.096774193548,4,1,1,80,1,0
199014,400,4,3,25,80,1,0
199414,394.736842105263,4,1,1,80,1,0
215203,-83.3333333333333,4,1,1,80,0,0
215598,-71.4285714285714,4,1,1,80,0,0
215992,-76.9230769230769,4,1,1,80,0,0
216387,-66.6666666666667,4,1,1,80,0,0
216782,-100,4,1,1,80,0,0
217769,-100,4,1,25,80,0,0
218361,-76.9230769230769,4,1,1,80,0,0
220729,-100,4,1,1,80,0,0
221519,-76.9230769230769,4,1,1,80,0,0
224085,-100,4,1,1,80,0,0
225861,-111.111111111111,4,1,1,80,0,0
227440,-111.111111111111,4,1,25,60,0,0
227835,-133.333333333333,4,1,1,80,0,0
228032,-133.333333333333,4,1,1,70,0,0
228131,-133.333333333333,4,1,1,40,0,0
228229,-133.333333333333,4,1,1,70,0,0
228328,-133.333333333333,4,1,1,40,0,0
228427,-133.333333333333,4,1,1,70,0,0
228525,-133.333333333333,4,1,1,40,0,0
228624,-133.333333333333,4,1,1,70,0,0
228723,-133.333333333333,4,1,1,40,0,0
228821,-133.333333333333,4,1,1,70,0,0
228920,-133.333333333333,4,1,1,40,0,0
229019,-133.333333333333,4,1,1,70,0,0
229117,-133.333333333333,4,1,1,40,0,0
229216,-133.333333333333,4,1,1,70,0,0
229315,-133.333333333333,4,1,1,40,0,0
229414,-133.333333333333,4,1,1,70,0,0
229512,-133.333333333333,4,1,1,40,0,0
229611,-133.333333333333,4,1,1,70,0,0
229710,-133.333333333333,4,1,1,40,0,0
229808,-133.333333333333,4,1,1,70,0,0
229907,-133.333333333333,4,1,1,40,0,0
230006,-133.333333333333,4,1,1,70,0,0
230104,-133.333333333333,4,1,1,70,0,0
230203,-133.333333333333,4,1,1,70,0,0
230302,-133.333333333333,4,1,1,40,0,0
230400,-133.333333333333,4,1,1,70,0,0
230499,-133.333333333333,4,1,1,40,0,0
230598,-133.333333333333,4,1,1,70,0,0
230696,-133.333333333333,4,1,1,40,0,0
230795,-133.333333333333,4,1,1,80,0,0
231190,-133.333333333333,4,1,1,70,0,0
231289,-133.333333333333,4,1,1,40,0,0
231387,-133.333333333333,4,1,1,70,0,0
231486,-133.333333333333,4,1,1,40,0,0
231585,-133.333333333333,4,1,1,70,0,0
231683,-133.333333333333,4,1,1,40,0,0
231782,-133.333333333333,4,1,1,70,0,0
231881,-133.333333333333,4,1,1,40,0,0
231979,-133.333333333333,4,1,1,70,0,0
232078,-133.333333333333,4,1,1,40,0,0
232177,-133.333333333333,4,1,1,70,0,0
232275,-133.333333333333,4,1,1,40,0,0
232374,-133.333333333333,4,1,1,70,0,0
232473,-133.333333333333,4,1,1,40,0,0
232571,-133.333333333333,4,1,1,70,0,0
232670,-133.333333333333,4,1,1,40,0,0
232769,-133.333333333333,4,1,1,70,0,0
232867,-133.333333333333,4,1,1,40,0,0
232966,-133.333333333333,4,1,1,70,0,0
233065,-133.333333333333,4,1,1,40,0,0
233164,-133.333333333333,4,1,1,70,0,0
233262,-133.333333333333,4,1,1,40,0,0
233361,-133.333333333333,4,1,1,60,0,0
233427,-133.333333333333,4,1,1,30,0,0
234052,-133.333333333333,4,1,1,5,0,0
234150,-133.333333333333,4,1,1,60,0,0
236914,-133.333333333333,4,1,1,40,0,0
237308,-133.333333333333,4,1,2,70,0,0
237703,-400,4,1,15,80,0,0
238098,-100,4,1,1,20,0,0
238295,-100,4,1,1,30,0,0
239677,-100,4,1,50,90,0,0
239874,-100,4,1,50,75,0,0
240071,-100,4,1,50,65,0,0
240269,-100,4,1,50,50,0,0
240505,394.736842105263,4,2,18,60,1,0
240505,-181.818181818181,4,2,18,30,0,0
240603,-181.818181818181,4,2,18,60,0,0
241689,-181.818181818181,4,2,16,60,0,0
241952,-181.818181818181,4,2,69,5,0,0
242018,-181.818181818181,4,2,1,60,0,0
242083,-181.818181818181,4,2,17,60,0,0
242873,-181.818181818181,4,2,18,60,0,0
243958,-181.818181818181,4,2,69,5,0,0
244057,-181.818181818181,4,2,30,20,0,0
244353,-181.818181818181,4,2,69,5,0,0
244452,-181.818181818181,4,2,30,20,0,0
244748,-181.818181818181,4,2,69,5,0,0
244847,-181.818181818181,4,2,30,20,0,0
245143,-181.818181818181,4,2,69,5,0,0
245241,-181.818181818181,4,2,30,20,0,0
245537,-181.818181818181,4,2,69,5,0,0
245636,-181.818181818181,4,2,30,20,0,0
245932,-181.818181818181,4,2,69,5,0,0
246031,-181.818181818181,4,2,30,20,0,0
246327,-181.818181818181,4,2,69,5,0,0
246426,-181.818181818181,4,2,30,20,0,0
246722,-181.818181818181,4,2,69,5,0,0
246820,-181.818181818181,4,2,16,60,0,0
248005,-181.818181818181,4,2,17,60,0,0
248399,-181.818181818181,4,2,19,60,0,0
249189,-181.818181818181,4,2,18,60,0,0
249978,-181.818181818181,4,2,16,60,0,0
250373,-181.818181818181,4,2,72,20,0,0
251557,-181.818181818181,4,2,18,60,0,0
251952,-181.818181818181,4,2,72,20,0,0
253136,-153.846153846153,4,2,16,60,0,0
253926,-153.846153846153,4,2,20,60,0,0
254715,-153.846153846153,4,2,21,60,0,0
255505,-153.846153846153,4,2,20,60,0,0
256294,-153.846153846153,4,2,18,60,0,0
256689,-153.846153846153,4,2,30,25,0,0
258169,-153.846153846153,4,2,69,5,0,0
258268,-153.846153846153,4,2,30,25,0,0
258564,-153.846153846153,4,2,69,5,0,0
258662,-153.846153846153,4,2,30,25,0,0
258860,-153.846153846153,4,2,22,60,0,0
259452,-153.846153846153,4,2,21,60,0,0
259748,-153.846153846153,4,2,69,5,0,0
259847,-153.846153846153,4,2,73,25,0,0
260143,-153.846153846153,4,2,69,5,0,0
260241,-153.846153846153,4,2,73,25,0,0
260537,-153.846153846153,4,2,69,5,0,0
260636,-153.846153846153,4,2,73,60,0,0
261031,-153.846153846153,4,2,74,60,0,0
262577,394.736842105263,4,3,75,70,1,0
262675,-100,4,1,1,60,0,0
264945,-90.9090909090909,4,1,1,40,0,0
265142,-90.9090909090909,4,1,1,45,0,0
265340,-90.9090909090909,4,1,1,50,0,0
265537,-90.9090909090909,4,1,1,55,0,0
265734,-90.9090909090909,4,1,1,80,0,0
292675,-90.9090909090909,4,1,1,50,0,0
292774,-90.9090909090909,4,1,1,80,0,0
292873,-90.9090909090909,4,1,1,50,0,0
292971,-90.9090909090909,4,1,1,80,0,0
293070,-90.9090909090909,4,1,1,50,0,0
293169,-90.9090909090909,4,1,1,80,0,0
293267,-90.9090909090909,4,1,1,50,0,0
293366,-90.9090909090909,4,1,1,80,0,0
293465,-90.9090909090909,4,1,1,50,0,0
293563,-90.9090909090909,4,1,1,80,0,0
293662,-90.9090909090909,4,1,1,50,0,0
293761,-90.9090909090909,4,1,1,80,0,0
294057,-90.9090909090909,4,1,1,50,0,0
294155,-90.9090909090909,4,1,1,80,0,0
295833,-90.9090909090909,4,1,1,50,0,0
295932,-90.9090909090909,4,1,1,80,0,0
296030,-90.9090909090909,4,1,1,50,0,0
296129,-90.9090909090909,4,1,1,80,0,0
296228,-90.9090909090909,4,1,1,50,0,0
296327,-90.9090909090909,4,1,1,80,0,0
296425,-90.9090909090909,4,1,1,50,0,0
296524,-90.9090909090909,4,1,1,80,0,0
296623,-90.9090909090909,4,1,1,50,0,0
296721,-90.9090909090909,4,1,1,80,0,0
296820,-90.9090909090909,4,1,1,50,0,0
296919,-90.9090909090909,4,1,1,80,0,0
297017,-90.9090909090909,4,1,1,50,0,0
297116,-90.9090909090909,4,1,1,80,0,0
302346,-90.9090909090909,4,1,1,50,0,0
302840,-90.9090909090909,4,1,1,70,0,0
303629,-90.9090909090909,4,1,1,80,0,0
315965,-90.9090909090909,4,1,1,50,0,0
316261,-111.111111111111,4,1,1,70,0,0
316359,-111.111111111111,4,1,1,50,0,0
320208,-111.111111111111,4,1,1,60,0,0
320405,-111.111111111111,4,1,1,5,0,0
320471,-111.111111111111,4,1,1,60,0,0
320603,-111.111111111111,4,1,1,50,0,0
320998,-111.111111111111,4,1,1,60,0,0
321096,-111.111111111111,4,1,1,50,0,0
321787,-111.111111111111,4,1,1,40,0,0
322577,400,4,1,2,80,1,0
322774,-200,4,2,1,50,0,0
328915,394.736842105263,4,2,2,80,1,0
328915,-153.846153846153,4,2,2,80,0,0
330471,-100,4,2,2,80,0,0
331184,-100,4,2,69,5,0,0
331283,-100,4,2,2,80,0,0
331579,-100,4,2,69,5,0,0
331678,-100,4,2,2,80,0,0
331974,-100,4,2,69,5,0,0
332050,-133.333333333333,4,2,2,80,0,0
332368,-133.333333333333,4,2,69,5,0,0
332566,-133.333333333333,4,2,2,40,0,0
333037,-100,4,2,2,80,0,0
333158,-100,4,2,69,5,0,0
333257,-100,4,2,2,80,0,0
333355,-100,4,2,69,5,0,0
333454,-100,4,2,2,80,0,0
333553,-100,4,2,69,5,0,0
333651,-100,4,2,2,80,0,0
333947,-100,4,2,69,5,0,0
334024,-83.3333333333333,4,2,2,80,0,0
334342,-83.3333333333333,4,2,69,5,0,0
334441,-76.9230769230769,4,2,2,80,0,0
334737,-76.9230769230769,4,2,69,5,0,0
334836,-71.4285714285714,4,2,2,80,0,0
335132,-71.4285714285714,4,2,69,5,0,0
335230,400,4,2,2,80,1,0
335230,-100,4,2,2,80,0,0
335526,-100,4,2,69,5,0,0
335603,-90.9090909090909,4,2,2,80,0,0
335921,-90.9090909090909,4,2,69,5,0,0
336118,-90.9090909090909,4,2,2,80,0,0
336316,-90.9090909090909,4,2,69,5,0,0
336392,-100,4,2,2,80,0,0
336711,-100,4,2,69,5,0,0
336830,392.156862745098,4,2,2,80,1,0
336830,-83.3333333333333,4,2,2,80,0,0
337105,-83.3333333333333,4,2,69,5,0,0
337303,-83.3333333333333,4,2,2,80,0,0
337500,-83.3333333333333,4,2,69,5,0,0
337697,-83.3333333333333,4,2,69,5,0,0
337774,-100,4,2,2,80,0,0
337895,-100,4,2,69,5,0,0
337993,-100,4,2,2,80,0,0
338092,-100,4,2,69,5,0,0
338191,-100,4,2,2,80,0,0
338290,-100,4,2,69,5,0,0
338398,400,4,2,2,80,1,0
338398,-100,4,2,2,80,0,0
338684,-100,4,2,69,5,0,0
338798,392.156862745098,4,2,2,80,1,0
338798,-90.9090909090909,4,2,2,80,0,0
339079,-90.9090909090909,4,2,69,5,0,0
339276,-90.9090909090909,4,2,2,80,0,0
339474,-90.9090909090909,4,2,69,5,0,0
339550,-100,4,2,2,80,0,0
339868,-100,4,2,69,5,0,0
339974,394.736842105263,4,2,2,80,1,0
339974,-83.3333333333333,4,2,2,80,0,0
340263,-83.3333333333333,4,2,69,5,0,0
340461,-83.3333333333333,4,2,2,80,0,0
340658,-83.3333333333333,4,2,69,5,0,0
340855,-83.3333333333333,4,2,69,5,0,0
340932,-100,4,2,2,80,0,0
341053,-100,4,2,69,5,0,0
341151,-100,4,2,2,80,0,0
341250,-100,4,2,69,5,0,0
341355,400,4,2,2,80,1,0
341355,-100,4,2,2,80,0,0
341447,-100,4,2,69,5,0,0
341555,441.176470588235,4,2,2,80,1,0
341555,-100,4,2,2,80,0,0
341842,-100,4,2,69,5,0,0
341996,361.44578313253,4,2,2,80,1,0
341996,-90.9090909090909,4,2,2,80,0,0
342237,-90.9090909090909,4,2,69,5,0,0
342434,-90.9090909090909,4,2,2,80,0,0
342628,-90.9090909090909,4,2,2,5,0,0
342632,-90.9090909090909,4,2,69,5,0,0
342718,441.176470588235,4,2,2,80,1,0
342718,-100,4,2,2,80,0,0
343026,-100,4,2,69,5,0,0
343149,394.736842105263,4,2,2,80,1,0
343149,-90.9090909090909,4,2,2,80,0,0
343421,-90.9090909090909,4,2,69,5,0,0
343618,-90.9090909090909,4,2,2,80,0,0
343816,-90.9090909090909,4,2,69,5,0,0
344013,-90.9090909090909,4,2,69,5,0,0
344090,-100,4,2,2,80,0,0
344135,410.958904109589,4,2,2,80,1,0
344211,-100,4,2,69,5,0,0
344309,-100,4,2,2,80,0,0
344408,-100,4,2,69,5,0,0
344512,-100,4,2,2,80,0,0
344605,-100,4,2,69,5,0,0
344682,-100,4,2,2,80,0,0
344751,410.958904109589,4,2,2,80,1,0
345000,-100,4,2,69,5,0,0
345161,394.736842105263,4,2,2,80,1,0
345161,-100,4,2,2,80,0,0
345395,-100,4,2,69,5,0,0
345592,-100,4,2,2,80,0,0
345790,-100,4,2,69,5,0,0
345950,434.782608695652,4,2,2,80,1,0
345950,-111.111111111111,4,2,2,80,0,0
346184,-111.111111111111,4,2,69,5,0,0
346276,-90.9090909090909,4,2,69,5,0,0
346384,355.029585798817,4,2,2,80,1,0
346384,-90.9090909090909,4,2,2,80,0,0
346579,-90.9090909090909,4,2,69,5,0,0
346776,-90.9090909090909,4,2,2,80,0,0
346974,-90.9090909090909,4,2,69,5,0,0
347171,-90.9090909090909,4,2,69,5,0,0
347271,397.350993377483,4,2,2,80,1,0
347271,-100,4,2,2,80,0,0
347368,-100,4,2,69,5,0,0
347467,-100,4,2,2,80,0,0
347566,-100,4,2,69,5,0,0
347665,-100,4,2,2,80,0,0
347763,-100,4,2,69,5,0,0
347867,410.958904109589,4,2,2,80,1,0
347867,-100,4,2,2,80,0,0
348158,-100,4,2,69,5,0,0
348257,-100,4,2,2,80,0,0
348277,379.746835443038,4,2,2,80,1,0
348277,-100,4,2,2,80,0,0
348553,-100,4,2,69,5,0,0
348750,-100,4,2,2,80,0,0
348933,-100,4,2,69,5,0,0
348947,-100,4,2,69,5,0,0
349036,410.958904109589,4,2,2,80,1,0
349036,-100,4,2,2,80,0,0
349342,-100,4,2,69,5,0,0
349446,394.736842105263,4,2,2,80,1,0
349446,-90.9090909090909,4,2,2,80,0,0
349737,-90.9090909090909,4,2,69,5,0,0
349934,-90.9090909090909,4,2,2,80,0,0
350132,-90.9090909090909,4,2,69,5,0,0
350329,-90.9090909090909,4,2,69,5,0,0
350432,389.61038961039,4,2,2,80,1,0
350432,-100,4,2,2,80,0,0
350526,-100,4,2,69,5,0,0
350625,-100,4,2,2,80,0,0
350724,-100,4,2,69,5,0,0
350821,410.958904109589,4,2,2,80,1,0
350821,-100,4,2,2,80,0,0
350921,-100,4,2,69,5,0,0
351026,441.176470588235,4,2,2,80,1,0
351026,-100,4,2,2,80,0,0
351316,-100,4,2,69,5,0,0
351467,377.358490566038,4,2,2,80,1,0
351467,-100,4,2,2,80,0,0
351711,-100,4,2,69,5,0,0
351908,-100,4,2,2,80,0,0
352105,-100,4,2,69,5,0,0
352221,400,4,2,2,80,1,0
352221,-100,4,2,2,80,0,0
352500,-100,4,2,69,5,0,0
352621,387.096774193548,4,2,2,80,1,0
352621,-100,4,2,2,80,0,0
352895,-100,4,2,69,5,0,0
353092,-100,4,2,2,80,0,0
353290,-100,4,2,69,5,0,0
353487,-100,4,2,69,5,0,0
353588,394.736842105263,4,2,2,80,1,0
353588,-100,4,2,2,80,0,0
353684,-100,4,2,69,5,0,0
353783,-100,4,2,2,80,0,0
353882,-100,4,2,69,5,0,0
353982,410.958904109589,4,2,2,80,1,0
353982,-100,4,2,2,80,0,0
354079,-100,4,2,69,5,0,0
354187,400,4,2,2,80,1,0
354187,-100,4,2,2,80,0,0
354474,-100,4,2,69,5,0,0
354587,387.096774193548,4,2,2,80,1,0
354587,-100,4,2,2,80,0,0
354868,-100,4,2,69,5,0,0
355066,-100,4,2,2,80,0,0
355263,-100,4,2,69,5,0,0
355361,-100,4,2,2,80,0,0
355651,-100,4,2,69,5,0,0
355748,400,4,2,2,80,1,0
355748,-90.9090909090909,4,2,2,80,0,0
356053,-90.9090909090909,4,2,69,5,0,0
356250,-90.9090909090909,4,2,2,80,0,0
356447,-90.9090909090909,4,2,69,5,0,0
356645,-90.9090909090909,4,2,69,5,0,0
356743,-90.9090909090909,4,2,2,80,0,0
356842,-90.9090909090909,4,2,69,5,0,0
356941,-90.9090909090909,4,2,2,80,0,0
357040,-90.9090909090909,4,2,69,5,0,0
357138,-90.9090909090909,4,2,2,80,0,0
357237,-90.9090909090909,4,2,69,5,0,0
357348,416.666666666667,4,2,2,80,1,0
357348,-100,4,2,2,80,0,0
357632,-100,4,2,69,5,0,0
357764,375,4,2,2,80,1,0
357764,-100,4,2,2,80,0,0
358026,-100,4,2,69,5,0,0
358224,-100,4,2,2,80,0,0
358421,-100,4,2,69,5,0,0
358514,392.156862745098,4,2,2,80,1,0
358514,-100,4,2,2,80,0,0
358806,-100,4,2,69,5,0,0
358816,-100,4,2,69,5,0,0
358906,400,4,2,2,100,1,0
358906,-100,4,2,2,100,0,0
360376,-100,4,2,69,5,0,0
360474,-100,4,2,2,80,0,0
361161,-100,4,2,69,5,0,0
361259,-100,4,2,2,80,0,0
361965,-100,4,2,69,5,0,0
362063,-100,4,2,2,80,0,0
364806,-100,4,2,69,5,0,0
365011,394.736842105263,4,1,1,80,1,0
365208,394.736842105263,4,1,1,80,1,0
365504,-100,4,1,1,40,0,0
365701,-100,4,1,1,80,0,0
365898,-100,4,1,69,5,0,0
365997,-100,4,1,1,60,0,0
366688,-100,4,1,69,5,0,0
366786,-100,4,1,1,80,0,0
367083,-100,4,1,69,5,0,0
367280,-100,4,1,1,80,0,0
367477,-100,4,1,1,10,0,0
367576,-100,4,1,1,70,0,0
368267,-100,4,1,1,10,0,0
368365,-100,4,1,1,80,0,0
368661,-100,4,1,1,10,0,0
368859,-100,4,1,1,80,0,0
369056,-100,4,1,1,10,0,0
369155,-100,4,1,1,80,0,0
369846,-100,4,3,25,35,0,0
370142,-100,4,3,25,40,0,0
370339,-100,4,3,25,45,0,0
370536,-100,4,3,25,50,0,0
370734,-100,4,1,1,80,0,0
371523,-83.3333333333333,4,1,1,80,0,1
381096,-83.3333333333333,4,1,1,60,0,1
381589,-83.3333333333333,4,1,1,80,0,1
381688,-83.3333333333333,4,1,1,70,0,1
382181,-83.3333333333333,4,1,1,80,0,1
391523,-83.3333333333333,4,1,1,45,0,1
391655,-83.3333333333333,4,1,1,50,0,1
391786,-83.3333333333333,4,1,1,55,0,1
391918,-83.3333333333333,4,1,1,60,0,1
392050,-83.3333333333333,4,1,1,80,0,1
393727,-83.3333333333333,4,1,1,60,0,1
394221,-83.3333333333333,4,1,1,80,0,1
394319,-83.3333333333333,4,1,1,70,0,1
394813,-83.3333333333333,4,1,1,80,0,1
395504,-83.3333333333333,4,1,1,50,0,1
395997,-83.3333333333333,4,1,1,80,0,1
405471,-83.3333333333333,4,1,1,80,0,1
405865,-83.3333333333333,4,1,1,80,0,1
407938,-83.3333333333333,4,1,1,60,0,1
408629,-83.3333333333333,4,1,1,70,0,1
408727,-83.3333333333333,4,1,1,80,0,1
415438,-83.3333333333333,4,1,1,70,0,1
415635,-83.3333333333333,4,1,1,80,0,1
421260,-83.3333333333333,4,1,1,70,0,1
422050,300,5,2,2,50,1,0
422050,-200,5,2,2,50,0,0
425047,-181.818181818182,5,2,10,50,0,0
425121,-181.818181818182,5,2,2,50,0,0
428044,-166.666666666667,5,2,10,50,0,0
428118,-166.666666666667,5,2,2,50,0,0
431041,-153.846153846154,5,2,10,50,0,0
431115,-153.846153846154,5,2,2,50,0,0
434038,-111.111111111111,5,2,2,50,0,0
434262,-111.111111111111,5,2,2,5,0,0
434337,-133.333333333333,5,2,2,50,0,0
435550,-133.333333333333,5,2,2,50,0,0
437035,-111.111111111111,5,2,2,50,0,0
437259,-111.111111111111,5,2,2,5,0,0
437334,-133.333333333333,5,2,2,50,0,0
440032,-111.111111111111,5,2,2,50,0,0
440256,-111.111111111111,5,2,2,5,0,0
440331,-133.333333333333,5,2,2,50,0,0
441006,-133.333333333333,5,2,2,40,0,0
441380,-133.333333333333,5,2,2,50,0,0
441755,-133.333333333333,5,2,2,40,0,0
441850,-133.333333333333,5,2,25,40,0,0
442000,-133.333333333333,5,2,1,40,0,0
442150,-133.333333333333,5,2,25,40,0,0
442300,-133.333333333333,5,2,1,40,0,0
442429,-133.333333333333,5,2,2,30,0,0
442750,-133.333333333333,5,2,5,30,0,0
443029,-111.111111111111,5,2,2,50,0,0
443253,-111.111111111111,5,2,2,5,0,0
443328,-133.333333333333,5,2,2,50,0,0
444527,-166.666666666667,5,2,2,50,0,0
444752,-166.666666666667,5,2,2,5,0,0
444902,-166.666666666667,5,2,2,50,0,0
445051,-166.666666666667,5,2,2,5,0,0
445201,-166.666666666667,5,2,2,50,0,0
446325,-166.666666666667,5,2,2,50,0,0
447250,-166.666666666667,5,2,2,5,0,0
447400,-166.666666666667,5,2,91,60,0,0
448075,-166.666666666667,5,2,91,5,0,0
448150,-166.666666666667,5,2,92,70,0,0
448825,-166.666666666667,5,2,92,5,0,0
448900,-166.666666666667,5,2,93,80,0,0
450250,-166.666666666667,5,2,69,5,0,0
450521,279.06976744186,5,1,10,80,1,0
450590,-100,5,1,1,80,0,0
451916,-100,5,1,10,80,0,0
451986,-100,5,1,1,80,0,0
453311,-100,5,1,10,80,0,0
453381,-100,5,1,1,80,0,0
454707,-100,5,1,10,80,0,0
454776,-100,5,1,1,80,0,0
456102,-100,5,1,10,80,0,0
456172,-100,5,1,1,80,0,0
457497,-100,5,1,10,80,0,0
457567,-100,5,1,1,80,0,0
458893,-100,5,1,10,80,0,0
458962,-100,5,1,1,80,0,0
460288,-100,5,1,10,80,0,0
460358,-100,5,1,1,80,0,0
461683,-100,5,1,10,80,0,0
461753,-100,5,1,1,80,0,0
463079,-100,5,1,10,80,0,0
463148,-100,5,1,1,80,0,0
464474,-100,5,1,10,80,0,0
464544,-100,5,1,1,80,0,0
465869,-100,5,1,10,80,0,0
465939,-100,5,1,1,80,0,0
467265,-100,5,1,10,80,0,0
467334,-100,5,1,1,80,0,0
468381,-100,5,1,10,80,0,0
468451,-100,5,1,1,80,0,0
468660,-100,5,1,40,90,0,0
468730,-100,5,1,1,80,0,0
468869,-100,5,1,69,5,0,0
468939,-100,5,1,40,90,0,0
469009,-100,5,1,1,80,0,0
469148,-100,5,1,69,5,0,0
469218,-100,5,1,40,90,0,0
469288,-100,5,1,1,80,0,0
469427,-100,5,1,69,5,0,0
469497,-100,5,1,10,60,0,0
469567,-100,5,1,1,80,0,0
492393,279.06976744186,5,1,1,80,1,0
493218,-100,5,1,1,5,0,0
493358,-100,5,3,25,80,0,0
493648,279.06976744186,4,1,35,80,1,0
493717,-100,4,1,1,80,0,0
505368,-100,4,1,11,80,0,0
509415,-71.4285714285714,4,1,11,80,0,0
509624,-100,4,1,11,80,0,0
514020,279.06976744186,5,1,10,80,1,0
514089,-100,5,1,1,100,0,0
515415,-100,5,1,10,80,0,0
515485,-100,5,1,1,100,0,0
516810,-100,5,1,10,80,0,0
516880,-100,5,1,1,100,0,0
520737,300,3,1,1,100,1,0
521337,-100,3,1,25,100,0,0
521637,300,4,1,3,80,1,0
521637,-111.111111111111,4,1,3,80,0,0
531237,-111.111111111111,4,1,1,80,0,0
531387,-111.111111111111,4,1,3,80,0,0
540237,-111.111111111111,4,1,1,80,0,0
540837,-111.111111111111,4,1,3,80,0,0
541737,-111.111111111111,4,1,25,80,0,0
542037,-100,4,1,10,100,0,1
542187,-100,4,1,1,100,0,1
545637,-100,4,1,3,100,0,1
546837,-100,4,1,1,100,0,1
550437,-100,4,1,3,100,0,1
551937,-100,4,1,25,100,0,1
552237,-100,4,1,25,90,0,1
552537,-100,4,1,25,80,0,1
552837,-133.333333333333,4,1,1,70,0,1
553037,-133.333333333333,4,1,69,5,0,1
553137,-133.333333333333,4,1,1,70,0,1
553337,-133.333333333333,4,1,69,5,0,1
553437,-133.333333333333,4,1,1,70,0,1
554037,-100,4,1,3,85,0,1
555837,-100,4,3,25,85,0,1
556437,333.333333333333,5,1,1,80,1,0
556770,-100,5,3,25,80,0,0
557103,375,5,3,25,80,1,0
557478,400,5,1,1,80,1,0
557878,571.428571428571,5,1,1,80,1,0
558449,333.333333333333,5,1,25,80,1,0
558782,560.747663551402,5,1,25,80,1,0
559062,521.739130434783,5,1,25,80,1,0
559322,521.739130434783,5,1,1,80,1,0
559669,-100,5,1,1,5,0,0
559853,238.095238095238,4,1,1,80,1,0
560567,-166.666666666667,4,1,1,80,0,0
574614,-166.666666666667,4,1,25,80,0,0
575081,-111.111111111111,4,1,25,80,0,0
575091,-111.111111111111,4,1,10,80,0,0
575329,-111.111111111111,4,1,3,80,0,0
581757,-111.111111111111,4,1,1,80,0,0
581995,-111.111111111111,4,1,3,80,0,0
582233,-111.111111111111,4,1,25,80,0,0
582710,-111.111111111111,4,1,10,80,0,0
582948,-111.111111111111,4,1,3,80,0,0
588424,-111.111111111111,4,1,1,80,0,0
590328,238.095238095238,4,1,3,80,1,0
590328,-111.111111111111,4,1,3,80,0,0
596994,-111.111111111111,4,1,1,80,0,0
598899,-111.111111111111,4,1,1,80,0,0
599851,-111.111111111111,4,1,1,80,0,0
601756,-181.818181818182,4,1,3,80,0,0
602232,-125,4,1,3,80,0,0
602708,-111.111111111111,4,1,3,80,0,0
603066,-100,4,1,3,80,0,0
603423,-83.3333333333333,4,1,3,80,0,0
603661,-83.3333333333333,4,1,1,80,0,0
604137,-111.111111111111,4,1,3,80,0,0
605089,-111.111111111111,4,1,1,80,0,0
605566,-111.111111111111,4,1,3,80,0,0
610328,-105.263157894737,4,1,3,80,0,0
616994,-111.111111111111,4,1,3,80,0,0
620804,-125,4,1,11,80,0,0
622708,-111.111111111111,4,1,1,80,0,0
624613,-125,4,1,11,80,0,0
626518,-111.111111111111,4,1,1,80,0,0
628423,-125,4,1,11,80,0,0
630328,-111.111111111111,4,1,1,80,0,0
630566,-111.111111111111,4,1,1,5,0,0
631042,-133.333333333333,4,1,1,80,0,0
633661,-133.333333333333,4,1,25,80,0,0
634137,-111.111111111111,4,1,3,80,0,0
635089,-100,4,1,3,80,0,0
635328,-90.9090909090909,4,1,3,80,0,0
635804,-100,4,1,3,80,0,0
636042,-111.111111111111,4,1,3,80,0,0
636756,-100,4,1,3,80,0,0
636994,-90.9090909090909,4,1,3,80,0,0
637232,-83.3333333333333,4,1,3,80,0,0
638185,-100,4,1,3,80,0,0
639375,-86.9565217391304,4,1,3,80,0,0
640089,-100,4,1,3,80,0,0
642947,-111.111111111111,4,1,3,80,0,0
644613,-111.111111111111,4,1,1,80,0,0
645566,-200,4,1,1,80,0,1
645804,-100,4,1,1,80,0,1
646518,-200,4,1,1,80,0,1
646756,-100,4,1,1,80,0,1
647708,-200,4,1,1,80,0,1
647947,-100,4,1,1,80,0,1
648185,-200,4,1,1,80,0,1
648423,-90.9090909090909,4,1,1,80,0,1
648661,-200,4,1,1,80,0,1
648899,-83.3333333333333,4,1,3,80,0,1
649613,-200,4,1,1,80,0,1
649851,-76.9230769230769,4,1,1,80,0,1
650089,-200,4,1,1,80,0,1
650328,-71.4285714285714,4,1,1,80,0,1
650566,-200,4,1,1,80,0,1
650804,-66.6666666666667,4,1,1,80,0,1
651280,-200,4,1,1,80,0,1
651518,-100,4,1,1,80,0,1
651756,-200,4,1,1,80,0,1
651994,-100,4,1,1,80,0,1
652232,-200,4,1,1,80,0,1
652470,-100,4,1,1,80,0,1
652708,-100,4,1,1,80,0,1
652947,-100,4,1,1,80,0,1
653185,-100,4,1,3,80,0,1
657351,-100,4,1,1,80,0,1
658899,-100,4,1,3,80,0,1
660804,-133.333333333333,4,1,1,70,0,1
661280,-100,4,1,1,80,0,1
661994,-100,4,1,3,80,0,1
662708,-90.9090909090909,4,1,1,80,0,1
663304,-100,4,1,1,5,0,1
663363,-100,4,1,1,80,0,1
664613,-133.333333333333,4,1,1,70,0,1
665089,-83.3333333333333,4,1,1,80,0,1
665744,-100,4,1,3,80,0,1
666518,-90.9090909090909,4,1,1,80,0,1
667113,-100,4,1,1,5,0,1
667173,-100,4,1,3,80,0,1
674137,-200,4,1,1,80,0,1
674613,-142.857142857143,4,1,1,80,0,1
675089,-111.111111111111,4,1,1,80,0,1
675566,-100,4,1,25,80,0,1
676042,-125,4,1,11,80,0,0
677947,-125,4,1,1,80,0,0
679851,-125,4,1,11,80,0,0
681756,-125,4,1,1,80,0,0
683661,-125,4,1,11,80,0,0
685566,-125,4,1,1,80,0,0
686042,-300,4,1,1,80,0,0
687232,-250,4,1,1,80,0,0
689375,-250,4,1,1,30,0,0
689613,-250,4,1,1,40,0,0
689851,-250,4,1,1,50,0,0
690089,-250,4,1,1,60,0,0
690328,-250,4,1,3,40,0,0
690447,-250,4,1,1,40,0,0
690566,-250,4,1,1,60,0,0
690685,-250,4,1,3,60,0,0
690804,-250,4,1,1,80,0,0
691042,-250,4,1,3,90,0,0
691161,-250,4,1,1,100,0,0
692232,-250,4,1,5,100,0,0
692708,-250,4,1,25,100,0,0
692947,-250,4,1,25,90,0,0
693006,-250,4,1,25,80,0,0
693066,-250,4,1,25,70,0,0
693125,-250,4,1,25,60,0,0
693185,-100,4,1,6,90,0,1
693423,-100,4,1,5,90,0,1
700566,-100,4,1,25,90,0,1
700804,-100,4,1,5,90,0,1
706280,-100,4,1,25,90,0,1
706518,-90.9090909090909,4,1,5,90,0,1
707470,-133.333333333333,4,1,1,90,0,1
707649,-133.333333333333,4,1,1,5,0,1
707768,-133.333333333333,4,1,1,90,0,1
707828,-133.333333333333,4,1,69,5,0,1
707947,-250.333333333333,4,1,1,90,0,1
708125,-250.333333333333,4,2,69,5,0,1
708423,-100,4,1,6,90,0,1
708661,-100,4,1,5,90,0,1
715804,-100,4,1,25,90,0,1
716042,-100,4,1,5,90,0,1
721280,-100,4,1,25,90,0,1
721637,-100,4,1,1,90,0,1
721756,-90.9090909090909,4,1,5,90,0,1
722708,-90.9090909090909,4,1,3,90,0,1
722947,-90.9090909090909,4,1,1,90,0,1
723185,-133.333333333333,4,1,1,90,0,1
723661,-90.9090909090909,4,1,5,90,0,1
736518,-90.9090909090909,4,1,25,90,0,1
736994,-90.9090909090909,4,1,5,90,0,1
737947,-125,4,1,1,90,0,1
738125,-125,4,1,69,5,0,1
738423,-250,4,1,1,90,0,1
738601,-250,4,1,69,5,0,1
738899,-133.333333333333,4,1,1,90,0,0
742470,-133.333333333333,4,1,3,90,0,0
742589,-133.333333333333,4,1,69,5,0,0
742708,-133.333333333333,4,1,3,90,0,0
742828,-133.333333333333,4,1,1,90,0,0
742947,-133.333333333333,4,1,3,90,0,0
743066,-133.333333333333,4,1,1,90,0,0
743185,-133.333333333333,4,1,5,90,0,0
743423,-133.333333333333,4,1,25,90,0,0
743661,-133.333333333333,4,1,1,90,0,0
743780,-133.333333333333,4,1,5,90,0,0
744216,-133.333333333333,4,1,25,90,0,0
744375,-133.333333333333,4,1,1,90,0,0
744613,-200,4,1,1,90,0,0
744792,-200,4,1,69,5,0,0
744851,-181.818181818182,4,1,1,90,0,0
745030,-181.818181818182,4,1,69,5,0,0
745089,-166.666666666667,4,1,1,90,0,0
745268,-166.666666666667,4,1,69,5,0,0
745328,-153.846153846154,4,1,1,90,0,0
745506,-153.846153846154,4,1,69,5,0,0
745566,-142.857142857143,4,1,1,90,0,0
745744,-142.857142857143,4,1,69,5,0,0
745804,-133.333333333333,4,1,1,90,0,0
745982,-133.333333333333,4,1,69,5,0,0
746042,-125,4,1,1,100,0,0
746220,-125,4,1,69,5,0,0
746280,-117.647058823529,4,1,1,90,0,0
746458,-117.647058823529,4,1,69,5,0,0
746518,-117.647058823529,4,1,1,90,0,0
746756,-300,4,2,81,90,0,0
747708,-250,4,2,82,90,0,0
748661,-200,4,2,83,90,0,0
749613,-166.666666666667,4,2,84,90,0,0
750327,-100,4,1,85,90,0,0
751280,-100,4,1,5,90,0,0
752232,-100,4,1,66,90,0,0
752708,-100,4,1,1,95,0,0
752947,-100,4,1,1,90,0,0
753185,-100,4,1,1,85,0,0
753423,-100,4,1,1,80,0,0
753661,-100,4,1,1,75,0,0
753899,-100,4,1,1,70,0,0
754137,-100,4,1,1,65,0,0
754375,-100,4,1,1,60,0,0
754613,-100,4,1,1,55,0,0
754851,-100,4,1,1,50,0,0
755089,-100,4,1,1,45,0,0
755327,-100,4,1,1,40,0,0
755566,-100,4,1,1,35,0,0
755804,-100,4,1,1,30,0,0
756042,-100,4,1,1,25,0,0
756280,-100,4,1,1,20,0,0
756518,-100,4,1,1,15,0,0
756756,-100,4,1,1,10,0,0
756994,-100,4,1,1,9,0,0
757232,-100,4,1,1,8,0,0
757470,-100,4,1,1,7,0,0
757708,-100,4,1,1,6,0,0
757947,-100,4,2,69,5,0,0

[Colours]
Combo1 : 165,157,227
Combo2 : 162,40,40
Combo3 : 203,80,151
Combo4 : 193,139,237

[HitObjects]
474,117,193097,5,4,3:1:0:0:
372,299,193393,1,0,0:2:0:0:
363,232,193492,1,8,0:2:0:0:
372,299,194183,5,0,0:1:0:0:
363,232,194282,1,2,0:3:0:0:
269,57,194578,5,0,0:1:0:0:
261,129,194677,1,2,0:3:0:0:
159,318,194973,5,0,0:1:0:0:
150,239,195072,1,2,0:3:0:0:
58,59,195368,5,0,0:1:0:0:
48,143,195467,1,2,0:3:0:0:
160,323,195764,5,0,0:1:0:0:
150,235,195862,1,2,0:3:0:0:
271,41,196159,5,0,0:1:0:0:
260,134,196258,1,2,0:3:0:0:
373,314,196554,5,0,0:1:0:0:
362,217,196653,1,2,0:3:0:0:
484,27,196949,5,0,0:1:0:0:
473,122,197048,1,4,0:2:0:0:
58,59,197838,1,8,0:2:0:0:
197,78,198233,1,2,0:2:0:0:
336,95,198628,5,2,0:2:0:0:
349,107,198692,1,0,0:0:0:0:
362,120,198757,1,0,0:0:0:0:
372,136,198821,1,0,0:0:0:0:
378,153,198886,1,0,0:0:0:0:
381,171,198950,1,0,0:0:0:0:
381,190,199014,5,8,0:1:0:0:
390,173,199080,1,8,0:1:0:0:
393,154,199147,1,2,0:0:0:0:
393,134,199214,1,2,0:0:0:0:
389,115,199280,1,8,0:0:0:0:
380,98,199347,1,4,0:0:0:0:
367,83,199414,6,0,B|296:95|296:95|261:118,1,110,4|8,0:3|0:0,0:0:0:0:
142,293,199808,1,2,0:3:0:0:
142,293,199907,2,0,P|92:308|42:281,1,110,0|0,0:0|0:0,0:0:0:0:
210,257,200203,2,0,P|219:287|215:314,1,55,8|0,0:0|0:0,0:0:0:0:
143,215,200400,1,0,0:0:0:0:
368,154,200598,1,8,0:0:0:0:
123,19,200795,2,0,L|69:13,1,55,2|0,0:2|0:0,0:0:0:0:
165,93,200992,6,0,L|277:79,1,110,12|0,0:3|0:0,0:0:0:0:
470,57,201289,1,0,0:0:0:0:
428,69,201387,1,10,0:0:0:0:
402,105,201486,2,0,P|386:162|414:209,1,110,0|0,0:0|0:0,0:0:0:0:
480,250,201782,1,10,0:0:0:0:
451,216,201881,1,0,0:0:0:0:
408,204,201979,1,0,0:0:0:0:
365,211,202078,1,0,0:0:0:0:
331,239,202177,1,12,0:0:0:0:
192,42,202374,1,4,0:3:0:0:
28,257,202571,6,0,B|19:320|19:320|34:366,1,110,2|0,0:2|0:0,0:0:0:0:
110,263,202867,1,0,0:0:0:0:
104,219,202966,1,10,0:0:0:0:
98,175,203065,1,0,0:0:0:0:
92,131,203164,1,0,0:0:0:0:
86,87,203262,1,0,0:0:0:0:
80,43,203361,1,8,0:0:0:0:
47,72,203460,2,0,P|100:91|143:61,1,110,0|0,0:0|0:0,0:0:0:0:
221,34,203756,1,8,0:0:0:0:
331,315,203953,1,2,0:2:0:0:
482,135,204150,5,4,0:0:0:0:
492,92,204248,1,0,0:0:0:0:
478,51,204347,1,8,0:1:0:0:
445,23,204446,1,0,0:0:0:0:
402,18,204544,1,10,0:3:0:0:
362,36,204643,1,0,0:0:0:0:
339,72,204742,1,8,0:1:0:0:
338,115,204840,1,0,0:0:0:0:
366,149,204940,5,2,0:1:0:0:
363,107,205038,1,0,0:0:0:0:
339,72,205137,1,10,0:0:0:0:
299,54,205236,1,0,0:0:0:0:
256,61,205334,1,2,0:3:0:0:
223,89,205433,1,0,0:0:0:0:
210,130,205532,1,2,0:3:0:0:
222,171,205630,1,0,0:0:0:0:
258,197,205729,5,4,0:3:0:0:
270,166,205827,1,0,0:0:0:0:
272,134,205926,1,0,0:0:0:0:
263,102,206025,1,0,0:0:0:0:
243,76,206123,1,2,0:3:0:0:
215,58,206222,1,0,0:0:0:0:
184,50,206321,1,0,0:0:0:0:
151,54,206419,1,0,0:0:0:0:
122,69,206519,1,10,0:0:0:0:
99,93,206617,1,0,0:0:0:0:
86,123,206715,1,0,0:0:0:0:
86,156,206815,1,0,0:0:0:0:
94,187,206914,1,2,0:3:0:0:
112,214,207012,1,0,0:0:0:0:
126,243,207111,1,0,0:0:0:0:
129,275,207210,1,0,0:0:0:0:
116,305,207308,5,2,0:2:0:0:
90,325,207407,1,0,0:0:0:0:
56,327,207506,1,0,0:0:0:0:
25,313,207604,1,0,0:0:0:0:
9,283,207703,1,2,0:3:0:0:
11,250,207802,1,0,0:0:0:0:
33,225,207900,1,0,0:0:0:0:
65,221,207999,1,0,0:0:0:0:
92,240,208098,5,10,0:0:0:0:
116,262,208196,1,0,0:0:0:0:
147,273,208295,1,0,0:0:0:0:
180,272,208394,1,0,0:0:0:0:
211,265,208492,1,2,0:3:0:0:
189,241,208591,1,0,0:0:0:0:
157,232,208690,1,8,3:0:0:0:
123,233,208789,1,8,3:0:0:0:
92,240,208887,5,4,0:0:0:0:
95,273,208986,1,0,0:0:0:0:
112,301,209085,1,0,0:0:0:0:
136,324,209183,1,0,0:0:0:0:
167,335,209282,1,2,0:3:0:0:
201,338,209381,1,0,0:0:0:0:
233,328,209479,1,0,0:0:0:0:
260,308,209578,1,0,0:0:0:0:
282,282,209677,1,10,0:0:0:0:
290,250,209775,1,0,0:0:0:0:
286,217,209874,1,0,0:0:0:0:
272,186,209973,1,0,0:0:0:0:
245,166,210071,1,2,0:3:0:0:
212,160,210170,1,0,0:0:0:0:
179,163,210269,1,0,0:0:0:0:
150,178,210367,1,0,0:0:0:0:
126,201,210466,5,2,0:2:0:0:
110,171,210565,1,0,0:0:0:0:
103,138,210664,1,0,0:0:0:0:
101,105,210762,1,0,0:0:0:0:
109,73,210861,1,2,0:3:0:0:
124,44,210960,1,0,0:0:0:0:
150,25,211058,1,0,0:0:0:0:
182,20,211157,1,0,0:0:0:0:
214,23,211256,5,10,0:0:0:0:
203,53,211354,1,0,0:0:0:0:
174,69,211453,1,0,0:0:0:0:
141,76,211552,1,0,0:0:0:0:
109,73,211650,1,4,0:3:0:0:
124,44,211749,1,0,0:0:0:0:
150,25,211848,1,0,3:0:0:0:
182,20,211946,1,0,3:0:0:0:
214,23,212045,5,4,0:0:0:0:
226,53,212144,1,0,0:0:0:0:
248,76,212242,1,0,0:0:0:0:
276,92,212341,1,0,0:0:0:0:
308,99,212440,1,2,0:3:0:0:
340,102,212539,1,0,0:0:0:0:
372,95,212637,1,0,0:0:0:0:
401,79,212736,1,0,0:0:0:0:
425,57,212835,1,10,0:0:0:0:
455,44,212933,1,0,0:0:0:0:
486,52,213032,1,0,0:0:0:0:
509,77,213130,1,0,0:0:0:0:
512,111,213229,1,2,0:3:0:0:
495,139,213328,1,0,0:0:0:0:
466,154,213426,1,0,0:0:0:0:
432,152,213525,1,0,0:0:0:0:
408,128,213624,5,2,0:2:0:0:
438,114,213723,1,0,0:0:0:0:
470,117,213821,1,0,0:0:0:0:
495,139,213920,1,0,0:0:0:0:
505,170,214019,1,2,0:3:0:0:
496,201,214117,1,0,0:0:0:0:
472,224,214216,1,0,0:0:0:0:
440,232,214315,1,0,0:0:0:0:
407,226,214414,5,10,0:0:0:0:
371,251,214512,1,0,0:0:0:0:
354,291,214611,1,2,0:3:0:0:
358,334,214710,1,0,0:0:0:0:
382,370,214808,1,10,0:1:0:0:
432,336,214907,1,8,0:1:0:0:
440,276,215006,1,8,3:0:0:0:
407,226,215104,1,8,3:0:0:0:
358,202,215203,6,0,P|323:143|347:86,1,131.99999597168,12|2,3:0|0:2,0:0:0:0:
251,311,215598,2,0,B|211:329|211:329|175:309|175:309|106:301,1,153.999995300293,4|8,0:0|0:0,0:0:0:0:
55,251,215894,1,8,0:0:0:0:
55,251,215992,2,0,P|34:295|80:370,1,142.99999345398,12|2,0:3|0:2,0:0:0:0:
395,162,216387,2,0,P|343:86|280:99,1,165.000006294251,4|8,0:0|0:0,0:0:0:0:
226,162,216683,1,8,0:0:0:0:
230,165,216782,5,12,0:3:0:0:
496,42,216979,1,2,0:2:0:0:
226,162,217177,2,0,P|217:191|219:219,3,55,2|0|8|0,0:3|0:0|0:0|0:0,0:0:0:0:
360,52,217571,2,0,P|334:40|308:37,1,55,4|0,0:1|0:0,0:0:0:0:
353,193,217769,2,0,P|382:181|398:163,1,55,2|2,3:0|3:0,0:0:0:0:
215,96,217966,1,8,3:0:0:0:
199,128,218065,1,8,3:0:0:0:
201,164,218164,1,4,3:0:0:0:
216,196,218262,1,4,3:0:0:0:
252,188,218361,6,0,P|294:180|354:248,1,142.99999345398,4|0,0:3|0:0,0:0:0:0:
210,369,218657,1,0,0:0:0:0:
173,363,218756,1,2,0:0:0:0:
137,358,218854,1,0,0:0:0:0:
101,352,218953,1,2,0:3:0:0:
64,347,219052,1,0,0:0:0:0:
28,339,219150,6,0,B|8:281|8:281|30:200,1,142.99999345398,2|0,0:2|0:0,0:0:0:0:
117,71,219446,1,0,0:0:0:0:
91,97,219545,1,8,0:0:0:0:
84,132,219644,1,0,0:0:0:0:
90,167,219742,1,2,0:3:0:0:
108,198,219841,1,0,0:0:0:0:
139,216,219940,6,0,P|191:220|254:152,1,142.99999345398,4|0,0:0|0:0,0:0:0:0:
280,41,220236,1,0,0:0:0:0:
245,26,220335,1,2,0:0:0:0:
209,23,220433,1,0,0:0:0:0:
173,27,220532,1,2,0:3:0:0:
140,43,220631,1,0,0:0:0:0:
116,69,220729,6,0,P|106:93|108:122,1,55,2|0,0:2|0:0,0:0:0:0:
215,203,220927,1,2,0:3:0:0:
247,201,221025,1,0,0:0:0:0:
274,183,221124,2,0,P|284:159|282:130,1,55,8|0,0:1|0:0,0:0:0:0:
173,27,221321,1,2,0:3:0:0:
140,43,221420,1,0,0:0:0:0:
116,69,221519,6,0,B|109:115|109:115|128:211,1,142.99999345398,4|0,0:3|0:0,0:0:0:0:
26,304,221815,1,0,0:0:0:0:
55,283,221914,1,2,0:0:0:0:
90,280,222012,1,0,0:0:0:0:
123,293,222111,1,2,0:3:0:0:
146,320,222210,1,0,0:0:0:0:
161,352,222308,2,0,P|195:314|280:329,1,142.99999345398,2|0,0:2|0:0,0:0:0:0:
472,255,222604,1,0,0:0:0:0:
446,228,222703,1,8,0:0:0:0:
410,218,222802,1,0,0:0:0:0:
374,224,222900,1,2,0:3:0:0:
343,244,222999,1,0,0:0:0:0:
323,275,223098,6,0,P|342:216|295:150,1,142.99999345398,4|0,0:0|0:0,0:0:0:0:
202,113,223394,1,0,0:0:0:0:
166,121,223492,1,2,0:0:0:0:
131,130,223591,1,0,0:0:0:0:
96,140,223690,1,2,0:3:0:0:
61,150,223789,1,0,0:0:0:0:
26,160,223887,6,0,B|5:108|5:108|26:18,1,142.99999345398,8|0,0:2|0:0,0:0:0:0:
169,171,224183,1,0,0:0:0:0:
169,171,224282,2,0,L|161:232,1,55,8|0,0:0|0:0,0:0:0:0:
271,81,224479,2,0,L|263:20,1,55,2|0,0:3|0:0,0:0:0:0:
408,132,224677,5,4,0:3:0:0:
406,148,224775,1,0,0:0:0:0:
404,164,224874,1,2,0:3:0:0:
402,180,224973,1,0,0:0:0:0:
426,202,225071,1,2,0:0:0:0:
426,218,225170,1,0,0:0:0:0:
426,234,225269,1,2,0:3:0:0:
426,250,225367,1,0,0:0:0:0:
395,262,225466,1,0,0:0:0:0:
392,278,225565,1,0,0:0:0:0:
390,294,225664,6,0,L|385:349,1,55,8|0,0:1|0:0,0:0:0:0:
442,210,225861,2,0,L|442:260,1,49.4999984893799,8|0,0:1|0:0,0:0:0:0:
407,130,226058,2,0,L|402:180,1,49.4999984893799,8|0,0:1|0:0,0:0:0:0:
475,61,226256,5,6,0:0:0:0:
475,61,226354,1,2,0:0:0:0:
475,61,226453,2,0,L|469:10,1,49.4999984893799,2|0,0:2|0:0,0:0:0:0:
319,257,226650,1,2,0:0:0:0:
319,257,226749,1,2,0:0:0:0:
319,257,226848,2,0,L|323:311,1,49.4999984893799,2|0,0:2|0:0,0:0:0:0:
166,53,227045,1,2,0:0:0:0:
166,53,227144,1,2,0:0:0:0:
166,53,227242,2,0,P|132:46|113:51,1,49.4999984893799,2|0,0:2|0:0,0:0:0:0:
26,192,227440,5,8,3:1:0:0:
27,197,227506,1,8,3:1:0:0:
27,202,227571,1,2,3:0:0:0:
28,207,227637,1,2,3:0:0:0:
29,212,227703,1,8,3:0:0:0:
30,217,227769,1,4,3:0:0:0:
31,222,227835,1,6,3:0:0:0:
41,84,228032,6,0,L|35:44,1,41.2500015735627,2|0,0:3|0:0,0:0:0:0:
110,146,228229,2,0,L|103:187,1,41.2500015735627,2|0,0:3|0:0,0:0:0:0:
209,71,228427,2,0,L|205:25,1,41.2500015735627,2|0,0:2|0:0,0:0:0:0:
295,170,228624,2,0,L|289:213,1,41.2500015735627,2|0,0:3|0:0,0:0:0:0:
412,58,228821,6,0,P|434:53|453:55,1,41.2500015735627,2|0,0:3|0:0,0:0:0:0:
295,170,229019,2,0,P|282:151|278:132,1,41.2500015735627,2|0,0:3|0:0,0:0:0:0:
450,215,229216,2,0,P|452:238|447:258,1,41.2500015735627,2|0,0:2|0:0,0:0:0:0:
290,362,229414,2,0,P|285:344|287:319,1,41.2500015735627,2|0,0:3|0:0,0:0:0:0:
137,131,229611,6,0,P|138:152|147:174,1,41.2500015735627,2|0,0:3|0:0,0:0:0:0:
294,26,229808,2,0,P|268:20|245:22,1,41.2500015735627,2|0,0:3|0:0,0:0:0:0:
358,167,230006,2,0,P|378:166|398:161,1,41.2500015735627,2|0,0:2|0:0,0:0:0:0:
137,131,230203,2,0,L|88:140,1,41.2500015735627,2|0,0:3|0:0,0:0:0:0:
195,306,230400,6,0,L|241:312,1,41.2500015735627,2|0,0:3|0:0,0:0:0:0:
31,355,230598,2,0,P|25:328|29:308,1,41.2500015735627,2|0,0:3|0:0,0:0:0:0:
256,158,230795,1,10,0:1:0:0:
15,22,230992,1,14,0:0:0:0:
383,48,231190,6,0,L|424:41,1,41.2500015735627,2|0,0:3|0:0,0:0:0:0:
256,158,231387,2,0,L|215:151,1,41.2500015735627,2|0,0:3|0:0,0:0:0:0:
393,251,231585,2,0,P|397:278|393:299,1,41.2500015735627,2|0,0:2|0:0,0:0:0:0:
192,345,231782,2,0,P|188:318|192:297,1,41.2500015735627,2|0,0:3|0:0,0:0:0:0:
366,142,231979,6,0,P|369:120|366:98,1,41.2500015735627,2|0,0:3|0:0,0:0:0:0:
170,43,232177,2,0,P|166:64|169:86,1,41.2500015735627,2|0,0:3|0:0,0:0:0:0:
318,211,232374,2,0,P|337:220|359:222,1,41.2500015735627,2|0,0:2|0:0,0:0:0:0:
498,65,232571,2,0,P|507:45|509:23,1,41.2500015735627,2|0,0:3|0:0,0:0:0:0:
231,156,232769,6,0,L|223:199,1,41.2500015735627,2|0,0:3|0:0,0:0:0:0:
388,68,232966,2,0,L|380:25,1,41.2500015735627,6|0,0:3|0:0,0:0:0:0:
443,237,233164,2,0,P|475:243|494:237,1,41.2500015735627,2|0,0:2|0:0,0:0:0:0:
381,72,233361,5,10,0:0:0:0:
372,82,233427,1,2,0:0:0:0:
365,93,233492,1,2,0:0:0:0:
361,106,233558,1,2,0:0:0:0:
359,119,233624,1,2,0:0:0:0:
359,132,233690,1,2,0:0:0:0:
361,145,233756,1,2,0:0:0:0:
364,158,233821,1,2,0:0:0:0:
369,170,233887,1,2,0:0:0:0:
376,181,233953,2,0,P|379:204|375:226,1,41.2500015735627,2|0,0:0|3:0,0:0:0:0:
194,135,234150,6,0,P|223:128|250:131,2,55.0000020980836,6|2|2,0:0|0:0|0:0,0:0:0:0:
27,255,234546,1,2,0:0:0:0:
142,204,234677,2,0,P|116:198|85:202,1,55.0000020980836,2|2,0:0|0:0,0:0:0:0:
127,342,234940,5,12,0:1:0:0:
250,313,235071,1,2,0:0:0:0:
377,364,235203,1,2,0:0:0:0:
495,226,235335,2,0,P|504:194|501:166,1,55.0000020980836,2|2,0:0|0:0,0:0:0:0:
429,56,235598,1,2,0:0:0:0:
379,287,235729,5,6,0:3:0:0:
427,187,235861,1,2,0:0:0:0:
472,346,235992,1,2,0:0:0:0:
369,289,236124,1,2,0:0:0:0:
427,169,236256,1,2,0:0:0:0:
481,360,236387,1,2,0:0:0:0:
359,291,236519,6,0,P|346:266|346:239,2,55.0000020980836,12|2|2,0:1|0:0|0:0,0:0:0:0:
428,166,236914,1,2,0:0:0:0:
426,158,236979,1,2,0:0:0:0:
424,149,237045,1,2,0:0:0:0:
422,140,237111,1,2,0:0:0:0:
420,131,237177,1,2,0:0:0:0:
418,123,237242,1,2,0:0:0:0:
416,114,237308,1,4,0:2:0:0:
428,166,237703,6,0,L|416:228,1,55,12|0,2:0|2:0,0:0:0:0:
424,299,238295,1,0,2:0:0:0:
469,103,238492,1,0,2:0:0:0:
424,299,238690,1,0,2:0:0:0:
317,184,238887,5,2,2:3:0:0:
209,306,239085,1,0,2:0:0:0:
44,157,239282,1,2,2:3:0:0:
209,306,239479,1,0,2:0:0:0:
317,184,239677,1,2,2:0:0:0:
445,47,239874,5,2,2:3:0:0:
442,68,240071,1,4,2:3:0:0:
439,89,240269,1,4,2:0:0:0:
346,35,240505,6,0,P|285:19|239:54,2,121.000003692627,12|0|0,0:2|0:0|0:0,0:0:0:0:
460,178,241689,2,0,L|465:259,1,80.6666691284181,2|0,0:0|0:0,0:0:0:0:
441,164,242083,2,0,L|458:43,2,121.000003692627,2|0|4,0:0|0:0|0:0,0:0:0:0:
352,323,243268,1,0,0:0:0:0:
256,195,243662,6,0,P|217:177|174:190,1,90.7500027694703,2|0,0:0|0:0,0:0:0:0:
174,190,244057,2,0,P|149:225|154:269,1,90.7500027694703,4|0,0:0|0:0,0:0:0:0:
154,270,244452,2,0,P|184:300|229:302,1,90.7500027694703,2|0,0:0|0:0,0:0:0:0:
230,301,244847,2,0,P|266:274|275:231,1,90.7500027694703,4|0,0:0|0:0,0:0:0:0:
275,231,245241,2,0,P|284:187|319:161,1,90.7500027694703,2|0,0:0|0:0,0:0:0:0:
319,160,245636,2,0,P|363:161|395:192,1,90.7500027694703,4|0,0:0|0:0,0:0:0:0:
395,192,246031,2,0,P|401:235|376:272,1,90.7500027694703,2|0,0:0|0:0,0:0:0:0:
375,272,246426,2,0,P|332:285|292:267,1,90.7500027694703,4|0,0:0|0:0,0:0:0:0:
260,198,246820,6,0,B|257:147|257:147|274:78,1,121.000003692627,2|0,0:0|0:0,0:0:0:0:
431,16,247610,1,0,0:0:0:0:
431,16,248005,1,2,0:0:0:0:
431,16,248399,2,0,P|409:115|330:51,1,242.000007385254,2|2,0:0|0:0,0:0:0:0:
331,52,249583,1,0,0:0:0:0:
166,32,249978,5,2,0:0:0:0:
166,32,250373,1,4,0:0:0:0:
166,32,250768,1,2,0:0:0:0:
166,32,251162,1,4,0:0:0:0:
227,198,251557,1,4,0:0:0:0:
227,198,251952,1,4,0:0:0:0:
227,198,252347,1,2,0:0:0:0:
227,198,252741,1,4,0:0:0:0:
306,340,253136,6,0,P|364:368|424:325,1,142.99999345398,4|0,0:0|0:0,0:0:0:0:
439,175,253926,1,2,0:3:0:0:
439,175,254320,1,2,0:0:0:0:
314,53,254715,2,0,L|172:44,1,142.99999345398,2|0,0:0|0:0,0:0:0:0:
34,159,255505,1,2,0:0:0:0:
34,159,255899,1,2,0:3:0:0:
197,274,256294,6,0,P|126:297|78:256,2,142.99999345398,4|4|2,0:0|0:3|0:3,0:0:0:0:
245,156,257478,1,4,0:3:0:0:
245,156,257873,2,0,P|289:165|339:132,1,107.249995090485,2|0,0:3|0:0,0:0:0:0:
339,133,258268,2,0,P|348:89|315:39,1,107.249995090485,4|0,0:3|0:0,0:0:0:0:
279,97,258662,1,2,0:3:0:0:
237,43,258860,5,2,0:0:0:0:
237,43,259058,1,2,0:3:0:0:
237,43,259255,1,4,0:0:0:0:
279,97,259452,6,0,P|289:148|261:193,1,107.249995090485,2|0,0:0|0:0,0:0:0:0:
262,193,259847,2,0,P|210:204|165:177,1,107.249995090485,2|0,0:0|0:0,0:0:0:0:
165,178,260241,2,0,P|153:126|178:80,1,107.249995090485,4|0,0:0|0:0,0:0:0:0:
222,136,260636,1,2,0:0:0:0:
306,32,261031,6,0,P|371:15|421:65,1,142.99999345398,2|0,0:0|0:0,0:0:0:0:
377,124,261623,2,0,P|436:55|474:138,1,214.49999018097,4|2,0:0|0:1,0:0:0:0:
475,136,262577,5,14,3:0:0:0:
292,224,262774,1,0,2:3:0:0:
405,228,262971,1,0,2:0:0:0:
216,315,263169,1,0,2:3:0:0:
289,99,263366,5,0,2:3:0:0:
376,330,263563,1,0,2:2:0:0:
289,99,263761,1,0,2:0:0:0:
66,245,263958,1,0,2:0:0:0:
477,253,264155,5,2,2:0:0:0:
190,194,264353,1,0,2:0:0:0:
413,32,264550,1,4,2:1:0:0:
376,330,264748,1,0,2:0:0:0:
413,32,264945,5,10,3:1:0:0:
426,30,265010,1,0,3:1:0:0:
441,32,265076,1,0,3:1:0:0:
455,36,265142,1,0,3:1:0:0:
467,43,265208,1,0,3:1:0:0:
475,53,265274,1,0,3:1:0:0:
483,65,265339,1,2,3:1:0:0:
487,78,265405,1,2,3:1:0:0:
488,93,265471,1,2,3:1:0:0:
485,106,265537,1,2,3:1:0:0:
478,118,265602,1,2,3:1:0:0:
469,130,265668,1,2,3:1:0:0:
458,138,265734,6,0,P|417:144|365:91,1,121.000003692627,4|0,0:3|0:0,0:0:0:0:
323,31,266030,1,0,0:0:0:0:
323,31,266129,2,0,L|262:25,1,60.5000018463135,0|8,0:1|0:3,0:0:0:0:
135,122,266327,2,0,L|259:107,1,121.000003692627,8|2,0:1|0:3,0:0:0:0:
32,151,266721,1,0,0:0:0:0:
32,151,266820,1,0,0:0:0:0:
32,151,266919,2,0,B|14:208|14:208|29:266,1,121.000003692627,8|0,0:0|0:0,0:0:0:0:
246,361,267313,6,0,P|308:361|278:278,1,181.500005538941,2|0,0:2|0:0,0:0:0:0:
195,294,267708,1,8,0:0:0:0:
195,294,267807,1,0,0:0:0:0:
195,294,267905,2,0,P|130:300|95:260,1,121.000003692627,8|2,0:0|0:3,0:0:0:0:
290,82,268300,1,0,0:0:0:0:
290,82,268399,1,0,0:0:0:0:
290,82,268498,1,8,0:0:0:0:
358,253,268695,1,2,0:3:0:0:
495,125,268892,6,0,P|509:61|477:19,1,121.000003692627,4|0,0:3|0:0,0:0:0:0:
440,80,269188,1,0,0:0:0:0:
440,80,269287,2,0,P|411:89|379:84,1,60.5000018463135,8|0,0:0|0:0,0:0:0:0:
286,61,269484,2,0,P|345:59|392:158,1,181.500005538941,2|0,0:3|0:0,0:0:0:0:
346,226,269879,1,0,0:0:0:0:
337,267,269978,1,0,0:0:0:0:
328,308,270077,2,0,B|380:274|380:274|346:227,1,121.000003692627,8|2,0:0|0:3,0:0:0:0:
291,87,270471,5,2,0:2:0:0:
153,106,270669,1,0,0:0:0:0:
430,70,270866,1,2,0:0:0:0:
455,36,270965,1,2,0:0:0:0:
413,31,271063,1,8,0:0:0:0:
153,106,271261,1,2,0:0:0:0:
128,140,271360,1,2,0:0:0:0:
170,145,271458,1,8,0:0:0:0:
430,70,271655,1,2,0:0:0:0:
455,36,271754,1,2,0:0:0:0:
413,31,271852,1,8,0:0:0:0:
153,106,272050,6,0,P|87:108|53:69,1,121.000003692627,4|0,0:0|0:0,0:0:0:0:
186,237,272445,1,8,0:0:0:0:
186,237,272544,1,0,0:0:0:0:
186,237,272642,1,0,0:0:0:0:
287,148,272840,2,0,B|295:100|295:100|263:36,1,121.000003692627,2|0,0:3|0:0,0:0:0:0:
183,15,273136,1,0,0:0:0:0:
183,15,273234,1,8,0:0:0:0:
284,161,273432,2,0,P|345:176|392:140,1,121.000003692627,2|2,0:3|0:2,0:0:0:0:
183,15,273827,5,2,0:3:0:0:
59,146,274024,1,8,0:0:0:0:
55,121,274123,1,0,0:0:0:0:
51,96,274221,1,2,0:3:0:0:
156,197,274418,1,2,0:3:0:0:
152,222,274517,1,0,0:0:0:0:
148,247,274615,1,2,0:3:0:0:
144,272,274715,1,0,0:0:0:0:
140,297,274813,2,0,P|106:303|81:291,1,60.5000018463135,8|0,0:0|0:0,0:0:0:0:
212,192,275011,2,0,P|178:186|153:198,1,60.5000018463135,8|0,0:0|0:0,0:0:0:0:
269,283,275208,6,0,L|394:298,1,121.000003692627,12|0,0:0|0:0,0:0:0:0:
496,156,275603,1,8,0:0:0:0:
496,156,275702,1,0,0:0:0:0:
496,156,275800,1,0,0:0:0:0:
307,107,275998,2,0,P|294:46|332:2,1,121.000003692627,2|0,0:2|0:0,0:0:0:0:
417,22,276294,2,0,P|430:83|392:127,1,121.000003692627,2|0,0:3|0:0,0:0:0:0:
362,64,276590,1,8,0:0:0:0:
99,24,276787,5,8,0:2:0:0:
48,167,276984,1,0,0:0:0:0:
99,24,277182,1,8,0:0:0:0:
106,46,277280,1,0,0:0:0:0:
114,68,277379,1,0,0:0:0:0:
294,138,277577,1,2,0:2:0:0:
451,55,277774,1,0,0:0:0:0:
294,138,277971,1,8,0:0:0:0:
284,185,278070,1,8,0:0:0:0:
274,232,278169,1,8,0:0:0:0:
264,279,278267,1,8,0:0:0:0:
256,327,278366,6,0,B|250:344|255:359|255:359|289:318|331:316|331:316|382:265|361:207,1,242.000007385254,4|8,0:0|0:0,0:0:0:0:
323,138,278859,1,0,0:0:0:0:
323,138,278958,1,0,0:0:0:0:
204,37,279155,2,0,P|161:23|100:65,1,121.000003692627,2|0,0:2|0:0,0:0:0:0:
0,94,279452,2,0,P|38:72|106:102,1,121.000003692627,2|0,0:3|0:0,0:0:0:0:
201,151,279748,1,8,0:0:0:0:
408,104,279945,6,0,P|423:58|384:0,2,121.000003692627,2|0|8,0:3|0:0|0:0,0:0:0:0:
336,136,280438,1,0,0:0:0:0:
336,136,280537,2,0,B|329:186|329:186|331:222|331:222|325:255,1,121.000003692627,2|0,0:3|0:0,0:0:0:0:
170,82,280932,2,0,L|167:22,1,60.5000018463135,2|0,0:3|0:0,0:0:0:0:
154,101,281129,1,8,0:0:0:0:
111,277,281327,1,2,0:2:0:0:
248,171,281524,6,0,P|303:152|354:181,1,121.000003692627,4|0,0:0|0:0,0:0:0:0:
362,269,281820,1,0,0:0:0:0:
347,242,281919,1,8,0:0:0:0:
346,211,282017,1,0,0:0:0:0:
354,181,282116,2,0,P|378:165|411:164,1,60.5000018463135,2|0,0:3|0:0,0:0:0:0:
509,135,282313,2,0,P|451:124|408:165,1,121.000003692627,2|0,0:2|0:0,0:0:0:0:
346,211,282609,2,0,P|389:172|447:183,1,121.000003692627,2|0,0:3|0:0,0:0:0:0:
499,238,282905,1,8,0:0:0:0:
303,121,283103,6,0,P|285:70|317:15,1,121.000003692627,2|0,0:3|0:0,0:0:0:0:
409,28,283399,2,0,P|427:79|395:134,1,121.000003692627,2|0,0:2|0:0,0:0:0:0:
356,75,283695,1,8,0:0:0:0:
172,31,283892,1,2,0:3:0:0:
75,192,284090,1,0,0:0:0:0:
70,164,284188,1,0,0:0:0:0:
66,137,284287,1,8,0:0:0:0:
61,109,284385,1,0,0:0:0:0:
57,81,284484,1,2,0:3:0:0:
206,228,284682,6,0,B|195:281|195:281|199:311|199:311|180:343,1,121.000003692627,4|0,0:3|0:0,0:0:0:0:
223,215,284978,2,0,P|281:209|324:248,1,121.000003692627,2|0,0:3|0:0,0:0:0:0:
327,326,285274,1,8,0:0:0:0:
463,193,285471,1,2,0:2:0:0:
332,110,285669,1,0,0:0:0:0:
332,110,285767,1,0,0:0:0:0:
332,110,285866,2,0,P|322:60|365:11,1,121.000003692627,8|0,0:0|0:0,0:0:0:0:
463,193,286261,6,0,L|448:320,1,121.000003692627,6|0,0:0|0:0,0:0:0:0:
392,368,286557,1,0,0:0:0:0:
392,368,286655,1,8,0:0:0:0:
237,249,286853,1,2,0:3:0:0:
111,335,287050,2,0,P|51:349|5:314,1,121.000003692627,2|0,0:2|0:0,0:0:0:0:
23,227,287346,2,0,P|83:213|129:248,1,121.000003692627,2|0,0:3|0:0,0:0:0:0:
67,281,287642,1,8,0:0:0:0:
12,136,287840,6,0,B|-7:58|-7:58|2:15,1,121.000003692627,4|0,0:3|0:0,0:0:0:0:
48,120,288136,1,0,0:0:0:0:
43,149,288234,1,8,0:0:0:0:
39,179,288333,1,0,0:0:0:0:
35,209,288432,1,8,0:0:0:0:
31,238,288530,1,0,0:0:0:0:
27,268,288629,6,0,B|18:348|18:348|35:385,1,121.000003692627,2|0,0:0|0:0,0:0:0:0:
59,254,288925,1,0,0:0:0:0:
54,223,289024,1,8,0:0:0:0:
49,192,289123,1,0,0:0:0:0:
45,162,289221,1,8,0:0:0:0:
41,131,289320,1,0,0:0:0:0:
37,100,289419,6,0,P|83:62|145:75,1,121.000003692627,2|0,0:0|0:0,0:0:0:0:
174,132,289715,1,0,0:0:0:0:
146,106,289813,1,8,0:0:0:0:
139,71,289912,1,0,0:0:0:0:
152,36,290011,1,8,0:0:0:0:
181,15,290109,1,0,0:0:0:0:
217,14,290208,5,2,0:2:0:0:
247,50,290307,1,0,0:0:0:0:
245,97,290405,1,2,0:0:0:0:
226,142,290504,1,0,0:0:0:0:
186,170,290603,1,8,0:0:0:0:
151,205,290702,1,0,0:0:0:0:
130,248,290800,1,8,0:0:0:0:
129,295,290899,1,0,0:0:0:0:
145,341,290998,6,0,P|186:364|255:342,1,121.000003692627,4|0,0:0|0:0,0:0:0:0:
285,249,291294,1,0,0:0:0:0:
310,223,291392,1,8,0:0:0:0:
345,214,291491,1,0,0:0:0:0:
380,220,291590,1,8,0:0:0:0:
410,239,291688,1,0,0:0:0:0:
425,272,291787,6,0,P|386:326|335:324,1,121.000003692627,2|0,0:2|0:0,0:0:0:0:
285,249,292082,1,0,0:0:0:0:
261,221,292181,1,8,0:0:0:0:
228,206,292280,1,0,0:0:0:0:
192,207,292378,1,8,0:0:0:0:
160,224,292477,1,0,0:0:0:0:
138,252,292577,6,0,P|132:283|139:313,1,60.5000018463135,2|0,0:3|0:0,0:0:0:0:
185,368,292774,2,0,P|213:376|244:372,1,60.5000018463135,2|0,0:3|0:0,0:0:0:0:
298,325,292971,2,0,P|309:297|308:266,1,60.5000018463135,2|0,0:2|0:0,0:0:0:0:
287,192,293169,2,0,P|286:161|297:133,1,60.5000018463135,2|0,0:3|0:0,0:0:0:0:
355,83,293366,2,0,P|384:79|413:88,1,60.5000018463135,2|0,0:3|0:0,0:0:0:0:
469,142,293563,2,0,P|474:171|469:200,1,60.5000018463135,2|0,0:3|0:0,0:0:0:0:
421,261,293761,1,2,0:2:0:0:
421,261,293859,1,0,0:0:0:0:
421,261,293958,2,0,P|392:269|362:266,1,60.5000018463135,2|0,0:3|0:0,0:0:0:0:
275,191,294155,6,0,L|153:177,1,121.000003692627,4|0,0:0|0:0,0:0:0:0:
268,166,294452,1,0,0:0:0:0:
303,160,294550,1,8,0:0:0:0:
339,155,294649,1,0,0:0:0:0:
375,150,294748,2,0,B|394:78|394:78|383:33,1,121.000003692627,8|0,0:0|0:2,0:0:0:0:
339,155,295044,1,0,0:0:0:0:
359,184,295142,2,0,P|412:208|484:121,1,181.500005538941,2|0,0:2|0:0,0:0:0:0:
463,54,295537,1,8,0:0:0:0:
463,54,295636,1,0,0:0:0:0:
463,54,295734,6,0,P|425:35|400:35,1,60.5000018463135,2|0,0:3|0:0,0:0:0:0:
330,40,295932,2,0,P|289:53|272:71,1,60.5000018463135,2|0,0:3|0:0,0:0:0:0:
226,124,296129,2,0,P|206:162|206:187,1,60.5000018463135,2|0,0:2|0:0,0:0:0:0:
212,256,296327,2,0,P|225:296|243:313,1,60.5000018463135,2|0,0:3|0:0,0:0:0:0:
296,360,296524,2,0,P|334:379|359:379,1,60.5000018463135,2|0,0:3|0:0,0:0:0:0:
431,368,296721,2,0,P|468:347|482:327,1,60.5000018463135,2|0,0:3|0:0,0:0:0:0:
508,268,296919,2,0,P|512:225|504:202,1,60.5000018463135,2|0,0:2|0:0,0:0:0:0:
461,148,297116,1,2,0:3:0:0:
461,148,297215,1,0,0:0:0:0:
461,148,297313,6,0,B|410:140|410:140|383:143|383:143|341:136,1,121.000003692627,4|0,0:0|0:0,0:0:0:0:
278,62,297609,1,0,0:0:0:0:
312,73,297708,1,8,0:0:0:0:
333,102,297807,1,0,0:3:0:0:
341,136,297905,1,8,0:0:0:0:
336,172,298004,1,0,0:0:0:0:
311,199,298103,2,0,P|290:255|321:305,1,121.000003692627,2|0,0:2|0:0,0:0:0:0:
361,251,298399,1,0,0:0:0:0:
361,251,298498,2,0,P|389:247|422:256,1,60.5000018463135,8|0,0:0|0:0,0:0:0:0:
510,297,298695,6,0,P|453:279|403:310,1,121.000003692627,0|8,0:0|0:3,0:0:0:0:
361,384,298991,1,0,0:0:0:0:
361,384,299090,2,0,P|411:330|361:250,1,181.500005538941,4|0,0:1|0:0,0:0:0:0:
264,319,299484,2,0,P|267:348|285:372,1,60.5000018463135,0|0,0:0|0:0,0:0:0:0:
284,248,299682,2,0,P|215:227|173:248,1,121.000003692627,2|2,0:2|0:3,0:0:0:0:
145,349,299978,1,0,0:0:0:0:
174,302,300077,1,8,0:0:0:0:
174,247,300175,1,0,0:0:0:0:
146,199,300274,1,2,0:3:0:0:
99,170,300373,1,0,0:0:0:0:
44,170,300471,5,4,0:3:0:0:
73,191,300570,1,0,0:0:0:0:
109,193,300669,1,8,0:1:0:0:
144,185,300767,1,0,0:0:0:0:
172,162,300866,1,8,0:0:0:0:
192,131,300965,1,0,0:0:0:0:
193,94,301063,6,0,B|197:78|211:68|211:68|212:83|218:98,1,60.5000018463135,2|0,0:2|0:0,0:0:0:0:
293,111,301261,2,0,B|309:109|323:120|323:120|309:125|296:136,1,60.5000018463135,8|0,0:1|0:0,0:0:0:0:
307,214,301458,2,0,B|313:229|307:245|307:245|298:234|284:225,1,60.5000018463135,8|0,0:1|0:0,0:0:0:0:
214,259,301655,2,0,B|201:269|184:269|184:269|192:256|196:241,1,60.5000018463135,2|0,0:3|0:0,0:0:0:0:
143,185,301853,2,0,B|129:176|123:159|123:159|138:163|154:162,1,60.5000018463135,0|0,0:0|0:0,0:0:0:0:
229,173,302050,5,12,0:3:0:0:
337,32,302248,1,8,0:0:0:0:
469,129,302445,1,2,0:0:0:0:
467,141,302511,1,2,0:0:0:0:
465,153,302577,1,2,0:0:0:0:
463,164,302642,1,2,0:0:0:0:
461,176,302708,1,2,0:0:0:0:
459,188,302774,1,2,0:0:0:0:
457,200,302840,5,6,3:2:0:0:
463,279,303136,1,6,3:2:0:0:
469,358,303432,1,6,3:2:0:0:
273,58,303629,6,0,P|221:40|163:68,1,121.000003692627,4|0,0:0|0:0,0:0:0:0:
71,103,303925,2,0,P|123:85|181:113,1,121.000003692627,2|0,0:3|0:0,0:0:0:0:
202,182,304221,1,8,0:0:0:0:
370,108,304419,1,2,0:2:0:0:
350,291,304616,1,0,0:0:0:0:
350,291,304715,2,0,P|392:316|458:296,1,121.000003692627,2|0,0:3|0:0,0:0:0:0:
495,234,305011,1,8,0:0:0:0:
370,108,305208,6,0,B|352:59|383:17|383:17|407:50|371:68|381:128|401:160,1,242.000007385254,2|2,0:2|0:3,0:0:0:0:
470,212,305702,1,0,0:0:0:0:
470,212,305800,2,0,B|463:264|463:264|450:291|450:291|446:334,1,121.000003692627,8|2,0:0|0:3,0:0:0:0:
241,137,306195,1,0,0:0:0:0:
241,137,306294,1,0,0:0:0:0:
241,137,306392,2,0,P|180:129|134:165,1,121.000003692627,8|8,0:3|0:3,0:0:0:0:
361,268,306787,6,0,B|408:228|387:155|387:155|403:128|438:116,1,181.500005538941,4|0,0:0|0:0,0:0:0:0:
503,106,307182,1,8,0:0:0:0:
503,106,307280,1,0,0:0:0:0:
503,106,307379,2,0,P|466:102|443:89,1,60.5000018463135,2|0,0:3|0:0,0:0:0:0:
354,55,307577,2,0,P|401:64|466:28,1,121.000003692627,2|0,0:2|0:0,0:0:0:0:
339,42,307873,2,0,P|296:55|230:21,1,121.000003692627,2|0,0:3|0:0,0:0:0:0:
357,30,308169,1,8,0:0:0:0:
273,194,308366,6,0,B|259:247|259:247|268:314,1,121.000003692627,4|0,0:3|0:0,0:0:0:0:
307,183,308662,1,0,0:0:0:0:
277,161,308761,1,8,0:0:0:0:
241,153,308859,1,0,0:0:0:0:
204,154,308958,1,2,0:3:0:0:
169,164,309057,1,0,0:0:0:0:
143,188,309155,2,0,P|90:212|38:182,1,121.000003692627,8|2,0:3|0:3,0:0:0:0:
16,110,309452,1,0,0:0:0:0:
16,110,309550,1,8,0:0:0:0:
4,337,309748,1,2,0:2:0:0:
256,267,309945,6,0,B|290:217|256:161|256:161|267:121|302:99|302:99|306:76|291:51,1,242.000007385254,4|2,0:3|0:3,0:0:0:0:
236,8,310438,1,0,0:0:0:0:
236,8,310537,2,0,P|279:48|337:42,1,121.000003692627,8|2,0:0|0:2,0:0:0:0:
193,155,310932,1,0,0:0:0:0:
193,155,311030,1,0,0:0:0:0:
193,155,311129,2,0,P|141:182|86:161,1,121.000003692627,8|8,0:3|0:0,0:0:0:0:
236,8,311524,6,0,L|360:22,1,121.000003692627,4|0,0:0|0:0,0:0:0:0:
479,175,311919,1,2,0:3:0:0:
479,175,312017,1,0,0:0:0:0:
479,175,312116,1,8,0:0:0:0:
359,130,312313,2,0,P|336:85|356:21,1,121.000003692627,2|0,0:2|0:0,0:0:0:0:
379,138,312609,2,0,L|365:266,1,121.000003692627,2|0,0:3|0:0,0:0:0:0:
354,336,312905,1,8,0:0:0:0:
479,175,313103,5,4,0:1:0:0:
494,141,313202,1,0,0:0:0:0:
490,105,313300,1,2,0:3:0:0:
465,77,313399,1,0,0:0:0:0:
429,67,313498,1,8,0:0:0:0:
394,75,313596,1,0,0:0:0:0:
369,102,313695,1,2,0:3:0:0:
364,138,313794,1,0,0:0:0:0:
378,170,313892,5,8,0:3:0:0:
390,204,313991,1,0,0:0:0:0:
385,240,314090,1,2,0:3:0:0:
360,267,314189,1,0,0:0:0:0:
325,275,314287,1,8,0:0:0:0:
289,265,314386,1,0,0:0:0:0:
264,237,314485,1,8,0:0:0:0:
260,201,314583,1,0,0:0:0:0:
274,167,314682,6,0,B|247:152|247:152|217:169,1,60.5000018463135,2|0,0:2|0:0,0:0:0:0:
310,155,314879,2,0,P|353:138|411:181,1,121.000003692627,4|0,0:0|0:0,0:0:0:0:
512,271,315175,2,0,P|469:254|411:297,1,121.000003692627,2|0,0:0|0:0,0:0:0:0:
257,341,315471,2,0,P|300:324|358:367,1,121.000003692627,2|8,0:2|0:3,0:0:0:0:
439,374,315767,1,0,0:0:0:0:
439,374,315866,1,4,0:0:0:0:
301,220,316063,1,2,0:0:0:0:
299,208,316129,1,2,0:0:0:0:
297,196,316195,1,2,0:0:0:0:
295,184,316261,6,0,L|310:87,1,98.9999969787599,12|2,0:3|0:0,0:0:0:0:
372,35,316557,1,2,0:0:0:0:
372,35,316655,2,0,P|411:34|433:49,2,65.9999979858399,2|2|2,0:0|0:0|0:0,0:0:0:0:
219,111,317050,5,2,0:0:0:0:
127,126,317182,1,2,0:0:0:0:
42,90,317313,1,2,0:0:0:0:
219,111,317445,2,0,P|229:146|216:180,1,65.9999979858399,2|2,0:0|0:0,0:0:0:0:
157,41,317708,1,2,0:0:0:0:
18,268,317840,6,0,B|90:209|90:209|85:252,1,131.99999597168,6|2,0:0|0:0,0:0:0:0:
74,337,318234,1,2,0:0:0:0:
239,275,318366,1,2,0:0:0:0:
169,353,318498,1,2,0:0:0:0:
218,200,318629,6,0,P|252:196|291:215,1,65.9999979858399,2|2,0:0|0:0,0:0:0:0:
143,264,318892,1,2,0:0:0:0:
270,364,319024,1,2,0:0:0:0:
443,296,319155,1,2,0:0:0:0:
363,359,319287,1,2,0:0:0:0:
421,185,319419,6,0,B|454:172|485:153|485:153|464:180|453:211,1,131.99999597168,14|2,0:0|0:0,0:0:0:0:
443,296,319813,1,2,0:0:0:0:
339,124,319945,1,2,0:0:0:0:
277,263,320077,1,2,0:0:0:0:
243,76,320208,6,0,P|291:68|332:99,1,98.9999969787599,14|0,0:0|1:0,0:0:0:0:
339,124,320471,1,10,0:0:0:0:
175,106,320603,2,0,P|167:74|178:42,1,65.9999979858399,0|0,0:0|0:0,0:0:0:0:
237,155,320866,1,0,0:0:0:0:
477,52,320998,6,0,P|450:-2|413:37,1,131.99999597168,10|2,0:0|0:0,0:0:0:0:
472,228,321392,1,2,0:0:0:0:
374,203,321524,1,2,0:0:0:0:
413,35,321655,1,2,0:0:0:0:
355,97,321787,5,8,0:0:0:0:
344,105,321853,1,8,0:0:0:0:
332,110,321919,1,2,0:0:0:0:
319,113,321984,1,2,0:0:0:0:
305,114,322050,1,2,0:0:0:0:
291,112,322116,1,2,0:0:0:0:
278,108,322182,1,2,0:0:0:0:
266,102,322248,1,2,0:0:0:0:
256,93,322313,1,2,3:1:0:0:
248,82,322379,1,2,3:1:0:0:
242,70,322445,1,2,3:1:0:0:
240,56,322511,1,2,3:1:0:0:
242,41,322577,5,4,3:2:0:0:
198,159,322977,1,8,0:2:0:0:
242,41,323377,1,0,0:0:0:0:
208,69,323577,1,2,0:3:0:0:
164,74,323777,1,0,0:1:0:0:
122,59,323977,1,2,0:3:0:0:
97,22,324177,6,0,P|45:11|3:48,1,110,2|2,0:0|0:3,0:0:0:0:
97,148,324777,1,0,0:0:0:0:
97,148,324977,2,0,P|45:159|3:122,1,110,2|2,0:0|0:3,0:0:0:0:
4,45,325577,1,2,0:3:0:0:
89,58,325777,6,0,P|99:30|98:4,1,55,8|2,0:0|0:3,0:0:0:0:
187,145,326177,2,0,P|177:117|178:91,1,55,0|0,0:0|0:0,0:0:0:0:
98,202,326577,1,2,0:0:0:0:
70,236,326777,1,2,0:3:0:0:
89,275,326977,1,0,0:1:0:0:
132,267,327177,1,2,0:3:0:0:
139,223,327377,6,0,P|88:198|39:214,1,110,2|2,0:0|0:3,0:0:0:0:
172,353,328177,2,0,P|225:359|268:328,1,110,2|2,0:0|0:3,0:0:0:0:
174,90,328915,6,0,P|137:81|103:90,1,71.4999967269899,0|0,0:0|0:0,0:0:0:0:
226,154,329309,2,0,B|275:168|321:138|321:138|345:139|371:155,1,142.99999345398,2|0,0:0|0:0,0:0:0:0:
411,220,329901,1,0,0:0:0:0:
362,150,330099,1,0,0:0:0:0:
397,73,330296,1,0,0:0:0:0:
411,220,330493,6,0,B|414:259|403:282|403:282|400:307|413:335,1,110,0|0,0:0|0:0,0:0:0:0:
397,73,330888,2,0,B|336:51|281:81|281:81|254:72|245:53,1,165
129,98,331283,2,0,B|190:76|245:106|245:106|272:97|281:78,1,165
397,123,331678,2,0,B|336:101|281:131|281:131|254:122|245:103,1,165,0|0,0:0|0:0,0:0:0:0:
55,160,332072,6,0,P|126:94|121:191,1,247.500009441376,2|0,0:0|0:0,0:0:0:0:
122,192,333059,2,0,P|116:218|120:246,1,55,0|0,0:0|0:0,0:0:0:0:
171,332,333257,2,0,P|172:304|182:279,1,55,0|0,0:0|0:0,0:0:0:0:
242,167,333454,2,0,P|236:193|239:220,1,55,0|0,0:0|0:0,0:0:0:0:
298,117,333651,6,0,B|270:85|220:84|190:111|190:111|207:91|213:66,1,165,0|0,0:0|0:0,0:0:0:0:
241,167,334046,2,0,B|247:221|231:253|231:253|247:272|254:304|254:304|244:326|251:356,1,197.99999395752,2|0,0:0|0:0,0:0:0:0:
268,365,334441,2,0,B|259:331|270:308|270:308|263:273|245:253|245:253|263:218|256:160,1,214.49999018097,0|0,0:0|0:0,0:0:0:0:
274,155,334836,2,0,B|281:218|262:255|262:255|281:278|289:315|289:315|277:341|286:377,1,230.99999295044,0|0,0:0|0:0,0:0:0:0:
371,251,335230,6,0,P|421:237|409:318,1,165,4|0,0:0|0:0,0:0:0:0:
321,255,335630,2,0,P|483:239|369:355,1,423.500012924195,0|0,0:0|0:0,0:0:0:0:
321,255,336430,6,0,P|263:239|273:322,1,165,0|0,0:0|0:0,0:0:0:0:
321,255,336830,2,0,B|345:185|288:140|288:140|308:104|358:92|358:92|292:66|223:88|223:88|272:22|381:18|441:69,1,593.999981872559,2|0,0:0|0:0,0:0:0:0:
487,132,337810,6,0,P|497:158|497:186,1,55,0|0,0:0|0:0,0:0:0:0:
463,263,338006,2,0,P|441:279|415:288,1,55,0|0,0:0|0:0,0:0:0:0:
331,279,338202,2,0,P|308:263|292:241,1,55,0|0,0:0|0:0,0:0:0:0:
277,153,338398,6,0,B|256:120|217:108|184:115|184:115|167:81|137:73,1,165,4|0,0:0|0:0,0:0:0:0:
60,53,338798,2,0,B|95:73|146:69|146:69|178:84|187:109|187:109|215:102|261:116|281:147|281:147|332:153|365:114|365:114|401:96|438:112,1,423.500012924195,0|0,0:0|0:0,0:0:0:0:
499,169,339582,6,0,P|435:136|482:81,1,165,0|0,0:0|0:0,0:0:0:0:
499,169,339974,2,0,B|516:238|459:279|387:279|354:215|354:215|352:282|300:317|300:317|317:235|283:179|283:179|248:229|271:277,1,593.999981872559,2|0,0:0|0:0,0:0:0:0:
211,325,340960,6,0,P|194:296|189:273,1,55,0|0,0:0|0:0,0:0:0:0:
190,202,341158,2,0,P|196:169|207:148,1,55,0|0,0:0|0:0,0:0:0:0:
252,94,341355,2,0,P|277:73|299:64,1,55,0|0,0:0|0:0,0:0:0:0:
380,59,341555,6,0,B|432:51|466:89|508:69|508:69|486:49|459:55,1,183.333333333333,4|0,0:0|0:0,0:0:0:0:
380,59,341996,6,0,B|319:83|304:154|340:208|389:220|448:222|478:159|478:159|476:194|458:239|421:272,1,423.500012924195,0|0,0:0|0:0,0:0:0:0:
361,308,342718,6,0,P|354:369|429:331,1,183.333333333333,0|0,0:0|0:0,0:0:0:0:
361,308,343149,2,0,B|317:264|243:272|209:342|209:342|203:392|151:388|111:378|85:328|112:271|152:255|207:263|221:319|221:319|231:351|265:375,1,544.500016616822,2|0,0:0|0:0,0:0:0:0:
361,308,344135,6,0,P|379:286|383:260,1,55,0|0,0:0|0:0,0:0:0:0:
370,184,344340,2,0,P|354:160|331:148,1,55,0|0,0:0|0:0,0:0:0:0:
254,137,344545,2,0,P|226:144|207:162,1,55,0|0,0:0|0:0,0:0:0:0:
331,148,344751,6,0,B|352:92|319:50|319:50|322:18|354:0,1,165,4|0,0:0|0:0,0:0:0:0:
431,48,345161,2,0,B|366:70|331:149|331:149|283:99|219:96|219:96|170:132|113:119,1,385,0|0,0:0|0:0,0:0:0:0:
67,72,345950,6,0,P|108:103|199:86,1,148.49999546814
235,20,346384,2,0,B|170:21|131:75|140:152|189:186|255:188|291:150|291:150|369:141|411:201|411:201|347:211|312:176,1,544.500016616822,2|0,0:0|0:0,0:0:0:0:
293,72,347271,6,0,P|321:70|354:75,1,55,0|0,0:0|0:0,0:0:0:0:
417,99,347469,2,0,P|439:115|461:140,1,55,0|0,0:0|0:0,0:0:0:0:
494,199,347668,2,0,P|500:226|501:259,1,55,0|0,0:0|0:0,0:0:0:0:
406,272,347867,6,0,P|397:205|348:250,1,165,4|0,0:0|0:0,0:0:0:0:
291,313,348277,2,0,B|260:265|262:203|300:156|300:156|292:120|254:90|221:91|221:91|263:61|326:74,1,385,0|0,0:0|0:0,0:0:0:0:
410,43,349036,6,0,P|347:6|323:74,1,165,0|0,0:0|0:0,0:0:0:0:
363,156,349446,2,0,B|378:187|372:231|328:258|279:249|255:216|255:216|250:257|202:294|202:294|204:258|190:228|190:228|168:249|137:248|137:248|80:185|12:206,1,544.500016616822,2|0,0:0|0:0,0:0:0:0:
31,127,350432,6,0,P|58:124|85:129,1,55,0|0,0:0|0:0,0:0:0:0:
220,101,350626,2,0,P|193:98|166:103,1,55,0|0,0:0|0:0,0:0:0:0:
55,34,350821,2,0,P|82:31|109:36,1,55,0|0,0:0|0:0,0:0:0:0:
220,101,351026,6,0,B|278:108|314:78|314:78|352:77|388:100,1,165,4|0,0:0|0:0,0:0:0:0:
332,161,351467,2,0,P|301:65|439:144,1,385,0|0,0:0|0:0,0:0:0:0:
391,204,352221,6,0,B|372:255|405:311|405:311|407:339|387:365,1,165,0|0,0:0|0:0,0:0:0:0:
316,310,352621,2,0,B|289:224|326:150|326:150|285:101|301:26|301:26|362:33|390:79|390:79|334:80|301:98,1,495,2|0,0:0|0:0,0:0:0:0:
224,137,353588,6,0,P|194:144|165:141,1,55,0|0,0:0|0:0,0:0:0:0:
39,142,353785,2,0,P|65:156|93:161,1,55,0|0,0:0|0:0,0:0:0:0:
176,225,353982,2,0,P|149:239|121:244,1,55,0|0,0:0|0:0,0:0:0:0:
224,137,354187,6,0,B|285:127|328:161|328:161|357:158|375:135,1,165,4|0,0:0|0:0,0:0:0:0:
419,50,354587,2,0,B|410:102|374:156|328:161|328:161|288:206|311:273|311:273|363:222|344:168,1,385,0|0,0:0|0:0,0:0:0:0:
303,51,355361,6,0,B|241:49|203:37|203:37|220:61|253:75,1,165,0|0,0:0|0:0,0:0:0:0:
303,51,355748,2,0,B|372:43|414:109|395:172|348:198|307:193|307:193|276:229|285:281|285:281|261:234|207:216|207:216|265:222|298:177|298:177,1,544.500016616822,2|0,0:0|0:0,0:0:0:0:
303,51,356748,6,0,P|282:24|255:13,1,60.5000018463135,0|0,0:0|0:0,0:0:0:0:
179,5,356948,2,0,P|145:9|122:27,1,60.5000018463135,0|0,0:0|0:0,0:0:0:0:
77,89,357148,2,0,P|64:120|68:149,1,60.5000018463135,0|0,0:0|0:0,0:0:0:0:
97,228,357348,6,0,P|86:288|27:242,1,165,4|0,0:0|0:0,0:0:0:0:
97,228,357764,2,0,B|127:193|183:197|212:231|212:277|212:277|232:324|292:334|292:334|351:310|407:330,1,385,0|0,0:0|0:0,0:0:0:0:
506,249,358514,6,0,P|437:249|407:331,1,165,0|0,0:0|0:0,0:0:0:0:
419,348,358906,5,4,3:2:0:0:
256,192,359006,12,0,360406,0:0:0:0:
256,192,360506,12,0,361206,0:0:0:0:
256,192,361306,12,0,362006,0:0:0:0:
256,192,362106,12,0,364806,0:0:0:0:
309,211,365011,5,0,0:0:0:0:
309,211,365109,1,0,0:0:0:0:
309,211,365208,2,0,B|354:180|368:115|368:115|379:169|363:206|344:233|279:242|279:242|228:234|193:255,1,385,4|0,0:1|0:0,0:0:0:0:
178,269,365997,1,2,0:2:0:0:
256,192,366096,12,0,366688,1:0:0:0:
197,205,366786,6,0,B|199:150|175:117|175:117|186:61|231:45|231:45|228:111|187:152|123:151|89:127,1,385,8|0,0:2|0:0,0:0:0:0:
75,113,367576,1,2,0:2:0:0:
256,192,367675,12,0,368267,1:0:0:0:
315,209,368365,6,0,B|371:191|408:139|404:80|361:28|361:28|374:66|368:101|368:101|357:142|391:184,1,385,4|0,0:1|0:0,0:0:0:0:
407,194,369155,1,2,0:2:0:0:
407,194,369944,5,2,0:0:0:0:
414,210,370009,1,8,0:0:0:0:
417,228,370075,1,8,0:0:0:0:
416,246,370142,1,8,0:0:0:0:
411,264,370207,1,8,0:0:0:0:
401,279,370272,1,8,0:0:0:0:
389,292,370338,1,4,0:0:0:0:
373,302,370404,1,4,0:0:0:0:
355,307,370470,1,4,0:0:0:0:
337,308,370536,1,4,0:0:0:0:
319,305,370601,1,4,0:0:0:0:
303,297,370667,1,4,0:0:0:0:
288,286,370734,6,0,P|243:269|191:297,1,110,4|8,0:1|0:0,0:0:0:0:
148,365,371030,1,8,0:0:0:0:
148,365,371129,1,8,0:0:0:0:
99,132,371326,1,8,0:0:0:0:
332,221,371523,6,0,P|378:174|370:114,1,131.99999597168,4|8,0:3|0:0,0:0:0:0:
343,36,371819,2,0,P|360:99|416:123,1,131.99999597168,8|8,0:3|0:3,0:0:0:0:
497,138,372115,2,0,P|433:120|385:157,1,131.99999597168,8|8,0:0|0:3,0:0:0:0:
317,317,372510,1,8,0:0:0:0:
218,156,372708,1,8,0:3:0:0:
218,156,372806,1,0,0:0:0:0:
218,156,372905,1,8,0:0:0:0:
71,326,373102,6,0,P|21:337|41:284,1,131.99999597168,10|8,0:3|0:0,0:0:0:0:
107,263,373398,1,8,0:3:0:0:
154,313,373497,2,0,P|208:311|177:268,1,131.99999597168,2|8,0:3|0:0,0:0:0:0:
107,263,373793,1,0,0:1:0:0:
71,326,373892,2,0,P|21:337|41:284,1,131.99999597168,8|8,0:3|0:0,0:0:0:0:
201,102,374286,1,8,0:3:0:0:
201,102,374385,1,0,0:0:0:0:
201,102,374484,1,8,0:0:0:0:
328,200,374681,6,0,P|394:221|449:124,1,197.99999395752,4|8,0:3|0:3,0:0:0:0:
404,77,375076,1,0,0:3:0:0:
384,111,375175,1,8,0:3:0:0:
381,150,375273,1,8,0:0:0:0:
396,186,375372,1,0,0:0:0:0:
422,215,375471,1,8,0:3:0:0:
216,283,375668,1,8,0:0:0:0:
349,347,375865,1,8,0:3:0:0:
349,347,375964,1,0,0:0:0:0:
349,347,376063,2,0,P|381:350|409:334,1,65.9999979858399,8|0,0:0|0:0,0:0:0:0:
216,283,376260,5,0,0:0:0:0:
31,328,376458,1,8,0:0:0:0:
142,158,376655,2,0,B|154:88|94:57|94:57|57:86|62:122,1,197.99999395752,10|0,0:2|0:0,0:0:0:0:
67,163,377050,1,8,0:3:0:0:
229,86,377247,1,8,0:0:0:0:
334,208,377444,1,8,0:3:0:0:
376,226,377543,1,8,0:3:0:0:
421,218,377642,1,8,0:0:0:0:
458,191,377740,1,0,0:0:0:0:
472,147,377839,6,0,P|470:115|451:85,1,65.9999979858399,4|0,0:0|0:0,0:0:0:0:
353,147,378036,1,8,0:0:0:0:
353,147,378135,2,0,P|336:175|334:208,1,65.9999979858399,8|0,0:3|0:0,0:0:0:0:
271,343,378333,1,8,0:3:0:0:
271,343,378432,2,0,P|253:315|249:283,1,65.9999979858399,8|0,0:0|0:0,0:0:0:0:
333,207,378629,6,0,P|396:258|320:289,1,197.99999395752,12|0,0:3|0:0,0:0:0:0:
282,264,379023,1,8,0:3:0:0:
238,248,379122,1,0,0:0:0:0:
191,253,379221,2,0,P|170:286|173:317,1,65.9999979858399,8|0,0:0|0:0,0:0:0:0:
78,251,379418,6,0,B|55:208|61:172|61:172|75:150|74:122,1,131.99999597168,6|8,0:2|0:0,0:0:0:0:
37,23,379714,1,8,0:3:0:0:
37,23,379813,2,0,B|84:24|112:48|112:48|124:71|149:84,1,131.99999597168,4|8,0:1|0:0,0:0:0:0:
254,101,380109,1,0,0:0:0:0:
254,101,380208,2,0,B|228:141|194:153|194:153|168:152|144:167,1,131.99999597168,6|8,0:2|0:0,0:0:0:0:
290,25,380602,1,8,0:3:0:0:
290,25,380701,1,0,0:0:0:0:
290,25,380800,1,8,0:0:0:0:
421,239,380997,5,4,0:3:0:0:
465,35,381194,1,8,0:0:0:0:
454,86,381293,1,8,0:0:0:0:
443,137,381392,1,8,0:0:0:0:
432,188,381490,1,8,0:0:0:0:
421,239,381589,1,4,0:3:0:0:
263,361,381786,5,8,0:0:0:0:
254,299,381885,1,8,0:0:0:0:
244,236,381983,1,8,0:0:0:0:
234,174,382082,1,8,0:0:0:0:
224,113,382181,1,4,0:3:0:0:
66,22,382379,5,8,0:0:0:0:
52,87,382478,1,8,0:0:0:0:
39,151,382576,2,0,P|59:186|97:133,1,131.99999597168,4|8,0:3|0:3,0:0:0:0:
52,87,382872,1,8,0:3:0:0:
5,133,382971,1,8,0:3:0:0:
15,197,383069,1,8,0:3:0:0:
74,227,383168,1,8,0:3:0:0:
133,196,383267,1,8,0:3:0:0:
140,130,383365,5,8,0:0:0:0:
74,227,383661,1,12,0:2:0:0:
8,324,383958,1,8,0:3:0:0:
283,34,384155,6,0,B|347:19|393:63|393:63|425:41|468:49,1,197.99999395752,4|8,0:3|0:3,0:0:0:0:
451,132,384550,1,0,0:0:0:0:
451,132,384648,1,8,0:3:0:0:
451,132,384747,2,0,B|444:180|444:180|448:205|448:205|439:265,1,131.99999597168,8|8,0:0|0:3,0:0:0:0:
251,369,385142,2,0,B|244:321|244:321|248:296|248:296|239:236,1,131.99999597168,8|8,0:0|0:3,0:0:0:0:
233,166,385438,1,0,0:0:0:0:
233,166,385536,1,8,0:0:0:0:
20,327,385734,6,0,P|84:359|162:276,1,197.99999395752,4|8,0:0|0:3,0:0:0:0:
117,210,386129,1,0,0:0:0:0:
124,254,386227,1,8,0:3:0:0:
162,279,386326,2,0,P|198:281|225:270,1,65.9999979858399,8|0,0:0|0:0,0:0:0:0:
117,210,386523,2,0,P|62:197|6:251,1,131.99999597168,4|8,0:3|0:0,0:0:0:0:
124,254,386819,1,0,0:0:0:0:
170,228,386918,1,8,0:3:0:0:
192,176,387017,1,0,0:0:0:0:
188,117,387115,1,8,0:0:0:0:
150,66,387214,1,0,0:0:0:0:
86,48,387313,6,0,P|45:48|23:62,1,65.9999979858399,4|0,0:0|0:0,0:0:0:0:
211,78,387510,2,0,P|170:78|148:64,1,65.9999979858399,8|8,0:0|0:3,0:0:0:0:
337,40,387708,2,0,P|296:40|274:54,2,65.9999979858399,0|8|8,0:0|0:3|0:0,0:0:0:0:
267,118,388004,1,0,0:0:0:0:
329,141,388102,2,0,P|318:225|246:182,1,197.99999395752,4|8,0:3|0:3,0:0:0:0:
267,118,388497,1,0,0:0:0:0:
331,134,388596,1,8,0:3:0:0:
395,122,388694,1,8,0:0:0:0:
443,76,388793,1,0,0:0:0:0:
456,11,388892,6,0,B|472:57|472:102|472:102|460:85|444:76,1,131.99999597168,4|8,0:0|0:0,0:0:0:0:
394,56,389188,1,0,0:0:0:0:
341,58,389286,1,8,0:3:0:0:
293,81,389385,1,8,0:3:0:0:
240,88,389484,1,8,0:0:0:0:
187,80,389583,1,0,0:0:0:0:
143,50,389681,6,0,P|210:40|239:88,1,131.99999597168,8|8,0:3|0:0,0:0:0:0:
201,175,389977,1,0,0:0:0:0:
201,175,390076,2,0,P|188:217|198:247,1,65.9999979858399,8|8,0:3|0:0,0:0:0:0:
328,247,390273,2,0,P|341:205|331:175,1,65.9999979858399,8|8,0:3|0:3,0:0:0:0:
261,293,390471,6,0,P|314:328|376:311,1,131.99999597168,4|8,0:3|0:0,0:0:0:0:
258,326,390767,1,8,0:3:0:0:
258,326,390865,2,0,P|204:361|142:344,1,131.99999597168,2|8,0:2|0:0,0:0:0:0:
29,301,391161,2,0,P|96:326|166:238,1,197.99999395752,2|8,0:3|0:0,0:0:0:0:
157,237,391523,21,2,0:3:0:0:
148,235,391589,1,2,0:3:0:0:
139,233,391655,1,2,0:3:0:0:
130,231,391721,1,2,0:3:0:0:
121,229,391786,1,2,0:3:0:0:
112,227,391852,1,2,0:3:0:0:
103,225,391918,1,2,0:3:0:0:
94,223,391984,1,2,0:3:0:0:
85,221,392050,22,0,B|158:237|158:237|215:226|215:226|269:261,1,197.99999395752,4|8,0:3|0:3,0:0:0:0:
337,313,392444,2,0,P|370:315|403:302,1,65.9999979858399,0|8,0:0|0:3,0:0:0:0:
458,245,392642,1,8,0:0:0:0:
458,245,392740,1,0,0:0:0:0:
458,245,392839,2,0,P|470:214|467:178,1,65.9999979858399,8|0,0:3|0:0,0:0:0:0:
430,108,393036,2,0,P|404:86|370:78,1,65.9999979858399,8|0,0:0|0:0,0:0:0:0:
292,91,393234,2,0,P|264:108|245:138,1,65.9999979858399,8|8,0:3|0:3,0:0:0:0:
232,216,393431,2,0,P|240:248|262:275,1,65.9999979858399,8|0,0:0|0:0,0:0:0:0:
350,196,393629,37,4,0:3:0:0:
389,2,393826,1,8,0:0:0:0:
379,50,393924,1,8,0:0:0:0:
369,98,394023,1,8,0:0:0:0:
359,147,394122,1,8,0:0:0:0:
350,196,394220,1,4,0:3:0:0:
144,265,394418,5,8,0:0:0:0:
135,211,394516,1,8,0:0:0:0:
124,157,394615,1,8,0:0:0:0:
113,105,394714,1,8,0:0:0:0:
102,52,394812,1,4,0:3:0:0:
350,196,395010,1,8,0:0:0:0:
337,253,395109,1,8,0:0:0:0:
325,311,395208,22,0,P|289:336|280:271,1,131.99999597168,4|8,0:3|0:3,0:0:0:0:
450,310,395602,1,2,3:1:0:0:
453,318,395668,1,2,3:1:0:0:
456,326,395734,1,2,3:1:0:0:
459,334,395800,1,2,3:1:0:0:
462,342,395865,1,2,3:1:0:0:
465,350,395931,1,2,3:1:0:0:
468,358,395997,37,12,3:1:0:0:
476,196,396293,1,8,0:1:0:0:
484,34,396589,1,8,0:3:0:0:
338,116,396786,22,0,P|274:119|240:66,1,131.99999597168,4|8,0:3|0:0,0:0:0:0:
208,5,397083,2,0,P|241:58|212:114,1,131.99999597168,8|8,0:3|0:3,0:0:0:0:
177,174,397379,2,0,P|206:117|269:114,1,131.99999597168,8|2,0:0|0:3,0:0:0:0:
364,263,397773,1,8,0:0:0:0:
364,263,397872,1,0,0:0:0:0:
364,263,397971,1,8,0:3:0:0:
475,132,398168,1,8,0:0:0:0:
268,318,398365,6,0,P|237:286|252:207,1,131.99999597168,4|8,0:0|0:0,0:0:0:0:
327,196,398661,1,8,0:3:0:0:
364,263,398760,2,0,P|344:306|266:317,1,131.99999597168,8|8,0:2|0:0,0:0:0:0:
252,207,399056,1,0,0:0:0:0:
327,196,399155,2,0,B|376:187|376:187|413:198|413:198|455:190,1,131.99999597168,8|8,0:3|0:0,0:0:0:0:
208,108,399550,2,0,B|159:99|159:99|122:110|122:110|80:102,1,131.99999597168,8|8,0:3|0:0,0:0:0:0:
349,41,399944,6,0,B|418:28|477:53|477:53|441:55|410:64,1,197.99999395752,4|0,0:3|0:0,0:0:0:0:
318,113,400339,1,0,0:0:0:0:
286,146,400437,1,8,0:3:0:0:
278,190,400536,1,8,0:0:0:0:
297,232,400635,1,0,0:0:0:0:
335,257,400734,2,0,P|372:263|401:254,1,65.9999979858399,8|0,0:3|0:0,0:0:0:0:
461,182,400931,5,8,0:0:0:0:
296,358,401129,1,8,0:3:0:0:
296,358,401227,1,0,0:0:0:0:
296,358,401326,1,8,0:0:0:0:
168,176,401523,1,12,0:2:0:0:
99,322,401721,1,8,0:0:0:0:
360,187,401918,6,0,B|383:113|314:69|314:69|298:99|298:99|305:125,1,197.99999395752,4|0,0:0|0:0,0:0:0:0:
279,198,402313,1,12,0:2:0:0:
463,65,402510,1,8,0:0:0:0:
495,292,402708,1,12,0:2:0:0:
495,292,402806,1,0,0:0:0:0:
495,292,402905,1,8,0:0:0:0:
279,198,403102,6,0,P|215:188|170:234,1,131.99999597168,4|8,0:0|0:3,0:0:0:0:
58,268,403398,2,0,P|122:258|167:304,1,131.99999597168,8|8,0:3|0:3,0:0:0:0:
241,353,403694,1,8,0:0:0:0:
241,353,403793,1,0,0:0:0:0:
241,353,403892,2,0,P|276:360|304:351,1,65.9999979858399,8|0,0:3|0:0,0:0:0:0:
366,298,404089,1,8,0:0:0:0:
366,298,404188,1,0,0:0:0:0:
366,298,404287,2,0,P|383:266|383:237,1,65.9999979858399,8|8,0:3|0:3,0:0:0:0:
352,162,404484,2,0,P|330:137|299:126,1,65.9999979858399,8|0,0:0|0:0,0:0:0:0:
196,166,404681,6,0,P|258:174|300:126,1,131.99999597168,2|8,0:2|0:0,0:0:0:0:
167,143,404977,1,8,0:3:0:0:
146,170,405076,2,0,P|83:178|41:130,1,131.99999597168,0|8,0:0|0:0,0:0:0:0:
167,143,405372,1,0,0:0:0:0:
170,180,405471,2,0,B|175:244|175:244|163:292|163:292|183:348|183:348|197:322,1,197.99999395752,2|0,0:2|0:0,0:0:0:0:
261,260,405865,1,8,0:3:0:0:
307,234,405964,1,8,0:3:0:0:
359,230,406063,1,8,0:0:0:0:
409,245,406161,1,0,0:0:0:0:
449,285,406260,6,0,P|406:242|426:172,1,131.99999597168,4|8,0:3|0:0,0:0:0:0:
486,123,406556,1,8,0:3:0:0:
436,142,406655,1,0,0:0:0:0:
383,136,406754,1,8,0:3:0:0:
344,100,406852,2,0,P|312:88|276:95,1,65.9999979858399,8|0,0:0|0:0,0:0:0:0:
168,121,407050,2,0,P|231:111|278:154,1,131.99999597168,8|8,0:3|0:0,0:0:0:0:
187,247,407346,1,0,0:0:0:0:
164,235,407444,2,0,P|138:176|167:120,1,131.99999597168,8|8,0:3|0:0,0:0:0:0:
344,322,407839,5,4,0:3:0:0:
469,175,408036,1,2,0:0:0:0:
470,181,408135,1,2,0:0:0:0:
471,187,408234,1,2,0:0:0:0:
472,193,408333,1,2,0:0:0:0:
473,199,408431,1,2,0:0:0:0:
474,205,408530,1,2,0:0:0:0:
475,211,408629,5,2,0:0:0:0:
454,294,408925,1,12,0:2:0:0:
433,377,409221,1,8,0:3:0:0:
260,221,409418,6,0,P|201:206|149:248,1,131.99999597168,4|8,0:0|0:0,0:0:0:0:
259,293,409714,1,8,0:3:0:0:
323,260,409813,2,0,P|335:220|331:196,1,65.9999979858399,0|8,0:0|0:3,0:0:0:0:
259,293,410010,2,0,P|299:329|374:312,1,131.99999597168,8|8,0:0|0:3,0:0:0:0:
465,128,410405,1,8,0:0:0:0:
476,260,410602,1,8,0:3:0:0:
476,260,410701,1,0,0:0:0:0:
476,260,410800,1,8,0:0:0:0:
396,94,410997,6,0,P|445:53|508:67,1,131.99999597168,8|8,0:2|0:0,0:0:0:0:
406,170,411293,1,8,0:3:0:0:
353,162,411392,1,0,0:0:0:0:
301,155,411490,1,8,0:3:0:0:
248,147,411589,2,0,L|183:138,1,65.9999979858399,8|0,0:0|0:0,0:0:0:0:
53,72,411786,2,0,B|115:66|115:66|147:52|147:52|185:60,1,131.99999597168,8|8,0:3|0:0,0:0:0:0:
89,151,412082,1,0,0:0:0:0:
47,201,412182,1,8,0:3:0:0:
42,265,412281,1,8,0:3:0:0:
76,321,412379,1,8,0:0:0:0:
135,348,412478,1,0,0:0:0:0:
199,335,412576,6,0,B|255:326|276:278|276:278|296:263|318:258|318:258|292:244|279:220,1,197.99999395752,4|8,0:0|0:3,0:0:0:0:
246,157,412971,1,0,0:0:0:0:
246,157,413069,1,8,0:3:0:0:
245,156,413168,2,0,P|235:126|239:93,1,65.9999979858399,8|0,0:0|0:0,0:0:0:0:
199,18,413365,2,0,B|207:71|240:93|240:93|302:106|341:66,1,197.99999395752,8|0,0:3|0:3,0:0:0:0:
396,15,413760,2,0,P|427:11|462:26,1,65.9999979858399,8|0,0:3|0:0,0:0:0:0:
502,83,413958,2,0,P|512:112|506:149,1,65.9999979858399,8|0,0:0|0:0,0:0:0:0:
452,201,414155,6,0,B|410:206|410:206|375:199|375:199|345:204|326:220,1,131.99999597168,4|8,0:3|0:0,0:0:0:0:
276,284,414451,1,8,0:3:0:0:
276,284,414550,2,0,P|266:322|278:357,1,65.9999979858399,0|8,0:0|0:3,0:0:0:0:
326,220,414747,2,0,B|319:173|319:173|305:144|305:144|312:122|308:93,1,131.99999597168,8|8,0:0|0:3,0:0:0:0:
90,313,415142,1,8,0:0:0:0:
54,39,415339,1,8,0:3:0:0:
36,105,415438,1,10,0:0:0:0:
20,171,415536,1,2,0:0:0:0:
262,209,415734,6,0,B|309:202|345:169|345:169|334:190|331:206,1,131.99999597168,4|8,0:3|0:0,0:0:0:0:
298,345,416030,1,8,0:3:0:0:
232,304,416129,2,0,B|203:267|156:252|156:252|180:251|195:246,1,131.99999597168,0|8,0:0|0:0,0:0:0:0:
330,205,416425,1,0,0:0:0:0:
330,283,416524,2,0,B|313:326|323:374|323:374|311:354|298:344,1,131.99999597168,8|8,0:3|0:0,0:0:0:0:
211,84,416918,1,2,0:3:0:0:
263,77,417017,1,0,0:0:0:0:
315,70,417115,1,8,0:0:0:0:
367,63,417214,1,2,0:3:0:0:
419,57,417313,6,0,B|479:66|501:132|501:132|471:166|430:166,1,197.99999395752,4|8,0:0|0:3,0:0:0:0:
359,163,417708,1,0,0:0:0:0:
359,163,417806,1,8,0:3:0:0:
359,163,417905,2,0,P|317:155|292:164,1,65.9999979858399,8|0,0:0|0:0,0:0:0:0:
232,227,418102,1,12,0:2:0:0:
72,29,418300,1,8,0:0:0:0:
13,208,418497,1,8,0:3:0:0:
13,208,418596,1,8,0:3:0:0:
13,208,418694,2,0,P|7:242|20:275,1,65.9999979858399,8|0,0:0|0:0,0:0:0:0:
106,342,418892,5,4,0:3:0:0:
155,358,418990,1,0,0:0:0:0:
207,352,419089,1,4,0:0:0:0:
251,323,419188,2,0,P|259:286|251:257,1,65.9999979858399,0|8,0:0|0:3,0:0:0:0:
146,155,419385,1,8,0:0:0:0:
114,197,419484,2,0,P|112:238|123:262,1,65.9999979858399,8|8,0:3|0:3,0:0:0:0:
337,172,419681,1,8,0:0:0:0:
316,123,419780,2,0,P|281:100|255:98,1,65.9999979858399,0|8,0:0|0:3,0:0:0:0:
251,323,419977,1,8,0:0:0:0:
304,330,420076,2,0,P|340:311|355:289,1,65.9999979858399,8|8,0:3|0:3,0:0:0:0:
395,78,420273,5,12,0:0:0:0:
359,38,420372,1,0,0:0:0:0:
308,23,420471,2,0,P|278:18|246:31,1,65.9999979858399,0|8,0:0|0:3,0:0:0:0:
276,206,420668,1,8,0:0:0:0:
317,238,420767,2,8,P|350:240|380:224,1,65.9999979858399,8|8,0:3|0:3,0:0:0:0:
224,129,420964,1,8,0:0:0:0:
194,175,421063,1,8,0:3:0:0:
194,229,421162,1,0,0:0:0:0:
222,276,421260,5,14,0:0:0:0:
485,166,421556,1,14,0:0:0:0:
37,31,421852,1,6,0:0:0:0:
79,111,422050,6,0,L|74:172,1,55,4|0,0:3|0:0,0:0:0:0:
79,111,422350,1,0,0:2:0:0:
163,69,422500,2,0,P|169:32|162:8,1,55,0|0,0:2|0:0,0:0:0:0:
165,15,422800,1,0,0:0:0:0:
79,111,422950,2,0,L|74:172,1,55
67,250,423250,2,0,L|62:311,1,55,2|0,0:0|0:0,0:0:0:0:
230,231,423550,5,0,0:0:0:0:
230,231,423700,1,0,0:0:0:0:
230,231,423850,1,0,0:0:0:0:
299,169,424000,2,0,P|327:162|352:167,1,55,0|0,0:0|0:0,0:0:0:0:
230,231,424300,1,0,0:0:0:0:
209,147,424450,2,0,L|216:89,1,55,0|0,0:0|0:0,0:0:0:0:
230,231,424750,2,0,L|224:286,1,55,2|0,0:0|0:0,0:0:0:0:
388,360,425050,5,8,0:2:0:0:
388,360,425200,1,0,0:0:0:0:
388,360,425350,1,0,0:0:0:0:
470,280,425500,2,0,P|474:250|467:221,1,60.5000018463135,0|0,0:0|0:0,0:0:0:0:
388,360,425800,1,0,0:0:0:0:
308,221,425950,2,0,P|329:200|358:190,1,60.5000018463135,0|0,0:0|0:0,0:0:0:0:
388,360,426250,2,0,P|359:352|336:333,1,60.5000018463135,2|0,0:0|0:0,0:0:0:0:
467,221,426550,5,0,0:0:0:0:
467,221,426700,1,0,0:0:0:0:
467,221,426850,1,0,0:0:0:0:
347,159,427000,2,0,P|377:159|404:172,1,60.5000018463135,0|0,0:0|0:0,0:0:0:0:
269,182,427300,1,0,0:0:0:0:
218,242,427450,2,0,P|207:270|211:299,1,60.5000018463135,0|0,0:0|0:0,0:0:0:0:
404,172,427750,2,0,P|376:158|346:158,1,60.5000018463135,2|0,0:0|0:0,0:0:0:0:
218,242,428050,5,2,0:2:0:0:
218,242,428200,1,0,0:0:0:0:
218,242,428350,1,0,0:0:0:0:
105,165,428500,2,0,P|98:124|106:98,1,65.9999979858399,0|0,0:0|0:0,0:0:0:0:
218,242,428800,1,0,0:0:0:0:
99,305,428950,2,0,P|65:313|34:304,1,65.9999979858399,2|0,0:0|0:0,0:0:0:0:
218,242,429250,2,0,L|286:259,1,65.9999979858399,0|0,0:0|0:0,0:0:0:0:
439,196,429550,5,0,0:0:0:0:
439,196,429700,1,0,0:0:0:0:
439,196,429850,1,0,0:0:0:0:
348,93,430000,2,0,P|305:78|283:82,1,65.9999979858399,2|0,0:0|0:0,0:0:0:0:
439,196,430300,1,0,0:0:0:0:
494,76,430450,2,0,L|484:11,1,65.9999979858399,0|0,0:0|0:0,0:0:0:0:
307,152,430750,2,0,L|297:217,1,65.9999979858399,2|0,0:0|0:0,0:0:0:0:
100,288,431050,5,4,0:0:0:0:
100,288,431200,1,0,0:0:0:0:
100,288,431350,1,0,0:0:0:0:
18,187,431500,2,0,P|10:150|24:119,1,71.4999967269899,0|0,0:0|0:0,0:0:0:0:
100,288,431800,1,0,0:0:0:0:
274,257,431950,2,0,L|203:251,1,71.4999967269899,2|0,0:0|0:0,0:0:0:0:
377,134,432250,2,0,L|448:128,1,71.4999967269899,0|0,0:0|0:0,0:0:0:0:
218,144,432550,5,0,0:0:0:0:
218,144,432700,1,0,0:0:0:0:
218,144,432850,1,0,0:0:0:0:
297,327,433000,5,2,0:0:0:0:
297,327,433150,1,0,0:0:0:0:
297,327,433300,1,0,0:0:0:0:
99,303,433450,5,0,0:0:0:0:
170,273,433600,1,0,0:0:0:0:
228,220,433750,1,0,0:0:0:0:
160,351,433900,1,0,0:0:0:0:
246,153,434050,6,0,B|257:117|257:117|249:81|249:81|213:106|218:144,1,148.49999546814,4|0,3:0|0:0,0:0:0:0:
228,220,434350,1,2,0:3:0:0:
228,220,434500,2,0,P|266:223|304:197,1,82.5000031471254,0|0,0:0|0:0,0:0:0:0:
299,31,434800,1,0,0:0:0:0:
299,31,434950,2,0,P|267:13|221:18,1,82.5000031471254,2|0,0:0|0:0,0:0:0:0:
81,131,435250,5,4,0:1:0:0:
81,131,435550,2,0,B|50:127|50:127|38:113|38:113|57:108|57:108|74:118,1,82.5000031471254,2|0,0:1|0:0,0:0:0:0:
193,157,435850,1,0,0:3:0:0:
227,267,436000,2,0,B|239:295|239:295|232:313|232:313|219:299|219:299|219:279,1,82.5000031471254,2|0,0:1|0:0,0:0:0:0:
193,157,436300,1,0,0:3:0:0:
272,73,436450,2,0,B|290:48|290:48|309:44|309:44|303:63|303:63|286:73,1,82.5000031471254,2|0,0:1|0:0,0:0:0:0:
64,282,436750,1,2,0:1:0:0:
423,346,437050,6,0,B|456:333|503:344|503:344|485:312|446:313,1,148.49999546814,4|0,0:3|0:0,0:0:0:0:
348,319,437350,1,2,0:3:0:0:
348,319,437500,2,0,P|299:325|266:305,1,82.5000031471254,2|0,0:0|0:0,0:0:0:0:
391,163,437800,1,0,0:0:0:0:
391,163,437950,2,0,B|423:155|456:169|456:169|445:169|437:175,1,82.5000031471254,8|0,0:3|0:0,0:0:0:0:
318,258,438250,2,0,B|295:234|290:198|290:198|296:208|305:212,1,82.5000031471254,4|0,0:1|0:0,0:0:0:0:
468,331,438550,5,6,0:3:0:0:
468,331,438700,1,0,0:0:0:0:
468,331,438850,1,8,0:3:0:0:
442,145,439000,2,0,B|441:116|429:100|429:100|446:122|455:127,1,82.5000031471254,2|0,0:1|0:0,0:0:0:0:
442,145,439300,1,0,0:0:0:0:
468,331,439450,2,0,B|467:360|455:376|455:376|472:354|481:349,1,82.5000031471254,2|0,0:1|0:0,0:0:0:0:
442,145,439750,1,2,0:1:0:0:
55,336,440050,6,0,B|76:352|97:353|97:353|117:344|145:348|145:348|117:331|108:311,1,148.49999546814,4|0,0:3|0:0,0:0:0:0:
79,245,440350,1,2,0:3:0:0:
79,245,440500,2,0,P|66:206|79:165,1,82.5000031471254,0|0,0:0|0:0,0:0:0:0:
128,107,440800,2,0,P|164:88|207:95,1,82.5000031471254,0|2,0:0|0:0,0:0:0:0:
266,148,441100,1,8,0:3:0:0:
430,58,441250,1,12,0:1:0:0:
430,58,441550,5,8,3:0:0:0:
430,58,441850,5,2,3:3:0:0:
441,50,441925,1,2,3:3:0:0:
454,50,442000,1,2,3:1:0:0:
465,56,442074,1,2,3:1:0:0:
476,68,442149,5,8,3:0:0:0:
477,84,442224,1,8,3:0:0:0:
468,98,442299,1,2,3:1:0:0:
453,105,442374,1,2,3:1:0:0:
432,102,442449,5,8,3:1:0:0:
414,90,442524,1,0,3:1:0:0:
393,89,442599,1,0,3:1:0:0:
375,100,442674,1,0,3:1:0:0:
366,118,442749,1,0,3:1:0:0:
369,138,442824,1,0,3:1:0:0:
382,154,442899,1,0,3:1:0:0:
400,160,442974,1,0,3:1:0:0:
421,157,443050,6,0,B|455:146|493:151|493:151|525:135|525:135|507:128|486:132,1,148.49999546814,4|0,0:3|0:0,0:0:0:0:
459,242,443350,1,2,0:3:0:0:
459,242,443500,2,0,P|464:287|446:318,1,82.5000031471254,0|0,0:0|0:0,0:0:0:0:
279,248,443800,1,0,0:0:0:0:
279,248,443950,2,0,P|289:204|317:181,1,82.5000031471254,2|0,0:0|0:0,0:0:0:0:
373,352,444250,2,0,P|327:349|300:326,1,82.5000031471254,0|0,0:0|0:0,0:0:0:0:
268,93,444550,6,0,B|324:65|382:97|382:97|416:94|448:58,2,197.99999395752,4|0|0,0:0|0:0|0:0,0:0:0:0:
215,152,445750,1,0,0:0:0:0:
180,81,446050,1,0,0:0:0:0:
256,192,446350,12,0,447400,0:0:0:0:
256,192,447475,12,0,448150,0:0:0:0:
256,192,448225,12,0,448900,0:0:0:0:
256,192,448975,12,0,450250,0:0:0:0:
39,57,450521,6,0,B|28:148|28:148|42:132,1,110,8|8,3:2|0:0,0:0:0:0:
168,21,450800,1,0,0:2:0:0:
206,168,450939,1,8,0:0:0:0:
206,168,451009,1,0,0:0:0:0:
206,168,451079,1,0,3:2:0:0:
97,261,451218,1,8,0:0:0:0:
251,106,451358,2,0,P|280:150|272:204,1,110,2|8,3:2|0:0,0:0:0:0:
55,326,451637,2,0,P|22:282|28:229,1,110,2|8,3:2|0:0,0:0:0:0:
321,328,451916,5,2,3:0:0:0:
321,328,451986,1,0,3:0:0:0:
321,328,452055,2,0,B|227:339|227:339|241:326,1,110,8|0,0:0|3:2,0:0:0:0:
473,208,452334,2,0,B|379:197|379:197|393:210,1,110,8|2,0:0|3:2,0:0:0:0:
494,337,452614,1,8,0:0:0:0:
319,231,452753,2,0,P|311:182|346:137,1,110,2|8,3:2|0:0,0:0:0:0:
184,10,453032,2,0,P|176:59|211:104,1,110,0|8,3:0|0:0,0:0:0:0:
488,124,453311,6,0,B|501:34|501:34|487:47,1,110,4|8,3:3|0:0,0:0:0:0:
327,237,453590,1,0,3:0:0:0:
327,237,453660,1,0,3:0:0:0:
327,237,453730,2,0,B|340:327|340:327|326:314,1,110,8|0,0:0|3:0,0:0:0:0:
175,162,454009,1,8,0:0:0:0:
316,57,454148,2,0,L|427:68,1,110,2|8,3:2|0:0,0:0:0:0:
175,162,454427,2,0,L|64:173,1,110,2|8,3:2|0:0,0:0:0:0:
287,338,454707,5,8,3:3:0:0:
287,338,454776,1,0,3:0:0:0:
287,338,454846,2,0,P|305:282|277:242,1,110,8|0,0:0|0:0,0:0:0:0:
23,299,455125,2,0,P|31:357|74:380,1,110,8|0,0:0|3:0,0:0:0:0:
347,185,455404,1,8,0:0:0:0:
179,61,455544,2,0,B|92:70|92:70|112:79,1,110,2|0,0:2|0:0,0:0:0:0:
283,177,455823,1,0,3:0:0:0:
315,181,455893,1,0,3:0:0:0:
347,185,455962,1,0,3:0:0:0:
379,189,456032,1,0,3:0:0:0:
411,193,456102,5,8,3:1:0:0:
411,193,456381,2,0,B|455:184|455:184|393:160,1,110,4|8,3:1|0:0,0:0:0:0:
150,54,456660,2,0,B|89:30|89:30|133:21,1,110,2|8,3:2|0:0,0:0:0:0:
412,42,456939,2,0,B|456:51|456:51|395:74,1,110,2|8,3:2|0:0,0:0:0:0:
158,147,457218,2,0,B|97:170|97:170|141:179,1,110,0|8,3:0|0:0,0:0:0:0:
411,193,457497,5,8,3:2:0:0:
277,119,457637,1,8,0:0:0:0:
277,119,457707,1,8,0:0:0:0:
277,119,457776,1,2,3:2:0:0:
281,280,457916,2,0,B|289:366|289:366|301:341,1,110,8|2,0:0|3:2,0:0:0:0:
411,193,458195,1,8,0:0:0:0:
302,49,458334,2,0,P|248:43|208:78,1,110,2|8,3:0|0:0,0:0:0:0:
465,242,458614,2,0,P|485:192|466:142,1,110,2|8,3:0|0:0,0:0:0:0:
189,303,458893,5,2,3:3:0:0:
189,303,458962,1,0,3:0:0:0:
189,303,459032,2,0,B|269:338|269:338|258:319,1,110,8|2,0:0|0:2,0:0:0:0:
86,150,459311,2,0,B|16:202|16:202|39:202,1,110,8|2,0:0|3:2,0:0:0:0:
271,138,459590,1,8,0:0:0:0:
271,138,459659,1,8,0:0:0:0:
271,138,459729,2,0,B|261:51|261:51|250:71,1,110,2|8,3:2|0:0,0:0:0:0:
357,288,460009,2,0,B|367:201|367:201|378:221,1,110,2|8,3:2|0:0,0:0:0:0:
394,354,460288,6,0,P|341:364|297:334,1,110,8|8,3:1|0:0,0:0:0:0:
373,66,460567,1,0,3:0:0:0:
373,66,460637,1,0,3:0:0:0:
373,66,460707,2,0,P|426:69|461:110,1,110,8|2,3:1|3:2,0:0:0:0:
357,288,460986,1,8,0:0:0:0:
216,139,461125,2,0,B|225:222|225:222|233:195,1,110,4|8,3:1|0:0,0:0:0:0:
277,34,461404,1,8,0:0:0:0:
216,28,461474,1,8,0:0:0:0:
155,22,461544,1,8,0:0:0:0:
94,17,461614,1,8,0:0:0:0:
34,12,461683,6,0,B|0:24|0:24|70:47,1,110,4|8,3:2|0:0,0:0:0:0:
277,34,461962,1,2,3:2:0:0:
160,179,462102,2,0,B|90:156|90:156|124:144,1,110,8|8,0:0|3:0,0:0:0:0:
333,132,462381,1,8,0:0:0:0:
277,34,462521,2,0,P|225:20|180:50,1,110,2|8,3:2|0:0,0:0:0:0:
332,132,462800,2,0,P|385:121|428:153,1,110,4|8,3:1|0:0,0:0:0:0:
195,332,463079,5,8,3:2:0:0:
195,332,463148,1,0,3:0:0:0:
195,332,463218,2,0,B|217:244|217:244|222:264,1,110,8|2,3:1|3:2,0:0:0:0:
336,359,463497,1,8,0:0:0:0:
266,193,463637,2,0,P|216:172|167:193,1,110,0|8,3:0|0:0,0:0:0:0:
336,359,463916,2,0,L|446:348,1,110,2|8,3:2|0:0,0:0:0:0:
195,331,464195,2,0,L|85:342,1,110,2|8,3:2|0:0,0:0:0:0:
430,42,464474,5,2,3:1:0:0:
208,105,464614,1,8,0:0:0:0:
208,105,464683,1,8,0:0:0:0:
208,105,464753,2,0,P|186:53|209:6,1,110,0|8,3:2|0:0,0:0:0:0:
360,166,465032,2,0,B|369:255|369:255|356:234,1,110,2|8,3:2|0:0,0:0:0:0:
204,365,465311,2,0,B|213:276|213:276|200:297,1,110,2|8,3:2|0:0,0:0:0:0:
37,150,465590,2,0,B|46:239|46:239|33:218,1,110,2|8,3:2|0:0,0:0:0:0:
178,41,465869,5,4,3:1:0:0:
178,41,465939,1,8,3:1:0:0:
178,41,466009,2,0,P|226:28|277:62,1,110,8|0,3:1|0:0,0:0:0:0:
392,167,466288,2,0,P|436:137|489:150,1,110,8|0,0:0|3:0,0:0:0:0:
311,335,466567,1,8,0:0:0:0:
205,185,466707,2,0,B|217:99|217:99|221:121,1,110,2|8,3:2|0:0,0:0:0:0:
462,295,466986,2,0,B|450:209|450:209|446:231,1,110,4|8,3:1|0:0,0:0:0:0:
311,335,467265,5,8,3:2:0:0:
97,301,467404,1,8,0:0:0:0:
97,301,467474,1,8,0:0:0:0:
97,301,467544,2,0,B|187:316|187:316|169:299,1,110,0|8,3:0|0:0,0:0:0:0:
396,171,467823,2,0,B|305:184|305:184|328:195,1,110,0|8,3:0|0:0,0:0:0:0:
108,142,468102,2,0,P|78:97|95:46,1,110,2|0,3:2|0:0,0:0:0:0:
448,224,468381,2,0,P|471:176|455:125,1,110,8|8,3:2|0:0,0:0:0:0:
121,355,468660,6,0,B|258:338|258:338|230:332,1,165,6|0,3:2|2:0,0:0:0:0:
198,150,468939,2,0,B|144:277|144:277|163:255,1,165,6|0,3:2|2:0,0:0:0:0:
337,319,469218,2,0,B|253:208|253:208|262:236,1,165,6|0,3:2|2:0,0:0:0:0:
358,222,469497,1,2,1:2:0:0:
398,176,469567,1,8,0:0:0:0:
408,116,469637,1,8,0:0:0:0:
388,58,469707,1,8,0:0:0:0:
337,26,469776,6,0,P|388:57|442:44,1,110,4|8,3:1|0:0,0:0:0:0:
266,113,470055,2,0,B|174:122|174:122|192:112,1,110,2|8,3:0|0:0,0:0:0:0:
49,293,470334,1,2,3:0:0:0:
49,293,470404,1,0,3:0:0:0:
49,293,470474,1,8,0:0:0:0:
375,226,470614,1,0,3:0:0:0:
223,349,470753,1,8,0:0:0:0:
338,165,470893,2,0,P|390:154|434:184,1,110,2|8,3:0|0:0,0:0:0:0:
223,349,471172,1,0,3:0:0:0:
124,164,471311,6,0,B|105:70|105:70|115:82,1,110,8|0,0:0|3:0,0:0:0:0:
234,264,471590,1,8,0:0:0:0:
229,307,471660,1,8,0:0:0:0:
223,349,471730,1,12,3:0:0:0:
338,165,471869,1,8,0:0:0:0:
333,122,471939,1,8,0:0:0:0:
327,80,472009,1,4,0:0:0:0:
448,273,472148,5,8,0:0:0:0:
223,349,472288,2,0,B|133:357|133:357|150:346,1,110,0|8,3:0|0:0,0:0:0:0:
338,165,472567,2,0,B|428:173|428:173|411:162,1,110,0|8,3:0|0:0,0:0:0:0:
114,67,472846,2,0,B|24:75|24:75|41:64,1,110,0|8,3:0|0:0,0:0:0:0:
408,17,473125,5,0,3:0:0:0:
408,17,473195,1,0,3:0:0:0:
408,17,473265,1,8,0:0:0:0:
448,273,473404,1,0,3:0:0:0:
202,181,473544,2,0,P|186:131|209:82,1,110,8|0,0:0|3:0,0:0:0:0:
448,273,473823,1,8,0:0:0:0:
216,359,473962,1,0,3:0:0:0:
264,143,474102,1,8,0:0:0:0:
264,143,474172,1,8,0:0:0:0:
264,143,474241,6,0,B|343:183|343:183|321:183,1,110,4|8,3:0|0:0,0:0:0:0:
45,138,474520,2,0,P|28:81|52:39,1,110,2|8,3:0|0:0,0:0:0:0:
304,315,474800,2,0,P|263:358|214:358,1,110,2|8,3:0|0:0,0:0:0:0:
371,34,475079,2,0,L|483:56,1,110,0|8,3:0|0:0,0:0:0:0:
110,100,475358,5,4,0:0:0:0:
110,100,475427,1,0,0:0:0:0:
110,100,475497,1,8,0:0:0:0:
371,34,475637,1,2,3:0:0:0:
295,267,475776,1,8,0:1:0:0:
295,267,475846,1,8,0:0:0:0:
295,267,475916,1,8,0:0:0:0:
133,226,476055,1,12,0:0:0:0:
367,152,476195,1,4,3:0:0:0:
367,152,476265,1,0,3:0:0:0:
367,152,476334,2,0,B|455:133|455:133|439:144,1,110,8|0,0:0|3:0,0:0:0:0:
133,226,476614,1,8,0:0:0:0:
181,18,476753,5,0,3:0:0:0:
181,18,476823,1,0,3:0:0:0:
181,18,476893,1,8,3:1:0:0:
28,313,477032,1,0,3:0:0:0:
188,272,477172,1,8,0:0:0:0:
104,97,477311,2,0,P|54:83|5:109,1,110,4|8,3:0|0:0,0:0:0:0:
346,277,477590,5,12,3:1:0:0:
335,352,477730,1,0,3:0:0:0:
178,181,477869,5,8,3:3:0:0:
188,272,478009,1,0,3:0:0:0:
396,108,478148,5,12,1:0:0:0:
385,203,478288,1,0,3:0:0:0:
108,17,478427,5,12,0:0:0:0:
125,116,478567,1,0,3:0:0:0:
424,26,478707,5,4,3:0:0:0:
256,192,492532,12,0,493230,3:0:0:0:
382,240,493369,5,4,3:0:0:0:
388,219,493439,1,4,3:0:0:0:
395,198,493509,1,4,3:0:0:0:
402,177,493579,1,4,3:0:0:0:
409,157,493648,6,0,B|389:101|389:101|340:79|340:79|379:56|379:56|439:83,1,220,12|8,3:3|0:0,0:0:0:0:
462,339,494066,1,0,3:0:0:0:
462,339,494136,1,0,3:0:0:0:
462,339,494206,2,0,B|389:349|389:349|352:337,1,110,6|8,3:2|0:0,0:0:0:0:
157,270,494485,2,0,B|121:258|121:258|49:269,1,110,2|8,3:2|0:0,0:0:0:0:
258,310,494764,1,0,3:0:0:0:
258,310,494834,1,0,3:0:0:0:
258,310,494903,1,8,0:0:0:0:
89,138,495043,6,0,P|75:80|102:38,1,110,0|8,3:0|0:0,0:0:0:0:
422,221,495322,1,0,3:2:0:0:
422,221,495392,1,0,3:0:0:0:
422,221,495461,2,0,P|430:162|400:122,1,110,8|0,0:0|3:2,0:0:0:0:
154,354,495741,1,8,0:0:0:0:
151,101,495880,5,0,3:2:0:0:
151,101,495950,1,0,3:0:0:0:
151,101,496020,1,8,0:0:0:0:
234,188,496159,1,0,3:2:0:0:
117,219,496299,1,8,0:0:0:0:
281,72,496438,1,0,3:2:0:0:
397,327,496578,5,8,0:0:0:0:
397,327,496648,1,8,0:0:0:0:
397,327,496717,2,0,B|419:236|419:236|406:250,1,110,0|8,3:0|0:0,0:0:0:0:
127,297,496996,2,0,B|105:206|105:206|118:220,1,110,0|8,3:0|0:0,0:0:0:0:
441,137,497275,2,0,B|463:46|463:46|450:60,1,110,0|8,3:2|0:0,0:0:0:0:
84,112,497554,2,0,B|62:21|62:21|75:35,1,110,2|8,3:2|0:0,0:0:0:0:
279,268,497834,2,0,B|211:332|211:332|216:314,1,110,2|8,3:2|0:0,0:0:0:0:
316,21,498113,2,0,B|405:47|405:47|387:51,1,110,0|8,3:0|0:0,0:0:0:0:
116,218,498392,5,0,3:0:0:0:
379,175,498531,1,8,0:0:0:0:
97,307,498671,1,4,3:1:0:0:
95,319,498810,1,8,0:0:0:0:
361,86,498950,1,4,3:1:0:0:
363,98,499089,1,8,0:0:0:0:
42,96,499229,5,4,3:0:0:0:
41,102,499299,1,0,3:1:0:0:
40,108,499368,2,0,B|28:198|28:198|39:181,1,110,8|0,3:1|3:0,0:0:0:0:
150,106,499648,1,8,0:0:0:0:
150,106,499717,1,8,0:0:0:0:
150,106,499787,2,0,P|198:94|248:124,1,110,2|8,3:2|0:0,0:0:0:0:
464,251,500066,2,0,P|416:239|366:269,1,110,2|8,3:2|3:1,0:0:0:0:
482,104,500345,6,0,B|489:59|471:24|471:24|459:76|434:97|434:97|428:126|438:152,1,220,2|0,3:2|3:0,0:0:0:0:
285,43,500764,2,0,B|382:32|382:32|371:38,1,110,8|2,0:0|3:2,0:0:0:0:
154,205,501043,2,0,B|57:190|57:190|69:187,1,110,10|2,0:0|3:2,0:0:0:0:
319,187,501322,5,8,0:0:0:0:
319,187,501392,1,8,0:0:0:0:
319,187,501461,2,0,P|329:244|297:283,1,110,0|8,3:0|0:0,0:0:0:0:
21,248,501741,2,0,P|-10:205|0:153,1,110,0|8,3:0|0:0,0:0:0:0:
203,56,502020,1,0,3:0:0:0:
105,243,502159,2,0,B|10:256|10:256|21:247,1,110,10|0,0:0|3:0,0:0:0:0:
319,187,502438,2,0,B|414:200|414:200|402:191,1,110,10|0,0:0|3:2,0:0:0:0:
203,56,502717,5,8,0:0:0:0:
203,56,502787,1,8,0:0:0:0:
203,56,502857,2,0,P|148:48|107:82,1,110,2|8,3:2|0:0,0:0:0:0:
448,260,503136,2,0,P|482:216|473:163,1,110,2|8,3:2|0:0,0:0:0:0:
184,323,503415,2,0,B|89:342|89:342|100:333,1,110,2|0,3:2|0:0,0:0:0:0:
286,66,503694,2,0,B|191:46|191:46|202:55,1,110,2|8,3:2|0:0,0:0:0:0:
448,260,503973,2,0,B|353:279|353:279|364:270,1,110,2|8,3:2|0:0,0:0:0:0:
492,104,504252,5,2,3:1:0:0:
184,323,504392,1,8,3:0:0:0:
286,66,504531,1,12,0:0:0:0:
448,260,504671,1,2,3:1:0:0:
226,108,504810,1,8,0:0:0:0:
213,83,504880,1,8,0:0:0:0:
213,55,504950,1,8,0:0:0:0:
222,29,505020,1,8,0:0:0:0:
241,10,505089,1,4,0:3:0:0:
296,140,505229,1,8,0:0:0:0:
141,46,505368,6,0,P|87:40|45:75,1,110,2|8,3:2|0:0,0:0:0:0:
286,66,505648,1,2,3:2:0:0:
307,62,505717,1,2,3:2:0:0:
328,58,505787,1,8,3:1:0:0:
349,55,505857,1,0,3:0:0:0:
370,52,505927,1,2,3:2:0:0:
130,150,506066,1,8,0:0:0:0:
280,253,506206,5,2,3:2:0:0:
279,263,506275,1,0,3:0:0:0:
278,273,506345,1,8,0:0:0:0:
116,333,506485,1,2,3:2:0:0:
130,150,506624,5,8,0:0:0:0:
139,145,506693,1,8,0:0:0:0:
148,141,506763,1,2,3:2:0:0:
280,253,506903,1,8,0:0:0:0:
116,333,507043,5,4,3:2:0:0:
107,327,507112,1,0,0:0:0:0:
99,321,507182,1,8,0:0:0:0:
254,125,507322,6,0,B|240:35|240:35|237:57,1,110,4|8,0:2|0:0,0:0:0:0:
177,248,507601,1,2,3:2:0:0:
371,273,507741,1,8,0:0:0:0:
177,248,507880,1,2,3:2:0:0:
155,252,507950,1,2,3:2:0:0:
133,256,508020,1,8,0:0:0:0:
111,260,508089,1,0,0:0:0:0:
89,265,508159,2,0,B|58:270|43:263|43:263|26:248|8:243|8:243|19:237|30:238,1,110,2|8,3:2|0:0,0:0:0:0:
264,288,508438,5,2,3:2:0:0:
264,288,508508,1,0,0:0:0:0:
264,288,508578,1,8,0:0:0:0:
323,99,508717,1,2,3:2:0:0:
450,245,508857,1,8,0:0:0:0:
447,261,508927,1,0,0:0:0:0:
445,277,508996,1,2,3:2:0:0:
322,98,509136,6,0,B|305:71|329:38|329:38|334:54|349:78,1,110,8|2,0:0|3:2,0:0:0:0:
320,110,509415,6,0,B|304:94|303:47|332:27|332:27|341:58|365:88,1,153.999995300293,8|4,0:0|3:2,0:0:0:0:
264,288,509694,5,8,0:0:0:0:
264,288,509764,1,0,0:0:0:0:
264,288,509834,1,2,3:2:0:0:
435,164,509973,1,8,0:0:0:0:
459,361,510113,1,2,3:2:0:0:
459,361,510182,1,0,0:0:0:0:
459,361,510252,1,8,0:0:0:0:
290,218,510392,2,0,P|243:210|194:247,1,110,2|8,3:2|0:0,0:0:0:0:
435,164,510671,5,2,3:2:0:0:
439,147,510741,1,0,0:0:0:0:
443,131,510810,1,8,0:0:0:0:
459,361,510950,1,2,3:2:0:0:
435,164,511089,2,0,B|412:252|412:252|410:234,1,110,8|2,0:0|3:2,0:0:0:0:
466,28,511368,1,8,0:0:0:0:
435,164,511508,1,8,3:1:0:0:
330,80,511648,2,0,P|282:69|229:97,1,110,8|2,0:0|3:2,0:0:0:0:
203,164,511857,1,2,0:2:0:0:
203,164,511927,1,8,0:0:0:0:
142,35,512066,5,2,3:2:0:0:
84,227,512206,1,8,0:0:0:0:
142,35,512345,6,0,B|138:29|144:19|144:19|151:27|150:35|150:35|132:75|143:108,1,110,4|0,3:2|0:0,0:0:0:0:
272,140,512624,2,0,B|276:135|287:137|287:137|282:147|274:148|274:148|230:143|203:164,1,110,4|0,3:2|0:0,0:0:0:0:
210,297,512903,2,0,B|217:300|218:311|218:311|207:309|203:302|203:302|194:258|167:239,1,110,4|0,3:2|0:0,0:0:0:0:
41,286,513182,2,0,B|41:293|30:298|30:298|29:287|34:281|34:281|73:259|84:227,1,110,4|0,3:1|0:0,0:0:0:0:
0,121,513461,2,0,B|-7:122|-14:114|-14:114|-5:109|2:113|2:113|35:143|69:143,1,110,4|0,3:1|0:0,0:0:0:0:
261,109,513741,1,8,1:0:0:0:
314,120,513810,1,8,1:0:0:0:
354,158,513880,1,8,1:0:0:0:
408,170,513950,1,8,1:0:0:0:
462,160,514020,6,0,B|477:71|477:71|468:91,1,110,8|8,3:2|0:0,0:0:0:0:
359,282,514299,1,2,3:2:0:0:
261,109,514438,2,0,P|208:94|160:123,1,110,8|2,0:0|3:2,0:0:0:0:
292,309,514717,1,8,3:1:0:0:
292,309,514787,1,0,3:0:0:0:
292,309,514857,2,0,B|378:281|378:281|356:281,1,110,2|8,3:2|0:0,0:0:0:0:
74,247,515136,1,8,0:0:0:0:
45,294,515206,1,8,0:0:0:0:
99,298,515275,1,8,0:0:0:0:
147,272,515345,1,8,0:0:0:0:
179,227,515415,6,0,B|197:182|175:142|175:142|180:117,1,110,2|8,3:0|0:0,0:0:0:0:
160,347,515694,1,2,3:2:0:0:
108,188,515833,2,0,P|60:179|11:220,1,110,8|2,0:0|3:2,0:0:0:0:
310,335,516113,1,8,3:1:0:0:
310,335,516182,1,0,3:0:0:0:
310,335,516252,2,0,B|400:322|400:322|381:317,1,110,2|8,3:2|0:0,0:0:0:0:
136,48,516531,1,8,0:0:0:0:
96,86,516601,1,8,0:0:0:0:
92,141,516671,1,8,0:0:0:0:
119,188,516740,1,8,0:0:0:0:
172,203,516810,6,0,B|222:200|252:182|252:182|238:197|233:215,1,110,4|8,3:3|0:0,0:0:0:0:
301,47,517089,1,2,3:2:0:0:
390,262,517229,2,0,B|340:259|310:241|310:241|324:256|329:274,1,110,8|2,0:0|3:2,0:0:0:0:
484,112,517508,1,8,3:1:0:0:
484,112,517578,1,0,3:0:0:0:
484,112,517647,2,0,B|494:203|494:203|485:185,1,110,2|8,3:2|0:0,0:0:0:0:
162,293,517926,1,8,0:0:0:0:
168,238,517996,1,8,0:0:0:0:
174,183,518066,1,8,0:0:0:0:
179,128,518136,1,8,0:0:0:0:
185,73,518206,6,0,B|172:13|172:13|146:53,1,110,4|8,3:1|0:0,0:0:0:0:
41,224,518485,1,2,3:2:0:0:
244,273,518624,2,0,B|302:291|302:291|280:249,1,110,8|2,0:0|3:2,0:0:0:0:
185,73,518903,1,8,0:0:0:0:
41,224,519043,2,0,B|-4:265|-4:265|43:267,1,110,4|8,3:0|0:0,0:0:0:0:
244,273,519322,1,0,3:0:0:0:
41,224,519461,5,0,3:0:0:0:
185,73,519601,1,8,0:0:0:0:
244,273,519740,1,0,3:0:0:0:
185,73,519880,6,0,B|92:77|92:77|108:82,1,110,4|8,3:1|0:0,0:0:0:0:
320,264,520159,2,0,B|228:281|228:281|242:272,1,110,4|8,3:1|0:0,0:0:0:0:
444,65,520438,2,0,B|351:69|351:69|367:74,1,110,4|8,3:1|0:0,0:0:0:0:
512,234,520737,5,4,3:0:0:0:
222,351,521037,1,4,3:0:0:0:
17,115,521337,1,8,3:1:0:0:
19,98,521412,1,2,3:0:0:0:
21,81,521487,1,8,3:0:0:0:
23,64,521562,1,4,3:0:0:0:
26,47,521637,6,0,P|64:21|121:31,1,98.9999969787599,4|0,0:1|0:0,0:0:0:0:
210,130,521937,2,0,B|264:139|304:101|304:101|333:97|362:110|362:110|344:124|323:120,1,197.99999395752,8|2,0:0|3:2,0:0:0:0:
225,49,522387,1,0,3:0:0:0:
339,199,522537,1,8,0:0:0:0:
126,119,522687,6,0,B|75:123|52:164|52:164|50:222|104:252,1,197.99999395752,4|0,3:2|3:0,0:0:0:0:
262,293,523137,1,8,0:0:0:0:
194,229,523287,1,0,3:0:0:0:
175,315,523437,1,2,3:2:0:0:
175,315,523587,1,0,3:0:0:0:
286,206,523737,2,0,P|325:199|376:228,1,98.9999969787599,8|0,0:0|3:0,0:0:0:0:
194,229,524037,5,4,0:0:0:0:
278,35,524337,2,0,B|341:8|390:46|390:46|436:50|464:10,1,197.99999395752,8|2,0:0|3:2,0:0:0:0:
332,113,524787,1,0,3:0:0:0:
332,113,524862,1,0,3:0:0:0:
332,113,524937,2,0,P|316:169|338:203,1,98.9999969787599,8|0,0:0|3:0,0:0:0:0:
415,288,525237,2,0,L|512:303,1,98.9999969787599,2|0,3:2|3:0,0:0:0:0:
380,367,525537,5,8,0:0:0:0:
317,315,525687,2,0,P|266:304|227:329,1,98.9999969787599,0|2,3:0|3:2,0:0:0:0:
45,372,525987,1,0,3:0:0:0:
126,342,526137,2,0,B|134:277|134:277|124:243,1,98.9999969787599,8|0,0:0|0:0,0:0:0:0:
0,92,526437,6,0,P|60:162|146:127,1,197.99999395752,4|8,3:1|0:0,0:0:0:0:
100,1,526887,2,0,P|75:42|78:91,1,98.9999969787599,0|2,0:0|3:2,0:0:0:0:
368,71,527187,1,0,3:0:0:0:
291,177,527337,1,8,0:0:0:0:
291,177,527487,1,0,3:0:0:0:
238,58,527637,6,0,P|191:43|146:60,1,98.9999969787599,2|0,3:2|3:0,0:0:0:0:
220,280,527937,1,8,1:0:0:0:
291,177,528087,1,0,3:0:0:0:
296,377,528237,1,2,3:2:0:0:
296,377,528387,1,0,0:0:0:0:
158,326,528537,2,0,P|142:279|161:233,1,98.9999969787599,8|0,0:0|0:0,0:0:0:0:
334,11,528837,6,0,L|306:213,1,197.99999395752,4|8,3:1|0:0,0:0:0:0:
284,312,529287,1,0,3:0:0:0:
383,289,529437,1,2,3:2:0:0:
383,289,529587,1,0,3:0:0:0:
198,173,529737,2,0,P|150:161|107:183,1,98.9999969787599,8|0,0:0|0:0,0:0:0:0:
28,327,530037,5,2,3:2:0:0:
0,153,530187,1,0,3:0:0:0:
252,238,530337,2,0,B|291:201|295:134|240:96|240:96|254:96|274:107,1,197.99999395752,12|8,0:0|0:0,0:0:0:0:
387,234,530787,1,8,0:0:0:0:
198,173,530937,1,8,1:0:0:0:
177,201,531012,1,8,1:0:0:0:
170,234,531087,1,0,3:0:0:0:
176,268,531162,1,0,3:0:0:0:
195,296,531237,5,4,3:0:0:0:
21,214,531387,1,0,3:0:0:0:
154,356,531537,2,0,P|200:369|244:349,1,98.9999969787599,8|0,0:0|0:0,0:0:0:0:
420,146,531837,1,0,3:0:0:0:
252,238,531987,1,0,3:0:0:0:
186,69,532137,1,8,0:0:0:0:
323,204,532287,6,0,B|337:229|332:266|317:284|317:284|332:332|332:332|308:374|308:374|299:361,1,197.99999395752,4|0,0:2|3:0,0:0:0:0:
386,140,532737,2,0,B|424:134|424:134|491:151,1,98.9999969787599,8|0,0:0|0:0,0:0:0:0:
103,188,533037,1,0,3:0:0:0:
252,238,533187,1,0,3:0:0:0:
135,121,533337,2,0,P|85:115|39:147,1,98.9999969787599,8|0,0:0|0:0,0:0:0:0:
311,298,533637,6,0,B|352:256|337:190|301:166|301:166|291:142|298:112,1,197.99999395752,4|8,3:1|0:0,0:0:0:0:
164,217,534087,2,0,P|204:244|252:238,1,98.9999969787599,0|0,0:0|3:0,0:0:0:0:
372,29,534387,1,0,3:0:0:0:
456,160,534537,2,0,B|463:196|463:196|449:272,1,98.9999969787599,8|0,0:0|0:0,0:0:0:0:
276,39,534837,6,0,B|315:23|315:23|373:29,1,98.9999969787599,0|0,3:0|3:0,0:0:0:0:
450,46,535062,1,0,3:0:0:0:
450,46,535137,1,8,0:0:0:0:
175,96,535287,2,0,B|122:86|89:61|89:61|68:69|61:88|61:88|94:89|123:108,1,197.99999395752,2|0,3:2|3:0,0:0:0:0:
450,133,535737,2,0,P|466:92|446:38,1,98.9999969787599,8|0,0:0|0:0,0:0:0:0:
221,209,536037,5,4,0:1:0:0:
303,113,536187,1,0,3:0:0:0:
303,113,536262,1,0,3:0:0:0:
303,113,536337,2,0,B|330:91|330:91|398:86,1,98.9999969787599,8|0,0:0|0:0,0:0:0:0:
160,253,536637,2,0,P|144:206|164:159,1,98.9999969787599,0|0,3:0|3:0,0:0:0:0:
316,215,536862,1,0,3:0:0:0:
316,215,536937,2,0,B|251:224|251:224|221:209,1,98.9999969787599,8|0,0:0|3:0,0:0:0:0:
354,63,537237,5,0,3:0:0:0:
467,172,537387,1,0,3:0:0:0:
316,215,537537,1,8,0:0:0:0:
467,172,537687,1,0,3:0:0:0:
203,106,537837,1,0,3:0:0:0:
354,63,537987,5,0,3:0:0:0:
262,305,538137,1,8,0:0:0:0:
467,172,538287,1,0,3:0:0:0:
170,254,538437,2,0,B|130:260|130:260|73:239,1,98.9999969787599,4|0,0:0|0:0,0:0:0:0:
75,239,538737,1,8,3:1:0:0:
230,67,538887,2,0,B|255:98|255:98|265:158,1,98.9999969787599,0|0,0:0|3:1,0:0:0:0:
264,156,539187,1,0,0:0:0:0:
39,108,539337,2,0,B|53:70|53:70|100:31,1,98.9999969787599,8|0,0:0|0:0,0:0:0:0:
264,156,539637,5,2,3:2:0:0:
238,353,539787,1,0,3:0:0:0:
238,353,539862,1,0,3:0:0:0:
238,353,539937,1,8,0:0:0:0:
75,239,540087,1,0,3:0:0:0:
265,156,540237,1,2,3:1:0:0:
196,254,540387,1,2,3:1:0:0:
131,46,540537,1,8,0:0:0:0:
196,254,540687,1,0,3:0:0:0:
420,29,540837,5,12,0:1:0:0:
179,139,540987,1,2,3:2:0:0:
279,38,541137,1,12,0:2:0:0:
281,313,541287,1,2,3:2:0:0:
119,205,541437,1,12,0:2:0:0:
437,255,541587,1,2,3:2:0:0:
81,328,541737,1,8,3:0:0:0:
81,328,541812,1,8,3:0:0:0:
81,328,541887,1,4,3:0:0:0:
81,328,541962,1,4,3:0:0:0:
81,328,542037,6,0,B|56:246|56:246|71:266,1,110,4|0,3:1|3:0,0:0:0:0:
75,82,542337,1,2,0:0:0:0:
210,283,542487,2,0,P|261:296|307:268,1,110,8|0,0:0|3:0,0:0:0:0:
365,126,542787,1,0,3:0:0:0:
143,62,542937,2,0,B|55:73|55:73|74:80,1,110,8|0,0:0|3:0,0:0:0:0:
191,117,543162,1,0,3:0:0:0:
207,103,543237,6,0,P|218:46|191:3,1,110,4|0,3:1|0:0,0:0:0:0:
21,237,543537,1,2,0:0:0:0:
191,330,543687,2,0,B|255:345|255:345|297:334,1,110,8|0,0:0|3:0,0:0:0:0:
424,168,543987,1,0,3:0:0:0:
122,194,544137,2,0,P|103:244|125:294,1,110,8|0,0:0|3:0,0:0:0:0:
200,194,544362,1,0,3:0:0:0:
198,175,544437,6,0,L|185:60,1,110,4|0,3:1|0:0,0:0:0:0:
282,286,544737,1,2,0:0:0:0:
405,114,544887,2,0,P|456:95|506:115,1,110,8|0,0:0|3:0,0:0:0:0:
324,179,545187,1,0,3:0:0:0:
304,89,545337,1,8,0:0:0:0:
180,251,545487,1,0,3:0:0:0:
180,251,545562,1,0,3:0:0:0:
180,251,545637,5,4,0:2:0:0:
345,263,545787,1,0,3:0:0:0:
122,178,545937,1,0,3:0:0:0:
324,179,546087,5,4,0:2:0:0:
244,318,546237,1,0,3:0:0:0:
304,89,546387,1,0,3:0:0:0:
345,263,546537,5,12,0:0:0:0:
93,261,546687,1,0,3:0:0:0:
257,28,546837,6,0,P|309:14|358:34,1,110,12|0,0:0|3:0,0:0:0:0:
205,218,547137,1,2,0:0:0:0:
43,110,547287,2,0,B|23:75|23:75|37:6,1,110,8|0,0:0|3:0,0:0:0:0:
205,218,547587,1,0,3:0:0:0:
381,139,547737,2,0,B|401:104|401:104|387:35,1,110,8|0,0:0|3:0,0:0:0:0:
318,183,547962,1,0,3:0:0:0:
332,197,548037,6,0,P|382:215|432:194,1,110,12|0,0:3|3:0,0:0:0:0:
257,28,548337,1,2,0:0:0:0:
132,172,548487,2,0,B|119:218|119:218|134:278,1,110,8|0,0:0|3:0,0:0:0:0:
305,360,548787,1,0,3:0:0:0:
184,118,548937,2,0,P|134:96|83:113,1,110,8|0,0:0|3:0,0:0:0:0:
194,197,549162,1,0,3:0:0:0:
208,195,549237,6,0,L|322:182,1,110,12|0,0:0|3:0,0:0:0:0:
500,94,549537,1,2,0:0:0:0:
481,273,549687,2,0,B|470:363|470:363|465:341,1,110,8|0,0:0|3:0,0:0:0:0:
408,139,549987,1,0,3:0:0:0:
500,94,550137,1,8,0:0:0:0:
325,33,550287,1,0,3:0:0:0:
325,33,550362,1,0,3:0:0:0:
325,33,550437,5,4,0:2:0:0:
284,168,550587,1,0,3:0:0:0:
243,303,550737,1,0,3:0:0:0:
147,200,550887,5,4,0:2:0:0:
284,168,551037,1,0,3:0:0:0:
421,136,551187,1,0,3:0:0:0:
381,271,551337,5,4,0:1:0:0:
284,168,551487,1,0,3:0:0:0:
188,65,551637,1,12,0:2:0:0:
188,65,551937,6,0,B|183:28|183:28|214:46,2,73.3333333333333,2|2|2,3:0|3:0|3:0,0:0:0:0:
256,139,552237,2,0,B|226:161|226:161|226:125,2,73.3333333333333,8|8|8,3:0|3:0|3:0,0:0:0:0:
287,43,552537,2,0,B|321:57|321:57|290:75,2,73.3333333333333,4|4|4,3:0|3:0|3:0,0:0:0:0:
143,123,552837,6,0,B|131:164|131:164|144:231,1,110.000004196167,4|0,0:1|0:0,0:0:0:0:
203,269,553137,2,0,P|136:236|101:248,1,110.000004196167,0|0,0:0|0:0,0:0:0:0:
44,293,553437,5,2,0:2:0:0:
384,243,553737,1,2,0:2:0:0:
126,86,554037,6,0,P|119:49|126:26,1,55,12|0,3:1|0:0,0:0:0:0:
288,29,554187,2,0,P|295:66|288:89,1,55,10|0,0:2|0:0,0:0:0:0:
117,75,554337,2,0,P|111:48|116:21,1,55,10|0,0:2|0:0,0:0:0:0:
298,28,554487,2,0,P|303:54|298:81,1,55,10|0,0:2|0:0,0:0:0:0:
141,228,554637,6,0,L|83:234,1,55,14|0,3:2|0:0,0:0:0:0:
234,184,554787,2,0,L|292:190,1,55,10|0,0:2|0:0,0:0:0:0:
136,239,554937,2,0,L|78:245,1,55,10|0,0:2|0:0,0:0:0:0:
240,194,555087,2,0,L|298:200,1,55,10|0,0:2|0:0,0:0:0:0:
491,84,555237,6,0,P|499:50|495:27,1,55,14|0,3:1|0:0,0:0:0:0:
274,43,555387,2,0,P|271:70|279:96,1,55,10|0,0:2|0:0,0:0:0:0:
421,221,555537,2,0,L|485:212,1,55,10|0,0:2|0:0,0:0:0:0:
285,336,555687,2,0,L|226:327,1,55,10|0,0:2|0:0,0:0:0:0:
38,222,555837,5,2,0:0:0:0:
65,218,555912,1,2,0:0:0:0:
92,214,555987,1,8,0:0:0:0:
119,210,556062,1,8,0:0:0:0:
146,206,556137,1,4,0:0:0:0:
173,202,556212,1,4,0:0:0:0:
200,198,556287,1,4,0:0:0:0:
227,194,556362,1,4,0:0:0:0:
251,191,556437,5,4,0:3:0:0:
251,191,556770,5,2,0:0:0:0:
333,217,556881,1,2,0:0:0:0:
315,133,556992,1,2,0:0:0:0:
263,277,557103,6,0,B|212:282|212:282|185:273,2,73.3333333333333,8|8|8,0:0|0:0|0:0,0:0:0:0:
397,161,557478,5,0,3:0:0:0:
232,108,557611,1,0,3:0:0:0:
414,242,557744,1,0,3:0:0:0:
428,78,557878,6,0,B|404:117|404:117|397:162|397:162|383:131|383:131|390:101|374:74,1,183.333333333333,4|0,0:1|0:0,0:0:0:0:
316,11,558560,5,8,3:0:0:0:
316,11,558671,1,8,3:0:0:0:
316,11,558782,1,4,3:0:0:0:
215,231,559062,5,4,3:0:0:0:
85,69,559322,6,0,B|120:57|120:57|193:65|193:65|157:72,1,146.666666666667,2|0,0:2|0:0,0:0:0:0:
85,69,559853,5,4,0:3:0:0:
85,69,560567,5,2,0:3:0:0:
96,203,560805,1,2,0:3:0:0:
226,233,561043,1,2,0:3:0:0:
295,118,561281,1,2,0:3:0:0:
208,17,561519,2,0,B|184:4|184:4|143:9,1,65.9999979858399,2|2,0:0|0:0,0:0:0:0:
456,117,561757,5,2,0:3:0:0:
439,228,561995,1,2,0:3:0:0:
456,117,562233,1,2,0:3:0:0:
101,350,562472,5,2,0:3:0:0:
310,339,562710,1,2,0:3:0:0:
26,154,562948,1,2,0:3:0:0:
363,137,563186,1,2,0:3:0:0:
188,23,563424,1,10,0:0:0:0:
101,350,563662,5,4,0:0:0:0:
161,186,563781,1,0,3:0:0:0:
169,281,563900,1,8,0:0:0:0:
169,281,564019,1,8,0:0:0:0:
333,156,564138,5,4,0:3:0:0:
161,186,564257,1,0,3:0:0:0:
238,130,564376,1,8,0:0:0:0:
238,130,564495,1,8,0:0:0:0:
50,52,564614,5,2,0:2:0:0:
161,186,564733,1,0,3:0:0:0:
74,146,564852,1,8,0:0:0:0:
74,146,564971,1,8,0:0:0:0:
199,64,565091,6,0,P|229:53|262:57,1,65.9999979858399,2|0,0:0|3:0,0:0:0:0:
379,215,565329,2,0,P|409:225|442:221,1,65.9999979858399,2|0,0:0|3:0,0:0:0:0:
478,86,565566,5,4,0:3:0:0:
250,113,565804,1,2,0:3:0:0:
478,86,566042,1,2,0:3:0:0:
250,113,566281,1,2,0:3:0:0:
478,86,566519,6,0,L|410:93,1,65.9999979858399,4|0,0:1|0:0,0:0:0:0:
250,113,566757,2,0,L|182:120,1,65.9999979858399,0|0,0:0|0:0,0:0:0:0:
22,279,566995,2,0,L|90:286,1,65.9999979858399,8|8,0:3|0:3,0:0:0:0:
250,306,567233,2,0,L|318:313,1,65.9999979858399,8|8,0:3|0:3,0:0:0:0:
22,139,567471,5,4,0:3:0:0:
250,113,567709,1,2,0:3:0:0:
478,86,567947,1,2,0:3:0:0:
215,237,568185,6,0,P|203:207|207:175,1,65.9999979858399,2|0,0:3|0:0,0:0:0:0:
425,229,568423,2,0,P|417:261|394:285,1,65.9999979858399,2|0,0:3|0:0,0:0:0:0:
250,113,568662,2,0,P|275:90|307:85,1,65.9999979858399,2|2,3:1|0:3,0:0:0:0:
324,311,568900,2,0,P|291:313|261:298,1,65.9999979858399,6|0,0:0|0:0,0:0:0:0:
380,106,569138,2,0,P|408:123|424:152,1,65.9999979858399,0|0,0:0|0:0,0:0:0:0:
215,237,569376,5,12,0:3:0:0:
131,33,569614,1,0,0:0:0:0:
32,250,569852,1,0,0:0:0:0:
131,33,570090,6,0,B|125:64|127:90|127:90|115:66|108:70,1,65.9999979858399,2|0,0:3|0:0,0:0:0:0:
241,132,570328,2,0,B|209:136|185:146|185:146|204:127|197:122,1,65.9999979858399,2|0,0:3|0:0,0:0:0:0:
180,266,570566,2,0,B|165:237|148:217|148:217|172:229|176:221,1,65.9999979858399,2|0,0:3|0:0,0:0:0:0:
32,250,570804,2,0,B|54:227|68:205|68:205|64:231|72:232,1,65.9999979858399,2|0,0:3|0:0,0:0:0:0:
3,105,571043,2,0,B|31:119|56:125|56:125|30:129|32:138,1,65.9999979858399,2|0,0:0|0:0,0:0:0:0:
116,156,571281,5,4,0:0:0:0:
281,45,571400,1,0,3:0:0:0:
242,151,571519,1,8,0:0:0:0:
240,141,571638,1,8,0:0:0:0:
388,56,571756,5,4,0:3:0:0:
401,255,571875,1,0,3:0:0:0:
329,169,571995,1,8,0:0:0:0:
338,172,572114,1,8,0:0:0:0:
338,342,572233,5,2,0:2:0:0:
159,254,572352,1,0,3:0:0:0:
270,235,572471,1,8,0:0:0:0:
262,241,572590,1,8,0:0:0:0:
212,43,572710,6,0,P|180:37|150:49,1,65.9999979858399,2|2,3:1|0:0,0:0:0:0:
95,312,572948,2,0,P|63:318|33:306,1,65.9999979858399,2|2,3:1|0:0,0:0:0:0:
338,342,573185,5,4,0:0:0:0:
363,199,573423,1,2,0:3:0:0:
388,56,573662,1,2,0:3:0:0:
252,107,573900,1,2,0:3:0:0:
116,156,574138,1,2,3:2:0:0:
338,342,574376,1,8,0:0:0:0:
116,156,574614,5,8,3:1:0:0:
85,140,574694,1,8,3:1:0:0:
51,145,574773,1,2,3:0:0:0:
26,170,574852,1,2,3:0:0:0:
21,204,574932,1,8,3:0:0:0:
38,235,575011,1,8,3:0:0:0:
69,250,575091,6,0,B|108:263|143:245|143:245|165:236|186:237|186:237|206:240|216:254|216:254|196:266|174:254,1,197.99999395752,2|8,3:1|0:0,0:0:0:0:
169,333,575447,1,0,3:0:0:0:
188,164,575566,2,0,P|224:170|276:204,1,98.9999969787599,2|0,3:2|3:0,0:0:0:0:
169,333,575804,2,0,P|205:336|264:317,1,98.9999969787599,8|0,0:0|0:0,0:0:0:0:
38,185,576042,6,0,B|50:139|31:98|31:98|35:56|65:28|65:28|60:44|61:62,1,197.99999395752,2|8,3:2|0:0,0:0:0:0:
89,85,576400,1,0,3:0:0:0:
169,41,576519,1,2,3:2:0:0:
173,26,576638,1,0,3:0:0:0:
242,92,576757,1,12,0:0:0:0:
238,110,576876,1,0,0:0:0:0:
395,38,576995,6,0,P|430:33|486:73,1,98.9999969787599,4|0,3:2|0:0,0:0:0:0:
244,184,577233,2,0,P|228:152|249:86,1,98.9999969787599,10|0,3:2|0:0,0:0:0:0:
454,307,577471,2,0,P|428:331|359:332,1,98.9999969787599,2|0,3:2|3:0,0:0:0:0:
212,29,577709,2,0,P|246:21|306:56,1,98.9999969787599,8|0,0:0|0:0,0:0:0:0:
125,309,577947,6,0,P|76:309|116:211,1,197.99999395752,2|8,3:2|0:0,0:0:0:0:
128,219,578304,1,0,3:0:0:0:
198,279,578423,1,2,3:2:0:0:
224,274,578542,1,0,3:0:0:0:
299,220,578662,1,8,0:0:0:0:
326,224,578781,1,0,0:0:0:0:
248,117,578900,6,0,B|240:80|240:80|248:40|248:40|252:61,1,98.9999969787599,4|0,3:1|0:0,0:0:0:0:
268,297,579138,2,0,B|260:334|260:334|268:374|268:374|272:353,1,98.9999969787599,8|0,0:0|0:0,0:0:0:0:
393,106,579376,2,0,B|385:69|385:69|393:29|393:29|397:50,1,98.9999969787599,2|0,3:2|3:0,0:0:0:0:
413,286,579614,2,0,B|405:323|405:323|413:363|413:363|417:342,1,98.9999969787599,8|0,0:0|0:0,0:0:0:0:
486,71,579852,6,0,P|444:45|396:48,1,98.9999969787599,2|0,3:2|3:0,0:0:0:0:
301,337,580090,2,0,P|349:344|391:317,1,98.9999969787599,8|0,0:0|3:0,0:0:0:0:
173,89,580328,2,0,B|92:81|92:81|110:88,1,98.9999969787599,2|0,3:2|3:0,0:0:0:0:
330,167,580566,2,0,B|411:159|411:159|393:166,1,98.9999969787599,8|0,0:0|0:0,0:0:0:0:
194,239,580805,5,4,3:1:0:0:
194,239,580924,1,0,3:0:0:0:
124,77,581043,2,0,P|83:66|33:90,1,98.9999969787599,8|0,0:0|0:0,0:0:0:0:
91,343,581281,5,4,3:2:0:0:
91,343,581400,1,0,3:0:0:0:
329,166,581519,2,0,P|377:164|416:194,1,98.9999969787599,8|0,0:0|0:0,0:0:0:0:
222,309,581757,6,0,P|268:230|203:165,1,197.99999395752,4|8,3:1|0:0,0:0:0:0:
194,239,582114,1,0,3:0:0:0:
379,345,582233,1,2,3:0:0:0:
383,345,582292,1,2,3:0:0:0:
388,346,582352,1,8,3:0:0:0:
392,346,582412,1,8,3:0:0:0:
397,347,582471,1,4,3:0:0:0:
253,371,582591,1,4,3:0:0:0:
397,347,582709,6,0,B|419:352|435:345|435:345|448:333|468:321|468:321|434:312|434:312|392:295|354:315,1,197.99999395752,8|8,3:0|0:0,0:0:0:0:
253,371,583066,1,0,3:0:0:0:
327,244,583185,2,0,P|372:228|427:232,1,98.9999969787599,2|0,3:2|3:0,0:0:0:0:
203,149,583423,2,0,P|251:144|298:159,1,98.9999969787599,8|0,0:0|0:0,0:0:0:0:
22,232,583662,6,0,B|60:264|115:242|115:242|135:264|145:288|145:288|127:271|106:265,1,197.99999395752,2|8,3:2|0:0,0:0:0:0:
84,339,584019,1,0,3:0:0:0:
73,171,584138,1,0,3:0:0:0:
63,31,584257,1,0,3:0:0:0:
63,31,584316,1,0,3:0:0:0:
63,31,584376,2,0,B|45:103|45:103|44:78,1,98.9999969787599,8|0,0:0|0:0,0:0:0:0:
182,27,584614,6,0,P|230:21|270:47,1,98.9999969787599,4|0,3:2|0:0,0:0:0:0:
485,76,584852,2,0,P|436:69|396:95,1,98.9999969787599,8|0,0:0|0:0,0:0:0:0:
225,191,585090,2,0,P|273:184|313:210,1,98.9999969787599,2|0,3:2|3:0,0:0:0:0:
412,292,585328,2,0,P|452:265|500:272,1,98.9999969787599,8|0,0:0|0:0,0:0:0:0:
173,247,585567,6,0,B|138:215|142:162|174:131|174:131|169:111|171:91|171:91|159:108|157:123,1,197.99999395752,2|8,3:2|0:0,0:0:0:0:
142,25,585923,1,0,3:0:0:0:
225,191,586043,2,0,P|273:198|313:172,1,98.9999969787599,2|0,3:2|3:0,0:0:0:0:
209,311,586281,2,0,P|160:322|119:299,1,98.9999969787599,8|0,0:0|0:0,0:0:0:0:
346,102,586519,6,0,B|424:120|424:120|406:121,1,98.9999969787599,4|0,3:1|0:0,0:0:0:0:
139,138,586757,2,0,B|61:156|61:156|79:157,1,98.9999969787599,8|0,0:0|0:0,0:0:0:0:
485,160,586995,2,0,P|496:110|476:67,1,98.9999969787599,2|0,3:2|3:0,0:0:0:0:
139,138,587233,2,0,P|140:186|170:224,1,98.9999969787599,8|0,0:0|0:0,0:0:0:0:
415,293,587471,2,0,B|493:275|493:275|475:274,1,98.9999969787599,2|0,3:2|3:0,0:0:0:0:
143,351,587709,2,0,B|65:333|65:333|83:332,1,98.9999969787599,12|0,0:2|0:0,0:0:0:0:
249,328,587947,5,0,3:0:0:0:
253,328,588007,1,0,3:0:0:0:
258,329,588066,1,0,3:0:0:0:
262,330,588126,1,0,3:0:0:0:
267,331,588185,1,0,3:0:0:0:
271,331,588245,1,0,3:0:0:0:
276,332,588304,1,0,3:0:0:0:
280,333,588364,1,0,3:0:0:0:
285,334,588423,1,2,3:1:0:0:
380,310,588662,5,2,2:3:0:0:
380,310,588900,1,2,2:3:0:0:
380,310,589138,1,2,2:3:0:0:
380,310,589376,1,2,2:3:0:0:
380,310,589614,1,2,2:3:0:0:
380,310,589852,1,2,3:1:0:0:
380,310,590328,6,0,B|400:285|400:285|406:245|406:245|398:219,1,98.9999969787599,4|0,3:1|0:0,0:0:0:0:
344,141,590566,1,8,0:0:0:0:
280,212,590685,2,0,P|234:220|187:194,1,98.9999969787599,0|2,0:0|3:2,0:0:0:0:
311,54,590923,2,0,B|332:76|332:76|346:112|346:112|344:142,1,98.9999969787599,0|8,3:0|0:0,0:0:0:0:
280,212,591161,1,0,0:0:0:0:
409,52,591280,6,0,B|440:44|440:44|513:55,1,98.9999969787599,2|0,3:2|0:0,0:0:0:0:
250,127,591518,2,0,B|225:121|200:126|200:126|220:111|236:93,1,98.9999969787599,8|0,0:0|0:0,0:0:0:0:
258,290,591756,2,0,B|265:314|282:333|282:333|259:323|235:319,1,98.9999969787599,2|0,3:2|3:0,0:0:0:0:
396,201,591994,2,0,B|413:182|421:158|421:158|424:183|432:205,1,98.9999969787599,8|0,0:0|0:0,0:0:0:0:
200,202,592232,6,0,P|127:145|161:59,1,197.99999395752,2|8,3:2|0:0,0:0:0:0:
227,217,592589,2,0,P|182:242|135:224,1,98.9999969787599,0|2,0:0|3:2,0:0:0:0:
285,125,592828,1,0,3:0:0:0:
340,235,592947,2,0,L|329:339,1,98.9999969787599,8|0,0:0|0:0,0:0:0:0:
397,133,593185,6,0,B|431:123|431:123|496:138,1,98.9999969787599,2|0,3:2|0:0,0:0:0:0:
340,235,593423,1,8,0:0:0:0:
285,125,593542,2,0,L|181:115,1,98.9999969787599,0|2,0:0|3:2,0:0:0:0:
23,149,593780,1,0,3:0:0:0:
105,37,593899,2,0,L|203:27,1,98.9999969787599,8|0,0:0|0:0,0:0:0:0:
482,142,594137,6,0,L|284:124,1,197.99999395752,6|8,3:2|0:0,0:0:0:0:
122,206,594494,1,0,0:0:0:0:
122,206,594613,2,0,P|107:252|128:296,1,98.9999969787599,2|0,3:2|3:0,0:0:0:0:
211,196,594851,2,0,P|162:183|120:207,1,98.9999969787599,8|0,0:0|0:0,0:0:0:0:
298,344,595089,6,0,B|347:360|388:326|388:326|414:330|440:323|440:323|419:341|395:346,1,197.99999395752,2|8,3:2|0:0,0:0:0:0:
327,267,595447,2,0,B|317:239|317:239|326:170,1,98.9999969787599,0|2,0:0|3:2,0:0:0:0:
413,33,595685,1,0,3:0:0:0:
413,33,595804,2,0,B|403:61|403:61|412:130,1,98.9999969787599,8|0,0:0|0:0,0:0:0:0:
137,147,596042,6,0,B|83:130|83:130|41:137|41:137|62:110|107:110|107:110|115:127|137:144,1,197.99999395752,4|8,3:2|0:0,0:0:0:0:
199,88,596399,1,0,3:0:0:0:
212,255,596518,2,0,B|224:310|224:310|251:343|251:343|217:338|194:299|194:299|205:284|209:256,1,197.99999395752,4|8,3:1|0:0,0:0:0:0:
129,230,596875,1,0,3:0:0:0:
268,136,596994,2,0,B|309:97|309:97|324:57|324:57|337:89|315:128|315:128|296:126|270:137,1,197.99999395752,4|8,3:1|0:0,0:0:0:0:
287,220,597351,1,0,3:0:0:0:
134,127,597470,2,0,P|122:76|146:33,1,98.9999969787599,2|0,3:2|3:0,0:0:0:0:
287,220,597708,2,0,L|274:324,1,98.9999969787599,8|0,0:0|0:0,0:0:0:0:
482,111,597947,6,0,B|459:94|459:94|388:99,3,98.9999969787599,4|8|8|8,3:1|0:3|0:0|0:3,0:0:0:0:
193,223,598423,2,0,B|217:208|217:208|286:219,3,98.9999969787599,8|8|8|8,3:0|0:3|0:0|0:3,0:0:0:0:
93,356,598899,2,0,B|59:315|59:315|81:171,1,197.99999395752,2|8,3:2|0:0,0:0:0:0:
141,47,599256,1,0,3:0:0:0:
226,157,599375,2,0,P|270:170|320:153,1,98.9999969787599,2|0,3:2|0:0,0:0:0:0:
394,58,599613,2,0,P|437:79|485:72,1,98.9999969787599,8|0,0:0|0:0,0:0:0:0:
431,245,599851,6,0,B|423:278|423:278|432:342,3,98.9999969787599,8|8|8|8,3:0|0:3|0:0|0:3,0:0:0:0:
226,157,600328,2,0,B|218:124|218:124|227:59,3,98.9999969787599,8|8|8|8,3:0|0:3|0:0|0:3,0:0:0:0:
261,309,600804,5,8,3:0:0:0:
257,330,600923,1,8,0:3:0:0:
327,236,601042,1,8,0:0:0:0:
323,215,601161,1,8,0:3:0:0:
226,157,601280,5,8,3:0:0:0:
222,178,601399,1,8,3:0:0:0:
335,90,601518,1,8,0:0:0:0:
331,69,601637,1,8,0:3:0:0:
181,5,601756,6,0,P|103:34|121:115,1,181.500005538941,4|0,3:1|3:0,0:0:0:0:
121,115,602232,6,0,B|133:148|133:148|120:203,1,88,0|0,3:0|3:0,0:0:0:0:
256,339,602470,2,0,B|231:315|231:315|219:259,1,88,8|0,0:0|0:0,0:0:0:0:
312,57,602708,6,0,B|466:76|466:76|423:79,1,197.99999395752,4|0,3:2|0:0,0:0:0:0:
242,90,603066,6,0,B|72:110|72:110|122:115,1,220,4|0,3:2|0:0,0:0:0:0:
316,142,603423,6,0,B|417:154|417:154|387:157,1,131.99999597168,4|0,3:0|0:0,0:0:0:0:
238,172,603661,5,4,3:0:0:0:
240,181,605089,5,2,3:1:0:0:
240,181,605566,6,0,P|253:227|233:271,1,98.9999969787599,4|0,3:1|0:0,0:0:0:0:
239,80,605804,2,0,B|269:68|269:68|336:74,1,98.9999969787599,8|0,0:0|0:0,0:0:0:0:
155,139,606042,1,2,3:2:0:0:
155,139,606161,1,0,3:0:0:0:
95,65,606280,2,0,P|50:51|3:71,1,98.9999969787599,8|0,0:0|0:0,0:0:0:0:
49,278,606518,5,2,3:2:0:0:
49,278,606637,1,0,0:0:0:0:
236,257,606756,2,0,B|259:251|287:251|287:251|265:240|251:220,1,98.9999969787599,8|0,0:0|0:0,0:0:0:0:
124,105,606994,2,0,B|107:88|93:63|93:63|94:88|84:110,1,98.9999969787599,2|0,3:2|3:0,0:0:0:0:
49,278,607232,2,0,B|42:300|28:325|28:325|49:311|73:309,1,98.9999969787599,8|0,0:0|0:0,0:0:0:0:
322,203,607470,5,2,3:2:0:0:
319,178,607589,1,0,0:0:0:0:
382,87,607708,1,8,0:0:0:0:
379,112,607827,1,0,0:0:0:0:
297,38,607947,2,0,P|248:21|205:38,1,98.9999969787599,2|0,3:2|3:0,0:0:0:0:
291,271,608185,2,0,P|339:276|379:249,1,98.9999969787599,8|0,0:0|0:0,0:0:0:0:
131,339,608423,6,0,P|79:351|34:238,1,197.99999395752,2|8,3:2|0:0,0:0:0:0:
150,109,608780,1,0,0:0:0:0:
150,109,608899,2,0,B|183:101|183:101|247:117,1,98.9999969787599,2|0,3:2|3:0,0:0:0:0:
368,268,609137,2,0,B|335:260|335:260|271:276,1,98.9999969787599,8|0,0:0|0:0,0:0:0:0:
446,166,609375,6,0,B|480:29|480:29|445:75,1,197.99999395752,6|8,3:2|0:0,0:0:0:0:
443,180,609732,1,0,0:0:0:0:
355,110,609851,2,0,P|310:95|265:114,1,98.9999969787599,2|0,3:2|3:0,0:0:0:0:
63,188,610089,2,0,P|111:185|149:214,1,98.9999969787599,8|0,0:0|0:0,0:0:0:0:
35,209,610328,6,0,B|21:175|21:175|35:108,2,104.499997209549,2|0|8,3:2|0:0|0:0,0:0:0:0:
300,271,610685,2,0,B|314:237|314:237|300:170,2,104.499997209549,0|2|0,3:0|3:2|3:0,0:0:0:0:
115,369,611042,2,0,P|67:376|22:342,1,104.499997209549,8|0,0:0|0:0,0:0:0:0:
168,135,611280,5,2,3:2:0:0:
184,242,611399,1,0,3:0:0:0:
152,28,611518,1,8,0:0:0:0:
155,42,611637,1,0,3:0:0:0:
83,202,611756,5,8,0:0:0:0:
268,173,611875,1,0,3:0:0:0:
70,196,611994,1,8,0:0:0:0:
278,162,612113,1,0,3:0:0:0:
67,95,612232,5,2,3:3:0:0:
67,95,612312,1,2,0:3:0:0:
67,95,612391,1,2,0:3:0:0:
67,95,612470,2,0,B|55:62|55:62|75:-5,1,104.499997209549,8|0,0:0|0:0,0:0:0:0:
333,207,612708,2,0,P|290:234|240:224,1,104.499997209549,2|0,3:2|3:0,0:0:0:0:
402,29,612947,2,0,P|451:22|492:53,1,104.499997209549,8|0,0:0|0:0,0:0:0:0:
261,127,613185,6,0,B|244:38|244:38|251:55,1,104.499997209549,4|0,0:0|3:0,0:0:0:0:
430,189,613423,1,8,0:0:0:0:
430,189,613542,1,0,3:0:0:0:
292,304,613661,2,0,B|223:363|223:363|234:348,1,104.499997209549,2|0,3:2|3:0,0:0:0:0:
261,127,613899,1,8,0:0:0:0:
261,127,614018,1,0,3:0:0:0:
430,189,614137,2,0,B|515:218|515:218|497:216,1,104.499997209549,2|0,3:2|3:0,0:0:0:0:
292,304,614375,1,8,0:0:0:0:
292,304,614494,1,0,3:0:0:0:
216,66,614613,6,0,P|265:51|311:71,1,104.499997209549,2|0,3:2|3:0,0:0:0:0:
292,304,614851,2,0,P|241:313|197:288,1,104.499997209549,8|0,0:0|3:0,0:0:0:0:
426,87,615089,2,0,B|440:127|440:127|428:194,1,104.499997209549,2|0,3:2|3:0,0:0:0:0:
254,243,615328,1,8,0:0:0:0:
254,243,615447,1,0,3:0:0:0:
367,5,615566,2,0,B|400:29|400:29|425:86,1,104.499997209549,2|0,3:2|3:0,0:0:0:0:
383,298,615804,1,8,0:0:0:0:
383,298,615923,1,0,3:0:0:0:
347,8,616042,6,0,B|382:31|382:31|424:128|424:128|414:188,1,208.999994419098,4|8,3:2|0:0,0:0:0:0:
278,305,616399,1,0,3:0:0:0:
236,88,616518,2,0,P|185:78|140:102,1,104.499997209549,2|0,3:2|3:0,0:0:0:0:
278,305,616756,2,0,L|382:297,1,104.499997209549,8|0,0:0|0:0,0:0:0:0:
157,243,616994,6,0,B|96:234|52:263|34:301|46:343|64:361,2,197.99999395752,4|8|0,3:1|0:0|3:0,0:0:0:0:
225,273,617550,2,0,P|256:281|278:305,1,65.9999979858399,0|0,3:0|3:0,3:0:0:0:
333,176,617708,2,0,B|345:110|320:55|320:55|335:39|361:32|361:32|352:44|348:55,1,197.99999395752,8|0,0:0|3:0,0:0:0:0:
333,176,618185,1,8,0:0:0:0:
39,59,618423,1,0,3:0:0:0:
416,85,618661,1,8,0:0:0:0:
48,331,618899,5,4,0:1:0:0:
48,331,619137,2,0,B|38:272|38:272|49:235,1,98.9999969787599,8|0,0:0|3:0,0:0:0:0:
107,180,619375,1,2,3:2:0:0:
186,184,619494,1,0,3:0:0:0:
211,259,619613,1,8,0:0:0:0:
156,316,619732,1,0,3:0:0:0:
293,268,619851,5,2,3:2:0:0:
136,114,619970,2,0,P|98:107|47:138,1,98.9999969787599,0|8,3:0|0:0,0:0:0:0:
244,332,620208,2,0,P|206:342|154:313,1,98.9999969787599,0|2,3:0|3:2,0:0:0:0:
425,185,620447,1,0,3:0:0:0:
425,185,620506,1,0,3:0:0:0:
425,185,620566,2,0,P|388:153|339:153,1,98.9999969787599,8|0,3:1|3:0,0:0:0:0:
440,263,620804,6,0,P|500:207|476:123,1,176,4|8,3:1|0:0,0:0:0:0:
466,116,621161,1,2,3:2:0:0:
233,152,621399,1,2,3:2:0:0:
297,105,621518,2,0,B|311:73|311:73|302:16,1,88,10|2,0:2|0:2,0:0:0:0:
233,152,621756,5,2,3:2:0:0:
217,237,621875,1,2,3:2:0:0:
299,209,621994,1,10,0:2:0:0:
148,179,622113,1,2,3:2:0:0:
148,179,622351,5,2,0:2:0:0:
85,120,622470,2,0,P|42:112|4:132,1,88,12|0,3:2|0:0,0:0:0:0:
178,301,622708,2,0,P|225:312|267:290,1,98.9999969787599,4|0,3:1|0:0,0:0:0:0:
447,78,622947,5,8,0:0:0:0:
368,69,623066,1,2,0:0:0:0:
289,60,623185,1,2,3:1:0:0:
210,51,623304,1,2,3:1:0:0:
131,42,623423,1,8,0:0:0:0:
52,33,623542,1,2,0:0:0:0:
84,106,623661,5,2,3:1:0:0:
87,125,623780,1,2,0:0:0:0:
152,239,623899,1,8,0:0:0:0:
156,223,624018,1,2,0:0:0:0:
286,136,624137,1,2,3:1:0:0:
285,156,624256,1,2,3:1:0:0:
390,333,624375,1,8,0:0:0:0:
393,314,624494,1,2,0:0:0:0:
400,142,624613,6,0,B|415:199|415:199|392:323,1,176,4|8,3:1|0:0,0:0:0:0:
390,333,624970,1,2,3:2:0:0:
107,336,625208,1,2,3:2:0:0:
267,294,625328,2,0,B|219:283|219:283|182:295,1,88,10|2,0:2|0:2,0:0:0:0:
284,299,625566,5,2,3:2:0:0:
327,225,625685,1,2,3:2:0:0:
304,143,625804,1,10,0:2:0:0:
231,102,625923,1,2,3:2:0:0:
231,102,626161,5,2,0:2:0:0:
372,99,626280,2,0,B|380:71|380:71|369:6,1,88,12|0,3:2|0:0,0:0:0:0:
304,143,626518,5,4,0:1:0:0:
317,221,626637,1,2,3:1:0:0:
330,299,626756,1,8,0:0:0:0:
344,376,626875,1,2,0:0:0:0:
405,327,626994,5,2,3:1:0:0:
330,299,627113,1,2,3:1:0:0:
256,271,627232,1,8,0:0:0:0:
183,245,627351,1,2,0:0:0:0:
195,322,627470,5,2,3:1:0:0:
256,271,627589,1,2,0:0:0:0:
317,221,627708,1,8,0:0:0:0:
376,170,627827,1,2,0:0:0:0:
183,245,627947,5,2,3:1:0:0:
344,376,628066,1,2,3:1:0:0:
376,170,628185,6,0,P|329:143|282:152,1,98.9999969787599,8|2,0:0|0:0,0:0:0:0:
78,338,628423,6,0,B|102:301|102:301|70:198|70:198|61:228,1,176,4|8,3:2|0:0,0:0:0:0:
56,240,628780,1,2,3:2:0:0:
238,35,629018,1,2,3:2:0:0:
168,86,629137,2,0,P|124:96|79:73,1,88,10|2,0:2|0:2,0:0:0:0:
238,35,629375,5,2,3:2:0:0:
248,120,629494,1,2,3:2:0:0:
258,205,629613,1,10,0:2:0:0:
268,290,629732,1,2,3:2:0:0:
268,290,629970,5,2,0:2:0:0:
336,239,630089,1,12,3:2:0:0:
412,209,630208,1,0,0:0:0:0:
463,70,630328,6,0,B|470:47|464:21|448:11|448:11|438:28|440:54|447:78|447:78|454:112|440:140,1,197.99999395752,4|0,3:1|0:0,0:0:0:0:
442,247,631042,5,2,2:3:0:0:
441,194,631161,1,2,2:3:0:0:
440,141,631280,1,2,2:3:0:0:
70,141,631518,5,2,2:3:0:0:
69,194,631637,1,2,2:3:0:0:
68,247,631756,1,2,2:3:0:0:
449,284,631994,5,2,2:3:0:0:
448,218,632113,1,2,2:3:0:0:
447,152,632232,1,2,2:3:0:0:
63,152,632470,5,2,2:3:0:0:
62,218,632589,1,2,2:3:0:0:
61,284,632708,1,2,2:3:0:0:
460,337,632947,5,2,2:3:0:0:
457,251,633066,1,2,2:3:0:0:
454,165,633185,1,2,2:3:0:0:
56,165,633423,5,2,2:0:0:0:
53,251,633542,1,2,2:3:0:0:
50,337,633661,1,8,3:1:0:0:
73,360,633740,1,2,3:0:0:0:
103,373,633819,1,2,3:0:0:0:
136,374,633899,1,8,3:0:0:0:
167,364,633978,1,4,3:0:0:0:
193,344,634057,1,4,3:0:0:0:
209,316,634137,6,0,B|220:289|238:275|238:275|232:298|237:324,1,98.9999969787599,4|0,3:1|3:0,0:0:0:0:
370,249,634375,2,0,B|359:222|340:208|340:208|347:231|341:257,1,98.9999969787599,8|0,0:0|0:0,0:0:0:0:
172,165,634613,2,0,B|183:138|201:124|201:124|195:147|200:173,1,98.9999969787599,2|0,3:2|3:0,0:0:0:0:
350,76,634851,2,0,B|339:49|320:35|320:35|327:58|321:84,1,98.9999969787599,8|0,0:0|0:0,0:0:0:0:
177,193,635089,6,0,P|127:199|83:162,1,110,2|0,3:2|0:0,0:0:0:0:
350,76,635328,2,0,B|389:140|358:223|358:223|314:258|308:306|308:306|290:278|287:238|309:200,1,363.000011077881,8|0,0:0|3:0,0:0:0:0:
443,125,635804,2,0,P|444:179|432:233,1,110,8|0,0:0|0:0,0:0:0:0:
116,53,636042,6,0,B|146:37|191:40|191:40|177:44|170:47,1,98.9999969787599,4|0,3:2|0:0,0:0:0:0:
350,88,636280,2,0,B|320:72|275:75|275:75|289:79|295:82,1,98.9999969787599,8|0,0:0|0:0,0:0:0:0:
87,150,636518,2,0,B|117:134|162:137|162:137|148:141|141:144,1,98.9999969787599,2|0,3:2|3:0,0:0:0:0:
351,201,636756,2,0,B|317:182|266:186|266:186|281:190|287:193,1,110,8|0,0:0|0:0,0:0:0:0:
46,257,636994,2,0,B|82:237|137:241|137:241|120:246|112:250,1,121.000003692627,2|0,3:2|0:0,0:0:0:0:
329,286,637232,2,0,B|308:299|298:331|298:331|284:387|229:395|189:379|162:322|188:272|228:262|280:258|297:317|297:317|320:378|394:386|438:342,1,527.999983886719,8|8,0:0|0:0,0:0:0:0:
472,266,637828,1,0,3:0:0:0:
396,237,637947,1,4,3:1:0:0:
396,237,638185,6,0,B|405:200|403:148|403:148|412:160|414:177,1,110,8|0,0:0|0:0,0:0:0:0:
241,117,638423,2,0,B|268:143|314:167|314:167|299:169|283:162,1,110,2|0,3:2|3:0,0:0:0:0:
423,42,638661,2,0,B|386:52|342:80|342:80|348:66|362:56,1,110,8|0,0:0|0:0,0:0:0:0:
326,267,638899,6,0,P|416:311|470:226,1,220,2|8,3:2|0:0,0:0:0:0:
433,148,639256,1,0,3:0:0:0:
243,334,639375,2,0,P|184:236|80:286,1,253.000004825592,2|8,3:2|0:0,0:0:0:0:
60,361,639732,1,0,3:0:0:0:
259,28,639851,1,4,3:2:0:0:
259,28,640089,6,0,B|206:35|165:20|165:20|174:36,1,110,8|0,0:0|0:0,0:0:0:0:
266,211,640328,2,0,B|286:161|319:133|319:133|301:133,1,110,2|0,3:2|3:0,0:0:0:0:
104,125,640566,2,0,B|136:167|144:210|144:210|153:194,1,110,8|0,0:0|0:0,0:0:0:0:
368,341,640804,6,0,B|392:322|394:283|394:283|395:238|414:201|414:201|397:222|382:233|382:233|379:248|388:271,1,220,2|8,3:2|0:0,0:0:0:0:
356,349,641161,1,0,3:0:0:0:
119,209,641280,2,0,B|95:190|93:151|93:151|92:106|73:69|73:69|90:90|105:101|105:101|108:116|99:139,1,220,2|8,3:2|0:0,0:0:0:0:
131,217,641637,1,0,3:0:0:0:
335,76,641756,5,4,3:1:0:0:
281,141,641875,2,0,P|239:155|183:124,2,110,0|8|0,3:0|0:0|3:0,0:0:0:0:
50,182,642232,1,2,3:2:0:0:
10,255,642351,1,0,3:0:0:0:
41,332,642470,2,0,P|83:346|139:315,1,110,8|0,0:0|0:0,0:0:0:0:
207,168,642708,1,0,3:0:0:0:
207,168,642947,6,0,B|204:139|187:103|187:103|204:108|212:122,1,98.9999969787599,8|0,0:0|3:0,0:0:0:0:
284,305,643185,2,0,B|260:321|237:353|237:353|234:337|241:323,1,98.9999969787599,2|0,3:2|3:0,0:0:0:0:
365,170,643423,2,0,B|390:182|430:185|430:185|417:197|402:197,1,98.9999969787599,12|0,0:2|0:0,0:0:0:0:
118,37,643661,6,0,B|143:23|166:21|166:21|214:39|267:38|267:38|246:51|224:49,1,197.99999395752,4|8,0:1|0:0,0:0:0:0:
106,46,644018,1,0,3:0:0:0:
55,197,644137,1,0,3:0:0:0:
27,106,644256,1,2,3:2:0:0:
27,106,644316,1,2,3:2:0:0:
27,106,644375,2,0,B|17:24|17:24|29:48,1,98.9999969787599,8|0,0:0|3:0,0:0:0:0:
85,293,644613,5,2,0:2:0:0:
254,212,644732,1,0,3:0:0:0:
146,209,644851,1,8,0:0:0:0:
329,284,644970,1,0,3:0:0:0:
198,119,645089,2,0,B|193:74|193:74|198:50,2,65.9999979858399,0|0|0,3:0|3:0|3:0,0:0:0:0:
254,212,645328,2,0,L|239:309,1,98.9999969787599,2|2,2:3|2:3,0:0:0:0:
444,159,645566,6,0,P|448:146|448:130,3,27.5,4|0|2|2,3:0|0:3|0:3|0:3,0:0:0:0:
436,120,645804,5,2,2:3:0:0:
414,149,645883,1,0,2:3:0:0:
416,185,645962,1,2,2:3:0:0:
435,216,646042,1,2,3:1:0:0:
446,250,646121,1,0,2:3:0:0:
439,286,646201,1,0,2:3:0:0:
414,311,646280,1,8,2:1:0:0:
378,317,646359,1,2,2:3:0:0:
343,303,646439,1,0,2:3:0:0:
325,270,646518,6,0,P|339:264|352:264,3,27.5,2|0|2|0,0:3|0:3|0:3|0:3,0:0:0:0:
371,271,646756,5,8,2:1:0:0:
406,261,646835,1,0,2:3:0:0:
415,225,646915,1,2,2:3:0:0:
403,190,646994,1,2,3:1:0:0:
371,171,647074,1,0,2:3:0:0:
334,173,647153,1,0,2:3:0:0:
303,193,647232,1,12,2:1:0:0:
268,207,647312,1,2,2:3:0:0:
231,205,647391,1,0,2:3:0:0:
203,183,647470,5,2,3:1:0:0:
140,320,647589,1,2,3:1:0:0:
69,207,647708,2,0,P|46:215|33:213,3,27.5,8|0|2|0,0:0|0:3|0:3|0:3,0:0:0:0:
36,147,647947,6,0,P|79:137|131:172,1,110,2|2,3:1|3:1,0:0:0:0:
192,311,648185,2,0,P|169:303|156:305,3,27.5,8|0|2|0,0:0|0:3|0:3|0:3,0:0:0:0:
171,377,648423,6,0,P|204:381|262:319,1,121.000003692627,2|2,3:1|3:1,0:0:0:0:
290,159,648661,2,0,P|267:167|254:165,3,27.5,8|0|2|0,0:0|0:3|3:3|0:3,0:0:0:0:
255,98,648900,6,0,P|287:88|361:142,1,131.99999597168,2|0,3:2|3:0,0:0:0:0:
403,339,649137,2,0,P|435:349|501:277,1,131.99999597168,8|0,0:0|0:0,0:0:0:0:
391,326,649375,5,4,3:1:0:0:
294,256,649494,1,0,3:0:0:0:
395,194,649613,2,0,P|415:192|426:189,3,27.5,8|0|2|0,0:0|0:3|0:3|0:3,0:0:0:0:
394,125,649851,6,0,B|403:51|403:51|368:111,1,142.99999345398,2|2,3:1|3:1,0:0:0:0:
294,256,650089,2,0,P|314:258|325:261,3,27.5,8|0|2|0,0:0|0:3|0:3|0:3,0:0:0:0:
294,325,650328,6,0,B|252:392|252:392|260:316,1,153.999995300293,2|2,3:1|3:1,0:0:0:0:
257,154,650566,2,0,P|277:152|288:149,3,27.5,8|0|2|0,0:0|0:3|0:3|0:3,0:0:0:0:
259,81,650804,6,0,B|258:0|258:0|220:75,1,165.000006294251,2|2,3:1|3:1,0:0:0:0:
147,254,651042,2,0,B|109:329|109:329|108:248,1,165.000006294251,8|0,0:0|3:0,0:0:0:0:
85,45,651280,2,0,P|99:39|112:39,3,27.5,4|0|2|2,3:1|0:3|0:3|0:3,0:0:0:0:
186,70,651518,5,8,2:1:0:0:
222,66,651597,1,0,2:3:0:0:
258,62,651677,1,2,2:3:0:0:
294,58,651756,2,0,L|323:54,3,27.5,2|0|2|2,3:1|0:3|0:3|0:3,0:0:0:0:
470,160,651994,5,8,2:1:0:0:
430,152,652073,1,0,2:3:0:0:
390,146,652153,1,2,2:3:0:0:
351,139,652232,2,0,L|319:132,3,27.5,2|0|2|2,3:1|0:3|0:3|0:3,0:0:0:0:
161,178,652470,5,8,0:0:0:0:
126,206,652550,1,0,0:3:0:0:
117,248,652629,1,0,0:3:0:0:
130,289,652708,1,2,2:1:0:0:
180,319,652788,1,0,2:3:0:0:
238,313,652867,1,0,2:3:0:0:
273,265,652947,1,8,0:0:0:0:
329,251,653026,1,0,0:3:0:0:
381,275,653105,1,0,0:3:0:0:
398,330,653185,6,0,B|410:362|410:362|436:286,1,110,4|0,0:2|0:0,0:0:0:0:
420,79,653423,2,0,B|408:47|408:47|382:123,1,110,8|0,0:0|0:0,0:0:0:0:
319,344,653661,1,2,3:2:0:0:
187,256,653780,1,2,3:0:0:0:
305,153,653899,1,8,0:0:0:0:
305,153,654018,1,2,3:0:0:0:
179,338,654137,6,0,B|137:335|88:303|73:235|100:174|168:149|224:167|253:205|253:205|278:239|347:239|371:203|371:203|355:163|305:154,1,550,2|0,3:0|3:0,0:0:0:0:
187,256,654851,1,8,0:0:0:0:
187,256,654970,1,0,3:0:0:0:
31,143,655089,6,0,P|9:93|30:44,1,110,4|0,3:2|0:0,0:0:0:0:
187,256,655328,1,8,0:0:0:0:
187,256,655447,1,0,3:0:0:0:
370,202,655566,1,2,3:2:0:0:
308,338,655685,1,0,3:0:0:0:
185,169,655804,1,8,0:0:0:0:
373,115,655923,1,0,3:0:0:0:
223,322,656042,6,0,P|170:331|126:299,1,110,2|0,3:2|3:0,0:0:0:0:
474,98,656280,1,8,0:0:0:0:
290,254,656399,1,2,3:0:0:0:
177,92,656518,2,0,P|123:80|79:112,1,110,2|0,3:2|3:0,0:0:0:0:
290,254,656756,1,8,0:0:0:0:
373,115,656875,1,0,3:0:0:0:
201,320,656994,6,0,B|165:332|165:332|96:310,2,110,4|0|8,3:1|0:0|0:0,0:0:0:0:
356,186,657351,5,10,0:3:0:0:
357,193,657470,1,10,3:0:0:0:
196,73,657589,5,10,3:0:0:0:
199,65,657708,1,8,0:1:0:0:
258,256,657828,5,10,3:0:0:0:
251,261,657947,1,10,3:0:0:0:
316,71,658066,5,10,3:0:0:0:
324,73,658185,1,8,0:1:0:0:
160,188,658304,5,10,3:0:0:0:
155,182,658423,2,0,P|105:158|37:184,1,110,2|2,3:0|3:0,0:0:0:0:
324,73,658661,2,0,P|366:63|423:95,1,110,8|0,0:0|3:0,0:0:0:0:
165,282,658899,5,4,3:1:0:0:
165,282,659018,1,0,3:0:0:0:
214,358,659137,1,8,0:0:0:0:
110,352,659256,1,0,3:0:0:0:
251,261,659375,5,2,3:2:0:0:
214,358,659494,1,0,3:0:0:0:
110,352,659613,1,8,0:0:0:0:
83,252,659732,1,0,3:0:0:0:
171,195,659851,6,0,B|228:195|323:260|286:398|166:447|60:377|67:292|84:245|84:245|99:206|111:162|94:92|54:55,1,660,2|4,3:2|0:2,0:0:0:0:
450,186,660804,6,0,P|450:157|445:147,1,41.2500015735627,2|0,3:0|2:3,0:0:0:0:
435,137,660923,2,0,P|407:128|396:129,1,41.2500015735627,2|2,2:3|2:3,0:0:0:0:
386,134,661042,2,0,P|368:157|367:168,1,41.2500015735627,8|0,2:1|2:3,0:0:0:0:
369,182,661161,2,0,P|386:205|395:210,1,41.2500015735627,2|2,2:3|2:3,0:0:0:0:
408,213,661280,2,0,B|469:189|472:91|415:55|415:55|408:129|485:168|498:227|469:289,1,440,4|0,3:1|3:0,0:0:0:0:
416,345,661994,6,0,P|363:354|319:323,1,110,8|0,0:0|3:0,0:0:0:0:
134,274,662232,2,0,P|186:283|230:252,1,110,2|2,3:2|3:2,0:0:0:0:
403,174,662470,2,0,P|350:183|306:152,1,110,8|0,0:0|0:0,0:0:0:0:
111,114,662708,2,0,B|164:127|199:76|190:21|143:-4|92:3|73:56|73:56|86:89|76:125|76:125|51:152|42:182|42:182|62:240|31:284,1,484.000014770508,4|0,0:3|3:0,0:0:0:0:
160,258,663423,5,8,0:0:0:0:
392,252,663542,1,2,3:0:0:0:
360,136,663661,1,2,3:1:0:0:
275,222,663780,1,2,3:1:0:0:
307,338,663899,1,8,0:0:0:0:
392,252,664018,1,0,3:0:0:0:
243,106,664137,5,2,3:0:0:0:
243,106,664256,1,2,3:1:0:0:
275,222,664375,1,8,0:0:0:0:
328,20,664494,1,2,3:1:0:0:
477,166,664613,6,0,P|482:188|479:208,1,41.2500015735627,2|0,3:0|2:3,0:0:0:0:
470,223,664732,2,0,P|452:237|433:245,1,41.2500015735627,2|2,2:3|2:3,0:0:0:0:
417,245,664851,2,0,P|395:237|379:224,1,41.2500015735627,8|0,2:1|2:3,0:0:0:0:
371,210,664970,2,0,P|366:187|370:167,1,41.2500015735627,2|2,2:3|2:3,0:0:0:0:
378,153,665089,2,0,B|403:95|356:30|356:30|366:95|340:162|340:162|308:224|328:322|328:322|321:346|306:364|306:364|301:340|285:317,1,527.999983886719,4|0,3:1|3:0,0:0:0:0:
228,252,665804,6,0,P|177:234|129:258,1,110,8|0,0:0|3:0,0:0:0:0:
10,121,666042,2,0,P|63:113|106:145,1,110,2|2,3:2|3:2,0:0:0:0:
206,67,666280,2,0,P|252:39|304:53,1,110,8|0,0:0|0:0,0:0:0:0:
494,128,666518,2,0,B|476:74|416:70|373:107|375:160|408:200|459:191|459:191|454:248|415:272|415:272|406:320|385:350|385:350|377:316|360:289,1,484.000014770508,4|0,0:1|3:0,0:0:0:0:
243,165,667232,5,8,0:0:0:0:
104,241,667351,1,0,3:0:0:0:
136,133,667470,1,2,3:2:0:0:
212,272,667589,1,0,3:0:0:0:
208,97,667708,5,8,0:0:0:0:
145,311,667828,1,0,3:0:0:0:
145,311,667947,1,0,3:0:0:0:
279,233,668066,1,0,3:0:0:0:
68,171,668185,1,8,0:0:0:0:
68,171,668304,1,0,3:0:0:0:
341,176,668423,6,0,P|357:127|331:75,1,110,4|0,3:1|3:0,0:0:0:0:
102,235,668661,1,8,0:0:0:0:
141,46,668780,1,0,3:0:0:0:
102,235,668899,6,0,P|63:246|7:211,1,110,2|0,3:2|3:0,0:0:0:0:
306,328,669137,1,8,0:0:0:0:
267,139,669256,1,0,3:0:0:0:
306,328,669375,6,0,P|345:339|401:304,1,110,2|0,3:2|3:0,0:0:0:0:
373,38,669613,1,8,0:0:0:0:
432,213,669732,1,0,3:0:0:0:
373,38,669851,6,0,P|315:22|272:51,1,110,2|0,3:2|3:0,0:0:0:0:
177,268,670089,1,8,0:0:0:0:
108,99,670208,1,0,3:0:0:0:
177,268,670328,6,0,B|186:331|254:361|326:338|351:267|326:217|289:183|243:187|243:187|206:191|187:162|187:162|206:105|196:50|117:16|117:16|126:62|108:99,1,660,4|8,3:2|0:0,0:0:0:0:
44,172,671161,1,2,0:3:0:0:
81,267,671280,1,2,3:0:0:0:
28,348,671399,1,2,3:0:0:0:
247,257,671518,5,8,0:0:0:0:
301,170,671637,1,0,3:0:0:0:
252,82,671756,1,2,3:2:0:0:
475,177,671875,5,0,3:0:0:0:
512,272,671994,1,8,0:0:0:0:
459,353,672113,1,0,3:0:0:0:
198,169,672232,6,0,B|152:124|80:143|37:205|61:276|111:300|162:304|195:273|195:273|218:251|267:242|267:242|259:225|241:209|241:209,1,440,4|0,3:1|3:0,0:0:0:0:
150,220,672828,1,0,3:0:0:0:
304,345,672947,2,0,P|347:357|405:327,1,110,8|0,0:0|0:0,0:0:0:0:
425,92,673185,6,0,B|414:124|378:139|378:139|330:202|344:282,1,220,0|8,3:0|0:0,0:0:0:0:
349,55,673542,1,0,3:0:0:0:
349,55,673780,1,0,3:0:0:0:
129,23,673899,1,8,0:0:0:0:
129,23,674137,5,4,2:1:0:0:
86,45,674216,1,0,0:3:0:0:
68,89,674296,1,0,0:3:0:0:
76,135,674375,2,0,P|86:153|99:163,3,27.5,8|0|2|2,0:0|0:3|0:3|0:3,0:0:0:0:
218,193,674613,5,2,3:2:0:0:
266,222,674693,1,0,0:3:0:0:
271,277,674772,1,0,0:3:0:0:
251,329,674851,2,0,P|238:349|222:363,3,38.4999988250733,8|0|2|2,0:0|0:3|0:3|0:3,0:0:0:0:
80,364,675089,5,2,3:1:0:0:
24,340,675169,1,0,0:3:0:0:
6,283,675248,1,0,0:3:0:0:
26,226,675328,2,0,P|39:210|71:195,3,49.4999984893799,8|0|2|2,0:0|0:3|0:3|0:3,0:0:0:0:
153,147,675565,5,8,3:1:0:0:
175,86,675645,1,8,3:1:0:0:
149,27,675724,1,2,3:0:0:0:
89,4,675803,1,8,3:0:0:0:
30,28,675883,1,4,3:0:0:0:
4,88,675962,1,4,3:0:0:0:
28,150,676042,6,0,B|36:195|36:195|21:282|21:282|32:323,1,176,4|8,3:1|0:0,0:0:0:0:
36,336,676399,1,2,3:2:0:0:
253,252,676637,1,2,3:2:0:0:
183,199,676756,2,0,P|140:197|107:224,1,88,10|2,0:2|0:2,0:0:0:0:
253,252,676994,6,0,L|344:233,1,88,2|2,3:2|3:2,0:0:0:0:
174,286,677232,1,10,0:2:0:0:
398,170,677351,1,2,3:2:0:0:
398,170,677589,1,2,0:2:0:0:
317,36,677708,2,0,P|308:78|327:116,1,88,12|0,3:2|0:0,0:0:0:0:
398,170,677947,5,4,3:1:0:0:
482,142,678066,1,0,0:0:0:0:
415,83,678185,1,8,0:0:0:0:
398,170,678304,1,2,0:0:0:0:
381,257,678423,1,2,3:1:0:0:
364,344,678542,1,2,3:1:0:0:
448,316,678661,1,8,0:0:0:0:
381,257,678780,1,2,0:0:0:0:
314,198,678899,5,2,3:1:0:0:
247,139,679018,1,2,0:0:0:0:
230,227,679137,1,8,0:0:0:0:
314,198,679256,1,2,0:0:0:0:
398,170,679375,1,2,3:1:0:0:
482,142,679494,1,2,3:1:0:0:
416,84,679613,1,8,0:0:0:0:
300,288,679732,1,2,0:0:0:0:
108,133,679851,6,0,P|91:78|185:20,1,176,4|8,3:1|0:0,0:0:0:0:
192,24,680208,1,2,3:2:0:0:
177,280,680447,1,2,3:2:0:0:
344,250,680566,2,0,L|257:232,1,88,10|2,0:2|0:2,0:0:0:0:
108,333,680804,5,2,3:2:0:0:
187,371,680923,1,2,3:2:0:0:
177,280,681042,1,10,0:2:0:0:
167,189,681161,2,0,P|118:126|34:151,1,176,2|2,3:2|0:2,0:0:0:0:
28,165,681518,1,12,3:2:0:0:
118,38,681637,1,0,0:0:0:0:
177,280,681756,5,4,0:1:0:0:
261,320,681875,1,2,3:1:0:0:
335,265,681994,1,8,0:0:0:0:
325,173,682113,1,2,0:0:0:0:
251,225,682232,1,2,3:1:0:0:
335,265,682351,1,2,3:1:0:0:
409,210,682470,1,8,0:0:0:0:
399,118,682589,1,2,0:0:0:0:
315,80,682708,5,2,3:1:0:0:
241,134,682827,1,2,0:0:0:0:
167,189,682947,1,8,0:0:0:0:
83,149,683066,1,2,0:0:0:0:
73,58,683185,1,2,3:1:0:0:
147,4,683304,1,2,3:1:0:0:
231,42,683423,1,8,0:0:0:0:
167,189,683542,1,2,0:0:0:0:
73,58,683661,6,0,B|94:95|94:95|69:228,1,176,4|8,3:2|0:0,0:0:0:0:
64,249,684018,1,2,3:2:0:0:
251,347,684256,1,2,3:2:0:0:
318,290,684375,2,0,P|359:281|401:300,1,88,10|2,0:2|0:2,0:0:0:0:
247,174,684613,6,0,P|205:167|166:188,1,88,2|2,3:2|3:2,0:0:0:0:
251,347,684851,1,10,0:2:0:0:
296,70,684970,1,2,3:2:0:0:
296,70,685208,1,2,0:2:0:0:
221,242,685328,1,12,3:2:0:0:
423,172,685447,1,0,0:0:0:0:
66,74,685566,5,6,3:2:0:0:
66,74,686280,5,2,2:3:0:0:
62,146,686399,1,2,2:3:0:0:
59,218,686518,1,2,2:3:0:0:
453,218,686756,5,2,2:3:0:0:
450,146,686875,1,2,2:3:0:0:
446,74,686994,1,2,2:3:0:0:
55,61,687232,5,2,2:3:0:0:
50,147,687351,1,2,2:3:0:0:
46,233,687470,1,2,2:3:0:0:
466,233,687708,5,2,2:0:0:0:
465,221,687788,1,0,2:0:0:0:
464,209,687867,1,0,2:0:0:0:
464,198,687947,1,4,2:1:0:0:
39,43,688185,5,2,2:3:0:0:
32,146,688304,1,2,2:3:0:0:
28,249,688423,1,2,3:1:0:0:
32,146,688542,2,0,B|72:136|72:136|119:154,1,88,8|2,0:0|3:1,0:0:0:0:
193,201,688899,5,8,0:1:0:0:
226,153,688978,1,8,0:3:0:0:
226,93,689058,1,8,0:3:0:0:
193,45,689137,1,8,0:3:0:0:
135,31,689216,1,8,0:3:0:0:
78,47,689296,1,8,0:3:0:0:
46,96,689375,5,4,3:1:0:0:
48,116,689494,5,2,3:1:0:0:
49,136,689613,5,2,3:1:0:0:
51,157,689732,5,14,3:1:0:0:
53,178,689851,5,2,3:1:0:0:
55,198,689970,5,2,3:1:0:0:
56,219,690089,5,14,3:1:0:0:
58,240,690208,5,2,3:1:0:0:
208,326,690328,5,12,0:2:0:0:
214,290,690447,5,2,3:1:0:0:
220,255,690566,5,2,3:1:0:0:
226,221,690685,5,12,3:1:0:0:
232,186,690804,5,2,3:1:0:0:
238,151,690923,5,2,3:1:0:0:
244,117,691042,5,8,3:1:0:0:
250,82,691161,5,2,3:1:0:0:
439,16,691280,6,0,L|474:368,1,352,14|4,0:1|3:1,0:0:0:0:
473,366,692470,5,10,0:1:0:0:
328,222,692589,1,0,3:0:0:0:
251,341,692708,5,8,3:1:0:0:
234,353,692767,1,8,3:1:0:0:
217,361,692827,1,2,3:0:0:0:
196,364,692886,1,2,3:0:0:0:
176,361,692946,1,8,3:0:0:0:
159,353,693005,1,8,3:0:0:0:
144,341,693065,1,4,3:0:0:0:
132,324,693124,1,4,3:0:0:0:
127,305,693185,6,0,B|161:231|117:170|117:170|121:127|153:101,2,220,6|10|0,3:1|0:0|3:1,0:0:0:0:
46,251,693780,1,0,3:0:0:0:
206,55,693899,2,0,P|159:29|108:44,1,110,10|0,0:0|0:0,0:0:0:0:
261,162,694137,6,0,B|350:145|350:145|382:125|382:125|474:108,1,220,0|10,3:0|0:0,0:0:0:0:
248,165,694494,1,0,3:0:0:0:
354,256,694613,2,0,P|374:304|351:355,1,110,0|0,3:1|3:0,0:0:0:0:
150,179,694851,2,0,P|193:150|248:164,1,110,10|0,0:0|0:0,0:0:0:0:
69,354,695089,6,0,B|19:299|60:224|60:224|56:178|22:157,1,220,4|10,0:3|0:0,0:0:0:0:
135,286,695447,2,0,P|187:297|232:268,1,110,0|0,3:0|3:0,0:0:0:0:
272,135,695685,1,0,3:0:0:0:
341,78,695804,2,0,P|393:67|439:96,1,110,10|0,0:0|0:0,0:0:0:0:
218,188,696042,6,0,B|185:157|190:108|217:77|217:77|214:44|197:21|197:21|185:60,1,220,4|10,3:2|0:0,0:0:0:0:
142,233,696399,1,4,3:2:0:0:
25,104,696518,1,0,3:0:0:0:
3,300,696637,1,0,3:0:0:0:
152,222,696756,2,0,P|204:212|248:244,1,110,10|0,0:0|0:0,0:0:0:0:
492,226,696994,6,0,P|391:215|363:312,1,220,4|10,3:1|0:0,0:0:0:0:
432,372,697351,1,0,0:0:0:0:
435,279,697470,1,0,3:0:0:0:
432,372,697589,1,0,3:0:0:0:
251,264,697708,6,0,B|225:215|254:162|254:162|233:130|227:89|227:89|216:104|212:123,1,220,10|0,0:0|3:0,0:0:0:0:
155,193,698066,1,0,3:0:0:0:
323,94,698185,2,0,P|361:82|419:114,1,110,10|0,0:0|0:0,0:0:0:0:
288,327,698423,2,0,P|250:339|192:307,1,110,0|0,3:0|3:0,0:0:0:0:
372,196,698661,2,0,B|360:234|360:234|376:305,1,110,10|0,0:0|0:0,0:0:0:0:
480,50,698899,6,0,B|424:38|424:38|312:55|312:55|260:44,1,220,4|10,3:2|0:0,0:0:0:0:
108,162,699256,1,0,3:0:0:0:
37,112,699375,2,0,P|22:77|48:9,1,110,0|0,3:0|3:0,0:0:0:0:
108,162,699613,2,0,L|95:273,1,110,10|0,0:0|0:0,0:0:0:0:
39,348,699851,5,0,3:0:0:0:
394,180,700089,1,10,0:0:0:0:
383,171,700328,5,8,0:0:0:0:
420,148,700407,1,8,0:0:0:0:
462,156,700486,1,8,0:0:0:0:
497,184,700566,1,2,3:0:0:0:
504,227,700645,1,8,3:0:0:0:
484,267,700724,1,4,3:0:0:0:
441,280,700804,6,0,B|393:262|344:281|344:281|333:277|333:277|278:304|272:353|272:353|261:338,1,220,4|10,3:0|0:0,0:0:0:0:
53,258,701161,1,0,3:0:0:0:
9,182,701280,2,0,B|-10:140|-10:140|0:72,1,110,2|2,3:2|3:2,0:0:0:0:
226,137,701518,2,0,B|216:203|216:203|228:257|228:257|200:304|200:304|191:346,1,220,10|0,0:2|3:0,0:0:0:0:
190,360,701875,1,0,3:0:0:0:
234,127,701994,6,0,P|270:113|333:139,1,110,10|0,0:2|0:0,0:0:0:0:
152,245,702232,2,0,P|116:231|53:257,1,110,2|2,3:2|3:2,0:0:0:0:
308,335,702470,2,0,P|344:321|407:347,1,110,10|0,0:2|0:0,0:0:0:0:
159,348,702708,6,0,B|121:302|152:246|152:246|196:212|186:148,1,220,0|10,3:0|0:2,0:0:0:0:
100,31,703066,2,0,P|143:121|238:90,1,220,0|0,3:0|3:0,0:0:0:0:
252,68,703423,1,10,0:2:0:0:
314,216,703542,1,0,3:0:0:0:
462,62,703661,5,0,3:0:0:0:
208,299,703899,1,10,0:2:0:0:
208,299,704137,2,0,P|159:308|114:268,1,110,2|2,3:2|3:2,0:0:0:0:
406,188,704375,2,0,P|357:179|312:219,1,110,10|0,0:0|3:0,0:0:0:0:
147,171,704613,6,0,B|146:118|120:67|120:67|119:42|127:14|127:14|147:42|140:70,1,220,4|10,0:1|0:0,0:0:0:0:
145,194,704970,1,0,3:0:0:0:
236,76,705089,2,0,P|288:64|334:91,1,110,0|0,3:0|3:0,0:0:0:0:
473,202,705328,6,0,P|372:199|358:298,1,220,10|0,0:0|3:0,0:0:0:0:
374,313,705685,1,0,3:0:0:0:
450,104,705804,1,10,0:0:0:0:
477,225,705923,1,0,3:0:0:0:
277,138,706042,2,0,P|266:90|301:42,1,110,0|0,3:0|3:0,0:0:0:0:
416,20,706280,1,2,3:0:0:0:
416,20,706339,1,2,3:0:0:0:
416,20,706399,1,4,3:0:0:0:
416,20,706458,1,4,3:0:0:0:
416,20,706518,6,0,B|430:83|430:83|450:106|450:106|471:195|471:195|423:165,1,242.000007385254,4|0,3:1|3:0,0:0:0:0:
228,132,706875,2,0,B|214:195|214:195|194:218|194:218|173:307|173:307|220:277,1,242.000007385254,4|0,3:0|3:0,0:0:0:0:
277,74,707232,2,0,P|231:55|169:86,1,121.000003692627,4|0,3:2|0:0,0:0:0:0:
330,342,707470,6,0,P|403:366|432:235,1,247.500009441376,4|0,3:1|2:0,0:0:0:0:
416,227,707947,6,0,B|374:232|374:232|334:248|334:248|287:254,1,131.824237032594,2|0,3:1|2:0,0:0:0:0:
73,73,708423,6,0,P|171:60|184:158,1,220,6|10,3:2|0:0,0:0:0:0:
100,200,708780,1,0,3:0:0:0:
14,115,708899,2,0,P|0:63|26:16,1,110,0|0,3:0|3:0,0:0:0:0:
100,200,709137,6,0,B|94:269|94:269|107:321|107:321|85:381|85:381|70:353,1,220,10|0,0:0|3:0,0:0:0:0:
64,338,709494,1,0,3:0:0:0:
113,190,709613,2,0,P|155:180|210:218,1,110,10|0,0:0|0:0,0:0:0:0:
415,134,709851,2,0,P|373:124|318:162,1,110,0|0,3:0|3:0,0:0:0:0:
386,328,710089,2,0,P|429:326|472:275,1,110,10|0,0:0|0:0,0:0:0:0:
208,214,710328,6,0,B|149:246|152:311|152:311|177:357|235:362,1,220,4|10,3:0|0:0,0:0:0:0:
405,224,710685,2,0,P|360:193|306:199,1,110,0|0,0:0|3:0,0:0:0:0:
234,287,710923,1,0,3:0:0:0:
458,279,711042,2,0,P|481:230|466:178,1,110,10|0,0:0|0:0,0:0:0:0:
223,74,711280,6,0,B|201:127|201:127|233:286,1,220,0|10,3:0|0:0,0:0:0:0:
239,303,711637,1,0,3:0:0:0:
331,159,711756,1,2,3:1:0:0:
100,205,711875,1,0,0:0:0:0:
342,146,711994,2,0,P|352:93|324:47,1,110,10|0,0:0|0:0,0:0:0:0:
22,187,712232,6,0,P|70:276|167:244,2,220,4|10|0,3:1|0:0|3:0,0:0:0:0:
75,69,712828,1,0,3:0:0:0:
171,139,712947,2,0,B|184:178|184:178|167:244,1,110,10|0,0:0|0:0,0:0:0:0:
247,55,713185,6,0,B|288:23|341:32|373:63|373:63|418:77|452:52,1,220,0|10,3:0|0:0,0:0:0:0:
303,119,713542,1,0,3:0:0:0:
189,101,713661,2,0,P|171:50|195:1,1,110,0|0,3:0|3:0,0:0:0:0:
303,119,713899,2,0,B|297:161|297:161|283:187|283:187|278:225,1,110,10|0,0:0|0:0,0:0:0:0:
455,351,714137,6,0,B|445:276|445:276|460:219|460:219|448:134,1,220,4|10,3:2|0:0,0:0:0:0:
317,10,714494,2,0,L|302:119,1,110,0|0,3:0|3:0,0:0:0:0:
157,298,714732,1,0,3:0:0:0:
143,199,714851,2,0,L|128:90,1,110,10|0,0:0|0:0,0:0:0:0:
69,259,715089,5,0,3:0:0:0:
448,124,715328,1,10,0:0:0:0:
448,124,715566,5,8,0:0:0:0:
469,85,715645,1,8,0:0:0:0:
461,41,715724,1,8,0:0:0:0:
426,12,715804,1,2,3:0:0:0:
382,13,715883,1,8,3:0:0:0:
347,39,715962,1,4,3:0:0:0:
340,82,716042,6,0,P|292:125|225:24,1,220,4|10,3:1|0:0,0:0:0:0:
241,18,716399,1,0,3:0:0:0:
41,100,716518,2,0,P|89:93|134:135,1,110,2|2,3:2|3:2,0:0:0:0:
223,312,716756,6,0,B|261:340|320:331|349:295|349:295|392:286|426:309,1,220,10|0,3:2|3:0,0:0:0:0:
441,325,717113,1,0,3:0:0:0:
276,236,717232,2,0,P|266:190|302:141,1,110,10|0,0:2|0:0,0:0:0:0:
425,41,717470,2,0,P|390:72|329:65,1,110,2|2,3:2|3:2,0:0:0:0:
182,10,717708,2,0,P|226:24|251:80,1,110,10|0,0:2|0:0,0:0:0:0:
34,231,717947,6,0,B|17:182|41:141|41:141|32:96|32:96|51:63|40:14,1,220,4|10,3:0|0:0,0:0:0:0:
215,202,718304,2,0,P|163:217|115:192,1,110,0|0,3:0|3:0,0:0:0:0:
315,87,718542,1,0,3:0:0:0:
404,218,718661,2,0,B|417:264|417:264|398:323,1,110,10|0,0:0|0:0,0:0:0:0:
256,37,718899,6,0,P|355:22|383:119,1,220,0|10,3:0|0:0,0:0:0:0:
373,134,719256,1,0,3:0:0:0:
478,34,719375,1,0,3:0:0:0:
468,225,719494,1,0,3:0:0:0:
250,50,719613,2,0,P|199:36|152:61,1,110,10|0,0:0|0:0,0:0:0:0:
296,325,719851,6,0,B|354:341|394:299|394:299|416:325|448:332|448:332|425:340|400:335,1,220,4|10,3:2|0:0,0:0:0:0:
280,319,720208,1,0,3:0:0:0:
468,225,720328,2,0,P|477:168|450:122,1,110,0|0,3:0|3:0,0:0:0:0:
210,37,720566,6,0,B|155:60|144:120|175:165|175:165|176:206|152:229,1,220,10|0,0:0|3:0,0:0:0:0:
140,243,720923,1,0,3:0:0:0:
237,113,721042,2,0,B|277:102|277:102|346:121,1,110,12|0,0:2|0:0,0:0:0:0:
484,222,721280,1,2,3:0:0:0:
484,222,721359,1,2,3:0:0:0:
484,222,721439,1,2,3:0:0:0:
484,222,721518,2,0,B|444:211|444:211|375:230,1,110,8|2,3:0|3:1,0:0:0:0:
216,360,721756,6,0,B|201:308|201:308|214:245|214:245|193:182|193:182|195:213|185:240,1,242.000007385254,4|0,3:1|3:0,0:0:0:0:
377,229,722113,2,0,B|391:177|391:177|379:114|379:114|399:51|399:51|398:82|408:109,1,242.000007385254,4|0,3:0|3:0,0:0:0:0:
413,294,722470,2,0,P|354:302|310:264,1,121.000003692627,4|0,3:2|0:0,0:0:0:0:
266,19,722708,6,0,P|279:82|160:57,1,242.000007385254,8|0,0:0|3:1,0:0:0:0:
163,53,723006,1,0,3:1:0:0:
166,48,723066,1,2,3:1:0:0:
169,43,723125,1,2,3:1:0:0:
172,38,723185,6,0,B|205:134|205:134|190:194,1,165.000006294251,8|8,0:0|0:0,0:0:0:0:
155,268,723542,1,8,0:0:0:0:
316,162,723661,6,0,P|373:148|424:178,1,121.000003692627,4|8,3:1|0:3,0:0:0:0:
252,332,723899,1,10,0:0:0:0:
155,268,724018,2,0,B|115:251|115:251|37:263,1,121.000003692627,8|0,0:3|3:0,0:0:0:0:
252,332,724256,1,8,3:0:0:0:
323,178,724375,6,0,B|301:0|301:0|288:62,1,242.000007385254,10|0,0:0|3:0,0:0:0:0:
323,268,724732,1,8,0:3:0:0:
228,159,724851,6,0,B|194:157|172:139|172:139|156:137|140:143|140:143|152:148|165:157,1,121.000003692627,10|8,0:0|0:3,0:0:0:0:
406,211,725089,6,0,B|440:209|462:191|462:191|478:189|494:195|494:195|482:200|469:209,1,121.000003692627,0|8,3:0|0:3,0:0:0:0:
160,307,725328,6,0,B|126:305|104:287|104:287|88:285|72:291|72:291|84:296|97:305,1,121.000003692627,10|8,0:0|0:3,0:0:0:0:
372,351,725566,6,0,B|406:349|428:331|428:331|444:329|460:335|460:335|448:340|435:349,2,121.000003692627,0|8|10,3:0|0:3|0:0,0:0:0:0:
156,172,725923,6,0,B|141:132|145:90|145:90|133:113|135:130,1,121.000003692627,8|0,0:3|3:0,0:0:0:0:
279,293,726161,1,8,0:3:0:0:
392,133,726280,6,0,B|407:93|403:51|403:51|415:74|413:91,1,121.000003692627,10|8,0:0|0:3,0:0:0:0:
331,340,726518,6,0,B|307:379|241:375|215:330|215:330|185:315|150:317|150:317|165:307|185:301,1,242.000007385254,0|10,3:0|0:0,0:0:0:0:
242,92,726875,1,8,0:3:0:0:
279,293,726994,2,0,B|292:242|292:242|271:172,1,121.000003692627,0|8,3:0|0:3,0:0:0:0:
242,92,727232,1,10,0:0:0:0:
344,118,727351,1,8,0:3:0:0:
155,17,727470,6,0,P|109:4|51:46,2,121.000003692627,4|8|10,3:0|0:3|0:0,0:0:0:0:
344,118,727828,2,0,P|298:131|240:89,2,121.000003692627,8|0|8,0:3|3:0|0:3,0:0:0:0:
496,176,728185,6,0,B|510:213|505:251|505:251|474:301|469:351|469:351|466:322|453:291,1,242.000007385254,10|0,0:1|3:0,0:0:0:0:
414,76,728542,1,8,0:3:0:0:
336,286,728661,6,0,B|305:296|278:292|278:292|255:291|236:293|236:293|253:284,1,121.000003692627,10|8,0:1|0:3,0:0:0:0:
50,218,728899,6,0,B|80:230|107:229|107:229|130:230|149:233|149:233|132:223,1,121.000003692627,0|8,3:0|0:3,0:0:0:0:
398,134,729137,6,0,B|367:146|340:145|340:145|317:146|298:149|298:149|315:139,1,121.000003692627,10|8,0:1|0:3,0:0:0:0:
35,43,729375,6,0,B|63:58|91:58|91:58|113:61|132:67|132:67|117:55,1,121.000003692627,4|8,3:1|0:3,0:0:0:0:
470,77,729613,1,10,0:1:0:0:
398,134,729732,6,0,B|367:146|340:145|340:145|317:146|298:149|298:149|315:139,1,121.000003692627,8|0,0:3|3:0,0:0:0:0:
0,158,729970,1,8,0:3:0:0:
50,218,730089,6,0,B|80:230|107:229|107:229|130:230|149:233|149:233|132:223,1,121.000003692627,10|8,0:1|0:3,0:0:0:0:
353,296,730328,5,4,3:2:0:0:
414,73,730447,1,8,0:3:0:0:
414,73,730566,1,10,0:1:0:0:
268,160,730685,1,4,0:2:0:0:
351,24,730804,2,0,P|401:-4|459:9,2,121.000003692627,0|0|10,3:0|3:3|0:1,0:0:0:0:
268,160,731161,1,8,0:3:0:0:
512,74,731280,6,0,B|538:120|521:166|477:188|477:188|492:226|494:266|494:266|499:247|505:232,1,242.000007385254,4|10,3:0|0:2,0:0:0:0:
508,232,731637,1,8,0:3:0:0:
446,115,731756,2,0,B|409:98|409:98|330:110,1,121.000003692627,0|8,3:0|0:3,0:0:0:0:
113,265,731994,6,0,B|177:242|177:242|350:270,1,242.000007385254,10|0,0:2|0:0,0:0:0:0:
27,318,732351,1,8,0:3:0:0:
95,121,732470,6,0,B|99:90|90:66|90:66|79:39|90:15|90:15|90:25|97:35,1,121.000003692627,10|8,0:2|0:3,0:0:0:0:
224,226,732708,6,0,B|225:257|214:280|214:280|200:306|209:331|209:331|210:321|218:311,1,121.000003692627,0|8,3:0|0:3,0:0:0:0:
324,120,732947,6,0,B|328:89|319:65|319:65|308:38|319:14|319:14|319:24|326:34,1,121.000003692627,10|8,0:2|0:3,0:0:0:0:
453,225,733185,6,0,B|454:256|443:279|443:279|429:305|438:330|438:330|439:320|447:310,2,121.000003692627,4|8|10,3:2|0:3|0:2,0:0:0:0:
324,120,733542,6,0,B|328:89|319:65|319:65|308:38|319:14|319:14|319:24|326:34,2,121.000003692627,8|0|8,0:3|3:0|0:3,0:0:0:0:
224,226,733899,6,0,B|225:257|214:280|214:280|200:306|209:331|209:331|210:321|218:311,1,121.000003692627,10|8,0:2|0:3,0:0:0:0:
32,197,734137,6,0,B|39:139|22:94|22:94|2:43|22:0|22:0|22:17|32:39,1,242.000007385254,0|10,3:0|0:2,0:0:0:0:
42,53,734494,1,8,0:3:0:0:
115,269,734613,6,0,B|118:302|104:327|104:327|104:343|112:358|112:358|116:345|122:331,1,121.000003692627,0|8,3:0|0:3,0:0:0:0:
252,127,734851,1,10,0:2:0:0:
323,347,734970,1,8,0:3:0:0:
333,57,735089,6,0,B|369:9|441:20|441:20|467:53|521:57|521:57|512:70|494:75,1,242.000007385254,4|10,3:0|0:2,0:0:0:0:
252,127,735447,2,0,B|222:137|190:110|159:122|159:122|169:135|185:134,1,121.000003692627,8|0,0:3|3:0,0:0:0:0:
355,168,735685,1,8,0:3:0:0:
140,199,735804,2,0,P|87:145|187:46,1,242.000007385254,10|0,0:2|3:0,0:0:0:0:
191,49,736161,1,0,3:0:0:0:
162,335,736280,5,10,0:0:0:0:
206,155,736399,1,0,3:0:0:0:
320,294,736518,1,8,3:1:0:0:
362,316,736597,1,2,3:0:0:0:
410,312,736677,1,2,3:0:0:0:
450,286,736756,2,0,P|481:272|528:285,2,80.6666691284181,8|4|4,3:0|3:0|3:0,0:0:0:0:
379,238,736994,6,0,B|386:209|398:188|398:188|388:155|393:122|393:122|382:93|353:70|353:70|368:95|368:126,1,242.000007385254,4|0,3:1|3:0,0:0:0:0:
129,206,737351,6,0,B|123:178|110:156|110:156|120:123|115:90|115:90|126:61|155:38|155:38|140:63|140:94,1,242.000007385254,4|0,3:1|3:0,0:0:0:0:
183,259,737708,6,0,P|128:283|74:259,1,121.000003692627,4|0,3:0|0:0,0:0:0:0:
294,56,737947,6,0,P|408:66|361:168,1,264,4|0,3:1|2:0,0:0:0:0:
341,185,738423,6,0,P|407:159|463:201,1,146.666666666667,2|0,3:1|2:0,0:0:0:0:
464,224,738899,5,2,0:0:0:0:
464,224,739613,5,2,2:3:0:0:
361,333,739851,1,2,2:3:0:0:
287,348,739970,1,2,2:3:0:0:
237,294,740089,1,2,2:3:0:0:
258,224,740208,1,2,2:3:0:0:
331,207,740328,1,2,2:3:0:0:
382,261,740447,1,2,2:3:0:0:
361,333,740566,5,4,3:1:0:0:
181,238,740685,1,2,3:1:0:0:
406,188,740804,5,2,3:2:0:0:
406,188,741518,5,2,2:3:0:0:
83,106,741756,1,2,2:3:0:0:
157,91,741875,1,2,2:3:0:0:
207,145,741994,1,2,2:3:0:0:
186,215,742113,1,2,2:3:0:0:
113,232,742233,1,2,2:3:0:0:
62,178,742352,1,2,2:3:0:0:
83,106,742470,2,0,P|87:66|63:31,1,82.5000031471254,12|0,0:1|2:0,0:0:0:0:
36,252,742708,5,4,3:2:0:0:
234,189,742828,1,2,2:3:0:0:
197,335,742947,1,8,0:0:0:0:
197,335,743066,1,2,2:3:0:0:
425,208,743185,5,10,0:0:0:0:
320,273,743304,1,0,3:0:0:0:
153,142,743423,1,8,3:0:0:0:
163,152,743502,1,4,3:0:0:0:
163,152,743581,1,4,3:0:0:0:
163,152,743661,6,0,P|159:109|181:74,1,82.5000031471254,2|10,3:1|0:1,0:0:0:0:
333,192,743899,1,0,3:0:0:0:
455,55,744018,1,0,3:0:0:0:
159,11,744137,5,12,0:2:0:0:
132,16,744216,1,8,3:0:0:0:
104,21,744296,1,4,3:0:0:0:
77,26,744375,1,2,3:1:0:0:
23,143,744494,1,2,3:1:0:0:
159,11,744613,6,0,B|225:19|225:19|203:22,1,82.5,4|0,3:0|0:0,0:0:0:0:
365,51,744851,2,0,B|294:60|294:60|317:63,1,90.7500027694703,2|0,0:3|0:0,0:0:0:0:
130,89,745089,2,0,B|209:99|209:99|190:101,1,98.9999969787599,2|0,0:3|0:0,0:0:0:0:
379,137,745328,2,0,B|290:148|290:148|307:150,1,107.249995090485,2|0,0:3|0:0,0:0:0:0:
100,172,745566,2,0,B|197:184|197:184|178:187,1,115.49999647522,8|0,0:0|0:0,0:0:0:0:
394,229,745804,2,0,B|291:242|291:242|311:244,1,123.750004720688,2|0,2:3|0:0,0:0:0:0:
78,259,746042,2,0,B|187:273|187:273|166:276,1,132,2|0,2:3|0:0,0:0:0:0:
403,321,746280,2,0,B|286:335|286:335|309:339,1,140.250002675057,2|0,2:3|0:0,0:0:0:0:
55,345,746518,5,6,3:1:0:0:
55,345,746756,6,0,L|26:340,2,24.4444444444444,2|8|4,0:0|0:0|0:0,0:0:0:0:
155,339,746994,2,0,L|126:334,2,24.4444444444444,2|8|4,0:1|0:1|0:1,0:0:0:0:
255,333,747232,2,0,L|226:328,2,24.4444444444444,2|8|4,0:3|0:3|0:3,0:0:0:0:
355,327,747470,2,0,L|326:322,2,24.4444444444444,2|8|4,0:0|0:0|0:0,0:0:0:0:
469,254,747708,6,0,L|498:248,2,29.3333333333333,2|8|4,0:0|0:0|0:0,0:0:0:0:
366,247,747946,2,0,L|395:241,2,29.3333333333333,2|8|4,0:1|0:1|0:1,0:0:0:0:
263,241,748184,2,0,L|292:235,2,29.3333333333333,2|8|4,0:3|0:3|0:3,0:0:0:0:
160,235,748422,2,0,L|189:229,2,29.3333333333333,2|8|4,0:0|0:0|0:0,0:0:0:0:
55,154,748661,6,0,L|19:147,2,36.6666666666667,2|8|4,0:0|0:0|0:0,0:0:0:0:
178,145,748899,2,0,L|142:138,2,36.6666666666667,2|8|4,0:1|0:1|0:1,0:0:0:0:
302,138,749137,2,0,L|266:131,2,36.6666666666667,2|8|4,0:3|0:3|0:3,0:0:0:0:
425,131,749375,2,0,L|389:124,2,36.6666666666667,2|8|4,0:0|0:0|0:0,0:0:0:0:
469,38,749613,6,0,L|511:30,2,43.9999986572266,2|8|4,0:0|0:0|0:0,0:0:0:0:
339,28,749851,2,0,L|381:20,2,43.9999986572266,2|8|4,0:1|0:1|0:1,0:0:0:0:
209,18,750089,2,0,L|251:10,2,43.9999986572266,2|8|4,0:3|0:3|0:3,0:0:0:0:
48,15,750327,5,6,3:1:0:0:
81,339,751280,5,4,3:1:0:0:
272,147,752232,5,4,3:1:0:0:
256,192,752292,12,0,757947,0:0:0:0:
