osu file format v14

[General]
AudioFilename: audio.mp3
AudioLeadIn: 0
PreviewTime: 188266
Countdown: 0
SampleSet: Drum
StackLeniency: 0.2
Mode: 0
LetterboxInBreaks: 0
WidescreenStoryboard: 0

[Editor]
Bookmarks: 46942,56023,66401,89753,154455,216888,242834,341428,356995,360887
DistanceSpacing: 0.87
BeatDivisor: 4
GridSize: 4
TimelineZoom: 1.7

[Metadata]
Title:Toki ni Kagami wa Uso o Tsuku
TitleUnicode:時に鏡は嘘をつく
Artist:Tears Of Tragedy
ArtistUnicode:Tears Of Tragedy
Creator:Hey lululu
Version:Mendacity or Truth
Source:
Tags:TRINITY haruka toru yohei hayato hideyuki symphonic melodic power metal japanese lu^3 ScubDomino
BeatmapID:2718544
BeatmapSetID:1311668

[Difficulty]
HPDrainRate:6
CircleSize:4.5
OverallDifficulty:9
ApproachRate:9.4
SliderMultiplier:1.8
SliderTickRate:1

[Events]
//Background and Video events
0,0,"BG.jpg",0,0
//Break Periods
2,115898,133321
2,243034,246186
//Storyboard Layer 0 (Background)
//Storyboard Layer 1 (Fail)
//Storyboard Layer 2 (Pass)
//Storyboard Layer 3 (Foreground)
//Storyboard Layer 4 (Overlay)
//Storyboard Sound Samples

[TimingPoints]
19699,324.324324324324,4,3,1,70,1,0
20996,-125,4,3,1,70,0,0
21726,-125,4,3,1,5,0,0
21807,-125,4,3,1,70,0,0
23590,-100,4,3,1,70,0,0
26185,-66.6666666666667,4,3,1,80,0,0
33969,-100,4,3,1,80,0,0
36563,-83.3333333333333,4,3,1,70,0,0
46942,-71.4285714285714,4,3,1,80,0,0
52131,-100,4,2,1,50,0,0
53347,-100,4,2,1,5,0,0
53428,-100,4,2,1,50,0,0
53915,-181.818181818182,4,2,1,60,0,0
56023,-250,4,2,1,60,0,0
60563,-100,4,3,1,60,0,0
65104,-71.4285714285714,4,3,1,70,0,0
70942,-83.3333333333333,4,3,1,70,0,0
71266,-66.6666666666667,4,3,1,70,0,0
71590,-71.4285714285714,4,3,1,70,0,0
76617,-83.3333333333333,4,3,1,70,0,0
87158,-153.846153846154,4,2,1,70,0,0
89104,-100,4,3,1,70,0,0
89753,-66.6666666666667,4,3,1,80,0,1
93644,-62.5,4,3,1,80,0,1
94942,-66.6666666666667,4,3,1,80,0,1
97536,-62.5,4,3,1,80,0,1
98834,-66.6666666666667,4,3,1,80,0,1
104023,-62.5,4,3,1,80,0,1
105320,-66.6666666666667,4,3,1,80,0,1
107915,-62.5,4,3,1,80,0,1
109212,-66.6666666666667,4,3,1,80,0,1
110509,-66.6666666666667,4,3,1,70,0,0
111644,-66.6666666666667,4,3,1,80,0,1
113104,-100,4,2,1,80,0,1
115698,-100,4,3,1,80,0,0
133861,-71.4285714285714,4,3,1,70,0,0
138401,-66.6666666666667,4,3,1,70,0,0
139050,-71.4285714285714,4,3,1,70,0,0
140671,-66.6666666666667,4,3,1,70,0,0
140996,-71.4285714285714,4,3,1,70,0,0
146185,-83.3333333333333,4,3,1,70,0,0
146509,-66.6666666666667,4,3,1,70,0,0
146834,-71.4285714285714,4,3,1,70,0,0
148780,-83.3333333333333,4,3,1,70,0,0
149104,-66.6666666666667,4,3,1,70,0,0
149428,-71.4285714285714,4,3,1,70,0,0
154455,-83.3333333333333,4,3,1,70,0,0
164834,-153.846153846154,4,2,1,70,0,0
166942,-153.846153846154,4,2,1,60,0,0
167590,-66.6666666666667,4,3,1,80,0,1
171481,-62.5,4,3,1,80,0,1
172779,-66.6666666666667,4,3,1,80,0,1
175373,-62.5,4,3,1,80,0,1
176671,-66.6666666666667,4,3,1,80,0,1
181861,-62.5,4,3,1,80,0,1
183158,-66.6666666666667,4,3,1,80,0,1
185752,-62.5,4,3,1,80,0,1
187050,-66.6666666666667,4,3,1,80,0,1
188347,-200,4,2,2,60,0,0
188428,-200,4,2,2,60,0,0
196131,-100,4,2,1,60,0,0
197753,-100,4,2,1,50,0,0
198077,-100,4,2,1,70,0,0
198726,-100,4,3,1,70,0,0
204239,-90.9090909090909,4,3,1,70,0,0
204563,-83.3333333333333,4,3,1,70,0,0
204888,-76.9230769230769,4,3,1,70,0,0
205212,-71.4285714285714,4,3,1,70,0,0
206509,-83.3333333333333,4,3,1,70,0,0
207915,-76.9230769230769,4,3,1,70,0,0
208239,-71.4285714285714,4,3,1,70,0,0
208563,-66.6666666666667,4,3,1,70,0,0
209104,-142.857142857143,4,2,1,70,0,0
210320,-142.857142857143,4,2,1,5,0,0
210401,-66.6666666666667,4,3,1,70,0,0
211536,-66.6666666666667,4,3,1,80,0,0
240239,-100,4,3,1,70,0,0
246726,324.324324324324,6,2,3,50,1,0
250293,-100,6,3,1,60,0,0
250617,-83.3333333333333,6,3,3,60,0,0
254185,-83.3333333333333,6,3,1,70,0,0
254509,-71.4285714285714,6,3,1,80,0,0
258401,324.324324324324,4,3,1,65,1,0
266833,-100,4,3,1,60,0,0
267157,-100,4,3,1,70,0,0
267482,-200,4,2,1,70,0,0
268698,-200,4,2,1,5,0,0
268779,-100,4,3,1,70,0,0
270076,-71.4285714285714,4,3,1,70,0,0
280292,-83.3333333333333,4,3,1,70,0,0
285482,-125,4,3,1,70,0,0
288076,-83.3333333333333,4,3,1,70,0,0
290833,-142.857142857143,4,2,1,70,0,0
292779,-200,4,2,1,70,0,0
293995,-200,4,2,1,5,0,0
294076,-125,4,3,1,70,0,0
294400,-100,4,3,1,70,0,0
294725,-66.6666666666667,4,3,1,80,0,1
298616,-62.5,4,3,1,80,0,1
299914,-66.6666666666667,4,3,1,80,0,1
302508,-62.5,4,3,1,80,0,1
303806,-66.6666666666667,4,3,1,80,0,1
308995,-62.5,4,3,1,80,0,1
310292,-66.6666666666667,4,3,1,80,0,1
312887,-62.5,4,3,1,80,0,1
314184,-66.6666666666667,4,3,1,80,0,1
315482,-66.6666666666667,4,3,1,80,0,1
319373,-62.5,4,3,1,80,0,1
320671,-66.6666666666667,4,3,1,80,0,1
323265,-62.5,4,3,1,80,0,1
324563,-66.6666666666667,4,3,1,80,0,1
325860,-500,4,2,1,60,0,0
330725,-100,4,2,1,60,0,0
331049,-250,4,2,1,70,0,0
334941,-100,4,3,1,70,0,0
337373,-83.3333333333333,4,3,1,70,0,1
338833,-153.846153846154,4,2,1,70,0,1
341428,-83.3333333333333,4,3,1,70,0,0
351806,-66.6666666666667,4,3,1,80,0,1
356995,-117.647058823529,4,2,1,80,0,0
359590,-117.647058823529,4,3,1,70,0,0
360887,526.315789473684,4,2,1,80,1,0
361413,535.714285714286,4,2,1,75,1,0
361948,545.454545454546,4,2,1,70,1,0
362493,606.060606060606,4,2,1,65,1,0
363099,439.882697947214,4,2,1,70,1,0
363979,324.324324324324,4,2,1,50,1,0
364141,-100,4,2,1,60,0,0
364303,-100,4,2,1,70,0,0
364465,348.837209302326,4,2,1,80,1,0
365860,344.827586206897,4,2,1,70,1,0
367239,337.078651685393,4,2,1,60,1,0
367239,-250,4,2,1,60,0,0
369935,-212.765957446809,4,2,1,70,0,0
371283,-212.765957446809,4,2,1,60,0,0
372632,-212.765957446809,4,2,1,50,0,0
373980,-212.765957446809,4,2,1,40,0,0
375328,-212.765957446809,4,2,1,30,0,0
375834,-212.765957446809,4,2,1,10,0,0

[Colours]
Combo1 : 123,123,189
Combo2 : 192,192,192
Combo3 : 128,128,128
Combo4 : 189,189,255

[HitObjects]
24,172,20996,6,0,B|80:188|144:148|144:148|172:191|230:225|230:225|182:226|151:263,1,324,4|0,3:2|2:0,0:0:0:0:
167,283,21807,1,4,0:1:0:0:
243,91,21969,1,0,1:0:0:0:
292,81,22050,1,0,1:0:0:0:
334,73,22131,1,0,1:0:0:0:
369,67,22212,1,0,1:0:0:0:
397,61,22293,1,4,1:0:0:0:
418,56,22374,1,0,1:0:0:0:
432,53,22455,5,2,2:0:0:0:
330,221,22617,1,2,2:0:0:0:
427,328,22780,1,4,0:1:0:0:
427,328,23104,5,2,2:0:0:0:
478,243,23266,1,2,2:0:0:0:
429,190,23428,1,2,2:0:0:0:
271,384,23590,5,2,1:2:0:0:
271,384,23698,2,0,L|284:307,1,60,0|0,1:2|1:2,0:0:0:0:
305,221,23915,1,2,1:2:0:0:
305,221,24023,2,0,L|318:144,1,60,0|0,1:2|1:2,0:0:0:0:
192,69,24239,5,2,1:2:0:0:
148,58,24320,1,0,1:2:0:0:
107,74,24401,1,0,1:2:0:0:
82,110,24482,1,0,1:2:0:0:
83,155,24563,1,2,1:2:0:0:
109,191,24644,1,0,1:2:0:0:
151,205,24726,1,0,1:2:0:0:
193,193,24807,1,0,1:2:0:0:
221,159,24888,6,0,B|227:128|227:128|203:75,2,60,4|0|0,0:2|2:0|2:0,0:0:0:0:
202,340,25212,2,0,B|196:309|196:309|220:256,2,60,4|0|0,2:3|2:0|2:0,0:0:0:0:
423,384,25536,5,0,1:0:0:0:
414,339,25617,1,0,1:0:0:0:
406,295,25698,1,0,1:0:0:0:
398,251,25780,1,0,1:0:0:0:
390,206,25861,1,0,1:0:0:0:
382,162,25942,1,0,1:0:0:0:
373,118,26023,1,0,1:0:0:0:
365,74,26104,1,0,1:0:0:0:
357,29,26185,5,4,1:2:0:0:
357,29,26266,1,0,0:0:0:0:
357,29,26347,2,0,P|388:22|440:58,1,67.5000025749208,10|0,0:1|0:0,0:0:0:0:
380,176,26509,1,0,1:0:0:0:
380,176,26590,1,0,0:0:0:0:
380,176,26671,2,0,P|349:183|297:147,1,67.5000025749208,10|0,0:1|0:0,0:0:0:0:
485,0,26834,5,0,1:0:0:0:
485,0,26915,1,0,0:0:0:0:
485,0,26996,2,0,P|506:23|501:86,1,67.5000025749208,10|0,0:1|0:0,0:0:0:0:
256,225,27158,1,0,1:0:0:0:
256,225,27239,1,0,0:0:0:0:
256,225,27320,2,0,P|234:201|239:138,1,67.5000025749208,10|0,0:1|0:0,0:0:0:0:
461,299,27482,5,0,1:0:0:0:
428,306,27563,1,0,0:0:0:0:
395,313,27644,1,10,0:1:0:0:
362,320,27726,1,0,0:0:0:0:
331,355,27807,1,0,1:0:0:0:
298,347,27888,1,0,0:0:0:0:
265,340,27969,1,10,0:1:0:0:
232,333,28050,1,0,0:0:0:0:
181,349,28131,5,0,1:0:0:0:
204,305,28212,1,0,0:0:0:0:
187,259,28293,1,10,0:1:0:0:
142,240,28374,1,0,0:0:0:0:
97,260,28455,5,0,1:0:0:0:
49,270,28536,1,0,0:0:0:0:
8,243,28617,1,10,0:1:0:0:
0,194,28698,1,0,0:0:0:0:
28,154,28780,5,0,1:0:0:0:
28,154,28861,1,0,0:0:0:0:
28,154,28942,2,0,L|52:233,1,67.5000025749208,10|0,0:1|0:0,0:0:0:0:
77,313,29104,1,0,1:0:0:0:
77,313,29185,1,0,0:0:0:0:
77,313,29266,2,0,L|101:392,1,67.5000025749208,10|0,0:1|0:0,0:0:0:0:
245,251,29428,5,0,1:0:0:0:
253,218,29509,1,0,0:0:0:0:
262,185,29590,1,10,0:1:0:0:
271,153,29671,1,0,0:0:0:0:
228,96,29753,5,0,1:0:0:0:
242,150,29834,1,0,0:0:0:0:
257,204,29915,1,10,0:1:0:0:
271,259,29996,1,0,0:0:0:0:
288,317,30077,5,0,1:0:0:0:
358,253,30158,1,0,0:0:0:0:
376,167,30239,1,10,0:1:0:0:
346,91,30320,1,0,0:0:0:0:
282,52,30401,1,0,1:0:0:0:
214,50,30482,1,0,0:0:0:0:
161,80,30563,1,10,0:1:0:0:
133,126,30644,1,0,0:0:0:0:
126,173,30726,1,0,1:0:0:0:
138,211,30807,1,0,0:0:0:0:
156,239,30888,1,10,0:1:0:0:
178,254,30969,1,0,0:0:0:0:
196,261,31050,1,0,1:0:0:0:
216,263,31131,1,0,0:0:0:0:
229,263,31212,1,10,0:1:0:0:
235,261,31293,1,0,0:0:0:0:
241,258,31374,5,4,1:2:0:0:
243,224,31455,1,0,0:0:0:0:
257,194,31536,2,0,P|291:215|315:269,1,67.5000025749208,10|0,0:1|0:0,0:0:0:0:
422,297,31698,1,0,1:0:0:0:
424,330,31780,1,0,0:0:0:0:
438,361,31861,2,0,P|471:340|495:286,1,67.5000025749208,10|0,0:1|0:0,0:0:0:0:
503,104,32023,5,0,1:0:0:0:
471,114,32104,1,0,0:0:0:0:
444,134,32185,1,10,0:1:0:0:
424,161,32266,1,0,0:0:0:0:
414,193,32347,5,0,1:0:0:0:
407,144,32428,1,0,0:0:0:0:
382,100,32509,1,10,0:1:0:0:
342,69,32590,1,0,0:0:0:0:
293,55,32671,5,0,1:0:0:0:
279,86,32753,1,0,0:0:0:0:
265,116,32834,2,0,L|179:140,1,67.5000025749208,10|0,0:1|0:0,0:0:0:0:
97,236,32996,1,0,1:0:0:0:
82,205,33077,1,0,0:0:0:0:
68,175,33158,2,0,L|-18:151,1,67.5000025749208,10|0,0:1|0:0,0:0:0:0:
50,325,33320,5,0,1:0:0:0:
93,315,33401,1,0,0:0:0:0:
137,305,33482,1,10,0:1:0:0:
181,295,33563,1,0,0:0:0:0:
211,244,33644,5,0,1:0:0:0:
273,258,33726,1,0,0:0:0:0:
337,273,33807,1,10,0:1:0:0:
401,287,33888,1,0,0:0:0:0:
414,311,33969,5,0,0:0:0:0:
414,311,35266,6,0,B|425:337|410:365|410:365|405:339|383:314|383:314|387:288|405:266|405:266|394:250|390:226|390:226|402:197|388:164,1,270,4|0,0:2|0:0,0:0:0:0:
462,100,35915,1,0,0:0:0:0:
417,32,36077,1,0,0:0:0:0:
320,10,36239,1,0,0:0:0:0:
221,72,36401,1,0,0:0:0:0:
243,207,36563,6,0,B|196:212|146:231|146:231|123:216|83:207|83:207|117:210|149:185,1,215.999993408203,4|10,0:2|1:3,0:0:0:0:
401,123,37050,1,0,0:0:0:0:
453,126,37131,1,0,0:0:0:0:
492,161,37212,1,2,0:0:0:0:
502,213,37293,1,0,0:0:0:0:
477,260,37374,6,0,L|427:279,1,53.9999983520508
343,340,37536,2,0,L|309:298,1,53.9999983520508,10|0,1:3|0:0,0:0:0:0:
225,244,37698,2,0,L|253:199,1,53.9999983520508
246,73,37861,6,0,L|296:93,1,53.9999983520508,2|0,0:0|0:0,0:0:0:0:
128,54,38023,2,0,L|162:13,1,53.9999983520508
67,154,38185,2,0,L|38:109,1,53.9999983520508,10|0,1:3|0:0,0:0:0:0:
295,4,38347,5,0,0:0:0:0:
304,57,38428,1,0,0:0:0:0:
314,110,38509,1,2,0:0:0:0:
324,163,38590,1,0,0:0:0:0:
334,216,38671,1,0,0:0:0:0:
408,108,38834,5,10,1:3:0:0:
446,333,38996,2,0,B|434:343|422:364|422:364|422:345|411:318|426:289|426:289|445:271|451:222|451:222|462:268,1,215.999993408203,4|0,0:3|0:0,0:0:0:0:
302,369,39482,6,0,L|314:308,1,53.9999983520508,10|0,1:3|0:0,0:0:0:0:
239,242,39644,2,0,L|251:181,1,53.9999983520508
425,294,39807,6,0,L|413:233,1,53.9999983520508,2|0,0:0|0:0,0:0:0:0:
472,177,39969,2,0,L|460:116,1,53.9999983520508
141,170,40131,6,0,L|153:109,1,53.9999983520508,10|0,1:3|0:0,0:0:0:0:
94,53,40293,2,0,L|106:-8,1,53.9999983520508
296,68,40455,5,2,0:0:0:0:
328,25,40536,1,0,0:0:0:0:
377,5,40617,1,0,0:0:0:0:
426,23,40698,1,0,0:0:0:0:
444,72,40780,1,10,1:3:0:0:
419,118,40861,1,0,0:0:0:0:
368,127,40942,5,0,0:0:0:0:
314,127,41023,1,0,0:0:0:0:
266,103,41104,1,2,0:0:0:0:
233,60,41185,1,0,0:0:0:0:
184,40,41266,1,0,0:0:0:0:
135,58,41347,1,0,0:0:0:0:
117,107,41428,1,10,1:3:0:0:
142,153,41509,1,0,0:0:0:0:
194,162,41590,1,0,0:0:0:0:
227,204,41671,1,0,0:0:0:0:
222,258,41753,6,0,L|203:327,1,53.9999983520508,4|0,0:2|0:0,0:0:0:0:
304,218,41915,2,0,L|318:165,1,53.9999983520508
360,332,42077,2,0,L|341:401,1,53.9999983520508,10|0,1:3|0:0,0:0:0:0:
72,383,42239,2,0,B|68:337|115:322|115:322|145:276|101:209,1,161.999995056153,4|0,0:3|0:0,0:0:0:0:
88,224,42563,6,0,B|84:254|84:254|102:276,1,53.9999983520508
203,177,42726,2,0,B|179:158|179:158|150:163,1,53.9999983520508,10|0,1:3|0:0,0:0:0:0:
194,297,42888,2,0,B|221:285|221:285|232:258,1,53.9999983520508
72,210,43050,6,0,B|44:221|44:221|33:248,1,53.9999983520508,2|0,0:0|0:0,0:0:0:0:
219,164,43212,2,0,B|222:133|222:133|205:111,1,53.9999983520508
197,318,43374,2,0,B|220:336|220:336|249:331,1,53.9999983520508,10|0,1:3|0:0,0:0:0:0:
424,233,43536,5,0,0:0:0:0:
411,180,43617,1,0,0:0:0:0:
398,127,43698,1,2,0:0:0:0:
386,75,43780,1,0,0:0:0:0:
373,23,43861,6,0,B|393:25|393:25|413:11|413:11|390:5,1,53.9999983520508
314,162,44023,2,0,B|294:160|294:160|274:174|274:174|297:180,1,53.9999983520508,10|0,1:3|0:0,0:0:0:0:
492,317,44185,6,0,B|518:280|518:280|450:316|450:316|445:343|445:343|383:375,1,215.999993408203,4|0,0:0|0:0,0:0:0:0:
254,384,44671,2,0,B|261:373|261:373|245:322,1,53.9999983520508,10|0,1:3|0:0,0:0:0:0:
181,242,44834,2,0,B|174:231|174:231|190:180,1,53.9999983520508
451,99,44996,6,0,B|399:126|399:126|350:111|350:111|319:131|277:123,1,161.999995056153,2|0,0:0|0:0,0:0:0:0:
301,126,45320,2,0,P|268:121|242:95,1,53.9999983520508,10|0,1:3|0:0,0:0:0:0:
69,143,45482,5,0,0:0:0:0:
29,108,45563,1,0,0:0:0:0:
23,55,45644,1,2,0:0:0:0:
53,12,45726,1,0,0:0:0:0:
105,1,45807,1,0,0:0:0:0:
150,27,45888,1,0,0:0:0:0:
167,78,45969,5,10,1:3:0:0:
160,104,46050,1,0,0:0:0:0:
154,130,46131,1,0,0:0:0:0:
148,156,46212,1,0,0:0:0:0:
142,183,46293,1,0,0:0:0:0:
136,209,46374,1,0,0:0:0:0:
130,235,46455,6,0,L|72:247,1,53.9999983520508,8|8,1:3|1:3,0:0:0:0:
227,349,46617,1,0,1:0:0:0:
258,373,46698,1,0,1:0:0:0:
298,376,46780,1,0,1:0:0:0:
333,356,46861,1,0,1:0:0:0:
351,321,46942,6,0,P|320:314|268:354,1,62.9999980773926,4|0,1:2|0:0,0:0:0:0:
91,384,47104,1,10,0:0:0:0:
94,368,47185,1,0,0:0:0:0:
98,353,47266,1,0,1:0:0:0:
102,338,47347,1,0,0:0:0:0:
106,322,47428,6,0,B|103:288|84:257|84:257|82:238|72:219|72:219|55:198|31:173|31:173|79:195,1,188.999994232178,10|0,0:0|0:0,0:0:0:0:
115,159,47753,2,0,P|119:196|93:233,1,62.9999980773926,10|0,0:0|0:0,0:0:0:0:
47,180,47915,2,0,B|19:146|19:146|54:55,1,125.999996154785,0|10,1:0|0:0,0:0:0:0:
249,165,48239,5,0,1:0:0:0:
290,185,48320,1,0,0:0:0:0:
336,179,48401,1,10,0:0:0:0:
371,148,48482,1,0,0:0:0:0:
383,103,48563,2,0,P|352:105|317:126,1,62.9999980773926,0|0,1:0|0:0,0:0:0:0:
234,296,48726,5,10,0:0:0:0:
192,316,48807,1,0,0:0:0:0:
146,310,48888,1,0,1:0:0:0:
111,279,48969,1,0,0:0:0:0:
100,234,49050,2,0,P|131:236|166:257,1,62.9999980773926,10|0,0:0|0:0,0:0:0:0:
354,358,49212,5,0,1:0:0:0:
384,350,49293,1,0,0:0:0:0:
415,343,49374,1,10,0:0:0:0:
445,336,49455,1,0,0:0:0:0:
476,328,49536,6,0,L|392:314,1,62.9999980773926,4|0,1:2|0:0,0:0:0:0:
343,239,49698,2,0,L|259:225,1,62.9999980773926,10|0,0:0|0:0,0:0:0:0:
158,300,49861,1,0,1:0:0:0:
158,300,49942,1,0,0:0:0:0:
158,300,50023,1,10,0:0:0:0:
81,119,50185,6,0,B|107:115|124:103|124:103|147:116|186:116|186:116|166:123|152:139,1,125.999996154785,0|10,1:0|0:0,0:0:0:0:
62,187,50509,2,0,P|18:157|27:72,1,125.999996154785,0|10,1:0|0:0,0:0:0:0:
153,202,50753,1,0,0:0:0:0:
153,202,50834,6,0,B|164:235|164:235|142:280,1,62.9999980773926,0|0,1:0|0:0,0:0:0:0:
83,323,50996,2,0,B|72:356|72:356|94:401,1,62.9999980773926,10|0,0:0|0:0,0:0:0:0:
293,350,51158,1,0,1:0:0:0:
323,356,51239,1,0,1:0:0:0:
354,362,51320,1,10,0:0:0:0:
451,322,51482,5,0,1:0:0:0:
345,239,51644,1,0,1:3:0:0:
341,218,51726,1,0,1:3:0:0:
338,197,51807,1,8,1:3:0:0:
334,176,51888,1,8,1:3:0:0:
331,156,51969,1,8,1:3:0:0:
327,135,52050,1,8,1:3:0:0:
324,114,52131,5,4,3:3:0:0:
324,114,52617,2,0,B|393:140|451:83|433:16|433:16|506:115|367:148|435:251,1,405,2|0,0:0|0:0,0:0:0:0:
475,293,53428,5,12,3:3:0:0:
243,49,53915,2,0,B|215:112|143:131|69:98|69:98|120:148|104:213|104:213|154:265|147:326|147:326|206:288|205:244,1,544.500016616822,2|0,0:0|0:0,0:0:0:0:
356,40,56023,6,0,B|331:30|304:-18|304:-18|321:63|355:76|355:76|330:102|325:133|325:133|361:163|371:218|371:218|402:177|386:146,1,432,4|0,3:2|3:0,0:0:0:0:
279,216,58293,1,0,3:0:0:0:
281,340,58617,6,0,B|248:311|217:318|217:318|263:294|333:332|333:332|345:288|402:256|402:256|410:293|375:314,1,360,0|0,3:0|0:0,0:0:0:0:
92,369,60563,5,0,3:0:0:0:
86,324,60644,1,0,3:0:0:0:
81,279,60726,1,0,3:0:0:0:
75,234,60807,1,0,3:0:0:0:
117,216,60888,5,0,1:0:0:0:
122,194,60969,1,0,1:0:0:0:
127,172,61050,1,0,1:0:0:0:
132,150,61131,1,0,1:0:0:0:
104,115,61212,5,4,1:1:0:0:
108,132,61536,1,0,1:0:0:0:
112,149,61861,1,0,1:0:0:0:
116,166,62185,1,0,1:0:0:0:
239,200,62509,5,0,1:0:0:0:
235,217,62834,1,0,1:0:0:0:
231,234,63158,1,0,1:0:0:0:
227,251,63482,1,0,1:0:0:0:
312,353,63807,5,0,1:0:0:0:
398,378,64131,1,0,1:0:0:0:
473,329,64455,1,0,1:0:0:0:
456,240,64780,1,0,1:0:0:0:
169,183,65104,5,0,0:0:0:0:
158,205,65185,1,0,0:0:0:0:
147,227,65266,2,0,B|217:227|186:267|270:270,1,125.999996154785,4|0,0:2|0:0,0:0:0:0:
417,127,65509,1,0,0:0:0:0:
417,127,65590,2,0,B|347:127|378:167|294:170,1,125.999996154785,4|0,0:3|0:0,0:0:0:0:
109,32,65834,1,0,0:0:0:0:
109,32,65915,2,0,B|179:32|148:72|232:75,1,125.999996154785,4|0,0:3|0:0,0:0:0:0:
411,23,66158,1,0,0:0:0:0:
424,1,66239,2,0,L|356:19,1,62.9999980773926,12|0,0:0|0:0,0:0:0:0:
256,192,66401,5,0,1:0:0:0:
120,253,66563,2,0,B|75:272|75:272|-15:251,1,125.999996154785,10|0,0:0|1:0,0:0:0:0:
41,182,66807,1,0,0:0:0:0:
65,187,66888,1,10,0:0:0:0:
175,338,67050,1,0,1:0:0:0:
317,257,67212,2,0,L|443:237,2,125.999996154785,10|0|10,0:0|1:0|0:0,0:0:0:0:
149,101,67698,5,0,1:0:0:0:
114,93,67780,1,0,1:0:0:0:
79,86,67861,1,10,0:0:0:0:
233,15,68023,2,0,B|249:46|249:46|229:79,1,62.9999980773926,0|0,1:0|0:0,0:0:0:0:
188,182,68185,2,0,B|172:213|172:213|192:246,1,62.9999980773926,10|0,0:0|0:0,0:0:0:0:
314,353,68347,2,0,B|360:341|360:341|391:348|391:348|441:337,1,125.999996154785,0|10,1:0|0:0,0:0:0:0:
390,251,68671,1,0,1:0:0:0:
390,251,68753,1,0,1:0:0:0:
390,251,68834,1,10,0:0:0:0:
468,52,68996,6,0,P|499:103|465:159,1,125.999996154785,4|10,1:2|0:0,0:0:0:0:
329,134,69320,1,0,1:0:0:0:
298,128,69401,1,0,0:0:0:0:
267,122,69482,1,10,0:0:0:0:
236,116,69563,1,0,0:0:0:0:
205,111,69644,6,0,B|198:150|170:177|170:177|162:212|193:241,1,125.999996154785,0|10,1:0|0:0,0:0:0:0:
350,340,69969,1,0,1:0:0:0:
381,335,70050,1,0,0:0:0:0:
412,331,70131,1,10,0:0:0:0:
443,326,70212,1,0,0:0:0:0:
474,322,70293,6,0,L|486:254,2,62.9999980773926,0|0|10,1:0|1:0|0:0,0:0:0:0:
272,382,70617,1,0,1:0:0:0:
195,229,70780,1,10,0:0:0:0:
96,344,70942,6,0,B|29:368|-1:315|-1:315|29:335|68:324,1,161.999995056153,4|0,1:3|0:0,0:0:0:0:
40,245,71266,2,0,B|82:223|82:223|50:62,1,202.500007724762,4|0,1:3|0:0,0:0:0:0:
131,17,71590,5,0,1:2:0:0:
162,22,71671,1,0,0:0:0:0:
193,27,71753,1,10,0:0:0:0:
224,32,71834,1,0,0:0:0:0:
255,38,71915,1,0,1:0:0:0:
492,95,72077,5,10,0:0:0:0:
461,100,72158,1,0,0:0:0:0:
430,105,72239,1,0,1:0:0:0:
399,110,72320,1,0,0:0:0:0:
368,116,72401,1,10,0:0:0:0:
270,257,72563,5,0,1:0:0:0:
145,129,72726,1,10,0:0:0:0:
16,290,72888,5,0,1:2:0:0:
46,296,72969,1,0,1:2:0:0:
77,302,73050,1,10,0:0:0:0:
217,380,73212,2,0,B|205:349|205:349|227:304,2,62.9999980773926,0|0|10,1:0|0:0|0:0,0:0:0:0:
381,296,73536,5,0,1:0:0:0:
390,265,73617,1,0,0:0:0:0:
399,235,73698,1,10,0:0:0:0:
378,211,73780,1,0,0:0:0:0:
358,188,73861,1,0,1:0:0:0:
270,257,74023,1,10,0:0:0:0:
101,187,74185,5,0,1:0:0:0:
65,165,74266,1,0,1:0:0:0:
50,127,74347,1,0,1:0:0:0:
61,87,74428,1,0,1:0:0:0:
93,62,74509,1,0,1:0:0:0:
134,62,74590,1,0,1:0:0:0:
167,87,74671,1,4,1:1:0:0:
326,169,74996,5,8,1:3:0:0:
372,162,75077,1,8,1:3:0:0:
419,155,75158,1,8,1:3:0:0:
466,148,75239,1,8,1:3:0:0:
512,141,75320,1,4,1:2:0:0:
512,141,75644,5,8,0:0:0:0:
275,234,75807,5,0,0:0:0:0:
253,211,75888,1,0,0:0:0:0:
242,182,75969,1,0,0:0:0:0:
245,151,76050,1,0,0:0:0:0:
260,123,76131,5,0,1:0:0:0:
276,126,76212,1,0,1:0:0:0:
291,128,76293,1,0,1:0:0:0:
307,130,76374,1,0,1:0:0:0:
322,132,76455,1,8,1:3:0:0:
191,292,76617,6,0,B|138:309|138:309|117:353|117:353|28:380,1,161.999995056153,4|0,0:2|0:0,0:0:0:0:
55,280,76942,1,0,0:0:0:0:
275,234,77104,2,0,P|321:227|371:263,1,107.999996704102,10|0,0:1|0:0,0:0:0:0:
241,365,77428,1,2,1:1:0:0:
176,167,77590,2,0,P|130:160|80:196,1,107.999996704102,0|10,1:0|0:1,0:0:0:0:
375,143,77915,6,0,P|413:88|332:1,1,161.999995056153,0|0,1:0|0:0,0:0:0:0:
305,56,78239,1,0,1:0:0:0:
181,79,78401,2,0,B|119:73|143:53|71:48,1,107.999996704102,10|0,0:1|0:0,0:0:0:0:
83,139,78726,1,2,1:1:0:0:
291,229,78888,1,0,1:0:0:0:
317,222,78969,1,0,1:0:0:0:
343,216,79050,1,10,0:1:0:0:
128,370,79212,6,0,P|62:341|101:248,1,161.999995056153,4|0,0:2|0:0,0:0:0:0:
151,236,79536,1,0,0:0:0:0:
353,241,79698,2,0,L|484:265,1,107.999996704102,10|0,0:1|0:0,0:0:0:0:
284,310,80023,1,2,1:1:0:0:
165,128,80185,2,0,L|34:152,1,107.999996704102,0|10,1:0|0:1,0:0:0:0:
346,94,80509,6,0,B|416:73|455:129|455:129|462:94|424:79,1,161.999995056153,0|0,1:0|0:0,0:0:0:0:
409,17,80834,1,0,1:0:0:0:
165,128,80996,2,0,P|150:81|209:15,1,107.999996704102,10|0,0:1|0:0,0:0:0:0:
245,197,81320,1,2,1:1:0:0:
117,281,81482,1,0,1:0:0:0:
90,275,81563,1,0,1:0:0:0:
64,270,81644,1,10,0:1:0:0:
295,324,81807,6,0,B|340:311|340:311|410:325|410:325|485:308,1,161.999995056153,4|0,0:2|0:0,0:0:0:0:
406,222,82131,1,0,0:0:0:0:
232,277,82293,2,0,P|211:336|253:389,1,107.999996704102,10|0,0:1|0:0,0:0:0:0:
406,222,82617,1,2,1:1:0:0:
341,112,82780,2,0,P|362:53|320:0,1,107.999996704102,0|10,1:0|0:1,0:0:0:0:
110,165,83104,6,0,B|45:179|-7:141|-7:141|-6:170|23:185,1,161.999995056153,0|0,1:0|0:0,0:0:0:0:
54,250,83428,1,0,1:0:0:0:
190,98,83590,2,0,B|206:65|206:65|176:-3,1,107.999996704102,10|0,0:1|0:0,0:0:0:0:
94,70,83915,1,2,1:1:0:0:
200,186,84077,1,0,1:0:0:0:
195,212,84158,1,0,1:0:0:0:
191,239,84239,1,10,0:1:0:0:
341,361,84401,6,0,P|439:363|461:289,1,161.999995056153,4|0,0:2|0:0,0:0:0:0:
371,269,84726,1,0,0:0:0:0:
198,329,84888,2,0,L|84:313,1,107.999996704102,10|0,0:1|1:0,0:0:0:0:
351,155,85212,1,2,1:1:0:0:
351,155,85374,1,0,1:0:0:0:
303,271,85536,1,10,0:1:0:0:
179,115,85698,6,0,B|239:132|308:119|252:45|335:44|407:65,1,215.999993408203,4|0,0:2|0:0,0:0:0:0:
234,195,86185,1,10,0:1:0:0:
426,276,86347,1,0,1:0:0:0:
319,359,86509,6,0,L|257:372,3,53.9999983520508,8|0|0|0,1:1|1:0|1:0|1:0,0:0:0:0:
205,308,86834,2,0,L|143:321,3,53.9999983520508,0|0|0|0,0:0|0:0|1:0|0:0,0:0:0:0:
95,384,87158,6,0,B|73:315|-17:289|-17:289|19:239|-8:152|-8:152|101:203|71:297,1,467.999978576661,4|2,1:2|3:0,0:0:0:0:
475,0,89104,5,0,1:0:0:0:
470,22,89185,1,0,1:0:0:0:
466,44,89266,1,0,1:0:0:0:
462,66,89347,1,0,0:0:0:0:
413,75,89428,5,0,1:0:0:0:
421,119,89509,1,0,1:0:0:0:
429,163,89590,1,0,1:0:0:0:
437,207,89671,1,0,1:0:0:0:
479,238,89753,5,4,1:2:0:0:
372,322,89915,2,0,P|324:279|233:303,1,135.000005149842,10|0,0:0|1:0,0:0:0:0:
181,342,90158,1,0,1:0:0:0:
174,368,90239,1,10,0:0:0:0:
87,255,90401,2,0,B|58:218|58:218|108:115,1,135.000005149842,0|10,1:0|0:0,0:0:0:0:
124,29,90644,2,0,B|164:40|165:88|165:88|143:52|84:51,1,135.000005149842,0|0,0:0|1:0,0:0:0:0:
23,81,90888,1,10,0:0:0:0:
181,216,91050,5,0,1:0:0:0:
254,86,91212,2,0,P|313:47|386:75,1,135.000005149842,10|0,0:0|1:0,0:0:0:0:
428,131,91455,1,0,1:0:0:0:
435,156,91536,1,10,0:0:0:0:
505,287,91698,2,0,B|461:255|408:275|408:275|423:248|459:243,1,135.000005149842,0|10,1:0|0:0,0:0:0:0:
336,303,91942,2,0,P|385:350|462:335,1,135.000005149842,0|0,0:0|1:0,0:0:0:0:
410,275,92185,1,10,0:0:0:0:
181,216,92347,6,0,B|131:203|131:203|38:225,1,135.000005149842,4|10,1:2|0:0,0:0:0:0:
138,296,92671,1,0,1:0:0:0:
138,296,92753,1,0,1:0:0:0:
138,296,92834,1,10,0:0:0:0:
252,161,92996,2,0,P|277:115|216:30,1,135.000005149842,0|10,1:0|0:0,0:0:0:0:
71,120,93239,2,0,L|245:97,1,135.000005149842,0|0,0:0|1:0,0:0:0:0:
317,4,93482,1,10,0:0:0:0:
433,216,93644,6,0,B|426:191|402:168|402:168|401:118|423:110|423:110|440:130|428:145,1,144,4|10,1:2|0:0,0:0:0:0:
497,294,93969,1,0,1:0:0:0:
468,315,94050,1,0,1:0:0:0:
433,318,94131,1,10,0:0:0:0:
227,253,94293,6,0,B|220:278|196:301|196:301|195:351|217:359|217:359|234:339|222:324,1,144,4|10,1:0|0:0,0:0:0:0:
251,146,94617,1,0,1:0:0:0:
208,376,94780,1,10,0:0:0:0:
15,193,94942,6,0,B|-1:161|-1:161|24:114,1,67.5000025749208,4|0,1:2|0:0,0:0:0:0:
103,21,95104,1,10,0:0:0:0:
136,26,95185,1,0,1:0:0:0:
169,31,95266,1,0,1:0:0:0:
202,37,95347,1,0,1:0:0:0:
236,42,95428,1,10,0:0:0:0:
351,114,95590,5,0,1:0:0:0:
385,109,95671,1,0,1:0:0:0:
418,103,95753,1,10,0:0:0:0:
451,98,95834,1,0,1:0:0:0:
484,93,95915,2,0,B|501:63|501:63|480:15,2,67.5000025749208,0|0|10,1:0|1:0|0:0,0:0:0:0:
336,222,96239,6,0,P|318:203|363:111,1,135.000005149842,0|10,1:0|0:0,0:0:0:0:
455,270,96563,1,0,1:0:0:0:
455,270,96644,1,0,1:0:0:0:
455,270,96726,1,10,0:0:0:0:
243,300,96888,2,0,B|203:315|203:315|176:363|176:363|132:380,1,135.000005149842,0|10,1:0|0:0,0:0:0:0:
86,272,97212,1,0,1:0:0:0:
86,272,97293,1,0,1:0:0:0:
86,272,97374,1,10,0:0:0:0:
176,98,97536,6,0,B|174:79|151:54|151:54|164:30|161:-12|161:-12|176:22,1,144,4|10,1:2|0:0,0:0:0:0:
147,218,97861,1,0,1:0:0:0:
175,215,97942,1,0,1:0:0:0:
203,211,98023,1,10,0:0:0:0:
374,271,98185,6,0,B|372:290|349:315|349:315|362:339|359:381|359:381|374:347,1,144,4|10,1:0|0:0,0:0:0:0:
345,151,98509,1,0,1:0:0:0:
398,351,98671,1,10,0:0:0:0:
54,195,98834,6,0,B|27:224|27:224|33:271,1,67.5000025749208,4|0,1:2|0:0,0:0:0:0:
132,330,98996,1,8,0:0:0:0:
179,354,99077,1,8,0:0:0:0:
232,351,99158,1,0,1:0:0:0:
268,313,99239,1,0,1:0:0:0:
263,261,99320,1,0,1:0:0:0:
220,231,99401,1,0,0:0:0:0:
170,245,99482,5,0,1:0:0:0:
200,258,99563,1,0,1:0:0:0:
233,256,99644,1,0,1:0:0:0:
261,237,99726,1,0,1:0:0:0:
276,208,99807,5,0,1:0:0:0:
262,237,99888,1,0,1:0:0:0:
264,271,99969,1,0,1:0:0:0:
283,298,100050,1,0,1:0:0:0:
312,313,100131,5,4,1:2:0:0:
461,287,100293,2,0,L|431:137,1,135.000005149842,10|0,0:0|1:0,0:0:0:0:
484,88,100536,1,0,1:0:0:0:
507,74,100617,1,10,0:0:0:0:
352,0,100780,2,0,P|319:56|235:47,1,135.000005149842,0|10,1:0|0:0,0:0:0:0:
93,73,101023,2,0,P|125:129|209:120,1,135.000005149842,0|0,0:0|1:0,0:0:0:0:
192,18,101266,1,10,0:0:0:0:
284,159,101428,6,0,B|272:211|272:211|279:244|279:244|265:299,1,135.000005149842,0|10,1:0|0:0,0:0:0:0:
183,239,101753,1,0,1:0:0:0:
183,239,101834,1,0,1:0:0:0:
183,239,101915,1,10,0:0:0:0:
295,384,102077,2,0,B|310:376|311:359|311:359|255:392|201:342,1,135.000005149842,0|10,1:0|0:0,0:0:0:0:
366,306,102320,2,0,P|405:251|354:183,1,135.000005149842,0|0,0:0|1:0,0:0:0:0:
284,159,102563,1,10,0:0:0:0:
132,313,102726,6,0,B|92:331|92:331|84:329|84:329|45:356|45:356|36:357|36:357|-17:379,1,135.000005149842,4|10,1:2|0:0,0:0:0:0:
202,356,103050,1,0,1:0:0:0:
218,326,103131,1,0,1:0:0:0:
220,293,103212,1,10,0:0:0:0:
207,262,103293,1,0,0:0:0:0:
183,239,103374,1,0,1:0:0:0:
358,105,103536,5,10,0:0:0:0:
391,109,103617,1,0,0:0:0:0:
424,114,103698,1,0,1:0:0:0:
458,119,103780,1,0,1:0:0:0:
491,124,103861,1,10,0:0:0:0:
124,61,104023,6,0,B|110:68|97:88|97:88|103:63|99:43|99:43|118:14|158:-12,1,144,4|10,1:2|0:0,0:0:0:0:
118,211,104347,1,0,1:0:0:0:
89,217,104428,1,0,1:0:0:0:
67,198,104509,1,10,0:0:0:0:
330,237,104671,6,0,B|343:244|356:264|356:264|350:239|354:219|354:219|335:190|295:163,1,144,4|10,1:0|0:0,0:0:0:0:
266,330,104996,1,0,1:0:0:0:
447,171,105158,1,10,0:0:0:0:
256,61,105320,6,0,B|263:38|263:38|274:26|274:26|285:-11,1,67.5000025749208,4|0,1:2|0:0,0:0:0:0:
167,66,105482,1,10,0:0:0:0:
173,99,105563,1,0,1:0:0:0:
179,132,105644,1,0,1:0:0:0:
186,165,105726,1,0,1:0:0:0:
192,198,105807,1,10,0:0:0:0:
29,301,105969,5,0,1:0:0:0:
29,301,106050,1,0,1:0:0:0:
29,301,106131,2,0,P|74:263|150:288,1,135.000005149842,10|0,0:0|1:0,0:0:0:0:
181,355,106374,1,0,1:0:0:0:
184,381,106455,1,10,0:0:0:0:
385,229,106617,6,0,P|334:189|258:214,1,135.000005149842,0|10,1:0|0:0,0:0:0:0:
192,198,106861,1,0,0:0:0:0:
176,176,106942,1,0,1:0:0:0:
184,143,107023,1,0,1:0:0:0:
192,110,107104,1,10,0:0:0:0:
317,8,107266,5,0,1:0:0:0:
350,13,107347,1,0,0:0:0:0:
383,18,107428,1,10,0:0:0:0:
417,23,107509,1,0,0:0:0:0:
450,28,107590,2,0,B|466:59|466:59|448:95,2,67.5000025749208,0|0|10,1:0|1:0|0:0,0:0:0:0:
408,204,107915,6,0,B|415:230|415:230|429:246|429:246|442:294,1,72,4|0,1:2|0:0,0:0:0:0:
323,350,108077,1,10,0:0:0:0:
277,362,108158,1,0,0:0:0:0:
230,354,108239,1,0,1:0:0:0:
191,326,108320,1,0,1:0:0:0:
168,285,108401,1,10,0:0:0:0:
166,237,108482,1,0,0:0:0:0:
194,196,108563,6,0,B|221:303|221:303|192:345,1,144,4|10,1:0|0:0,0:0:0:0:
108,368,108807,1,0,0:0:0:0:
108,368,108888,1,0,1:0:0:0:
324,241,109050,1,10,0:0:0:0:
55,216,109212,6,0,B|46:182|46:182|67:131,1,67.5000025749208,0|0,1:0|0:0,0:0:0:0:
221,80,109374,1,8,0:0:0:0:
243,84,109455,1,8,0:0:0:0:
265,88,109536,1,0,1:0:0:0:
287,92,109617,1,0,1:0:0:0:
309,96,109698,1,0,1:0:0:0:
331,100,109780,1,0,1:0:0:0:
344,109,109861,5,8,0:0:0:0:
380,145,109942,1,8,0:0:0:0:
374,194,110023,1,8,0:0:0:0:
337,226,110104,1,8,0:0:0:0:
287,226,110185,1,8,0:0:0:0:
237,225,110266,1,8,0:0:0:0:
200,258,110347,1,8,0:0:0:0:
193,307,110428,1,8,0:0:0:0:
221,348,110509,5,2,1:3:0:0:
82,168,110996,5,2,1:3:0:0:
451,27,111644,6,0,B|448:67|461:96|461:96|434:126|422:185|422:185|417:152|398:126,1,202.500007724762,4|0,0:2|0:0,0:0:0:0:
375,78,111969,1,0,1:0:0:0:
263,171,112131,1,10,0:1:0:0:
263,171,112293,1,0,0:0:0:0:
186,24,112455,1,0,1:0:0:0:
152,18,112536,1,0,1:0:0:0:
119,12,112617,1,0,1:0:0:0:
86,6,112698,1,0,1:0:0:0:
52,0,112780,1,14,0:1:0:0:
263,171,113104,6,0,B|273:188|271:209|271:209|213:205|189:150|189:150|218:98|256:59|256:59|293:162|358:191|358:191|353:252|328:298|328:298|398:345|444:311|452:283|452:283|440:299|418:302,1,720,0|0,3:0|3:0,0:0:0:0:
117,373,115698,5,4,0:2:0:0:
186,88,133861,5,4,0:2:0:0:
363,142,134023,2,0,B|393:132|393:132|407:136|407:136|444:126|444:126|458:129|458:129|527:112,1,125.999996154785,10|2,0:0|1:2,0:0:0:0:
501,217,134266,1,0,1:0:0:0:
492,258,134347,1,10,0:0:0:0:
483,299,134428,1,0,0:0:0:0:
474,340,134509,6,0,P|433:298|361:306,1,125.999996154785,2|10,1:2|0:0,0:0:0:0:
210,259,134753,1,0,0:0:0:0:
210,259,134834,2,0,P|251:217|323:225,1,125.999996154785,2|10,1:2|0:0,0:0:0:0:
81,133,135158,5,0,1:2:0:0:
49,129,135239,1,0,1:0:0:0:
18,125,135320,1,10,0:0:0:0:
162,14,135482,2,0,B|197:59|197:59|172:140,1,125.999996154785,2|10,1:2|0:0,0:0:0:0:
210,259,135726,1,0,0:0:0:0:
210,259,135807,2,0,B|175:214|175:214|200:133,1,125.999996154785,2|10,1:2|0:0,0:0:0:0:
295,55,136131,1,2,1:2:0:0:
327,51,136212,1,0,1:0:0:0:
358,47,136293,1,10,0:0:0:0:
512,112,136455,6,0,B|468:124|468:124|452:156|452:156|404:173,1,125.999996154785,6|10,1:2|0:0,0:0:0:0:
324,308,136780,1,2,1:2:0:0:
309,263,136861,1,0,1:0:0:0:
272,235,136942,1,10,0:0:0:0:
226,231,137023,1,0,0:0:0:0:
185,254,137104,6,0,B|161:276|167:313|167:313|191:331|196:366,1,125.999996154785,2|10,1:2|0:0,0:0:0:0:
129,117,137428,2,0,B|134:82|158:64|158:64|164:27|125:-15,1,125.999996154785,2|10,1:2|0:0,0:0:0:0:
0,195,137671,1,0,0:0:0:0:
0,195,137753,6,0,P|62:223|133:171,1,125.999996154785,2|10,1:2|0:0,0:0:0:0:
214,116,138077,1,2,1:2:0:0:
318,268,138239,1,10,0:2:0:0:
446,54,138401,6,0,B|369:51|406:-1|289:-2,1,135.000005149842,4|8,1:2|0:3,0:0:0:0:
164,219,138644,1,0,0:0:0:0:
182,235,138726,2,0,B|258:232|221:179|338:178,1,135.000005149842,6|8,1:2|0:3,0:0:0:0:
304,359,139050,5,6,1:2:0:0:
96,286,139212,1,10,0:0:0:0:
62,253,139293,1,0,0:0:0:0:
50,208,139374,1,2,1:2:0:0:
65,164,139455,1,0,1:0:0:0:
102,135,139536,1,10,0:0:0:0:
248,264,139698,6,0,B|230:308|230:308|231:337|231:337|209:405,1,125.999996154785,2|10,1:2|0:0,0:0:0:0:
344,278,140023,2,0,B|326:234|326:234|327:205|327:205|305:137,1,125.999996154785,2|10,1:2|0:0,0:0:0:0:
343,0,140347,5,2,1:2:0:0:
343,0,140428,1,0,1:0:0:0:
343,0,140509,1,10,0:0:0:0:
491,126,140671,6,0,P|477:164|430:198,1,67.5000025749208,2|0,1:2|0:0,0:0:0:0:
408,290,140834,2,0,P|366:288|320:254,1,67.5000025749208,10|0,0:2|0:0,0:0:0:0:
176,137,140996,6,0,B|133:145|133:145|125:153|125:153|81:171|81:171|50:204,1,125.999996154785,2|10,1:2|0:3,0:0:0:0:
0,47,141320,1,2,1:2:0:0:
0,47,141401,1,0,0:0:0:0:
0,47,141482,1,10,0:3:0:0:
168,59,141644,6,0,P|241:85|239:172,1,125.999996154785,4|10,0:2|0:0,0:0:0:0:
188,216,141888,1,0,1:0:0:0:
188,216,141969,1,2,1:2:0:0:
176,245,142050,1,0,1:0:0:0:
165,274,142131,1,10,0:3:0:0:
180,300,142212,1,0,0:0:0:0:
200,324,142293,6,0,B|249:314|249:314|274:324|274:324|332:312,1,125.999996154785,0|10,1:0|0:0,0:0:0:0:
435,283,142617,1,0,1:0:0:0:
435,283,142698,1,0,1:0:0:0:
435,283,142780,1,10,0:0:0:0:
351,179,142942,5,0,1:0:0:0:
319,175,143023,1,0,1:0:0:0:
288,171,143104,1,10,0:0:0:0:
188,216,143266,1,2,1:2:0:0:
28,82,143428,1,10,0:2:0:0:
137,27,143590,6,0,B|152:57|152:57|140:95,1,62.9999980773926,0|0,1:0|0:0,0:0:0:0:
32,185,143753,2,0,B|17:215|17:215|29:253,1,62.9999980773926,10|0,0:0|0:0,0:0:0:0:
135,313,143915,1,0,1:0:0:0:
131,328,143996,1,0,1:0:0:0:
128,343,144077,1,0,1:0:0:0:
125,359,144158,1,0,1:0:0:0:
122,374,144239,5,4,1:2:0:0:
282,283,144401,1,10,0:0:0:0:
290,260,144482,1,0,0:0:0:0:
280,237,144563,1,0,1:0:0:0:
240,356,144726,2,0,P|307:367|358:326,1,125.999996154785,10|0,0:0|1:0,0:0:0:0:
483,202,145050,1,10,0:0:0:0:
500,288,145212,1,0,1:0:0:0:
417,257,145374,1,10,0:0:0:0:
366,145,145536,5,0,1:0:0:0:
358,114,145617,1,0,1:0:0:0:
350,83,145698,1,10,0:0:0:0:
345,179,145861,1,0,1:0:0:0:
394,17,146023,1,10,0:0:0:0:
168,57,146185,6,0,L|52:86,1,107.999996704102,4|0,1:3|0:0,0:0:0:0:
257,73,146509,1,4,1:3:0:0:
260,40,146590,1,0,0:0:0:0:
247,10,146671,1,0,0:0:0:0:
168,70,146834,6,0,B|155:117|155:117|167:150|167:150|140:230,1,125.999996154785,4|10,1:2|0:0,0:0:0:0:
244,262,147077,1,0,0:0:0:0:
277,255,147158,1,0,1:0:0:0:
310,248,147239,1,0,0:0:0:0:
343,241,147320,1,10,0:0:0:0:
75,301,147482,5,0,1:0:0:0:
56,273,147563,1,0,0:0:0:0:
37,245,147644,1,10,0:0:0:0:
56,217,147726,1,0,0:0:0:0:
76,190,147807,1,0,1:0:0:0:
244,262,147969,1,10,0:0:0:0:
352,100,148131,5,0,1:0:0:0:
360,60,148212,1,0,1:0:0:0:
335,27,148293,1,10,0:0:0:0:
417,198,148455,2,0,B|476:208|496:154|496:154|478:170|455:176,1,125.999996154785,0|10,1:0|0:0,0:0:0:0:
196,151,148780,6,0,B|176:115|192:70|228:49|228:49|199:30|156:60,1,161.999995056153,4|0,1:3|0:0,0:0:0:0:
268,120,149104,2,0,B|292:182|239:219|239:219|190:230|176:297,1,202.500007724762,4|0,1:3|0:0,0:0:0:0:
232,348,149428,5,4,1:2:0:0:
342,308,149590,2,0,P|399:347|471:334,1,125.999996154785,10|0,0:0|1:0,0:0:0:0:
494,276,149834,1,0,0:0:0:0:
486,252,149915,1,10,0:0:0:0:
327,183,150077,5,0,1:0:0:0:
327,183,150239,1,10,0:0:0:0:
217,257,150401,1,0,1:0:0:0:
135,116,150563,1,10,0:0:0:0:
344,196,150726,5,0,1:0:0:0:
374,190,150807,1,0,1:0:0:0:
405,184,150888,1,10,0:0:0:0:
185,326,151050,2,0,P|140:269|158:208,1,125.999996154785,0|10,1:0|0:0,0:0:0:0:
383,275,151374,1,0,1:0:0:0:
217,257,151536,1,10,0:0:0:0:
405,184,151698,1,0,1:0:0:0:
374,190,151780,1,0,0:0:0:0:
344,196,151861,1,10,0:0:0:0:
109,119,152023,5,8,1:3:0:0:
62,112,152104,1,0,1:3:0:0:
32,78,152185,1,0,1:3:0:0:
39,33,152266,1,0,1:3:0:0:
79,9,152347,1,0,1:3:0:0:
125,12,152428,1,0,1:3:0:0:
167,33,152509,5,8,1:3:0:0:
199,67,152590,1,0,1:3:0:0:
218,109,152671,1,0,1:3:0:0:
256,133,152753,1,0,1:3:0:0:
302,143,152834,1,0,1:3:0:0:
349,137,152915,1,0,1:3:0:0:
389,114,152996,1,8,1:3:0:0:
408,71,153077,1,0,1:3:0:0:
388,31,153158,1,2,1:1:0:0:
388,31,153482,5,0,1:0:0:0:
325,175,153644,1,0,1:0:0:0:
262,319,153807,1,0,1:0:0:0:
262,319,153888,1,0,1:0:0:0:
262,319,153969,1,4,1:2:0:0:
195,243,154131,1,0,0:0:0:0:
353,185,154293,2,0,B|371:159|371:159|364:120,1,62.9999980773926,0|0,1:0|0:0,0:0:0:0:
173,95,154455,6,0,P|80:89|51:-4,1,161.999995056153,4|0,0:2|0:0,0:0:0:0:
131,28,154780,1,0,0:0:0:0:
360,107,154942,2,0,L|492:79,1,107.999996704102,10|0,0:1|1:0,0:0:0:0:
260,273,155266,1,2,1:1:0:0:
132,193,155428,2,0,L|0:165,1,107.999996704102,0|10,1:0|0:1,0:0:0:0:
321,330,155753,6,0,B|439:297|439:297|491:322,1,161.999995056153,0|0,1:0|0:0,0:0:0:0:
435,382,156077,1,0,1:0:0:0:
251,372,156239,2,0,P|238:317|278:261,1,107.999996704102,10|0,0:1|0:0,0:0:0:0:
356,211,156563,1,2,1:1:0:0:
205,124,156726,1,0,1:0:0:0:
205,124,156807,1,0,1:0:0:0:
205,124,156888,1,10,0:1:0:0:
407,34,157050,6,0,B|413:11|453:5|453:5|407:48|433:113,1,161.999995056153,4|0,0:2|0:0,0:0:0:0:
507,68,157374,1,0,0:0:0:0:
449,237,157536,2,0,P|398:244|348:186,1,107.999996704102,10|0,0:1|1:0,0:0:0:0:
282,75,157861,1,2,1:1:0:0:
202,249,158023,1,0,1:0:0:0:
202,249,158185,1,10,0:1:0:0:
45,183,158347,6,0,B|61:124|61:124|96:100|96:100|119:29,1,161.999995056153,0|0,1:0|0:0,0:0:0:0:
28,48,158671,1,0,1:0:0:0:
171,155,158834,2,0,P|224:161|272:114,1,107.999996704102,10|0,0:1|0:0,0:0:0:0:
285,25,159158,1,2,1:1:0:0:
384,192,159320,1,0,1:0:0:0:
384,192,159401,1,0,1:0:0:0:
384,192,159482,1,10,0:1:0:0:
164,256,159644,6,0,B|111:266|111:266|101:264|101:264|69:297|69:297|56:295|56:295|9:315,1,161.999995056153,4|0,0:2|0:0,0:0:0:0:
34,217,159969,1,0,0:0:0:0:
34,217,160050,1,0,0:0:0:0:
34,217,160131,1,10,0:1:0:0:
142,340,160293,1,0,1:0:0:0:
201,158,160455,1,2,1:1:0:0:
363,306,160617,2,0,P|426:308|458:257,1,107.999996704102,0|10,1:0|0:1,0:0:0:0:
378,138,160942,6,0,B|397:77|397:77|431:60|431:60|459:-14,1,161.999995056153,0|0,1:0|0:0,0:0:0:0:
477,126,161266,1,0,1:0:0:0:
282,140,161428,2,0,B|299:185|299:185|309:195|309:195|325:242,1,107.999996704102,10|0,0:1|0:0,0:0:0:0:
281,353,161753,1,2,1:1:0:0:
416,220,161915,1,0,1:0:0:0:
416,220,161996,1,0,1:0:0:0:
416,220,162077,1,10,0:1:0:0:
185,138,162239,6,0,P|160:63|246:23,1,161.999995056153,4|0,0:2|0:0,0:0:0:0:
302,7,162563,1,0,0:0:0:0:
379,134,162726,2,0,L|508:111,1,107.999996704102,10|0,0:1|1:0,0:0:0:0:
274,214,163050,1,2,1:1:0:0:
274,214,163212,1,0,1:0:0:0:
350,302,163374,1,10,0:1:0:0:
148,322,163536,6,0,B|160:332|172:353|172:353|172:334|183:307|168:278|168:278|149:260|143:211|143:211|132:257,1,215.999993408203,4|0,0:2|0:0,0:0:0:0:
71,353,164023,1,10,0:1:0:0:
236,213,164185,1,0,1:0:0:0:
62,127,164347,1,8,1:1:0:0:
68,100,164428,1,0,1:0:0:0:
74,74,164509,1,0,1:0:0:0:
80,48,164590,1,0,1:0:0:0:
87,21,164671,1,0,0:0:0:0:
317,153,164834,6,0,B|294:128|238:111|238:111|271:79|290:-17|290:-17|356:58|401:64|401:64|341:122|363:230,1,526.499975898744,4|2,1:0|3:0,0:0:0:0:
227,234,166942,6,0,L|231:213,10,19.4999991073609
149,297,167590,5,4,1:2:0:0:
363,370,167753,2,0,P|423:333|418:268,1,135.000005149842,10|0,0:0|1:0,0:0:0:0:
340,232,167996,1,0,1:0:0:0:
313,239,168077,1,10,0:0:0:0:
149,297,168239,2,0,P|89:260|93:193,1,135.000005149842,0|10,1:0|0:0,0:0:0:0:
139,110,168482,2,0,B|154:146|175:168|175:168|179:207|147:235,1,135.000005149842,0|0,0:0|1:0,0:0:0:0:
21,300,168726,1,10,0:0:0:0:
231,364,168888,6,0,P|271:308|342:308,1,135.000005149842,0|10,1:0|0:0,0:0:0:0:
153,228,169212,1,0,1:0:0:0:
153,228,169293,1,0,1:0:0:0:
153,228,169374,1,10,0:0:0:0:
216,81,169536,2,0,L|83:106,1,135.000005149842,0|10,1:0|0:0,0:0:0:0:
226,3,169780,2,0,P|282:34|278:122,1,135.000005149842,0|0,0:0|1:0,0:0:0:0:
208,166,170023,1,10,0:0:0:0:
253,292,170185,5,4,1:2:0:0:
379,204,170347,2,0,L|534:180,1,135.000005149842,10|0,0:0|1:0,0:0:0:0:
496,262,170590,1,0,1:0:0:0:
488,287,170671,1,10,0:0:0:0:
316,118,170834,2,0,B|298:75|298:75|344:-2,1,135.000005149842,0|10,1:0|0:0,0:0:0:0:
394,122,171077,2,0,P|365:184|275:183,1,135.000005149842,0|0,0:0|1:0,0:0:0:0:
217,142,171320,1,10,0:0:0:0:
88,226,171482,6,0,B|71:218|48:222|48:222|74:214|88:199|88:199|129:210|164:241,1,144,4|10,1:2|0:0,0:0:0:0:
259,282,171807,1,0,1:0:0:0:
268,309,171888,1,0,1:0:0:0:
256,335,171969,1,10,0:0:0:0:
434,297,172131,6,0,B|451:289|474:293|474:293|448:285|434:270|434:270|393:281|358:312,1,144,4|10,1:0|0:0,0:0:0:0:
462,381,172455,1,0,1:0:0:0:
259,282,172617,1,10,0:0:0:0:
68,361,172780,6,0,B|49:341|49:341|65:275,1,67.5000025749208,4|0,1:2|0:0,0:0:0:0:
121,215,172942,1,10,0:0:0:0:
112,182,173023,1,0,1:0:0:0:
104,149,173104,1,0,1:0:0:0:
95,116,173185,1,0,1:0:0:0:
87,84,173266,1,10,0:0:0:0:
76,276,173428,5,0,1:0:0:0:
106,290,173509,1,0,1:0:0:0:
139,290,173590,1,10,0:0:0:0:
169,275,173671,1,0,1:0:0:0:
190,249,173753,2,0,L|267:267,2,67.5000025749208,0|0|10,1:0|1:0|0:0,0:0:0:0:
0,206,174077,6,0,B|-14:175|-14:175|27:72,1,135.000005149842,0|10,1:0|0:0,0:0:0:0:
90,195,174401,1,0,1:0:0:0:
90,195,174482,1,0,1:0:0:0:
90,195,174563,1,10,0:0:0:0:
134,340,174726,1,0,1:0:0:0:
271,208,174888,2,0,P|355:210|388:272,1,135.000005149842,10|0,0:0|1:0,0:0:0:0:
348,313,175131,1,0,1:0:0:0:
338,338,175212,1,10,0:0:0:0:
90,195,175374,6,0,B|69:205|58:224|58:224|80:217|115:218|115:218|129:192|168:174,1,144,4|10,1:2|0:0,0:0:0:0:
208,60,175698,1,0,1:0:0:0:
197,26,175780,1,0,1:0:0:0:
170,3,175861,1,10,0:0:0:0:
392,68,176023,6,0,B|413:78|424:97|424:97|402:90|367:91|367:91|353:65|314:47,1,144,4|10,1:0|0:0,0:0:0:0:
456,0,176347,1,0,1:0:0:0:
365,223,176509,1,10,0:0:0:0:
184,148,176671,5,4,1:2:0:0:
157,103,176753,1,0,0:0:0:0:
111,79,176834,1,8,0:0:0:0:
60,84,176915,1,8,0:0:0:0:
19,117,176996,1,0,1:0:0:0:
3,166,177077,1,0,1:0:0:0:
16,216,177158,1,0,1:0:0:0:
54,251,177239,1,0,1:0:0:0:
108,258,177320,5,0,1:0:0:0:
122,227,177401,1,0,1:0:0:0:
147,205,177482,1,0,1:0:0:0:
179,194,177563,1,0,1:0:0:0:
212,196,177644,5,0,1:0:0:0:
226,226,177726,1,0,1:0:0:0:
251,248,177807,1,0,1:0:0:0:
283,259,177888,1,0,1:0:0:0:
316,257,177969,5,4,1:2:0:0:
180,345,178131,2,0,L|40:373,1,135.000005149842,10|0,0:0|1:0,0:0:0:0:
0,300,178374,1,0,1:0:0:0:
8,267,178455,1,10,0:0:0:0:
189,252,178617,2,0,B|235:269|235:269|254:298|254:298|312:323,1,135.000005149842,0|10,1:0|0:0,0:0:0:0:
314,224,178861,2,0,B|360:207|360:207|379:178|379:178|437:153,1,135.000005149842,0|0,0:0|1:0,0:0:0:0:
495,206,179104,1,10,0:0:0:0:
305,29,179266,6,0,P|268:56|280:138,1,135.000005149842,0|10,1:0|0:0,0:0:0:0:
373,285,179590,1,0,1:0:0:0:
406,291,179671,1,0,1:0:0:0:
439,297,179753,1,10,0:0:0:0:
472,303,179834,1,0,0:0:0:0:
505,310,179915,1,0,1:0:0:0:
247,207,180077,2,0,B|194:229|194:229|191:240|191:240|115:302,1,135.000005149842,10|0,0:0|1:0,0:0:0:0:
70,219,180320,1,0,1:0:0:0:
80,187,180401,1,10,0:0:0:0:
25,360,180563,6,0,P|59:314|144:318,1,135.000005149842,4|10,1:2|0:0,0:0:0:0:
275,340,180888,1,0,1:0:0:0:
268,306,180969,1,0,1:0:0:0:
261,273,181050,1,10,0:0:0:0:
254,240,181131,1,0,0:0:0:0:
266,210,181212,1,0,1:0:0:0:
476,169,181374,5,10,0:0:0:0:
487,200,181455,1,0,0:0:0:0:
481,233,181536,1,0,1:0:0:0:
459,258,181617,1,0,1:0:0:0:
427,269,181698,1,10,0:0:0:0:
338,72,181861,6,0,B|355:61|383:60|383:60|413:62|445:39|445:39|424:59|414:77,1,144,4|10,1:2|0:0,0:0:0:0:
249,97,182185,1,0,1:0:0:0:
238,70,182266,1,0,1:0:0:0:
250,44,182347,1,10,0:0:0:0:
119,175,182509,6,0,B|102:164|74:163|74:163|44:165|12:142|12:142|33:162|43:180,1,144,4|10,1:0|0:0,0:0:0:0:
121,270,182834,1,0,1:0:0:0:
83,52,182996,1,10,0:0:0:0:
198,324,183158,6,0,B|190:347|190:347|172:362|172:362|158:405,1,67.5000025749208,4|0,1:2|0:0,0:0:0:0:
313,317,183320,1,10,0:0:0:0:
304,284,183401,1,0,1:0:0:0:
295,251,183482,1,0,1:0:0:0:
286,219,183563,1,0,1:0:0:0:
278,186,183644,1,10,0:0:0:0:
442,81,183807,5,0,1:0:0:0:
442,81,183888,1,0,1:0:0:0:
442,81,183969,2,0,B|417:133|417:133|396:142|396:142|364:200,1,135.000005149842,10|0,0:0|1:0,0:0:0:0:
455,215,184212,1,0,1:0:0:0:
465,246,184293,1,10,0:0:0:0:
351,346,184455,6,0,P|313:293|243:302,1,135.000005149842,0|10,1:0|0:0,0:0:0:0:
184,362,184698,1,0,0:0:0:0:
153,378,184780,1,0,1:0:0:0:
121,367,184861,1,0,1:0:0:0:
89,354,184942,1,10,0:0:0:0:
182,189,185104,5,0,1:0:0:0:
215,184,185185,1,0,0:0:0:0:
248,179,185266,1,10,0:0:0:0:
282,174,185347,1,0,0:0:0:0:
315,170,185428,2,0,L|336:101,2,67.5000025749208,0|0|10,1:0|1:0|0:0,0:0:0:0:
19,127,185753,5,4,1:2:0:0:
0,78,185834,1,0,0:0:0:0:
13,28,185915,1,10,0:0:0:0:
58,0,185996,1,0,0:0:0:0:
110,9,186077,1,0,1:0:0:0:
166,152,186239,1,10,0:0:0:0:
221,294,186401,6,0,B|236:250|236:250|268:230|268:230|290:168,1,144,4|10,1:0|0:0,0:0:0:0:
277,357,186644,1,0,0:0:0:0:
277,357,186726,1,0,1:0:0:0:
229,73,186888,1,10,0:0:0:0:
482,190,187050,6,0,B|497:225|497:225|467:267,1,67.5000025749208,0|0,1:0|0:0,0:0:0:0:
364,344,187212,1,8,0:0:0:0:
368,269,187293,1,8,0:0:0:0:
326,215,187374,1,0,1:0:0:0:
268,198,187455,1,0,1:0:0:0:
222,227,187536,1,0,1:0:0:0:
217,273,187617,1,0,1:0:0:0:
245,301,187698,5,0,0:0:0:0:
289,278,187780,1,0,0:0:0:0:
310,233,187861,1,0,0:0:0:0:
298,185,187942,1,0,0:0:0:0:
258,155,188023,1,0,0:0:0:0:
207,149,188104,1,0,0:0:0:0:
172,115,188185,1,0,0:0:0:0:
166,66,188266,1,0,0:0:0:0:
195,32,188347,6,0,B|243:85|192:139|192:139|169:199|206:238,1,225,4|2,3:1|0:0,0:0:0:0:
318,257,189482,2,0,P|390:202|276:189,1,270,2|2,0:0|0:0,0:0:0:0:
118,325,190780,1,2,0:0:0:0:
118,325,190942,2,0,B|135:277|75:222|54:241|27:277|-5:209|15:163|58:180|49:222,1,225,4|2,0:0|0:0,0:0:0:0:
134,194,192077,1,2,0:0:0:0:
134,194,192239,2,0,B|154:139|234:137|238:188|212:197,1,135,4|0,3:2|0:0,0:0:0:0:
72,114,192888,2,0,B|100:62|49:1|8:31|18:57,1,135,2|0,3:2|0:0,0:0:0:0:
209,61,193536,6,0,B|241:41|269:4|269:4|307:17|337:10|337:10|319:52|273:54,1,225,4|2,0:0|0:0,0:0:0:0:
125,145,194671,2,0,B|144:183|149:227|149:227|183:256|207:297|207:297|218:365|218:365|232:346|228:332,1,270,2|2,0:0|0:0,0:0:0:0:
381,260,195969,1,2,0:0:0:0:
381,260,196131,6,0,P|416:229|480:230,1,90,2|0,3:3|0:0,0:0:0:0:
284,155,196374,1,0,0:0:0:0:
284,155,196455,2,0,P|249:124|185:125,1,90,2|0,3:3|0:0,0:0:0:0:
83,218,196698,1,0,0:0:0:0:
83,218,196780,2,0,B|100:252|100:252|123:264|123:264|143:297,1,90,2|0,3:3|0:0,0:0:0:0:
187,384,197023,1,0,0:0:0:0:
187,384,197104,2,0,B|204:350|204:350|227:338|227:338|247:305,1,90,2|0,3:3|0:0,0:0:0:0:
352,331,197428,5,2,3:2:0:0:
426,281,197590,1,2,0:2:0:0:
453,185,197753,1,2,3:2:0:0:
397,93,197915,1,2,0:2:0:0:
279,79,198077,5,2,3:2:0:0:
271,150,198239,1,2,0:2:0:0:
318,191,198401,1,2,3:2:0:0:
371,194,198563,1,2,0:2:0:0:
437,14,198726,5,4,0:2:0:0:
411,280,198969,1,0,1:0:0:0:
411,280,199050,1,10,1:2:0:0:
371,194,199212,1,0,1:0:0:0:
488,157,199374,1,0,1:0:0:0:
493,135,199455,1,0,1:0:0:0:
498,113,199536,1,0,1:0:0:0:
503,91,199617,1,0,1:0:0:0:
508,69,199698,1,10,1:2:0:0:
490,41,199780,1,0,1:0:0:0:
266,123,199942,5,0,1:0:0:0:
276,126,200023,1,0,1:0:0:0:
453,204,200185,1,0,1:0:0:0:
447,182,200266,1,0,0:0:0:0:
441,160,200347,1,10,1:2:0:0:
317,63,200671,1,0,1:0:0:0:
277,41,200753,1,0,1:0:0:0:
233,46,200834,1,0,1:0:0:0:
199,75,200915,1,0,1:0:0:0:
188,118,200996,1,10,1:2:0:0:
194,134,201077,1,0,1:0:0:0:
97,19,201239,5,0,1:0:0:0:
97,19,201320,1,0,1:0:0:0:
276,126,201482,1,0,1:0:0:0:
272,148,201563,1,0,1:0:0:0:
268,170,201644,1,10,1:2:0:0:
134,314,201807,1,0,1:0:0:0:
94,334,201888,1,0,1:0:0:0:
50,330,201969,1,0,1:0:0:0:
15,302,202050,1,0,1:0:0:0:
0,261,202131,2,0,L|14:210,1,45,2|0,1:2|1:0,0:0:0:0:
166,200,202293,1,8,1:0:0:0:
198,371,202455,5,0,1:0:0:0:
220,367,202536,1,0,1:0:0:0:
242,363,202617,5,2,1:2:0:0:
299,300,202726,1,0,2:2:0:0:
326,379,202834,1,0,1:2:0:0:
244,355,202942,5,2,1:2:0:0:
304,307,203050,1,0,2:2:0:0:
315,381,203158,1,0,2:2:0:0:
249,350,203266,5,2,1:2:0:0:
309,316,203374,1,2,1:2:0:0:
307,383,203482,1,2,1:2:0:0:
251,344,203590,5,2,1:2:0:0:
308,322,203698,1,2,1:2:0:0:
296,381,203807,1,2,1:2:0:0:
220,367,203915,6,0,L|209:296,1,60,4|0,1:2|0:0,0:0:0:0:
101,319,204131,1,0,1:0:0:0:
210,307,204239,6,0,L|196:221,1,66.0000020141602,8|0,1:0|0:0,0:0:0:0:
86,291,204455,1,0,0:0:0:0:
199,241,204563,6,0,L|185:155,1,71.9999978027344,2|0,1:2|1:0,0:0:0:0:
75,265,204780,1,0,1:0:0:0:
187,169,204888,6,0,L|173:83,1,77.9999964294435,2|0,1:2|1:0,0:0:0:0:
62,239,205104,1,0,1:0:0:0:
287,367,205212,5,8,0:0:0:0:
295,325,205293,1,8,0:0:0:0:
304,284,205374,1,0,0:0:0:0:
314,243,205455,1,0,0:0:0:0:
266,219,205536,5,0,1:0:0:0:
259,187,205617,1,0,1:0:0:0:
252,155,205698,1,0,1:0:0:0:
245,123,205780,1,0,1:0:0:0:
279,99,205861,5,8,0:0:0:0:
275,115,205942,1,8,0:0:0:0:
272,131,206023,1,0,0:0:0:0:
268,147,206104,1,0,0:0:0:0:
229,179,206185,5,8,1:0:0:0:
231,187,206266,1,8,1:0:0:0:
232,196,206347,1,0,1:0:0:0:
235,205,206428,1,0,1:0:0:0:
270,245,206509,6,0,L|350:230,1,71.9999978027344,6|0,1:2|0:0,0:0:0:0:
416,282,206726,1,0,0:0:0:0:
416,282,206834,2,0,L|496:267,1,71.9999978027344,10|0,1:3|0:0,0:0:0:0:
216,144,207050,6,0,L|136:129,1,71.9999978027344,2|2,2:0|0:0,0:0:0:0:
70,181,207266,1,2,2:0:0:0:
70,181,207374,2,0,L|-10:166,1,71.9999978027344,2|10,2:0|1:3,0:0:0:0:
256,236,207590,5,2,2:0:0:0:
338,191,207698,2,0,B|362:211|362:211|347:271,1,71.9999978027344,2|2,2:0|0:0,0:0:0:0:
256,236,207915,5,2,2:0:0:0:
174,191,208023,2,0,B|150:211|150:211|165:271,1,77.9999964294435,2|10,2:0|1:3,0:0:0:0:
256,236,208239,5,2,2:0:0:0:
351,173,208347,2,0,B|373:165|373:165|404:170|404:170|438:159,1,83.9999974365235,2|2,2:0|0:0,0:0:0:0:
256,236,208563,5,2,2:0:0:0:
161,173,208671,2,0,B|136:164|136:164|102:169|102:169|65:157,1,90.0000034332277,2|10,2:0|1:3,0:0:0:0:
256,236,208888,5,2,2:0:0:0:
256,88,208996,1,2,2:0:0:0:
256,236,209104,6,0,B|226:189|236:133|288:84|408:91|408:203|360:278|270:257|270:257|245:296|245:296|230:302|230:302|210:345,1,472.499985580445,4|0,1:2|0:0,0:0:0:0:
99,251,210401,5,0,0:0:0:0:
63,224,210482,1,0,0:0:0:0:
50,182,210563,1,0,0:0:0:0:
63,140,210644,1,0,0:0:0:0:
98,114,210726,1,0,0:0:0:0:
141,112,210807,1,0,0:0:0:0:
178,135,210888,5,0,0:0:0:0:
218,151,210969,1,0,0:0:0:0:
261,141,211050,1,0,0:0:0:0:
290,109,211131,1,0,0:0:0:0:
295,65,211212,1,0,0:0:0:0:
273,27,211293,1,0,0:0:0:0:
234,7,211374,5,8,0:0:0:0:
234,7,211536,2,0,B|217:49|231:91|231:91|265:135|256:204|256:204|267:167|289:135,1,270.000010299683,4|10,3:2|0:1,0:0:0:0:
451,159,212023,1,0,1:0:0:0:
506,281,212185,1,10,0:1:0:0:
327,213,212347,1,0,1:0:0:0:
382,335,212509,1,10,0:1:0:0:
224,232,212671,6,0,B|212:202|212:202|240:149,1,67.5000025749208,0|0,1:0|0:0,0:0:0:0:
378,14,212834,2,0,B|390:44|390:44|362:97,1,67.5000025749208,10|0,0:1|0:0,0:0:0:0:
190,68,212996,5,0,1:0:0:0:
60,29,213158,1,10,0:1:0:0:
12,155,213320,1,0,1:0:0:0:
142,194,213482,1,10,0:1:0:0:
320,332,213644,5,0,1:0:0:0:
482,225,213807,1,10,0:1:0:0:
305,143,213969,1,0,1:0:0:0:
305,143,214050,1,0,1:0:0:0:
305,143,214131,1,10,0:1:0:0:
177,358,214293,6,0,B|161:327|161:327|188:293,1,67.5000025749208,4|0,1:2|0:0,0:0:0:0:
326,293,214455,1,10,0:1:0:0:
359,298,214536,1,0,1:0:0:0:
392,303,214617,1,0,1:0:0:0:
425,309,214698,1,0,1:0:0:0:
459,314,214780,1,10,0:1:0:0:
158,179,214942,5,0,1:0:0:0:
124,184,215023,1,0,1:0:0:0:
91,189,215104,1,10,0:1:0:0:
58,195,215185,1,0,1:0:0:0:
24,200,215266,2,0,L|104:222,1,67.5000025749208,0|0,1:0|0:0,0:0:0:0:
181,301,215428,2,0,L|261:323,1,67.5000025749208,10|0,0:1|0:0,0:0:0:0:
469,220,215590,6,0,P|385:234|362:284,1,135.000005149842,0|10,1:0|0:1,0:0:0:0:
278,135,215915,1,0,1:0:0:0:
278,135,215996,1,0,1:0:0:0:
278,135,216077,1,10,0:1:0:0:
334,52,216239,1,0,1:0:0:0:
199,14,216401,6,0,L|113:27,1,67.5000025749208,10|0,0:1|0:0,0:0:0:0:
347,67,216563,2,0,L|433:80,1,67.5000025749208,2|0,1:1|0:0,0:0:0:0:
117,191,216726,2,0,L|31:204,1,67.5000025749208,10|0,0:1|0:0,0:0:0:0:
81,361,216888,5,4,1:2:0:0:
125,382,216969,1,0,0:0:0:0:
174,371,217050,1,10,0:1:0:0:
206,333,217131,1,0,0:0:0:0:
208,284,217212,1,0,1:0:0:0:
226,237,217293,1,0,0:0:0:0:
270,213,217374,1,10,0:1:0:0:
320,220,217455,1,0,0:0:0:0:
354,257,217536,5,0,1:0:0:0:
369,304,217617,1,0,0:0:0:0:
411,329,217698,1,10,0:1:0:0:
459,318,217780,1,0,0:0:0:0:
480,274,217861,1,0,1:0:0:0:
464,227,217942,1,0,0:0:0:0:
444,181,218023,1,10,0:1:0:0:
448,131,218104,1,0,0:0:0:0:
493,102,218185,6,0,P|441:146|374:135,1,135.000005149842,0|10,1:0|0:1,0:0:0:0:
180,134,218428,1,0,0:0:0:0:
154,176,218509,1,0,1:0:0:0:
156,227,218590,1,0,0:0:0:0:
183,269,218671,1,10,0:1:0:0:
229,288,218753,1,0,0:0:0:0:
278,281,218834,5,0,1:0:0:0:
306,239,218915,1,0,0:0:0:0:
307,189,218996,1,10,0:1:0:0:
282,146,219077,1,0,0:0:0:0:
238,124,219158,1,0,1:0:0:0:
215,167,219239,1,0,0:0:0:0:
171,191,219320,1,10,0:1:0:0:
121,189,219401,1,0,0:0:0:0:
80,161,219482,5,4,1:2:0:0:
74,112,219563,1,0,0:0:0:0:
93,66,219644,1,10,0:1:0:0:
136,40,219726,1,0,0:0:0:0:
187,39,219807,1,0,1:0:0:0:
212,82,219888,1,0,0:0:0:0:
254,110,219969,1,10,0:1:0:0:
303,118,220050,1,0,0:0:0:0:
353,108,220131,5,0,1:0:0:0:
359,58,220212,1,0,0:0:0:0:
388,18,220293,1,10,0:1:0:0:
433,0,220374,1,0,0:0:0:0:
483,1,220455,5,0,1:0:0:0:
462,65,220536,1,0,0:0:0:0:
447,131,220617,1,10,0:1:0:0:
439,198,220698,1,0,0:0:0:0:
436,265,220780,5,0,1:0:0:0:
436,265,220861,2,0,P|404:275|371:307,1,67.5000025749208,0|10,0:0|0:1,0:0:0:0:
259,195,221023,1,0,0:0:0:0:
259,195,221104,2,0,P|227:185|193:153,1,67.5000025749208,0|0,1:0|0:0,0:0:0:0:
2,130,221266,1,10,0:1:0:0:
2,130,221347,1,0,0:0:0:0:
2,130,221428,5,4,0:0:0:0:
50,119,221509,1,0,0:0:0:0:
92,144,221590,1,0,1:0:0:0:
104,192,221671,1,0,1:0:0:0:
80,235,221753,5,0,1:0:0:0:
82,295,221834,1,0,1:0:0:0:
126,336,221915,1,8,1:0:0:0:
185,335,221996,1,8,1:0:0:0:
228,292,222077,6,0,B|181:313|158:376|158:376|134:316|210:222|210:222|211:183|211:183|314:140|358:36|358:36|390:105|337:173,1,675.000025749208,4|10,1:2|0:0,0:0:0:0:
417,299,223050,2,0,B|450:294|465:262|465:262|440:220|455:184,1,135.000005149842,2|10,1:1|0:0,0:0:0:0:
175,238,223374,6,0,P|131:189|23:215,1,135.000005149842,2|10,1:0|0:0,0:0:0:0:
337,119,223698,1,0,1:0:0:0:
337,119,223780,1,0,0:0:0:0:
337,119,223861,2,0,B|367:66|433:85|433:85|432:204|396:147|356:226,1,270.000010299683,10|10,1:0|0:0,0:0:0:0:
460,278,224347,1,2,1:0:0:0:
460,278,224428,1,0,0:0:0:0:
460,278,224509,1,10,0:0:0:0:
295,351,224671,6,0,B|221:313|128:330|128:330|140:343|140:343|41:271|41:271|183:225|239:331,1,540.000020599366,4|0,1:2|1:0,0:0:0:0:
393,379,225482,2,0,B|406:348|406:348|393:301,1,67.5000025749208,10|0,0:1|0:0,0:0:0:0:
301,244,225644,2,0,B|288:213|288:213|301:166,1,67.5000025749208,2|0,1:0|0:0,0:0:0:0:
386,88,225807,1,10,1:0:0:0:
500,139,225969,5,0,1:3:0:0:
500,139,226131,1,10,1:3:0:0:
380,220,226293,1,0,1:0:0:0:
380,220,226374,1,0,1:0:0:0:
380,220,226455,1,10,1:3:0:0:
475,286,226617,1,0,1:0:0:0:
475,286,226698,1,0,1:0:0:0:
475,286,226780,1,10,1:3:0:0:
412,349,226942,1,0,1:0:0:0:
412,349,227023,1,0,1:0:0:0:
412,349,227104,1,10,1:3:0:0:
248,270,227266,6,0,B|202:261|143:289|143:289|93:291|27:276|27:276|55:299|55:299|95:308,1,270.000010299683,4|0,1:2|1:0,0:0:0:0:
258,350,227753,2,0,P|332:260|224:191,1,270.000010299683,10|10,1:0|0:0,0:0:0:0:
128,125,228239,2,0,B|139:71|139:71|156:55|156:55|167:-9,1,135.000005149842,2|10,1:0|0:0,0:0:0:0:
352,59,228563,6,0,B|358:103|398:133|398:133|393:189|393:189|429:236|429:236|393:240|370:207,1,270.000010299683,2|0,1:0|1:0,0:0:0:0:
240,191,229050,2,0,B|234:235|194:265|194:265|199:321|199:321|163:368|163:368|199:372|222:339,1,270.000010299683,10|10,1:1|0:0,0:0:0:0:
128,125,229536,2,0,P|34:142|34:212,1,135.000005149842,2|10,1:0|0:0,0:0:0:0:
323,316,229861,6,0,B|409:301|374:202|374:202|373:238|350:253,1,202.500007724762,2|0,1:0|0:0,0:0:0:0:
393,371,230185,1,2,1:0:0:0:
229,374,230347,2,0,B|172:310|96:317|96:317|161:231|266:231|266:231|179:143|260:51,1,540.000020599366,10|10,1:0|0:0,0:0:0:0:
473,184,231158,5,0,1:0:0:0:
495,208,231239,1,0,1:0:0:0:
505,240,231320,1,2,1:0:0:0:
499,273,231401,1,0,1:0:0:0:
479,300,231482,1,0,1:0:0:0:
449,315,231563,1,0,1:0:0:0:
416,315,231644,1,0,1:0:0:0:
386,301,231726,1,0,1:0:0:0:
366,274,231807,5,2,1:0:0:0:
390,240,231888,1,0,1:0:0:0:
397,199,231969,1,0,1:0:0:0:
385,159,232050,1,0,1:0:0:0:
357,128,232131,1,8,1:3:0:0:
317,114,232212,1,8,1:3:0:0:
276,118,232293,1,8,1:3:0:0:
241,141,232374,1,8,1:3:0:0:
219,177,232455,6,0,B|157:163|109:188|109:188|87:144|28:135|28:135|58:121|93:126,1,270.000010299683,4|0,1:2|1:0,0:0:0:0:
321,281,232942,2,0,B|382:267|430:292|430:292|452:248|511:239|511:239|481:225|446:230,1,270.000010299683,10|10,0:1|0:0,0:0:0:0:
170,292,233428,2,0,B|131:327|167:371|167:371|208:361|211:315,1,135.000005149842,2|10,1:1|0:0,0:0:0:0:
455,229,233753,6,0,B|371:218|422:179|329:164,1,135.000005149842,2|10,1:0|0:0,0:0:0:0:
170,292,234077,1,2,1:0:0:0:
170,292,234158,1,0,1:0:0:0:
170,292,234239,1,10,0:0:0:0:
70,137,234401,2,0,B|154:126|103:87|196:72,1,135.000005149842,2|10,1:0|0:0,0:0:0:0:
355,200,234726,1,2,1:0:0:0:
355,200,234807,1,0,1:0:0:0:
355,200,234888,1,10,0:0:0:0:
116,366,235050,6,0,B|83:333|39:347|39:347|11:328|-19:326|-19:326|0:294|57:315,1,202.500007724762,2|0,1:0|0:0,0:0:0:0:
170,292,235374,2,0,P|201:315|209:347,1,67.5000025749208,0|0,1:0|1:0,0:0:0:0:
98,220,235536,2,0,B|104:171|127:146|127:146|128:108|101:76|101:76|106:36|106:36|137:76|132:109,1,270.000010299683,10|10,0:0|0:0,0:0:0:0:
202,215,236023,1,0,1:0:0:0:
202,215,236104,2,0,P|233:218|266:192,1,67.5000025749208,0|10,1:0|0:0,0:0:0:0:
490,39,236347,6,0,B|493:27|472:7|472:7|477:51|464:80|464:80|444:87|429:98|429:98|426:124|402:150,1,202.500007724762,0|0,1:0|0:0,0:0:0:0:
484,216,236671,1,2,1:0:0:0:
484,216,236753,1,0,1:0:0:0:
484,216,236834,1,10,0:0:0:0:
495,307,236996,5,2,1:0:0:0:
433,321,237077,1,0,0:0:0:0:
369,336,237158,1,10,0:0:0:0:
305,350,237239,1,0,0:0:0:0:
277,380,237320,5,2,1:0:0:0:
234,370,237401,1,0,1:0:0:0:
190,360,237482,1,10,0:0:0:0:
146,350,237563,1,0,0:0:0:0:
110,371,237644,6,0,B|68:344|68:344|83:275|83:275|95:301,1,135.000005149842,4|10,1:2|0:0,0:0:0:0:
176,230,237888,2,0,B|218:203|218:203|203:134|203:134|191:160,1,135.000005149842,0|0,1:0|0:0,0:0:0:0:
96,185,238131,1,10,0:0:0:0:
242,295,238293,5,0,1:0:0:0:
354,120,238455,1,10,0:0:0:0:
469,208,238617,1,2,1:0:0:0:
469,208,238698,1,0,1:0:0:0:
469,208,238780,1,10,0:0:0:0:
240,76,238942,5,2,0:1:0:0:
190,42,239023,1,0,0:0:0:0:
130,39,239104,1,0,1:0:0:0:
84,76,239185,1,0,0:0:0:0:
83,135,239266,1,8,1:0:0:0:
127,175,239347,1,0,0:0:0:0:
189,176,239428,1,0,1:0:0:0:
242,146,239509,1,0,0:0:0:0:
284,103,239590,1,0,1:0:0:0:
304,45,239671,1,0,1:0:0:0:
349,5,239753,1,8,1:0:0:0:
408,7,239834,1,8,1:0:0:0:
445,52,239915,1,0,1:0:0:0:
435,111,239996,1,0,1:0:0:0:
384,143,240077,1,0,1:0:0:0:
363,196,240158,1,0,1:0:0:0:
390,249,240239,5,4,1:2:0:0:
390,249,240563,1,0,1:0:0:0:
177,288,240726,2,0,P|143:259|65:269,1,90,10|0,1:3|0:0,0:0:0:0:
247,384,241050,1,8,0:0:0:0:
328,324,241212,1,0,1:0:0:0:
255,223,241374,1,0,1:0:0:0:
377,95,241536,6,0,B|412:147|470:114|470:114|467:54|406:51,1,180,4|0,1:2|0:0,0:0:0:0:
180,20,242023,1,0,1:0:0:0:
180,20,242104,1,0,1:0:0:0:
180,20,242185,5,0,1:0:0:0:
66,104,242428,1,0,1:0:0:0:
174,247,242671,1,0,1:0:0:0:
79,313,242834,5,2,0:2:0:0:
87,44,246726,6,0,P|58:76|68:132,1,90,2|0,3:2|0:0,0:0:0:0:
148,176,247050,1,0,0:0:0:0:
148,176,247131,1,0,0:0:0:0:
148,176,247212,2,0,L|264:162,1,90,2|0,3:2|0:0,0:0:0:0:
318,208,247455,1,0,0:0:0:0:
318,208,247536,2,0,L|434:194,1,90,2|0,3:2|0:0,0:0:0:0:
442,384,247861,2,0,B|459:353|459:353|432:299,1,90,2|0,3:2|0:0,0:0:0:0:
233,162,248185,1,0,0:0:0:0:
225,174,248266,1,0,0:0:0:0:
219,186,248347,2,0,B|202:217|202:217|229:271,1,90,2|0,3:2|0:0,0:0:0:0:
407,197,248671,6,0,L|427:81,1,90,2|0,3:2|0:0,0:0:0:0:
433,20,248915,1,0,0:0:0:0:
422,24,248996,1,0,0:0:0:0:
412,28,249077,1,0,0:0:0:0:
401,32,249158,2,0,P|360:10|303:20,1,90,2|0,3:2|0:0,0:0:0:0:
290,95,249401,1,0,0:0:0:0:
290,95,249482,2,0,P|256:127|248:184,1,90,2|0,3:2|0:0,0:0:0:0:
308,249,249726,1,0,0:0:0:0:
308,249,249807,5,2,3:2:0:0:
420,293,249969,1,0,0:0:0:0:
477,193,250131,1,0,0:0:0:0:
367,135,250293,1,8,3:0:0:0:
450,379,250455,1,0,1:0:0:0:
185,326,250617,6,0,P|125:313|79:358,2,107.999996704102,2|0|0,0:2|0:0|0:0,0:0:0:0:
308,249,251104,2,0,P|368:236|414:281,2,107.999996704102,2|0|2,0:2|0:0|0:2,0:0:0:0:
193,209,251590,5,0,0:0:0:0:
116,116,251753,1,2,0:2:0:0:
229,71,251915,1,0,0:0:0:0:
313,174,252077,1,0,0:0:0:0:
313,174,252158,1,0,0:0:0:0:
313,174,252239,2,0,B|339:135|339:135|320:70,1,107.999996704102,2|0,0:2|0:0,0:0:0:0:
413,228,252563,6,0,P|374:269|309:256,2,107.999996704102,2|0|0,0:2|0:0|0:0,0:0:0:0:
94,282,253050,2,0,P|133:323|199:313,2,107.999996704102,2|0|2,0:2|0:0|0:2,0:0:0:0:
206,110,253536,1,0,0:0:0:0:
157,258,253698,1,2,0:2:0:0:
141,61,253861,1,0,0:0:0:0:
233,296,254023,1,0,0:0:0:0:
332,83,254185,6,0,L|316:148,1,53.9999983520508,8|0,3:0|0:0,0:0:0:0:
442,267,254347,2,0,L|454:214,1,53.9999983520508,0|0,1:0|0:0,0:0:0:0:
433,355,254509,6,0,P|372:349|309:407,1,125.999996154785,4|0,1:2|0:0,0:0:0:0:
142,199,254834,1,0,1:0:0:0:
172,190,254915,1,0,1:0:0:0:
203,193,254996,1,0,1:0:0:0:
231,206,255077,1,0,1:0:0:0:
253,228,255158,5,12,1:3:0:0:
331,375,255320,1,4,1:3:0:0:
512,208,255482,1,4,1:3:0:0:
390,293,255644,1,0,1:3:0:0:
383,262,255726,1,0,1:3:0:0:
377,231,255807,1,0,1:3:0:0:
370,200,255888,1,0,1:3:0:0:
364,169,255969,1,12,1:3:0:0:
443,58,256131,1,0,0:0:0:0:
443,58,256212,1,0,0:0:0:0:
443,58,256293,1,12,1:3:0:0:
312,0,256455,5,4,1:1:0:0:
443,58,256617,1,0,0:0:0:0:
364,169,256780,1,0,1:3:0:0:
364,169,256861,1,0,1:3:0:0:
364,169,256942,1,12,1:3:0:0:
122,124,257104,1,12,1:3:0:0:
255,97,257266,5,0,0:0:0:0:
255,97,257347,1,0,0:0:0:0:
255,97,257428,5,4,1:3:0:0:
268,125,257509,1,0,0:0:0:0:
272,156,257590,1,0,0:0:0:0:
265,187,257671,1,0,0:0:0:0:
250,214,257753,5,8,0:0:0:0:
207,232,257834,1,8,0:0:0:0:
185,273,257915,1,8,0:0:0:0:
191,319,257996,1,8,0:0:0:0:
225,351,258077,1,8,1:0:0:0:
271,357,258158,1,8,1:0:0:0:
311,333,258239,1,8,1:0:0:0:
328,290,258320,1,8,1:0:0:0:
315,245,258401,5,4,3:0:0:0:
256,192,258482,12,4,262941,3:2:0:0:
293,308,263590,5,4,0:0:0:0:
156,119,264238,5,4,0:0:0:0:
378,192,264887,5,4,0:1:0:0:
156,264,265536,5,4,0:0:0:0:
293,75,266184,5,4,0:2:0:0:
293,75,266671,1,0,0:0:0:0:
327,63,266833,1,0,1:0:0:0:
398,68,266995,1,0,1:0:0:0:
467,150,267157,1,0,1:0:0:0:
418,285,267319,1,0,1:0:0:0:
212,342,267482,6,0,B|146:323|101:352|101:352|72:318|22:301|22:301|92:259|155:298,1,337.5,4|0,1:2|0:0,0:0:0:0:
234,243,268779,5,0,1:0:0:0:
250,201,268860,1,0,1:0:0:0:
281,169,268941,1,0,1:0:0:0:
322,151,269022,1,0,1:0:0:0:
367,149,269103,1,0,1:0:0:0:
409,165,269184,1,0,1:0:0:0:
437,199,269265,1,0,1:0:0:0:
433,242,269346,1,0,1:0:0:0:
395,258,269428,5,0,1:0:0:0:
384,256,269509,1,0,1:0:0:0:
374,252,269590,1,0,1:0:0:0:
364,246,269671,1,0,1:0:0:0:
356,238,269752,5,8,1:0:0:0:
333,199,269833,1,8,1:0:0:0:
329,154,269914,1,8,1:0:0:0:
342,112,269995,1,8,1:0:0:0:
372,78,270076,6,0,P|432:61|490:99,1,125.999996154785,4|10,1:2|0:0,0:0:0:0:
244,172,270319,1,0,0:0:0:0:
213,178,270401,1,0,1:0:0:0:
182,185,270482,1,0,0:0:0:0:
151,192,270563,2,0,B|113:146|113:146|154:66,1,125.999996154785,10|0,0:0|1:0,0:0:0:0:
244,78,270887,1,10,0:0:0:0:
319,251,271049,1,0,1:0:0:0:
319,251,271130,1,0,1:0:0:0:
319,251,271211,1,10,0:0:0:0:
490,144,271373,6,0,P|423:136|365:192,1,125.999996154785,0|10,1:0|0:0,0:0:0:0:
456,258,271698,1,0,1:0:0:0:
456,258,271779,1,0,0:0:0:0:
456,258,271860,1,10,0:0:0:0:
307,364,272022,2,0,L|168:347,1,125.999996154785,0|10,1:0|0:0,0:0:0:0:
88,361,272265,2,0,B|76:329|76:329|107:297,1,62.9999980773926,0|0,0:0|1:0,0:0:0:0:
171,260,272428,1,0,1:0:0:0:
171,260,272509,1,10,0:0:0:0:
2,131,272671,6,0,B|46:146|46:146|67:176|67:176|124:193,1,125.999996154785,4|10,1:2|0:0,0:0:0:0:
260,40,272995,1,0,1:0:0:0:
260,40,273076,1,0,1:0:0:0:
260,40,273157,2,0,B|216:55|216:55|195:85|195:85|138:102,1,125.999996154785,10|0,0:0|1:0,0:0:0:0:
87,16,273482,1,10,0:0:0:0:
192,186,273644,1,0,1:0:0:0:
192,186,273725,1,0,1:0:0:0:
192,186,273806,1,10,0:0:0:0:
325,80,273968,6,0,P|394:64|445:120,1,125.999996154785,0|10,1:0|0:0,0:0:0:0:
257,231,274211,1,0,0:0:0:0:
257,231,274292,2,0,P|188:215|137:271,1,125.999996154785,0|10,1:0|0:0,0:0:0:0:
337,285,274617,1,4,1:3:0:0:
373,136,274779,1,10,0:0:0:0:
397,329,274941,1,4,1:3:0:0:
325,80,275103,1,10,0:0:0:0:
512,170,275265,6,0,B|468:178|468:178|464:185|464:185|444:195|444:195|440:204|440:204|396:228,1,125.999996154785,0|10,1:2|0:0,0:0:0:0:
270,357,275590,1,0,1:0:0:0:
257,335,275671,1,0,1:0:0:0:
265,311,275752,1,10,0:0:0:0:
315,202,275914,1,0,1:0:0:0:
212,87,276076,1,10,0:0:0:0:
203,117,276157,1,0,0:0:0:0:
195,147,276238,1,0,1:0:0:0:
187,178,276319,1,0,1:0:0:0:
179,208,276401,1,10,0:0:0:0:
0,159,276563,6,0,P|37:127|126:141,1,125.999996154785,0|10,1:2|0:0,0:0:0:0:
297,63,276887,1,0,1:0:0:0:
285,40,276968,1,0,1:0:0:0:
260,34,277049,1,10,0:0:0:0:
385,194,277211,2,0,P|348:162|259:176,1,125.999996154785,0|10,1:0|0:0,0:0:0:0:
228,323,277536,1,0,1:0:0:0:
228,323,277617,1,0,1:0:0:0:
228,323,277698,1,10,0:0:0:0:
103,264,277860,6,0,B|92:292|92:292|94:244|94:244|79:227|79:227|48:175,1,125.999996154785,4|10,1:2|0:0,0:0:0:0:
96,88,278184,1,0,1:0:0:0:
1,297,278346,1,10,0:0:0:0:
232,194,278509,6,0,B|243:222|243:222|241:174|241:174|256:157|256:157|287:105,1,125.999996154785,4|10,1:3|0:0,0:0:0:0:
239,18,278833,1,0,1:0:0:0:
334,227,278995,1,10,0:0:0:0:
503,97,279157,5,12,1:2:0:0:
499,55,279238,1,0,1:0:0:0:
476,20,279319,1,0,1:0:0:0:
439,2,279401,1,0,1:0:0:0:
399,10,279482,1,0,1:0:0:0:
384,46,279563,1,0,1:0:0:0:
402,82,279644,5,12,1:0:0:0:
368,62,279725,1,0,1:0:0:0:
329,68,279806,1,0,1:0:0:0:
301,95,279887,1,0,1:0:0:0:
289,131,279968,1,0,1:0:0:0:
258,156,280049,1,0,1:0:0:0:
220,159,280130,5,8,1:0:0:0:
101,268,280292,2,0,B|92:240|67:212|67:212|77:181|70:153|70:153|42:114|42:114|34:138|57:175,1,215.999993408203,4|0,1:2|0:0,0:0:0:0:
49,353,280779,1,8,1:0:0:0:
49,353,281103,1,0,1:0:0:0:
284,258,281265,1,0,1:0:0:0:
100,113,281590,5,2,1:2:0:0:
256,376,282076,5,2,1:2:0:0:
256,376,282563,5,0,1:0:0:0:
361,355,282725,1,0,1:0:0:0:
472,334,282887,6,0,B|464:344|453:367|453:367|453:330|434:295|434:295|451:273|468:242,1,161.999995056153,4|0,1:3|0:0,0:0:0:0:
500,185,283211,1,0,1:0:0:0:
284,41,283373,1,0,1:0:0:0:
284,41,283698,1,2,1:2:0:0:
41,156,284184,6,0,B|18:127|-27:114|-27:114|25:122|69:109|69:109|108:118|146:148|146:148|166:169|179:208|179:208|204:217|234:242|234:242|245:201|220:152,1,485.999985168458,4|0,1:2|0:0,0:0:0:0:
198,70,284995,1,0,1:0:0:0:
59,288,285157,1,0,1:0:0:0:
480,152,285482,6,0,B|476:122|513:93|513:93|418:100|427:204|427:204|413:253|380:270|380:270|378:308|364:333|364:333|355:297|333:270,1,432,4|0,1:2|0:0,0:0:0:0:
144,168,286779,2,0,L|61:184,1,72,2|0,1:2|0:0,0:0:0:0:
346,23,287265,2,0,L|429:39,1,72,2|0,1:2|0:0,0:0:0:0:
138,319,288076,6,0,B|104:312|81:298|81:298|47:297|6:308|6:308|24:279,1,161.999995056153,4|0,1:2|0:0,0:0:0:0:
61,224,288401,1,0,1:0:0:0:
201,375,288563,1,4,0:0:0:0:
287,151,288725,1,8,0:0:0:0:
355,292,288887,5,4,0:0:0:0:
227,209,289049,1,8,0:0:0:0:
201,375,289211,1,0,0:0:0:0:
459,341,289373,6,0,B|482:319|484:281|484:281|443:245|453:176,1,161.999995056153,4|0,1:2|0:0,0:0:0:0:
512,142,289698,1,0,1:0:0:0:
355,292,289860,1,8,1:3:0:0:
261,59,290022,1,4,1:3:0:0:
261,59,290346,1,0,1:0:0:0:
350,124,290509,5,0,1:0:0:0:
346,137,290590,1,0,1:0:0:0:
343,150,290671,1,0,1:0:0:0:
339,163,290752,1,0,1:0:0:0:
336,176,290833,6,0,B|289:185|274:235|274:235|229:249|214:290|214:290|287:299|327:366|327:366|444:350|414:227,1,503.999984619141,4|2,1:2|3:0,0:0:0:0:
350,262,292779,6,0,B|340:284|313:296|313:296|327:269|324:243|324:243|342:227|357:218|357:218|355:186|362:164|362:164|384:138|429:109|429:109|390:105|373:131,1,337.5,4|0,3:2|0:0,0:0:0:0:
271,124,294076,5,8,1:3:0:0:
235,130,294157,1,8,1:3:0:0:
201,119,294238,1,8,1:3:0:0:
176,94,294319,1,0,1:3:0:0:
166,60,294400,5,8,1:3:0:0:
203,79,294482,1,8,1:3:0:0:
245,78,294563,1,8,1:3:0:0:
283,58,294644,1,0,1:3:0:0:
307,22,294725,5,4,1:2:0:0:
512,95,294887,2,0,P|452:168|392:149,1,135.000005149842,10|0,0:0|1:0,0:0:0:0:
358,105,295130,1,0,1:0:0:0:
368,80,295211,1,10,0:0:0:0:
306,214,295373,2,0,B|318:274|318:274|335:290|335:290|345:353,1,135.000005149842,0|10,1:0|0:0,0:0:0:0:
247,380,295617,2,0,B|224:352|193:343|193:343|242:324|282:362,1,135.000005149842,0|0,0:0|1:0,0:0:0:0:
414,384,295860,1,10,0:0:0:0:
189,209,296022,6,0,B|136:195|136:195|106:209|106:209|54:196,1,135.000005149842,0|10,1:0|0:0,0:0:0:0:
10,110,296265,1,0,0:0:0:0:
6,76,296346,1,0,1:0:0:0:
19,46,296428,1,0,1:0:0:0:
47,27,296509,1,10,0:0:0:0:
177,124,296671,1,0,1:0:0:0:
280,19,296833,2,0,L|445:-5,1,135.000005149842,10|0,0:0|1:0,0:0:0:0:
486,48,297076,1,0,1:0:0:0:
478,73,297157,1,10,0:0:0:0:
368,248,297319,6,0,B|360:217|324:197|324:197|328:163|377:121,1,135.000005149842,4|10,1:2|0:0,0:0:0:0:
476,227,297644,1,0,1:0:0:0:
476,227,297725,1,0,1:0:0:0:
476,227,297806,1,10,0:0:0:0:
408,345,297968,2,0,P|344:361|286:319,1,135.000005149842,0|10,1:0|0:0,0:0:0:0:
96,252,298211,2,0,P|160:268|218:226,1,135.000005149842,0|0,0:0|1:0,0:0:0:0:
264,137,298455,1,10,0:0:0:0:
138,76,298617,6,0,B|114:55|68:44|68:44|54:54|30:63|30:63|53:71|65:85,1,144,4|10,1:2|0:0,0:0:0:0:
264,137,298941,1,0,1:0:0:0:
274,110,299022,1,0,1:0:0:0:
261,84,299103,1,10,0:0:0:0:
354,241,299265,6,0,B|378:220|424:209|424:209|438:219|462:228|462:228|439:236|427:250,1,144,4|10,1:0|0:0,0:0:0:0:
265,363,299590,1,0,1:0:0:0:
345,158,299752,1,10,0:0:0:0:
147,236,299914,6,0,L|71:219,1,67.5000025749208,4|0,1:2|0:0,0:0:0:0:
10,125,300076,1,10,0:0:0:0:
43,132,300157,1,0,1:0:0:0:
76,140,300238,1,0,1:0:0:0:
109,147,300319,1,0,1:0:0:0:
142,154,300400,1,10,0:0:0:0:
243,37,300563,5,0,1:0:0:0:
275,29,300644,1,0,1:0:0:0:
308,22,300725,1,10,0:0:0:0:
341,14,300806,1,0,1:0:0:0:
374,7,300887,2,0,L|452:32,2,67.5000025749208,0|0|10,1:0|1:0|0:0,0:0:0:0:
511,158,301211,6,0,P|445:187|431:266,1,135.000005149842,0|10,1:0|0:0,0:0:0:0:
268,365,301536,1,0,1:0:0:0:
268,365,301617,1,0,1:0:0:0:
268,365,301698,1,10,0:0:0:0:
187,263,301860,2,0,B|164:232|164:232|197:138,1,135.000005149842,0|10,1:0|0:0,0:0:0:0:
276,121,302103,2,0,B|308:30|308:30|285:-1,1,135.000005149842,0|0,0:0|1:0,0:0:0:0:
179,36,302346,1,10,0:0:0:0:
394,243,302509,6,0,B|438:263|438:263|441:277|441:277|472:313|472:313|478:289|470:263,1,144,4|10,1:2|0:0,0:0:0:0:
281,221,302833,1,0,1:0:0:0:
263,243,302914,1,0,1:0:0:0:
263,271,302995,1,10,0:0:0:0:
163,80,303157,6,0,B|119:100|119:100|116:114|116:114|85:150|85:150|79:126|87:100,1,144,4|10,1:0|0:0,0:0:0:0:
245,1,303482,1,0,1:0:0:0:
163,211,303644,1,10,0:0:0:0:
385,145,303806,6,0,B|400:113|400:113|371:63,1,67.5000025749208,4|0,1:2|0:0,0:0:0:0:
261,171,303968,1,8,0:0:0:0:
258,223,304049,1,8,0:0:0:0:
291,264,304130,1,0,1:0:0:0:
343,271,304211,1,0,1:0:0:0:
394,258,304292,1,0,1:0:0:0:
439,285,304373,1,0,1:0:0:0:
452,336,304455,5,0,1:0:0:0:
431,310,304536,1,0,1:0:0:0:
422,278,304617,1,0,1:0:0:0:
427,245,304698,1,0,1:0:0:0:
445,217,304779,5,0,1:0:0:0:
473,200,304860,1,0,1:0:0:0:
493,173,304941,1,0,1:0:0:0:
502,140,305022,1,0,1:0:0:0:
496,107,305103,5,4,1:2:0:0:
253,63,305265,2,0,P|225:21|124:37,1,135.000005149842,10|0,0:0|1:0,0:0:0:0:
70,81,305509,1,0,1:0:0:0:
75,107,305590,1,10,0:0:0:0:
260,179,305752,2,0,P|288:137|389:153,1,135.000005149842,0|10,1:0|0:0,0:0:0:0:
455,242,305995,2,0,B|468:259|475:275|475:275|474:241|493:203|493:203|474:165,1,135.000005149842,0|0,0:0|1:0,0:0:0:0:
392,301,306238,1,10,0:0:0:0:
248,188,306400,6,0,B|214:181|182:203|182:203|142:206|89:156,1,135.000005149842,0|10,1:0|0:0,0:0:0:0:
49,271,306725,1,0,1:0:0:0:
49,271,306806,1,0,1:0:0:0:
49,271,306887,1,10,0:0:0:0:
205,371,307049,2,0,P|289:338|282:280,1,135.000005149842,0|10,1:0|0:0,0:0:0:0:
248,188,307292,2,0,P|164:155|171:97,1,135.000005149842,0|0,0:0|1:0,0:0:0:0:
239,39,307536,1,10,0:0:0:0:
386,111,307698,6,0,L|458:94,1,67.5000025749208,4|0,1:2|0:0,0:0:0:0:
512,197,307860,1,10,0:0:0:0:
506,229,307941,1,0,0:0:0:0:
486,256,308022,1,0,1:0:0:0:
455,268,308103,1,0,1:0:0:0:
422,264,308184,1,10,0:0:0:0:
266,166,308346,5,0,1:0:0:0:
232,161,308428,1,0,0:0:0:0:
199,156,308509,1,10,0:0:0:0:
165,151,308590,1,0,0:0:0:0:
131,145,308671,2,0,B|116:116|116:116|143:82,2,67.5000025749208,0|0|10,1:0|1:0|0:0,0:0:0:0:
393,70,308995,6,0,B|400:96|400:96|422:69|410:34|410:34|376:22|362:-36,1,144,4|10,1:2|0:0,0:0:0:0:
282,111,309319,1,0,1:0:0:0:
274,138,309400,1,0,1:0:0:0:
266,166,309482,1,10,0:0:0:0:
88,255,309644,6,0,B|81:281|81:281|59:254|71:219|71:219|105:207|119:149,1,144,4|10,1:0|0:0,0:0:0:0:
240,301,309968,1,0,1:0:0:0:
192,62,310130,1,10,0:0:0:0:
443,133,310292,6,0,B|473:155|473:155|461:230,1,67.5000025749208,4|0,1:2|0:0,0:0:0:0:
446,286,310455,1,10,0:0:0:0:
412,293,310536,1,0,1:0:0:0:
379,300,310617,1,0,1:0:0:0:
346,307,310698,1,0,1:0:0:0:
313,314,310779,1,10,0:0:0:0:
108,360,310941,5,0,1:0:0:0:
81,339,311022,1,0,1:0:0:0:
66,309,311103,1,10,0:0:0:0:
67,276,311184,1,0,1:0:0:0:
84,247,311265,2,0,L|155:257,2,67.5000025749208,0|0|10,1:0|1:0|0:0,0:0:0:0:
232,205,311590,6,0,P|271:161|227:82,1,135.000005149842,0|10,1:0|0:0,0:0:0:0:
218,85,311833,1,0,0:0:0:0:
184,79,311914,1,0,1:0:0:0:
151,73,311995,1,0,1:0:0:0:
118,67,312076,1,10,0:0:0:0:
198,293,312238,5,0,1:0:0:0:
198,293,312319,1,0,0:0:0:0:
198,293,312400,2,0,L|336:274,1,135.000005149842,10|0,0:0|1:0,0:0:0:0:
427,261,312644,1,0,1:0:0:0:
417,286,312725,1,10,0:0:0:0:
96,325,312887,6,0,B|111:347|131:351|131:351|86:310|119:235,1,144,4|10,1:2|0:0,0:0:0:0:
273,258,313211,1,0,1:0:0:0:
284,284,313292,1,0,1:0:0:0:
279,312,313373,1,10,0:0:0:0:
214,97,313536,6,0,B|199:119|179:123|179:123|224:82|191:7,1,144,4|10,1:0|0:0,0:0:0:0:
96,61,313860,1,0,1:0:0:0:
198,293,314022,1,10,0:0:0:0:
309,54,314184,6,0,L|384:35,1,67.5000025749208,4|0,1:0|0:0,0:0:0:0:
489,94,314346,1,8,0:0:0:0:
512,155,314428,1,8,0:0:0:0:
479,211,314509,1,0,1:0:0:0:
414,221,314590,1,0,1:0:0:0:
362,188,314671,5,0,1:0:0:0:
328,168,314752,1,0,1:0:0:0:
289,174,314833,1,0,0:0:0:0:
261,201,314914,1,0,0:0:0:0:
249,237,314995,1,0,0:0:0:0:
218,262,315076,1,0,0:0:0:0:
180,265,315157,5,0,0:0:0:0:
229,274,315238,1,0,0:0:0:0:
279,283,315319,1,0,0:0:0:0:
329,293,315400,1,0,0:0:0:0:
378,302,315482,6,0,B|407:274|407:274|382:175,1,135.000005149842,4|10,1:2|0:0,0:0:0:0:
225,121,315806,1,0,1:0:0:0:
225,121,315887,1,0,1:0:0:0:
225,121,315968,1,10,0:0:0:0:
162,306,316130,2,0,B|133:278|133:278|158:179,1,135.000005149842,0|10,1:0|0:0,0:0:0:0:
102,4,316373,2,0,B|131:32|131:32|106:131,1,135.000005149842,0|0,0:0|1:0,0:0:0:0:
28,172,316617,1,10,0:0:0:0:
230,249,316779,6,0,P|282:201|354:218,1,135.000005149842,0|10,1:0|0:0,0:0:0:0:
327,333,317103,1,0,1:0:0:0:
327,333,317184,1,0,1:0:0:0:
327,333,317265,1,10,0:0:0:0:
468,254,317428,5,0,1:0:0:0:
376,148,317590,1,10,0:0:0:0:
388,123,317671,1,0,0:0:0:0:
498,45,317833,1,0,1:0:0:0:
486,20,317914,1,10,0:0:0:0:
213,109,318076,6,0,P|156:113|99:59,1,135.000005149842,4|10,1:2|0:0,0:0:0:0:
256,0,318400,1,0,1:0:0:0:
256,0,318482,1,0,1:0:0:0:
256,0,318563,1,10,0:0:0:0:
310,193,318725,2,0,P|366:197|424:143,1,135.000005149842,0|10,1:0|0:0,0:0:0:0:
332,101,318968,1,0,0:0:0:0:
189,193,319130,1,0,1:0:0:0:
183,219,319211,1,10,0:0:0:0:
78,371,319373,5,4,1:2:0:0:
22,150,319536,1,10,0:0:0:0:
249,325,319698,1,0,1:0:0:0:
255,299,319779,1,0,1:0:0:0:
263,271,319860,1,10,0:0:0:0:
294,73,320022,5,4,1:0:0:0:
425,259,320184,1,10,0:0:0:0:
353,10,320346,1,0,1:0:0:0:
365,321,320509,1,10,0:0:0:0:
129,179,320671,6,0,B|128:143|128:143|155:97,1,67.5000025749208,4|0,1:2|0:0,0:0:0:0:
294,73,320833,1,10,0:0:0:0:
326,64,320914,1,0,1:0:0:0:
359,71,320995,1,0,1:0:0:0:
385,91,321076,1,0,1:0:0:0:
401,121,321157,1,10,0:0:0:0:
211,240,321319,5,0,1:0:0:0:
177,246,321400,1,0,1:0:0:0:
144,252,321482,1,10,0:0:0:0:
111,259,321563,1,0,1:0:0:0:
78,265,321644,2,0,P|61:297|78:336,2,67.5000025749208,0|0|10,1:0|1:0|0:0,0:0:0:0:
303,283,321968,6,0,B|330:243|330:243|295:151,1,135.000005149842,0|10,1:0|0:0,0:0:0:0:
129,89,322292,1,0,1:0:0:0:
135,62,322373,1,0,1:0:0:0:
140,35,322455,1,10,0:0:0:0:
148,175,322617,2,0,B|138:167|121:168|121:168|109:176|109:176|99:178|90:179|90:179|72:180|63:195|63:195|81:185|102:186,1,135.000005149842,0|10,1:0|0:0,0:0:0:0:
201,280,322941,1,0,1:0:0:0:
198,305,323022,1,0,1:0:0:0:
194,332,323103,1,10,0:0:0:0:
362,374,323265,5,4,1:2:0:0:
511,209,323428,1,10,0:0:0:0:
479,224,323509,1,0,0:0:0:0:
443,224,323590,1,0,1:0:0:0:
412,207,323671,1,0,1:0:0:0:
392,177,323752,1,10,0:0:0:0:
492,42,323914,5,4,1:0:0:0:
420,306,324076,1,10,0:0:0:0:
207,172,324238,1,0,1:0:0:0:
467,148,324400,1,10,0:0:0:0:
255,275,324563,6,0,L|185:262,1,67.5000025749208,4|0,1:2|0:0,0:0:0:0:
66,238,324725,2,0,L|-4:225,1,67.5000025749208,8|8,0:0|0:0,0:0:0:0:
179,355,324887,5,0,1:0:0:0:
198,308,324968,1,0,1:0:0:0:
237,276,325049,1,0,1:0:0:0:
285,264,325130,1,0,1:0:0:0:
334,276,325211,5,0,1:0:0:0:
318,238,325292,1,0,1:0:0:0:
286,212,325373,1,0,1:0:0:0:
248,203,325455,1,0,1:0:0:0:
209,212,325536,5,0,1:0:0:0:
221,181,325617,1,0,1:0:0:0:
247,160,325698,1,0,1:0:0:0:
277,153,325779,1,0,1:0:0:0:
308,160,325860,6,0,L|420:183,1,108,2|2,0:0|0:0,0:0:0:0:
413,181,327157,2,0,P|426:152|421:106,1,72,2|0,0:0|0:0,0:0:0:0:
300,38,328292,1,0,0:0:0:0:
300,38,328455,2,0,B|284:88|284:88|292:123|292:123|279:180,1,144,2|2,0:0|0:0,0:0:0:0:
214,250,330076,1,0,0:0:0:0:
108,274,330400,1,2,0:0:0:0:
10,172,330725,2,0,L|16:143,4,22.5
224,73,331049,6,0,B|226:39|239:9|239:9|180:30|145:76|145:76|123:122|79:141|79:141|171:172|227:136|227:136|256:99|299:86,1,504,4|0,0:2|0:0,0:0:0:0:
394,223,333644,2,0,B|434:241|434:241|381:244|332:267|332:267|296:256|277:222,1,216,4|0,1:2|0:0,0:0:0:0:
256,104,334941,5,4,1:2:0:0:
256,104,335265,1,0,1:0:0:0:
108,157,335590,2,0,L|96:208,1,45
160,306,335752,1,0,0:0:0:0:
174,309,335833,1,0,0:0:0:0:
195,314,335914,1,8,0:0:0:0:
223,320,335995,1,8,0:0:0:0:
258,326,336076,1,8,0:0:0:0:
300,334,336157,1,8,0:0:0:0:
349,344,336238,5,2,1:3:0:0:
163,40,336725,5,2,1:3:0:0:
471,101,337373,6,0,B|455:125|455:125|458:153|458:153|441:181|425:218|425:218|430:197|427:171,1,161.999995056153,4|0,0:2|0:0,0:0:0:0:
377,92,337698,1,0,1:0:0:0:
385,274,337860,2,0,P|445:288|483:259,1,107.999996704102,8|0,1:0|0:0,0:0:0:0:
264,184,338184,1,0,1:0:0:0:
224,191,338265,1,0,1:0:0:0:
184,199,338346,1,0,1:0:0:0:
144,206,338428,1,0,1:0:0:0:
104,214,338509,1,12,1:3:0:0:
329,304,338833,6,0,B|283:293|283:293|306:326|349:335|349:335|369:295|410:272|410:272|470:268|516:231|516:231|450:291|461:357,1,467.999978576661,4|2,1:2|3:0,0:0:0:0:
95,210,341428,5,4,1:2:0:0:
62,242,341509,1,0,0:0:0:0:
66,288,341590,1,0,0:0:0:0:
100,320,341671,1,0,0:0:0:0:
145,332,341752,1,10,0:0:0:0:
191,325,341833,1,0,0:0:0:0:
233,303,341914,1,0,0:0:0:0:
262,266,341995,1,0,0:0:0:0:
274,221,342076,1,2,1:3:0:0:
286,176,342157,1,0,0:0:0:0:
323,148,342238,1,0,0:0:0:0:
370,138,342319,1,0,0:0:0:0:
413,159,342400,5,10,0:0:0:0:
360,168,342482,1,0,0:0:0:0:
312,145,342563,1,0,0:0:0:0:
286,99,342644,1,0,0:0:0:0:
293,46,342725,5,2,1:3:0:0:
250,26,342806,1,0,0:0:0:0:
204,28,342887,1,0,0:0:0:0:
163,50,342968,1,0,0:0:0:0:
137,89,343049,1,10,0:0:0:0:
131,135,343130,1,0,0:0:0:0:
147,179,343211,5,0,0:0:0:0:
193,175,343292,1,0,0:0:0:0:
236,193,343373,1,2,1:3:0:0:
267,228,343455,1,0,0:0:0:0:
279,273,343536,1,0,0:0:0:0:
311,307,343617,1,0,0:0:0:0:
355,320,343698,5,10,0:0:0:0:
349,274,343779,1,0,0:0:0:0:
369,233,343860,1,0,0:0:0:0:
409,209,343941,1,0,0:0:0:0:
457,211,344022,5,2,1:3:0:0:
413,229,344103,1,0,0:0:0:0:
371,250,344184,1,0,0:0:0:0:
330,272,344265,1,0,0:0:0:0:
290,296,344346,1,10,0:0:0:0:
251,322,344428,1,0,0:0:0:0:
213,350,344509,5,0,0:0:0:0:
166,349,344590,1,0,0:0:0:0:
129,322,344671,1,2,1:3:0:0:
112,279,344752,1,0,0:0:0:0:
122,234,344833,1,0,0:0:0:0:
147,195,344914,1,0,0:0:0:0:
187,169,344995,1,10,0:0:0:0:
233,162,345076,1,0,0:0:0:0:
279,158,345157,1,0,0:0:0:0:
319,134,345238,1,0,0:0:0:0:
346,96,345319,6,0,L|329:27,3,53.9999983520508,2|0|0|0,1:3|0:0|0:0|0:0,0:0:0:0:
250,69,345644,2,0,L|232:0,3,53.9999983520508,10|0|0|0,0:0|0:0|0:0|0:0,0:0:0:0:
157,139,345968,2,0,L|145:192,3,53.9999983520508,2|0|0|0,1:3|0:0|0:0|0:0,0:0:0:0:
61,167,346292,2,0,L|49:220,3,53.9999983520508,10|0|0|0,0:0|0:0|0:0|0:0,0:0:0:0:
216,344,346617,5,4,1:2:0:0:
235,301,346698,1,0,0:0:0:0:
270,270,346779,1,0,0:0:0:0:
315,258,346860,1,0,0:0:0:0:
362,262,346941,1,10,0:0:0:0:
401,286,347022,1,0,0:0:0:0:
418,328,347103,1,0,0:0:0:0:
395,368,347184,1,0,0:0:0:0:
351,382,347265,5,2,1:3:0:0:
305,374,347346,1,0,0:0:0:0:
266,349,347428,1,0,0:0:0:0:
240,310,347509,1,0,0:0:0:0:
231,265,347590,5,10,0:0:0:0:
262,230,347671,1,0,0:0:0:0:
274,185,347752,1,0,0:0:0:0:
262,140,347833,1,0,0:0:0:0:
231,106,347914,5,2,1:3:0:0:
271,128,347995,1,0,0:0:0:0:
318,134,348076,1,0,0:0:0:0:
362,121,348157,1,0,0:0:0:0:
392,87,348238,1,10,0:0:0:0:
383,43,348319,1,0,0:0:0:0:
340,29,348400,5,0,0:0:0:0:
330,74,348482,1,0,0:0:0:0:
335,121,348563,1,2,1:3:0:0:
360,160,348644,1,0,0:0:0:0:
381,202,348725,1,0,0:0:0:0:
382,248,348806,1,0,0:0:0:0:
365,292,348887,5,10,0:0:0:0:
365,239,348968,1,0,0:0:0:0:
397,196,349049,1,0,0:0:0:0:
448,183,349130,1,0,0:0:0:0:
497,203,349211,5,2,1:3:0:0:
469,240,349292,1,0,0:0:0:0:
430,266,349373,1,0,0:0:0:0:
385,276,349455,1,0,0:0:0:0:
338,270,349536,1,10,0:0:0:0:
316,229,349617,1,0,0:0:0:0:
282,197,349698,1,0,0:0:0:0:
239,179,349779,1,0,0:0:0:0:
192,175,349860,2,0,L|127:200,3,53.9999983520508,2|0|0|0,1:3|0:0|0:0|0:0,0:0:0:0:
158,87,350184,2,0,L|92:111,3,53.9999983520508,10|0|0|0,0:0|0:0|0:0|0:0,0:0:0:0:
360,61,350509,6,0,B|387:54|387:54|410:34|410:34|400:61|392:70|392:70|376:64,1,107.999996704102,4|0,1:2|0:0,0:0:0:0:
288,8,350752,1,0,0:0:0:0:
288,8,350833,2,0,L|272:75,1,53.9999983520508,12|0,0:0|0:0,0:0:0:0:
254,148,350995,2,0,L|238:215,1,53.9999983520508,0|0,1:0|1:0,0:0:0:0:
351,371,351157,5,0,1:0:0:0:
338,331,351238,1,0,1:0:0:0:
309,304,351319,1,8,1:0:0:0:
269,294,351400,1,8,1:0:0:0:
231,305,351482,5,0,1:0:0:0:
220,337,351563,1,0,1:0:0:0:
197,358,351644,1,0,1:0:0:0:
165,366,351725,1,0,1:0:0:0:
134,357,351806,6,0,B|118:325|118:325|139:282,1,67.5000025749208,4|0,1:2|0:0,0:0:0:0:
63,200,351968,1,10,0:0:0:0:
58,166,352049,1,0,0:0:0:0:
53,133,352130,1,0,1:0:0:0:
49,99,352211,1,0,1:0:0:0:
44,66,352292,1,10,0:0:0:0:
208,0,352455,5,0,1:0:0:0:
241,0,352536,1,0,0:0:0:0:
271,12,352617,1,10,0:0:0:0:
288,40,352698,1,0,0:0:0:0:
289,74,352779,2,0,L|220:94,2,67.5000025749208,0|0|10,1:0|1:0|0:0,0:0:0:0:
380,136,353103,6,0,B|355:158|345:174|345:174|357:206|355:232|355:232|364:210|374:200,1,135.000005149842,0|10,1:0|0:0,0:0:0:0:
461,223,353346,1,0,0:0:0:0:
461,223,353428,2,0,B|487:246|487:246|486:295,1,67.5000025749208,0|0,1:0|1:0,0:0:0:0:
400,331,353590,1,10,0:0:0:0:
366,336,353671,1,0,0:0:0:0:
333,342,353752,1,0,1:0:0:0:
300,348,353833,1,0,0:0:0:0:
267,354,353914,1,10,0:0:0:0:
233,360,353995,1,0,0:0:0:0:
200,366,354076,6,0,P|181:333|189:299,1,67.5000025749208,0|0,1:0|1:0,0:0:0:0:
275,256,354238,1,10,0:0:0:0:
186,168,354400,6,0,L|15:204,1,135.000005149842,4|10,1:2|0:0,0:0:0:0:
88,38,354725,1,0,1:0:0:0:
88,38,354806,1,0,1:0:0:0:
88,38,354887,1,10,0:0:0:0:
243,53,355049,2,0,B|291:19|338:48|338:48|325:21|300:16,1,135.000005149842,0|10,1:0|0:0,0:0:0:0:
293,126,355292,2,0,B|307:224|307:224|345:256,1,135.000005149842,0|0,0:0|1:0,0:0:0:0:
386,181,355536,1,10,0:0:0:0:
184,251,355698,6,0,P|136:202|46:218,1,135.000005149842,4|10,1:2|0:0,0:0:0:0:
208,371,356022,1,0,1:0:0:0:
208,371,356103,1,0,1:0:0:0:
208,371,356184,1,10,0:0:0:0:
381,263,356346,6,0,L|474:244,1,67.5000025749208,4|0,1:0|0:0,0:0:0:0:
502,322,356509,2,0,L|435:335,1,67.5000025749208,10|0,0:0|0:0,0:0:0:0:
280,225,356671,5,0,1:0:0:0:
285,191,356752,1,0,1:0:0:0:
290,158,356833,1,0,1:0:0:0:
295,124,356914,1,0,1:0:0:0:
301,91,356995,6,0,B|330:33|403:50|433:121|372:194|301:153|301:153|290:118|258:85|258:85|210:77|181:80|181:80|128:57|128:57|177:59|204:39,1,535.500010213852,4|0,1:3|0:0,0:0:0:0:
151,162,358292,6,0,B|170:166|214:152|214:152|175:200|130:238|91:219|91:219|60:224|38:210|38:210|-15:234|-37:333|29:357|29:357|1:317|14:280,1,535.500010213852,12|0,1:0|0:0,0:0:0:0:
207,322,359590,6,0,L|151:307,2,51.0000009727478,0|0|0,1:0|1:0|1:0,0:0:0:0:
330,365,359914,2,0,L|280:378,2,51.0000009727478,0|0|0,1:0|1:0|1:0,0:0:0:0:
429,338,360238,5,0,1:0:0:0:
473,322,360319,1,0,1:0:0:0:
498,282,360400,1,0,1:0:0:0:
493,236,360482,1,0,0:0:0:0:
461,202,360563,5,0,1:0:0:0:
424,192,360644,1,0,1:0:0:0:
401,162,360725,1,0,1:0:0:0:
401,125,360806,1,0,0:0:0:0:
425,95,360887,5,4,1:2:0:0:
406,273,361413,5,4,1:1:0:0:
139,154,361948,5,4,1:3:0:0:
230,311,362493,5,4,1:3:0:0:
260,20,363099,5,4,1:2:0:0:
260,20,363978,1,0,1:0:0:0:
333,94,364141,1,8,1:0:0:0:
189,192,364303,1,8,1:0:0:0:
256,340,364465,5,4,1:3:0:0:
256,44,365860,5,4,0:2:0:0:
208,280,367239,6,0,B|174:260|136:221|147:123|187:86|254:81|254:81|317:83|361:115|375:220|336:260|301:281,1,540,4|0,1:3|0:0,0:0:0:0:
225,356,369935,2,0,B|234:410|277:374|238:281|151:320|151:320|189:300|189:300|122:283|124:192|124:192|96:221|79:183|106:149|123:184|123:184|127:107|163:50|219:44|245:35|245:35|249:13|215:27|215:27|234:5|257:-5|257:-5|279:5|298:27|298:27|263:13|268:35|268:35|293:44|352:49|385:107|389:184|389:184|406:149|433:183|416:221|388:192|388:192|390:283|323:300|323:300|361:320|361:320|274:281|235:374|281:412|288:351,1,1480.49997740936,4|0,1:2|0:0,0:0:0:0:
