osu file format v14

[General]
AudioFilename: audio.mp3
AudioLeadIn: 0
PreviewTime: 576716
Countdown: 0
SampleSet: Soft
StackLeniency: 0.2
Mode: 0
LetterboxInBreaks: 0
WidescreenStoryboard: 0

[Editor]
Bookmarks: 32159,53829,63596,64991,74759,85922,111038,127782,133363,150108,155689,166852,178015,189177,200340,211503,222666,233829,256235,264881,285526,306171,324235,334557,355202,375847,396492,406814,427459,435201,445606,461285,478568,506346,510296,526099,545975,571161,573506,577457,609062,644617
DistanceSpacing: 0.7
BeatDivisor: 4
GridSize: 16
TimelineZoom: 2.899999

[Metadata]
Title:Prison Of Abyss
TitleUnicode:Prison Of Abyss
Artist:TEARS OF TRAGEDY
ArtistUnicode:TEARS OF TRAGEDY
Creator:Z5553
Version:Derelict Incandescence
Source:
Tags:continuation of the dream haruka toru yohei hayato hideyuki symphonic melodic power metal japanese rock
BeatmapID:3209338
BeatmapSetID:1571731

[Difficulty]
HPDrainRate:5
CircleSize:4.5
OverallDifficulty:9
ApproachRate:9.4
SliderMultiplier:2
SliderTickRate:1

[Events]
//Background and Video events
0,0,"852111.jpg",0,0
//Break Periods
2,240028,245289
2,449633,452473
//Storyboard Layer 0 (Background)
//Storyboard Layer 1 (Fail)
//Storyboard Layer 2 (Pass)
//Storyboard Layer 3 (Foreground)
//Storyboard Layer 4 (Overlay)
//Storyboard Sound Samples

[TimingPoints]
32159,740.740740740741,3,2,1,40,1,0
43270,983.606557377049,3,2,1,40,1,0
43515,810.810810810811,3,2,1,40,1,0
43717,800,3,2,1,40,1,0
43917,615.384615384615,3,2,1,40,1,0
44070,558.139534883721,3,2,1,40,1,0
44209,421.052631578947,3,2,1,40,1,0
44314,315.789473684211,3,2,1,40,1,0
44471,300,3,2,1,40,1,0
44621,272.727272727273,3,2,1,40,1,0
44757,240,3,2,1,40,1,0
44997,216.606498194946,3,2,1,40,1,0
45214,659.340659340659,3,2,1,40,1,0
47192,679.886685552408,3,2,1,40,1,0
49231,727.713765918739,3,2,1,40,1,0
51414,689.259046524986,3,2,1,40,1,0
53481,348.837209302326,4,2,1,40,1,0
53829,348.837209302326,4,2,1,70,1,0
53945,-76.9230769230769,4,2,1,70,0,0
54293,-90.9090909090909,4,2,1,70,0,0
54642,-111.111111111111,4,2,1,70,0,0
54991,-142.857142857143,4,2,1,70,0,0
55340,-76.923076923077,4,2,1,70,0,0
55689,-90.909090909091,4,2,1,70,0,0
56038,-111.111111111111,4,2,1,70,0,0
56387,-142.857142857143,4,2,1,70,0,0
56735,-76.9230769230769,4,2,1,70,0,0
57084,-90.9090909090909,4,2,1,70,0,0
57433,-111.111111111111,4,2,1,70,0,0
57782,-142.857142857143,4,2,1,70,0,0
58131,-76.9230769230769,4,2,1,70,0,0
58480,-90.9090909090909,4,2,1,70,0,0
58829,-111.111111111111,4,2,1,70,0,0
59178,-142.857142857143,4,2,1,70,0,0
59526,-76.9230769230769,4,2,1,70,0,0
59875,-90.9090909090909,4,2,1,70,0,0
60224,-111.111111111111,4,2,1,70,0,0
60573,-142.857142857143,4,2,1,70,0,0
60922,-76.9230769230769,4,2,1,70,0,0
61271,-90.9090909090909,4,2,1,70,0,0
61620,-111.111111111111,4,2,1,70,0,0
61969,-142.857142857143,4,2,1,70,0,0
62317,-76.9230769230769,4,2,1,70,0,0
62666,-90.9090909090909,4,2,1,70,0,0
63015,-111.111111111111,4,2,1,70,0,0
63363,-142.857142857143,4,2,1,70,0,0
70689,-66.6666666666667,4,2,1,70,0,0
71968,-66.6666666666667,4,2,2,70,0,0
72084,-100,4,2,2,70,0,0
73363,-100,4,2,1,70,0,0
74759,-100,4,2,1,40,0,0
75456,-333.333333333333,4,2,1,40,0,0
80166,-333.333333333333,4,2,1,50,0,0
83131,-125,4,2,1,50,0,0
84526,-125,4,2,1,60,0,0
85224,-125,4,2,0,60,0,0
85922,-100,4,2,4,60,0,0
88015,-100,4,2,1,60,0,0
97084,-66.6666666666667,4,2,1,80,0,0
101968,-66.6666666666667,4,2,4,80,0,0
102317,-66.6666666666667,4,2,0,80,0,0
102666,-100,4,2,4,60,0,0
102927,-100,4,2,1,5,0,0
103015,-100,4,2,1,60,0,0
104061,-90.9090909090909,4,2,1,60,0,0
104875,-90.9090909090909,4,2,0,60,0,0
105108,-90.9090909090909,4,2,1,60,0,0
105224,-90.9090909090909,4,2,0,60,0,0
105456,-90.9090909090909,4,2,1,60,0,0
109642,-90.9090909090909,4,2,2,60,0,0
110689,-90.9090909090909,4,2,1,60,0,0
111038,-83.3333333333333,4,2,1,60,0,0
114177,-83.3333333333333,4,2,2,60,0,0
114352,-83.3333333333333,4,2,1,60,0,0
121154,-83.3333333333333,4,2,2,60,0,0
121503,-83.3333333333333,4,2,1,60,0,0
122026,-83.3333333333333,4,2,2,60,0,0
122201,-83.3333333333333,4,2,1,50,0,0
124991,-66.6666666666667,4,2,1,50,0,0
126619,-66.6666666666667,4,2,2,50,0,0
127433,-66.6666666666667,4,2,0,50,0,0
127782,-166.666666666667,4,2,1,50,0,0
129700,-166.666666666667,4,2,3,50,0,0
129875,-166.666666666667,4,2,1,50,0,0
130223,-166.666666666667,4,2,3,50,0,0
131270,-166.666666666667,4,2,1,50,0,0
131968,-166.666666666667,4,2,4,50,0,0
132491,-100,4,2,4,50,0,0
133363,-83.3333333333333,4,2,4,60,0,0
133538,-83.3333333333333,4,2,1,60,0,0
136503,-83.3333333333333,4,2,2,60,0,0
136677,-83.3333333333333,4,2,1,60,0,0
143480,-83.3333333333333,4,2,2,60,0,0
143829,-83.3333333333333,4,2,1,60,0,0
144352,-83.3333333333333,4,2,2,60,0,0
144526,-83.3333333333333,4,2,1,60,0,0
147317,-66.6666666666667,4,2,1,60,0,0
148538,-66.6666666666667,4,2,3,60,0,0
148712,-66.6666666666667,4,2,4,60,0,0
149061,-83.3333333333333,4,2,4,60,0,0
149410,-125,4,2,4,60,0,0
149759,-125,4,2,0,60,0,0
150108,-166.666666666667,4,2,1,50,0,0
152026,-166.666666666667,4,2,3,50,0,0
152201,-166.666666666667,4,2,1,50,0,0
152898,-166.666666666667,4,2,3,50,0,0
154468,-166.666666666667,4,2,2,50,0,0
154991,-166.666666666667,4,2,4,50,0,0
155689,-76.9230769230769,4,2,4,60,0,0
155863,-76.9230769230769,4,2,1,60,0,0
166154,-76.9230769230769,4,2,2,60,0,0
166503,-76.9230769230769,4,2,1,60,0,0
166852,-166.666666666667,4,2,1,50,0,0
168945,-100,4,2,1,50,0,0
169177,-100,4,2,1,5,0,0
169294,-90.9090909090909,4,2,1,50,0,0
169526,-90.9090909090909,4,2,1,5,0,0
169642,-166.666666666667,4,2,1,50,0,0
170166,-166.666666666667,4,2,3,50,0,0
170601,-166.666666666667,4,2,3,5,0,0
170689,-166.666666666667,4,2,3,50,0,0
170950,-166.666666666667,4,2,3,5,0,0
171038,-166.666666666667,4,2,3,50,0,0
172084,-166.666666666667,4,2,0,50,0,0
172433,-166.666666666667,4,2,1,50,0,0
173392,-166.666666666667,4,2,1,5,0,0
173480,-166.666666666667,4,2,1,50,0,0
173741,-166.666666666667,4,2,1,5,0,0
173829,-166.666666666667,4,2,1,50,0,0
174526,-166.666666666667,4,2,3,50,0,0
174787,-166.666666666667,4,2,3,5,0,0
174875,-166.666666666667,4,2,1,50,0,0
176794,-166.666666666667,4,2,4,50,0,0
178974,-100,4,2,4,50,0,0
187433,-100,4,2,2,50,0,0
187608,-100,4,2,4,50,0,0
189177,-83.3333333333333,4,2,2,70,0,0
191968,-66.6666666666667,4,2,4,70,0,0
192142,-66.6666666666667,4,2,1,70,0,0
192317,-66.6666666666667,4,2,4,70,0,0
192840,-66.6666666666667,4,2,1,70,0,0
193015,-66.6666666666667,4,2,4,70,0,0
193537,-66.6666666666667,4,2,1,70,0,0
193712,-66.6666666666667,4,2,4,70,0,0
196503,-100,4,2,4,70,0,0
196852,-83.3333333333333,4,2,4,70,0,0
197375,-83.3333333333333,4,2,2,70,0,0
197549,-83.3333333333333,4,2,4,70,0,0
199294,-83.3333333333333,4,2,2,70,0,0
200340,-83.3333333333333,4,2,1,70,0,0
201387,-76.9230769230769,4,2,1,70,0,0
210108,-76.9230769230769,4,2,1,70,0,0
210456,-76.9230769230769,4,2,0,70,0,0
210805,-76.9230769230769,4,2,0,60,0,0
211154,-500,4,2,1,70,0,0
211415,-500,4,2,1,5,0,0
211503,-166.666666666667,4,2,1,50,0,0
212201,-166.666666666667,4,2,3,50,0,0
212549,-166.666666666667,4,2,1,50,0,0
213073,-166.666666666667,4,2,3,50,0,0
213247,-166.666666666667,4,2,1,50,0,0
214991,-166.666666666667,4,2,3,50,0,0
215340,-166.666666666667,4,2,1,50,0,0
216387,-166.666666666667,4,2,3,50,0,0
216648,-166.666666666667,4,2,1,50,0,0
217084,-166.666666666667,4,2,3,50,0,0
218131,-166.666666666667,4,2,1,50,0,0
220573,-166.666666666667,4,2,3,50,0,0
220834,-166.666666666667,4,2,3,5,0,0
220922,-166.666666666667,4,2,1,50,0,0
221096,-166.666666666667,4,2,3,50,0,0
222317,-166.666666666667,4,2,2,50,0,0
222666,-76.9230769230769,4,2,1,80,0,0
227898,-333.333333333333,4,2,1,80,0,0
228159,-333.333333333333,4,2,1,5,0,0
228247,-76.9230769230769,4,2,1,80,0,0
231387,-76.9230769230769,4,2,1,80,0,1
232433,-76.9230769230769,4,2,2,80,0,1
232956,-76.9230769230769,4,2,4,80,0,1
233480,-76.9230769230769,4,2,5,80,0,1
233829,375,4,2,1,90,1,0
233829,-250,4,2,1,90,0,0
239829,-250,4,2,1,5,0,0
245829,-1000,4,2,1,40,0,0
246954,-1000,4,2,1,5,0,0
247141,-500,4,2,1,40,0,0
248266,-500,4,2,1,5,0,0
248454,-333.333333333333,4,2,1,40,0,0
249579,-333.333333333333,4,2,1,5,0,0
249766,-250,4,2,1,40,0,0
250891,-250,4,2,1,5,0,0
251079,-200,4,2,1,40,0,0
252204,-200,4,2,1,5,0,0
252391,-166.666666666667,4,2,1,40,0,0
253515,-166.666666666667,4,2,1,5,0,0
253704,-142.857142857143,4,2,1,40,0,0
254829,-142.857142857143,4,2,1,5,0,0
255016,-100,4,2,1,40,0,0
255954,-100,4,2,1,5,0,0
256235,458.015267175573,4,2,1,40,1,0
256349,322.58064516129,4,2,1,60,1,0
256994,279.06976744186,4,2,1,60,1,0
257133,363.636363636364,4,2,1,60,1,0
257314,279.06976744186,4,2,1,60,1,0
257453,375,4,2,1,60,1,0
257640,272.727272727273,4,2,1,60,1,0
257776,361.44578313253,4,2,1,60,1,0
257956,291.26213592233,4,2,1,60,1,0
258101,324.324324324324,4,2,1,60,1,0
258425,352.941176470588,4,2,1,60,1,0
258601,307.692307692308,4,2,1,60,1,0
258754,333.333333333333,4,2,1,60,1,0
259087,285.714285714286,4,2,1,60,1,0
259229,361.44578313253,4,2,1,60,1,0
259409,292.682926829268,4,2,1,60,1,0
259555,333.333333333333,4,2,1,60,1,0
259721,352.941176470588,4,2,1,60,1,0
259897,292.682926829268,4,2,1,60,1,0
260043,312.5,4,2,1,60,1,0
260199,326.086956521739,4,2,1,60,1,0
260525,338.983050847458,4,2,1,60,1,0
260694,309.278350515464,4,2,1,60,1,0
260848,344.827586206897,4,2,1,60,1,0
261020,306.122448979592,4,2,1,60,1,0
261173,326.086956521739,4,2,1,60,1,0
261336,312.5,4,2,1,60,1,0
261649,337.078651685393,4,2,1,60,1,0
261818,324.324324324324,4,2,2,60,1,0
262142,315.789473684211,4,2,2,60,1,0
262299,333.333333333333,4,2,2,60,1,0
262632,319.148936170213,4,2,2,60,1,0
262791,265.486725663717,4,2,2,60,1,0
262857,319.148936170213,4,2,2,60,1,0
262936,342.857142857143,4,2,2,60,1,0
263107,329.67032967033,4,2,2,60,1,0
263271,300,4,2,2,60,1,0
263421,315.789473684211,4,2,2,60,1,0
263578,333.333333333333,4,2,2,60,1,0
264077,338.983050847458,4,2,2,60,1,0
264246,326.086956521739,4,2,2,60,1,0
264572,320.855614973262,4,2,2,60,1,0
264572,-324.675324675325,4,2,2,60,0,0
264732,298.507462686567,4,2,2,60,1,0
264806,-100,4,2,2,5,0,0
264881,322.58064516129,4,2,1,70,1,0
266493,-100,4,2,4,70,0,0
267461,-100,4,2,1,70,0,0
269074,-100,4,2,4,70,0,0
270042,-100,4,2,1,70,0,0
271655,-100,4,2,4,70,0,0
272622,-100,4,2,1,70,0,0
273913,-76.9230769230769,4,2,1,70,0,0
274235,-76.9230769230769,4,2,4,70,0,0
275203,-76.9230769230769,4,2,1,70,0,0
276816,-100,4,2,1,70,0,0
283106,-100,4,2,2,70,0,0
284719,-200,4,2,1,70,0,1
284960,-200,4,2,1,5,0,1
285042,-200,4,2,1,70,0,1
285283,-200,4,2,1,5,0,1
285364,-200,4,2,1,70,0,1
285526,-100,4,2,1,60,0,0
286816,-100,4,2,2,60,0,0
286977,-100,4,2,1,60,0,0
288751,-100,4,2,2,60,0,0
288913,-100,4,2,1,60,0,0
289074,-100,4,2,2,60,0,0
289235,-100,4,2,1,60,0,0
289397,-100,4,2,2,60,0,0
289559,-100,4,2,1,60,0,0
290364,-100,4,2,4,60,0,0
290687,-100,4,2,1,60,0,0
291977,-100,4,2,2,60,0,0
292138,-100,4,2,1,60,0,0
293913,-125,4,2,1,60,0,0
295526,-125,4,2,2,60,0,0
295848,-100,4,2,1,60,0,0
297139,-100,4,2,2,60,0,0
297300,-100,4,2,1,60,0,0
299074,-100,4,2,2,60,0,0
299235,-100,4,2,1,60,0,0
299397,-100,4,2,2,60,0,0
299558,-100,4,2,1,60,0,0
299719,-100,4,2,2,60,0,0
299881,-100,4,2,1,60,0,0
300687,-100,4,2,2,60,0,0
300848,-100,4,2,1,60,0,0
302300,-100,4,2,2,60,0,0
302461,-100,4,2,1,60,0,0
305042,-100,4,2,4,60,0,0
305526,-166.666666666667,4,2,2,60,0,0
305767,-166.666666666667,4,2,2,5,0,0
305848,-250,4,2,2,60,0,0
306089,-250,4,2,2,5,0,0
306171,-83.3333333333333,4,2,1,80,0,0
307784,-83.3333333333333,4,2,2,80,0,0
307945,-83.3333333333333,4,2,1,80,0,0
308106,-83.3333333333333,4,2,2,80,0,0
308429,-83.3333333333333,4,2,4,80,0,0
308751,-83.3333333333333,4,2,1,80,0,0
310364,-83.3333333333333,4,2,2,80,0,0
310526,-83.3333333333333,4,2,1,80,0,0
310687,-83.3333333333333,4,2,2,80,0,0
311009,-83.3333333333333,4,2,4,80,0,0
311332,-83.3333333333333,4,2,1,80,0,0
312945,-83.3333333333333,4,2,2,80,0,0
313106,-83.3333333333333,4,2,1,80,0,0
313268,-83.3333333333333,4,2,2,80,0,0
313590,-250,4,2,2,80,0,0
313913,287.081339712919,4,2,1,80,1,0
314200,-100,4,2,2,80,0,0
314558,322.58064516129,4,2,1,80,1,0
314665,-100,4,2,4,80,0,0
315203,322.58064516129,4,2,4,80,1,0
316493,-83.3333333333333,4,2,1,80,0,0
318106,-83.3333333333333,4,2,2,80,0,0
318267,-83.3333333333333,4,2,1,80,0,0
318428,-83.3333333333333,4,2,2,80,0,0
318751,-83.3333333333333,4,2,4,80,0,0
319073,-83.3333333333333,4,2,1,80,0,0
320686,-83.3333333333333,4,2,2,80,0,0
320848,-83.3333333333333,4,2,1,80,0,0
321009,-83.3333333333333,4,2,2,80,0,0
321332,-83.3333333333333,4,2,4,80,0,0
321654,-83.3333333333333,4,2,1,80,0,0
323267,-83.3333333333333,4,2,2,80,0,0
323590,-83.3333333333333,4,2,1,80,0,0
323794,-83.3333333333333,4,2,2,80,0,0
323912,352.941176470588,4,2,2,80,1,0
324029,307.692307692308,4,2,2,80,1,0
324235,322.58064516129,4,2,1,40,1,0
324235,-166.666666666667,4,2,1,50,0,0
332217,-166.666666666667,4,2,1,5,0,0
332299,-166.666666666667,4,2,1,50,0,0
333589,-166.666666666667,4,2,2,50,0,0
333912,-166.666666666667,4,2,1,50,0,0
334557,-100,4,2,1,60,0,0
335847,-100,4,2,2,60,0,0
336008,-100,4,2,1,60,0,0
337783,-100,4,2,2,60,0,0
337944,-100,4,2,1,60,0,0
338105,-100,4,2,2,60,0,0
338266,-100,4,2,1,60,0,0
338428,-100,4,2,2,60,0,0
338589,-100,4,2,1,60,0,0
339396,-100,4,2,4,60,0,0
339718,-100,4,2,1,60,0,0
341009,-100,4,2,2,60,0,0
341170,-100,4,2,1,60,0,0
344557,-100,4,2,2,60,0,0
344880,-100,4,2,1,60,0,0
346170,-100,4,2,2,60,0,0
346331,-100,4,2,1,60,0,0
348105,-100,4,2,2,60,0,0
348267,-100,4,2,1,60,0,0
348428,-100,4,2,2,60,0,0
348589,-100,4,2,1,60,0,0
348751,-100,4,2,2,60,0,0
348912,-100,4,2,1,60,0,0
349718,-100,4,2,2,60,0,0
349879,-100,4,2,1,60,0,0
349959,-100,4,2,2,60,0,0
350041,-100,4,2,1,60,0,0
351331,-100,4,2,2,60,0,0
351493,-100,4,2,1,60,0,0
354073,-100,4,2,4,60,0,0
354557,-100,4,2,2,60,0,0
355202,-83.3333333333333,4,2,1,80,0,0
356815,-83.3333333333333,4,2,2,80,0,0
356976,-83.3333333333333,4,2,1,80,0,0
357138,-83.3333333333333,4,2,2,80,0,0
357460,-83.3333333333333,4,2,4,80,0,0
357783,-83.3333333333333,4,2,1,80,0,0
359396,-83.3333333333333,4,2,2,80,0,0
359557,-83.3333333333333,4,2,1,80,0,0
359718,-83.3333333333333,4,2,2,80,0,0
360041,-83.3333333333333,4,2,4,80,0,0
360364,-83.3333333333333,4,2,1,80,0,0
361976,-83.3333333333333,4,2,2,80,0,0
362138,-83.3333333333333,4,2,1,80,0,0
362299,-83.3333333333333,4,2,2,80,0,0
362944,-83.3333333333333,4,2,1,80,0,0
363175,315.789473684211,4,2,1,80,1,0
363589,322.58064516129,4,2,1,80,1,0
363730,322.58064516129,4,2,2,80,1,0
364072,322.58064516129,4,2,2,80,1,0
364235,322.58064516129,4,2,2,80,1,0
364396,-100,4,2,1,80,0,0
365202,-100,4,2,0,80,0,0
365525,-83.3333333333333,4,2,1,80,0,0
367138,-83.3333333333333,4,2,2,80,0,0
367299,-83.3333333333333,4,2,1,80,0,0
367461,-83.3333333333333,4,2,2,80,0,0
367783,-83.3333333333333,4,2,4,80,0,0
368105,-83.3333333333333,4,2,1,80,0,0
369718,-83.3333333333333,4,2,2,80,0,0
369880,-83.3333333333333,4,2,1,80,0,0
370041,-83.3333333333333,4,2,2,80,0,0
370364,-83.3333333333333,4,2,4,80,0,0
370686,-83.3333333333333,4,2,2,80,0,1
370847,-83.3333333333333,4,2,4,80,0,1
371976,-83.3333333333333,4,2,2,80,0,1
372138,-83.3333333333333,4,2,4,80,0,1
372299,-83.3333333333333,4,2,2,80,0,1
372461,-83.3333333333333,4,2,4,80,0,1
372622,-83.3333333333333,4,2,2,80,0,1
372784,-83.3333333333333,4,2,4,80,0,1
372944,-83.3333333333333,4,2,2,80,0,1
373106,-83.3333333333333,4,2,4,80,0,1
373267,-83.3333333333333,4,2,2,80,0,1
373428,-83.3333333333333,4,2,4,80,0,1
374235,-83.3333333333333,4,2,2,80,0,1
374476,-83.3333333333333,4,2,2,5,0,1
374557,-83.3333333333333,4,2,1,80,0,1
375364,307.692307692308,4,2,2,70,1,1
375847,322.58064516129,4,2,3,40,1,0
375847,-125,4,2,3,50,0,0
376008,-125,4,2,1,50,0,0
377782,-125,4,2,3,50,0,0
377943,-125,4,2,1,50,0,0
378105,-125,4,2,3,50,0,0
378427,-125,4,2,1,50,0,0
380604,-125,4,2,1,5,0,0
380685,-125,4,2,1,50,0,0
380926,-125,4,2,1,5,0,0
381008,-125,4,2,3,50,0,0
381653,-125,4,2,1,50,0,0
381894,-125,4,2,1,5,0,0
381976,-125,4,2,1,50,0,0
383507,-125,4,2,1,5,0,0
383588,-125,4,2,1,50,0,0
386169,-100,4,2,1,50,0,0
386410,-100,4,2,1,5,0,0
386492,-100,4,2,1,50,0,0
387055,-100,4,2,1,5,0,0
387137,-100,4,2,1,50,0,0
388105,-100,4,2,3,50,0,0
389395,-100,4,2,1,50,0,0
391249,-100,4,2,1,5,0,0
391330,-100,4,2,1,60,0,0
392943,-100,4,2,2,60,0,0
393829,-100,4,2,2,5,0,0
393911,-100,4,2,1,60,0,0
394234,-100,4,2,1,80,0,0
395847,-100,4,2,2,80,0,0
396169,-100,4,2,0,80,0,0
396492,-1000,4,2,1,50,0,0
397621,-1000,4,2,1,5,0,0
397782,-1000,4,2,1,50,0,0
400201,-1000,4,2,1,5,0,0
400363,-1000,4,2,1,50,0,0
401008,-1000,4,2,2,50,0,0
401330,-1000,4,2,1,50,0,0
402782,-1000,4,2,1,5,0,0
402943,-1000,4,2,1,50,0,0
403750,-133.333333333333,4,2,1,50,0,0
403991,-133.333333333333,4,2,1,5,0,0
404072,-133.333333333333,4,2,1,70,0,0
406492,-200,4,2,1,70,0,0
406733,-200,4,2,1,5,0,0
406814,-83.3333333333333,4,2,1,70,0,0
407700,-83.3333333333333,4,2,1,5,0,0
407782,-83.3333333333333,4,2,1,70,0,0
408184,-83.3333333333333,4,2,1,5,0,0
408266,-83.3333333333333,4,2,1,70,0,0
409072,-83.3333333333333,4,2,4,70,0,0
409395,-83.3333333333333,4,2,1,70,0,0
410281,-83.3333333333333,4,2,1,5,0,0
410363,-83.3333333333333,4,2,1,70,0,0
410765,-83.3333333333333,4,2,1,5,0,0
410847,-83.3333333333333,4,2,1,70,0,0
412539,-83.3333333333333,4,2,1,5,0,0
412621,-83.3333333333333,4,2,1,70,0,0
412862,-83.3333333333333,4,2,1,5,0,0
412943,-83.3333333333333,4,2,1,70,0,0
414475,-83.3333333333333,4,2,1,5,0,0
414556,-83.3333333333333,4,2,2,70,0,0
416492,-83.3333333333333,4,2,0,70,0,0
416814,-200,4,2,4,70,0,0
417055,-200,4,2,4,5,0,0
417137,-76.9230769230769,4,2,4,70,0,0
417459,-76.9230769230769,4,2,1,70,0,0
418507,-76.9230769230769,4,2,1,5,0,0
418588,-76.9230769230769,4,2,1,70,0,0
419395,-76.9230769230769,4,2,4,70,0,0
419717,-76.9230769230769,4,2,1,70,0,0
419958,-76.9230769230769,4,2,1,5,0,0
420040,-76.9230769230769,4,2,1,70,0,0
422539,-76.9230769230769,4,2,1,5,0,0
422621,-76.9230769230769,4,2,1,70,0,0
424797,-76.9230769230769,4,2,1,5,0,0
424879,-76.9230769230769,4,2,4,70,0,0
427459,-76.9230769230769,4,2,4,70,0,1
428427,-100,4,2,4,70,0,1
429879,-100,4,2,2,70,0,1
430040,-100,4,2,4,70,0,1
432459,-100,4,2,2,70,0,1
432621,-100,4,2,4,70,0,1
435040,-100,4,2,2,70,0,1
435201,-200,4,2,2,70,0,0
435442,-200,4,2,2,5,0,0
435524,-200,4,2,2,70,0,0
441655,312.5,4,2,2,50,1,0
441967,322.58064516129,4,2,2,50,1,0
442612,333.333333333333,4,2,2,50,1,0
442945,266.666666666667,4,2,2,50,1,0
443345,300,4,2,2,50,1,0
443495,315.789473684211,4,2,2,50,1,0
443652,292.682926829268,4,2,2,50,1,0
443798,408.163265306122,4,2,2,50,1,0
444206,600,4,2,2,50,1,0
444806,800,4,2,2,50,1,0
445606,246.913580246914,4,2,1,50,1,0
445606,-1000,4,2,1,50,0,0
449433,-1000,4,2,1,80,0,0
453013,-1000,4,2,1,50,0,0
453383,-1000,4,2,3,50,0,0
455359,-1000,4,2,3,80,0,0
455729,-1000,4,2,1,50,0,0
457210,-1000,4,2,3,50,0,0
459309,-1000,4,2,3,80,0,0
460667,-1000,4,2,3,50,0,0
460914,-133.333333333333,4,2,1,50,0,0
461285,-100,4,2,4,60,0,0
461902,-100,4,2,2,60,0,0
462149,-100,4,2,4,60,0,0
462396,-100,4,2,2,60,0,0
462643,-100,4,2,4,60,0,0
462889,-100,4,2,2,60,0,0
463136,-100,4,2,4,60,0,0
463877,-100,4,2,2,60,0,0
464124,-100,4,2,4,60,0,0
464371,-100,4,2,2,60,0,0
464618,-100,4,2,4,60,0,0
464865,-100,4,2,2,60,0,0
465112,-100,4,2,4,60,0,0
465852,-100,4,2,2,60,0,0
466099,-100,4,2,4,60,0,0
466346,-100,4,2,2,60,0,0
466593,-100,4,2,4,60,0,0
466840,-100,4,2,2,60,0,0
467087,-100,4,2,4,60,0,0
467828,-100,4,2,2,60,0,0
468075,-100,4,2,4,60,0,0
468322,-100,4,2,2,60,0,0
468568,-100,4,2,4,60,0,0
469803,-100,4,2,2,60,0,0
470050,-100,4,2,4,60,0,0
470297,-100,4,2,2,60,0,0
470544,-100,4,2,4,60,0,0
470791,-100,4,2,2,60,0,0
471038,-100,4,2,4,60,0,0
471778,-100,4,2,2,60,0,0
472025,-100,4,2,4,60,0,0
472272,-100,4,2,2,60,0,0
472519,-100,4,2,4,60,0,0
472766,-100,4,2,2,60,0,0
473013,-100,4,2,4,60,0,0
473754,-100,4,2,2,60,0,0
474001,-100,4,2,4,60,0,0
474247,-100,4,2,2,60,0,0
474494,-100,4,2,4,60,0,0
474741,-100,4,2,2,60,0,0
474988,-100,4,2,4,60,0,0
475729,-100,4,2,2,60,0,0
475976,-100,4,2,4,60,0,0
476223,-100,4,2,2,60,0,0
476470,-100,4,2,4,60,0,0
476717,-100,4,2,2,60,0,0
478568,-100,4,2,4,70,0,0
478692,246.913580246914,4,2,4,70,1,0
480543,-100,4,2,2,70,0,0
480914,-100,4,2,4,70,0,0
482272,-100,4,2,2,70,0,0
482395,-100,4,2,4,70,0,0
482519,-100,4,2,1,60,0,0
484987,-100,4,2,4,60,0,0
485358,-100,4,2,1,60,0,0
485481,-100,4,2,4,60,0,0
485852,-100,4,2,1,60,0,0
485975,-100,4,2,2,60,0,0
486346,-100,4,2,1,60,0,0
486469,-83.3333333333333,4,2,4,70,0,0
488198,-83.3333333333333,4,2,2,70,0,0
488321,-83.3333333333333,4,2,4,70,0,0
490420,-100,4,2,1,60,0,0
491963,-100,4,2,2,5,0,0
492025,-100,4,2,2,60,0,0
492272,-100,4,2,1,60,0,0
494000,-100,4,2,2,60,0,0
494247,-100,4,2,1,60,0,0
494371,-83.3333333333333,4,2,4,70,0,0
495852,-83.3333333333333,4,2,2,70,0,0
496222,-83.3333333333333,4,2,4,70,0,0
498321,-100,4,2,4,60,0,0
498692,-100,4,2,1,60,0,0
502272,-83.3333333333333,4,2,4,70,0,0
504000,-83.3333333333333,4,2,2,70,0,0
504123,-83.3333333333333,4,2,4,70,0,0
504864,-83.3333333333333,4,2,2,70,0,0
505111,-83.3333333333333,4,2,4,70,0,0
506099,-125,4,2,4,70,0,0
506469,-100,4,2,4,70,0,0
507210,-100,4,2,2,70,0,0
507827,-100,4,2,1,70,0,0
509000,-100,4,2,2,5,0,0
509062,-100,4,2,2,70,0,0
509309,-100,4,2,1,70,0,0
510296,-83.3333333333333,4,2,1,70,0,0
510481,-83.3333333333333,4,2,2,5,0,0
510543,-83.3333333333333,4,2,1,70,0,0
514247,-83.3333333333333,4,2,4,80,0,1
515975,-83.3333333333333,4,2,2,80,0,1
516716,-83.3333333333333,4,2,4,80,0,1
517950,-83.3333333333333,4,2,2,80,0,1
518198,-83.3333333333333,4,2,4,60,0,0
518383,-83.3333333333333,4,2,4,5,0,0
518445,-83.3333333333333,4,2,1,60,0,0
519864,-83.3333333333333,4,2,2,5,0,0
519926,-83.3333333333333,4,2,1,60,0,0
521099,-83.3333333333333,4,2,2,5,0,0
521161,-83.3333333333333,4,2,2,60,0,0
521408,-83.3333333333333,4,2,1,60,0,0
522148,-83.3333333333333,4,2,2,80,0,1
522642,-83.3333333333333,4,2,4,80,0,1
524124,-83.3333333333333,4,2,2,80,0,1
524371,-83.3333333333333,4,2,4,80,0,1
525111,-83.3333333333333,4,2,2,80,0,1
525358,-83.3333333333333,4,2,1,80,0,1
525852,-83.3333333333333,4,2,2,80,0,1
526099,-100,4,2,4,60,0,0
526284,-100,4,2,4,5,0,0
526346,-100,4,2,1,60,0,0
526469,-100,4,2,4,60,0,0
526840,-100,4,2,1,60,0,0
527456,-100,4,2,4,60,0,0
527827,-100,4,2,1,60,0,0
528506,-100,4,2,4,5,0,0
528568,-100,4,2,4,60,0,0
529926,-80,4,2,4,60,0,0
530296,-80,4,2,1,60,0,0
530419,-80,4,2,4,60,0,0
530728,-80,4,2,4,5,0,0
530790,-80,4,2,1,60,0,0
531222,-80,4,2,2,5,0,0
531284,-80,4,2,1,60,0,0
531407,-80,4,2,4,60,0,0
531778,-80,4,2,1,60,0,0
532395,-80,4,2,4,60,0,0
533877,-100,4,2,4,60,0,0
534062,-100,4,2,4,5,0,0
534124,-100,4,2,4,60,0,0
534247,-100,4,2,1,60,0,0
534370,-100,4,2,2,60,0,0
534741,-100,4,2,1,60,0,0
535420,-100,4,2,4,5,0,0
535482,-100,4,2,4,60,0,0
536222,-100,4,2,1,60,0,0
536345,-100,4,2,2,60,0,0
536716,-100,4,2,1,60,0,0
537827,-80,4,2,1,60,0,0
538321,-80,4,2,4,60,0,0
538630,-80,4,2,4,5,0,0
538692,-80,4,2,1,60,0,0
539308,-80,4,2,4,60,0,0
539679,-80,4,2,1,60,0,0
539988,-80,4,2,2,5,0,0
540050,-80,4,2,2,60,0,0
540173,-80,4,2,1,60,0,0
540296,-80,4,2,2,60,0,0
540667,-80,4,2,1,60,0,0
540975,-80,4,2,2,5,0,0
541037,-80,4,2,2,60,0,0
541160,-80,4,2,1,60,0,0
541778,-100,4,2,1,60,0,1
543753,-100,4,2,1,60,0,0
543999,-100,4,2,2,60,0,0
544371,-100,4,2,1,60,0,0
544556,-100,4,2,2,5,0,0
544617,-100,4,2,2,60,0,0
544864,-100,4,2,1,60,0,0
545729,-83.3333333333333,4,2,1,60,0,0
545975,-83.3333333333333,4,2,4,60,0,0
547704,-83.3333333333333,4,2,2,60,0,0
548075,-83.3333333333333,4,2,4,60,0,0
549433,-83.3333333333333,4,2,2,60,0,0
549556,-83.3333333333333,4,2,4,60,0,0
549680,-100,4,2,1,60,0,0
552148,-100,4,2,4,60,0,0
552519,-100,4,2,1,60,0,0
552642,-100,4,2,4,60,0,0
553012,-100,4,2,1,60,0,0
553135,-100,4,2,2,60,0,0
553507,-100,4,2,1,60,0,0
553630,-83.3333333333333,4,2,4,70,0,0
555359,-83.3333333333333,4,2,2,70,0,0
555482,-83.3333333333333,4,2,4,70,0,0
557581,-100,4,2,1,60,0,0
559061,-100,4,2,2,60,0,0
559432,-100,4,2,1,60,0,0
560852,-100,4,2,2,5,0,0
560914,-100,4,2,1,60,0,0
561037,-100,4,2,2,60,0,0
561408,-100,4,2,1,60,0,0
561531,-83.3333333333333,4,2,4,70,0,0
563012,-83.3333333333333,4,2,2,70,0,0
563383,-83.3333333333333,4,2,4,70,0,0
565482,-100,4,2,4,60,0,0
565852,-100,4,2,1,60,0,0
566963,-100,4,2,2,60,0,0
567333,-100,4,2,1,60,0,0
568753,-100,4,2,2,5,0,0
568815,-100,4,2,1,60,0,0
569432,-83.3333333333333,4,2,4,70,0,0
571161,-83.3333333333333,4,2,2,70,0,0
571284,-83.3333333333333,4,2,4,70,0,0
572025,-83.3333333333333,4,2,2,70,0,0
572272,-83.3333333333333,4,2,4,70,0,0
572457,-83.3333333333333,4,2,4,5,0,0
572519,-100,4,2,4,70,0,0
572766,-100,4,2,1,70,0,0
572889,-100,4,2,2,70,0,0
573506,-125,4,2,1,70,0,0
574864,-125,4,2,2,70,0,0
574988,-125,4,2,1,70,0,0
575605,-125,4,2,2,70,0,0
575729,-125,4,2,1,70,0,0
576346,-125,4,2,2,70,0,0
576469,-125,4,2,1,70,0,0
577457,-76.9230769230769,4,2,1,90,0,1
579432,-90.9090909090909,4,2,1,90,0,1
579617,-90.9090909090909,4,2,2,5,0,1
579679,-90.9090909090909,4,2,1,90,0,1
579802,-90.9090909090909,4,2,4,90,0,1
580173,-90.9090909090909,4,2,1,90,0,1
580420,-76.9230769230769,4,2,1,90,0,1
580605,-76.9230769230769,4,2,2,5,0,1
580667,-90.9090909090909,4,2,1,90,0,1
581037,-90.9090909090909,4,2,2,90,0,1
581161,-250,4,2,1,90,0,1
581346,-250,4,2,2,5,0,1
581408,-76.9230769230769,4,2,1,90,0,1
583383,-90.9090909090909,4,2,1,90,0,1
583568,-90.9090909090909,4,2,2,5,0,1
583630,-90.9090909090909,4,2,1,90,0,1
583753,-90.9090909090909,4,2,4,90,0,1
584124,-90.9090909090909,4,2,1,90,0,1
584556,-90.9090909090909,4,2,2,5,0,1
584617,-90.9090909090909,4,2,1,90,0,1
584987,-90.9090909090909,4,2,2,90,0,1
585111,-90.9090909090909,4,2,1,90,0,1
585358,-83.3333333333333,4,2,4,90,0,1
585543,-83.3333333333333,4,2,4,5,0,1
585605,-83.3333333333333,4,2,1,90,0,1
586346,-83.3333333333333,4,2,4,90,0,1
586531,-83.3333333333333,4,2,4,5,0,1
586593,-83.3333333333333,4,2,1,90,0,1
587087,-200,4,2,1,90,0,1
587272,-200,4,2,4,5,0,1
587333,-83.3333333333333,4,2,4,90,0,1
587518,-83.3333333333333,4,2,4,5,0,1
587580,-83.3333333333333,4,2,1,90,0,1
588074,-200,4,2,1,90,0,1
588259,-200,4,2,4,5,0,1
588321,-83.3333333333333,4,2,4,90,0,1
588506,-83.3333333333333,4,2,4,5,0,1
588568,-83.3333333333333,4,2,1,90,0,1
589309,-83.3333333333333,4,2,4,100,0,0
589720,-83.3333333333333,4,2,4,5,0,0
589803,-83.3333333333333,4,2,4,100,0,0
590214,-83.3333333333333,4,2,4,5,0,0
590296,-83.3333333333333,4,2,4,100,0,0
591695,-83.3333333333333,4,2,4,5,0,0
591778,-83.3333333333333,4,2,4,100,0,0
592189,-83.3333333333333,4,2,4,5,0,0
592272,-100,4,2,1,100,0,0
592436,-100,4,2,2,5,0,0
592519,-100,4,2,2,100,0,0
593012,-100,4,2,0,100,0,0
593259,-76.9230769230769,4,2,1,90,0,1
595235,-90.9090909090909,4,2,1,90,0,1
595420,-90.9090909090909,4,2,2,5,0,1
595482,-90.9090909090909,4,2,1,90,0,1
595605,-90.9090909090909,4,2,4,90,0,1
595975,-90.9090909090909,4,2,1,90,0,1
596222,-76.9230769230769,4,2,1,90,0,1
596407,-76.9230769230769,4,2,2,5,0,1
596469,-90.9090909090909,4,2,1,90,0,1
596839,-90.9090909090909,4,2,2,90,0,1
596963,-250,4,2,1,90,0,1
597148,-250,4,2,2,5,0,1
597210,-76.9230769230769,4,2,1,90,0,1
599185,-90.9090909090909,4,2,1,90,0,1
599370,-90.9090909090909,4,2,2,5,0,1
599432,-90.9090909090909,4,2,1,90,0,1
599555,-90.9090909090909,4,2,4,90,0,1
599926,-90.9090909090909,4,2,1,90,0,1
600173,-76.9230769230769,4,2,1,90,0,1
600358,-76.9230769230769,4,2,2,5,0,1
600420,-90.9090909090909,4,2,1,90,0,1
601161,-83.3333333333333,4,2,4,90,0,1
601346,-83.3333333333333,4,2,4,5,0,1
601408,-83.3333333333333,4,2,1,90,0,1
602148,-83.3333333333333,4,2,4,90,0,1
602333,-83.3333333333333,4,2,4,5,0,1
602395,-83.3333333333333,4,2,1,90,0,1
602889,-200,4,2,1,90,0,1
603074,-200,4,2,4,5,0,1
603136,-83.3333333333333,4,2,4,90,0,1
603321,-83.3333333333333,4,2,4,5,0,1
603383,-83.3333333333333,4,2,1,90,0,1
604124,-71.4285714285714,4,2,1,90,0,1
604309,-71.4285714285714,4,2,2,5,0,1
604371,-83.3333333333333,4,2,1,90,0,1
605111,-83.3333333333333,4,2,4,100,0,0
605522,-83.3333333333333,4,2,4,5,0,0
605605,-83.3333333333333,4,2,4,100,0,0
606016,-83.3333333333333,4,2,4,5,0,0
606099,-83.3333333333333,4,2,4,100,0,0
606840,-200,4,2,4,100,0,0
607025,-200,4,2,4,5,0,0
607087,-100,4,2,4,70,0,0
608321,-100,4,2,1,70,0,0
608568,-100,4,2,2,70,0,0
609062,-100,4,2,1,90,0,1
612025,-125,4,2,1,90,0,1
620914,-125,4,2,4,100,0,1
621161,-76.9230769230769,4,2,4,100,0,0
621325,-76.9230769230769,4,2,4,5,0,0
621408,-76.9230769230769,4,2,4,100,0,0
621819,-76.9230769230769,4,2,4,5,0,0
621901,-76.9230769230769,4,2,4,100,0,0
622889,-100,4,2,4,70,0,0
623012,-100,4,2,4,5,0,0
623136,-100,4,2,4,70,0,0
623877,-100,4,2,1,70,0,0
624000,-100,4,2,2,70,0,0
624124,-100,4,2,1,70,0,0
624247,-100,4,2,2,70,0,0
624864,-100,4,2,1,90,0,1
626840,-125,4,2,1,90,0,1
636716,-125,4,2,4,100,0,1
636963,-76.9230769230769,4,2,4,100,0,0
637148,-76.9230769230769,4,2,4,5,0,0
637210,-76.9230769230769,4,2,4,100,0,0
637642,-76.9230769230769,4,2,4,5,0,0
637704,-76.9230769230769,4,2,4,100,0,0
638630,-76.9230769230769,4,2,4,5,0,0
638692,-76.9230769230769,4,2,4,100,0,0
639123,-76.9230769230769,4,2,4,5,0,0
639185,-76.9230769230769,4,2,4,100,0,0
639616,-76.9230769230769,4,2,4,5,0,0
639679,-76.9230769230769,4,2,4,100,0,0
640111,-76.9230769230769,4,2,4,5,0,0
640173,-76.9230769230769,4,2,4,100,0,0
640605,-76.9230769230769,4,2,4,5,0,0
640667,-76.9230769230769,4,2,1,100,0,1
643547,-76.9230769230769,4,2,2,5,0,1
643630,-76.9230769230769,4,2,2,90,0,0
644371,-240.963855421687,4,2,1,90,0,0
644617,697.674418604651,3,2,1,50,1,0
644965,-100,3,2,1,5,0,0
645314,681.818181818182,3,2,1,30,1,0
646677,681.818181818182,3,2,1,30,1,0
651107,-100,3,2,1,5,0,0
651449,-200,3,2,1,30,0,0
651789,-200,3,2,1,5,0,0
652131,-400,3,2,1,30,0,0
660654,705.882352941176,3,2,1,30,1,0
661006,740.740740740741,3,2,1,30,1,0

[Colours]
Combo1 : 192,192,192
Combo2 : 217,191,115
Combo3 : 242,223,187
Combo4 : 255,198,198
Combo5 : 217,100,74

[HitObjects]
38,92,32159,6,0,P|90:89|143:77,1,100,2|0,2:0|2:0,2:0:0:0:
217,29,32899,2,0,P|269:32|322:44,1,100,0|0,2:0|2:0,2:0:0:0:
406,70,33640,1,0,2:0:0:0:
406,70,34010,1,0,2:0:0:0:
315,42,34381,6,0,P|308:92|342:141,1,100,2|0,2:0|2:0,2:0:0:0:
262,189,35121,2,0,P|302:220|362:215,1,100,0|0,2:0|2:0,2:0:0:0:
362,307,35862,2,0,P|408:287|434:233,1,100,0|0,2:0|2:0,2:0:0:0:
188,335,36603,5,2,2:0:0:0:
110,233,36973,1,0,2:0:0:0:
69,355,37344,1,0,2:0:0:0:
69,355,37714,5,0,2:0:0:0:
110,233,38084,1,0,2:0:0:0:
36,133,38455,1,0,2:0:0:0:
117,27,38825,6,0,P|171:16|236:15,1,100,2|0,2:0|2:0,2:0:0:0:
357,129,39566,2,0,P|303:118|238:117,1,100,0|0,2:0|2:0,2:0:0:0:
129,228,40307,2,0,P|183:217|248:216,1,100,0|0,2:0|2:0,2:0:0:0:
371,360,41047,5,2,2:0:0:0:
197,298,41418,1,0,2:0:0:0:
364,206,41788,5,2,2:0:0:0:
494,159,42159,1,0,2:0:0:0:
371,79,42529,5,2,2:0:0:0:
273,43,42900,1,0,2:0:0:0:
0,147,43270,5,2,2:0:0:0:
24,220,43515,5,0,2:0:0:0:
73,262,43717,5,0,2:0:0:0:
120,272,43917,5,2,2:0:0:0:
159,259,44070,5,0,2:0:0:0:
174,239,44209,5,0,2:0:0:0:
167,215,44314,5,0,2:0:0:0:
149,212,44392,5,0,2:0:0:0:
140,221,44471,6,0,P|141:246|151:274,1,50,2|0,2:0|2:0,2:0:0:0:
243,370,44621,2,0,P|242:345|232:317,1,50,0|0,2:0|2:0,2:0:0:0:
252,233,44757,6,0,P|282:236|308:250,3,50,0|0|0|0,2:0|2:0|2:0|2:0,2:0:0:0:
148,360,44997,2,0,P|118:357|92:343,3,50,2|0|0|0,2:0|2:0|2:0|2:0,2:0:0:0:
326,378,45213,5,0,3:0:0:0:
326,378,47192,1,0,3:0:0:0:
326,378,49231,1,0,3:0:0:0:
326,378,51414,1,0,3:0:0:0:
326,378,53481,5,2,3:0:0:0:
86,199,53829,5,4,3:0:0:0:
196,110,53945,2,0,L|202:204,1,86.6666626993817,0|0,3:0|3:0,2:0:0:0:
87,213,54177,1,8,3:0:0:0:
201,196,54293,2,0,L|207:290,1,73.3333355712891,0|0,3:0|3:0,2:0:0:0:
89,226,54526,1,0,3:0:0:0:
205,269,54642,2,0,L|208:330,1,59.9999981689454,0|0,3:0|3:0,2:0:0:0:
90,242,54875,1,8,3:0:0:0:
208,328,54991,2,0,L|211:388,1,46.6666652425131,0|0,3:0|3:0,2:0:0:0:
336,384,55224,5,4,3:0:0:0:
336,384,55340,2,0,L|342:290,1,86.6666626993817,0|0,3:0|3:0,2:0:0:0:
452,284,55573,1,8,3:0:0:0:
452,284,55689,2,0,L|447:200,1,73.3333355712891,0|0,3:0|3:0,2:0:0:0:
354,176,55922,1,0,3:0:0:0:
354,176,56038,2,0,L|360:100,1,59.9999981689454,0|0,3:0|3:0,2:0:0:0:
459,84,56270,1,8,3:0:0:0:
459,84,56387,2,0,L|453:35,1,46.6666652425131,0|0,3:0|3:0,2:0:0:0:
101,64,56619,5,4,3:0:0:0:
76,175,56735,2,0,P|138:170|171:146,1,86.6666626993817,0|0,3:0|3:0,2:0:0:0:
101,64,56968,1,8,3:0:0:0:
157,158,57084,2,0,P|194:129|205:100,1,73.3333355712891,0|0,3:0|3:0,2:0:0:0:
101,64,57317,1,0,3:0:0:0:
204,105,57433,2,0,P|216:71|212:48,1,59.9999981689454,0|0,3:0|3:0,2:0:0:0:
101,64,57666,1,8,3:0:0:0:
212,48,57782,2,0,P|208:20|197:5,1,46.6666652425131,0|0,3:0|3:0,2:0:0:0:
0,298,58015,5,4,3:0:0:0:
0,298,58131,2,0,P|57:273|97:279,1,86.6666626993817,0|0,3:0|3:0,2:0:0:0:
121,205,58364,1,8,3:0:0:0:
121,205,58480,2,0,P|157:234|166:263,1,73.3333355712891,0|0,3:0|3:0,2:0:0:0:
245,265,58713,1,0,3:0:0:0:
244,265,58829,2,0,P|236:299|221:316,1,59.9999981689454,0|0,3:0|3:0,2:0:0:0:
245,382,59062,1,12,3:0:0:0:
245,382,59178,2,0,P|218:388|199:384,1,46.6666652425131,0|0,3:0|3:0,2:0:0:0:
364,330,59410,5,4,3:0:0:0:
432,371,59526,2,0,B|453:329|453:329|433:291,1,86.6666626993817,0|0,3:0|3:0,2:0:0:0:
512,254,59759,1,8,3:0:0:0:
434,293,59875,2,0,B|416:257|416:257|433:226,1,73.3333355712891,0|0,3:0|3:0,2:0:0:0:
359,197,60108,1,0,3:0:0:0:
432,227,60224,2,0,B|446:198|446:198|432:171,1,59.9999981689454,0|0,3:0|3:0,2:0:0:0:
508,147,60456,1,8,3:0:0:0:
433,173,60573,2,0,B|421:150|421:150|432:129,1,46.6666652425131,0|0,3:0|3:0,2:0:0:0:
207,38,60805,5,4,3:0:0:0:
207,38,60922,2,0,B|228:80|228:80|208:118,1,86.6666626993817,0|0,3:0|3:0,2:0:0:0:
116,141,61154,1,8,3:0:0:0:
116,141,61271,2,0,B|98:176|98:176|115:208,1,73.3333355712891,0|0,3:0|3:0,2:0:0:0:
205,232,61503,1,0,3:0:0:0:
205,232,61620,2,0,B|219:261|219:261|205:287,1,59.9999981689454,0|0,3:0|3:0,2:0:0:0:
131,323,61852,1,8,3:0:0:0:
131,323,61969,2,0,B|120:344|120:344|130:364,1,46.6666652425131,0|0,3:0|3:0,2:0:0:0:
316,235,62201,5,4,3:0:0:0:
393,363,62317,2,0,B|400:319|400:319|397:321|397:321|405:273,1,86.6666626993817,0|0,3:0|3:0,2:0:0:0:
319,223,62549,1,8,3:0:0:0:
404,282,62666,2,0,B|409:248|409:248|407:249|407:249|413:212,1,73.3333355712891,0|0,3:0|3:0,2:0:0:0:
325,207,62898,1,0,3:0:0:0:
413,213,63015,2,0,B|417:185|417:185|415:186|415:186|421:155,1,59.9999981689454,0|0,3:0|3:0,2:0:0:0:
334,184,63247,1,8,3:0:0:0:
420,157,63363,2,0,B|423:135|423:135|422:136|422:136|426:112,1,46.6666652425131,0|0,3:0|3:0,2:0:0:0:
283,53,63596,5,4,3:0:0:0:
259,40,63712,1,0,3:0:0:0:
232,44,63829,1,0,3:0:0:0:
151,142,63945,5,4,3:0:0:0:
189,121,64061,1,0,3:0:0:0:
232,127,64178,1,0,3:0:0:0:
283,248,64294,5,4,3:0:0:0:
207,206,64410,1,0,3:0:0:0:
121,218,64527,1,0,3:0:0:0:
56,351,64642,5,6,3:2:0:0:
56,351,64991,5,4,3:0:0:0:
95,357,65108,1,0,3:0:0:0:
134,356,65224,1,0,3:0:0:0:
167,333,65340,1,8,3:0:0:0:
223,286,65456,1,0,3:0:0:0:
293,264,65573,1,0,3:0:0:0:
362,287,65689,1,0,3:0:0:0:
387,333,65805,1,0,3:0:0:0:
354,375,65922,1,0,3:0:0:0:
300,373,66038,1,8,3:0:0:0:
289,356,66154,1,0,3:0:0:0:
295,337,66270,1,0,3:0:0:0:
406,213,66387,5,4,3:0:0:0:
426,178,66503,1,0,3:0:0:0:
431,138,66619,1,0,3:0:0:0:
415,101,66735,1,8,3:0:0:0:
351,138,66852,1,0,3:0:0:0:
278,126,66968,1,0,3:0:0:0:
239,63,67084,1,0,3:0:0:0:
253,18,67201,1,0,3:0:0:0:
298,7,67317,1,0,3:0:0:0:
334,35,67433,1,8,3:0:0:0:
326,53,67549,1,0,3:0:0:0:
307,61,67666,1,0,3:0:0:0:
115,84,67782,5,4,3:0:0:0:
78,100,67898,1,0,3:0:0:0:
55,133,68015,1,0,3:0:0:0:
55,172,68131,1,8,3:0:0:0:
108,221,68247,1,0,3:0:0:0:
122,292,68363,1,0,3:0:0:0:
88,357,68480,1,0,3:0:0:0:
43,372,68596,1,0,3:0:0:0:
3,347,68712,1,0,3:0:0:0:
9,300,68829,1,8,3:0:0:0:
27,291,68945,1,0,3:0:0:0:
46,291,69061,1,0,3:0:0:0:
224,366,69177,5,4,3:0:0:0:
261,381,69294,1,0,3:0:0:0:
300,384,69410,1,0,3:0:0:0:
335,365,69526,1,8,3:0:0:0:
355,331,69642,1,0,3:0:0:0:
386,306,69759,1,0,3:0:0:0:
425,298,69875,1,0,3:0:0:0:
422,317,69991,1,0,3:0:0:0:
410,333,70108,1,0,3:0:0:0:
390,336,70224,1,8,3:0:0:0:
146,53,70573,5,4,3:0:0:0:
138,67,70689,2,0,L|24:56,1,100.000003814697,0|0,3:0|3:0,2:0:0:0:
235,137,70922,1,4,3:0:0:0:
241,152,71038,2,0,L|355:141,1,100.000003814697,0|0,3:0|3:0,2:0:0:0:
130,193,71270,1,8,3:0:0:0:
440,38,71619,1,8,3:0:0:0:
130,193,71968,5,4,3:2:0:0:
117,192,72084,2,0,P|81:202|55:230,1,66.6666666666667,0|0,3:0|3:0,2:0:0:0:
394,110,72317,1,4,3:2:0:0:
407,106,72433,2,0,P|434:80|442:43,1,66.6666666666667,0|0,3:0|3:0,2:0:0:0:
185,253,72666,1,4,3:2:0:0:
176,264,72782,2,0,P|166:300|177:336,1,66.6666666666667,0|0,3:0|3:0,2:0:0:0:
321,70,73015,1,4,3:2:0:0:
327,56,73131,2,0,P|317:20|290:-5,1,66.6666666666667,0|0,3:0|3:0,2:0:0:0:
429,324,73363,6,0,L|503:304,1,66.6666666666667,4|0,3:0|3:0,2:0:0:0:
306,220,73596,2,0,L|232:200,1,66.6666666666667,4|0,3:0|3:0,2:0:0:0:
419,103,73829,2,0,L|493:83,1,66.6666666666667,4|0,3:0|3:0,2:0:0:0:
219,5,74061,1,8,3:0:0:0:
212,45,74177,1,8,3:0:0:0:
205,85,74294,1,8,3:0:0:0:
143,196,74410,1,8,3:0:0:0:
154,263,74526,1,8,3:0:0:0:
165,331,74642,1,8,3:0:0:0:
168,344,74759,5,4,2:0:0:0:
168,344,75108,1,2,2:0:0:0:
215,233,75456,2,0,L|221:195,1,29.9999990844727,0|2,2:0|2:0,2:0:0:0:
224,229,75805,2,0,L|230:191,1,29.9999990844727,0|2,2:0|2:0,2:0:0:0:
168,344,76154,5,2,2:0:0:0:
168,344,76503,1,2,2:0:0:0:
228,199,76851,2,0,L|234:161,1,29.9999990844727,0|2,2:0|2:0,2:0:0:0:
237,195,77200,2,0,L|243:157,1,29.9999990844727,0|2,2:0|2:0,2:0:0:0:
168,344,77549,5,2,2:0:0:0:
168,344,77898,1,2,2:0:0:0:
241,165,78247,2,0,L|247:127,1,29.9999990844727,0|2,2:0|2:0,2:0:0:0:
250,161,78595,2,0,L|256:123,1,29.9999990844727,0|2,2:0|2:0,2:0:0:0:
168,344,78945,5,2,2:0:0:0:
168,344,79294,1,2,2:0:0:0:
254,131,79642,2,0,L|260:93,1,29.9999990844727,0|2,2:0|2:0,2:0:0:0:
264,129,79991,1,0,2:0:0:0:
215,20,80166,5,8,3:0:0:0:
215,20,80253,1,8,3:0:0:0:
215,20,80340,1,4,3:0:0:0:
215,20,80689,1,0,3:0:0:0:
370,120,81038,1,0,3:0:0:0:
156,96,81387,1,0,3:0:0:0:
215,20,81561,5,8,3:0:0:0:
215,20,81648,1,8,3:0:0:0:
215,20,81735,1,4,3:0:0:0:
215,20,82084,1,0,3:0:0:0:
370,120,82433,1,0,3:0:0:0:
156,96,82782,1,0,3:0:0:0:
215,20,82956,5,8,3:0:0:0:
215,20,83043,1,8,3:0:0:0:
215,20,83131,2,0,B|255:51|255:51|371:27,1,160,4|0,3:0|3:0,2:0:0:0:
224,163,83654,2,0,B|184:194|184:194|68:170,1,160,4|8,3:0|3:0,2:0:0:0:
51,163,84090,1,8,3:0:0:0:
22,154,84177,1,12,3:3:0:0:
392,384,84526,5,4,3:2:0:0:
421,357,84613,1,0,3:0:0:0:
436,319,84701,1,8,3:0:0:0:
431,279,84788,1,0,3:0:0:0:
408,246,84875,1,8,3:0:0:0:
372,227,84962,1,0,3:0:0:0:
351,192,85049,1,0,3:0:0:0:
349,151,85137,1,0,3:0:0:0:
370,117,85224,5,8,3:3:0:0:
373,123,85311,1,8,3:3:0:0:
374,130,85398,1,8,3:3:0:0:
373,137,85485,1,8,3:3:0:0:
371,144,85573,1,8,3:3:0:0:
367,151,85660,1,8,3:3:0:0:
361,157,85747,1,8,3:3:0:0:
354,161,85834,1,8,3:3:0:0:
342,166,85922,6,0,B|310:151|310:151|294:81,1,100,6|0,3:2|3:0,2:0:0:0:
295,87,86270,2,0,B|298:104|298:104|281:132,1,50,8|0,3:0|3:0,2:0:0:0:
203,146,86445,2,0,B|198:129|198:129|215:102,1,50,0|0,3:0|3:0,2:0:0:0:
247,27,86619,1,0,3:0:0:0:
204,233,86794,1,0,3:0:0:0:
34,146,86968,2,0,B|41:184|41:184|53:203|53:203|57:243,1,100,8|0,3:0|3:0,2:0:0:0:
63,269,87230,1,0,3:0:0:0:
69,298,87317,1,0,3:0:0:0:
31,380,87491,6,0,P|86:390|128:367,1,100,0|8,3:0|3:0,2:0:0:0:
287,281,87840,1,0,3:0:0:0:
287,281,87927,1,0,3:0:0:0:
287,281,88015,6,0,B|318:256|318:256|387:252,1,100,2|0,3:0|0:0,0:0:0:0:
484,141,88276,2,0,B|490:180|490:180|459:242,1,100,2|0,3:0|0:0,0:0:0:0:
467,344,88538,2,0,B|448:336|448:336|429:307,1,50,2|0,3:0|0:0,0:0:0:0:
341,343,88712,6,0,P|357:278|273:173,1,200,6|0,3:0|3:0,2:0:0:0:
396,4,89235,2,0,P|331:22|282:147,1,200,2|0,3:0|2:0,2:0:0:0:
170,148,89759,2,0,P|194:171|260:161,1,100,10|0,3:0|3:0,2:0:0:0:
268,158,90020,1,0,3:0:0:0:
283,150,90108,1,0,3:0:0:0:
109,86,90282,6,0,B|79:113|79:113|90:178,1,100,2|8,3:0|3:0,2:0:0:0:
136,326,90631,1,0,3:0:0:0:
136,326,90718,1,0,3:0:0:0:
136,326,90805,2,0,B|166:299|166:299|155:234,1,100,0|0,3:0|3:0,2:0:0:0:
189,66,91154,1,8,3:0:0:0:
262,316,91329,1,0,3:0:0:0:
262,316,91416,1,0,3:0:0:0:
262,316,91503,6,0,B|335:301|335:301|387:317|387:317|462:297,1,200,6|8,3:0|3:0,2:0:0:0:
396,186,92026,1,0,3:0:0:0:
384,155,92113,1,0,3:0:0:0:
375,128,92201,1,0,3:0:0:0:
240,231,92375,1,0,3:0:0:0:
210,46,92549,1,8,3:0:0:0:
105,156,92724,1,0,3:0:0:0:
105,156,92811,1,0,3:0:0:0:
105,156,92898,6,0,P|84:126|84:89,1,66.6666666666667,2|0,3:0|3:0,2:0:0:0:
66,14,93131,2,0,P|102:10|134:29,1,66.6666666666667,2|0,3:0|3:0,2:0:0:0:
210,46,93363,2,0,P|194:79|162:97,1,66.6666666666667,2|0,3:0|3:0,2:0:0:0:
220,252,93596,6,0,P|217:219|197:192,1,66.6666666666667,2|0,3:0|3:0,2:0:0:0:
132,253,93829,2,0,P|105:272|92:303,1,66.6666666666667,2|0,3:0|3:0,2:0:0:0:
174,325,94061,2,0,P|204:338|237:334,1,66.6666666666667,2|0,3:0|3:0,2:0:0:0:
344,384,94294,6,0,B|354:305|354:305|337:269|337:269|345:188,1,200,6|8,3:0|3:0,2:0:0:0:
369,75,94817,1,0,3:0:0:0:
378,77,94904,1,0,3:0:0:0:
387,79,94991,1,0,3:0:0:0:
434,257,95166,1,0,3:0:0:0:
252,174,95340,1,8,3:0:0:0:
510,111,95515,2,0,L|447:95,1,50,0|0,3:0|3:0,2:0:0:0:
264,52,95689,5,0,3:0:0:0:
224,45,95776,1,0,3:0:0:0:
184,52,95863,1,0,3:0:0:0:
158,83,95951,1,0,3:0:0:0:
154,122,96038,1,8,3:0:0:0:
131,154,96125,1,0,3:0:0:0:
95,172,96212,1,0,3:0:0:0:
55,178,96299,1,0,3:0:0:0:
18,160,96387,5,8,3:0:0:0:
37,158,96474,1,8,3:0:0:0:
55,164,96561,1,8,3:0:0:0:
70,176,96648,1,8,3:0:0:0:
80,192,96735,1,8,3:0:0:0:
54,274,96910,1,8,3:0:0:0:
121,344,97084,6,0,B|114:277|159:252|159:252|178:277|199:282,1,150.000005722046,14|0,3:0|3:0,2:0:0:0:
212,362,97346,1,0,3:0:0:0:
224,364,97433,2,0,P|247:355|276:314,1,75.0000028610231,8|0,3:0|3:0,2:0:0:0:
291,237,97608,2,0,P|273:219|224:209,1,75.0000028610231,0|0,3:0|3:0,2:0:0:0:
400,367,97782,5,8,3:0:0:0:
400,367,97869,1,0,3:0:0:0:
400,367,97956,2,0,L|387:285,1,75.0000028610231,0|0,3:0|3:0,2:0:0:0:
481,221,98131,5,8,3:0:0:0:
481,221,98218,1,0,3:0:0:0:
481,221,98305,2,0,L|468:139,1,75.0000028610231,0|0,3:0|3:0,2:0:0:0:
402,82,98480,2,0,B|393:31|393:31|377:50|377:50|374:93|335:107,1,150.000005722046,10|0,3:0|3:0,2:0:0:0:
197,167,98829,1,8,3:0:0:0:
302,41,99003,1,0,3:0:0:0:
315,23,99090,1,0,3:0:0:0:
291,199,99265,1,0,3:0:0:0:
304,217,99352,1,0,3:0:0:0:
193,48,99526,1,8,3:0:0:0:
193,48,99613,1,0,3:0:0:0:
193,48,99701,1,0,3:0:0:0:
117,223,99875,6,0,B|103:258|103:258|112:295,1,75.0000028610231,14|0,3:0|3:0,2:0:0:0:
106,365,100049,2,0,B|120:330|120:330|111:293,1,75.0000028610231,0|0,3:0|3:0,2:0:0:0:
190,268,100224,2,0,B|238:265|238:265|288:291|288:291|339:287,1,150.000005722046,8|0,3:0|3:0,2:0:0:0:
447,236,100485,2,0,B|399:239|399:239|349:213|349:213|298:217,1,150.000005722046,8|0,3:0|3:0,2:0:0:0:
214,190,100747,1,0,3:0:0:0:
415,162,100922,1,8,3:0:0:0:
415,162,101009,1,0,3:0:0:0:
415,162,101096,1,0,3:0:0:0:
405,314,101270,5,8,3:0:0:0:
268,124,101445,1,0,3:0:0:0:
512,189,101619,1,8,3:0:0:0:
512,189,101706,1,0,3:0:0:0:
512,189,101794,1,0,3:0:0:0:
340,33,101968,5,8,2:3:0:0:
310,30,102055,1,0,2:0:0:0:
280,27,102142,1,0,2:0:0:0:
249,24,102230,1,0,2:0:0:0:
224,44,102317,5,8,3:3:0:0:
209,42,102404,1,8,3:3:0:0:
194,41,102491,1,8,3:3:0:0:
178,39,102579,1,8,3:3:0:0:
142,20,102666,6,0,P|150:84|78:126,1,150,6|0,3:2|2:0,2:0:0:0:
7,46,103015,2,0,P|15:22|31:3,1,50,2|0,3:0|3:0,2:0:0:0:
25,190,103189,2,0,P|92:218|207:138,1,200,2|0,3:0|2:0,2:0:0:0:
197,161,103712,5,0,3:0:0:0:
274,320,103887,1,8,3:0:0:0:
274,320,103974,1,8,3:0:0:0:
274,320,104061,2,0,L|357:313,2,73.3333355712891,12|2|2,3:0|2:2|2:0,2:0:0:0:
480,254,104410,2,0,L|397:247,2,73.3333355712891,8|2|2,3:0|2:0|2:0,2:0:0:0:
294,158,104759,2,0,L|377:151,2,73.3333355712891,8|8|4,3:0|3:0|3:0,2:0:0:0:
510,45,105108,2,0,L|427:38,2,73.3333355712891,8|8|4,3:0|3:0|3:0,2:0:0:0:
187,59,105456,5,4,3:0:0:0:
177,52,105573,2,0,P|142:49|114:78,1,73.3333355712891,0|0,3:0|3:0,2:0:0:0:
24,161,105805,1,4,3:0:0:0:
34,154,105922,2,0,P|69:151|97:180,1,73.3333355712891,0|0,3:0|3:0,2:0:0:0:
150,249,106154,5,4,3:0:0:0:
163,241,106271,2,0,P|181:204|186:156,1,73.3333355712891,0|0,3:0|3:0,2:0:0:0:
298,355,106502,5,4,3:0:0:0:
285,347,106619,2,0,P|267:310|262:262,1,73.3333355712891,0|0,3:0|3:0,2:0:0:0:
379,282,106852,5,4,3:0:0:0:
397,273,106968,2,0,B|428:263|428:263|467:283,1,73.3333355712891,0|0,3:0|3:0,2:0:0:0:
512,157,107201,1,4,3:0:0:0:
494,166,107317,2,0,B|463:176|463:176|424:156,1,73.3333355712891,0|0,3:0|3:0,2:0:0:0:
342,52,107549,5,4,3:0:0:0:
322,73,107666,2,0,L|229:65,1,73.3333355712891,0|0,3:0|3:0,2:0:0:0:
45,160,107898,5,4,3:0:0:0:
63,183,108015,2,0,L|156:175,1,73.3333355712891,0|0,3:0|3:0,2:0:0:0:
295,287,108247,5,4,3:0:0:0:
312,310,108363,1,0,3:0:0:0:
310,339,108480,1,0,3:0:0:0:
380,254,108596,5,4,3:0:0:0:
362,215,108713,1,0,3:0:0:0:
322,197,108829,1,0,3:0:0:0:
229,220,108945,5,4,3:0:0:0:
250,0,109119,5,0,3:0:0:0:
246,21,109206,1,0,3:0:0:0:
244,42,109294,1,12,3:0:0:0:
242,63,109381,1,8,3:0:0:0:
239,84,109468,1,0,3:0:0:0:
236,105,109555,1,8,3:0:0:0:
235,126,109642,1,12,3:0:0:0:
16,201,110602,5,0,3:0:0:0:
2,190,110689,1,4,3:0:0:0:
64,34,110863,1,8,3:0:0:0:
62,45,110951,1,8,3:0:0:0:
58,57,111038,6,0,L|1:74,1,59.9999981689454,6|0,3:2|3:0,2:0:0:0:
70,139,111212,2,0,L|189:103,1,119.999996337891,10|0,3:0|3:0,2:0:0:0:
381,66,111561,2,0,B|352:82|322:67|322:67|314:33|284:23,1,119.999996337891,10|0,3:0|3:0,2:0:0:0:
508,45,111910,1,10,3:0:0:0:
506,55,111997,1,0,3:0:0:0:
506,66,112084,1,0,3:0:0:0:
506,79,112172,1,0,3:0:0:0:
506,90,112259,1,10,3:0:0:0:
505,101,112346,1,0,3:0:0:0:
505,110,112433,6,0,B|499:204|499:204|478:230,1,119.999996337891,2|10,3:2|3:0,2:0:0:0:
399,277,112695,1,0,3:0:0:0:
388,277,112782,2,0,L|329:274,1,59.9999981689454,0|0,3:0|3:0,2:0:0:0:
263,357,112956,2,0,L|322:360,1,59.9999981689454,10|0,3:0|3:0,2:0:0:0:
172,282,113131,1,2,3:2:0:0:
170,292,113218,1,0,3:0:0:0:
168,303,113305,1,10,3:0:0:0:
156,315,113392,1,2,3:2:0:0:
154,325,113480,2,0,L|146:394,1,59.9999981689454,0|0,3:0|3:0,2:0:0:0:
69,277,113654,1,10,3:0:0:0:
66,266,113741,1,0,3:0:0:0:
63,254,113829,6,0,B|59:215|59:215|55:185,1,59.9999981689454,2|0,3:2|3:0,2:0:0:0:
0,158,114003,2,0,P|62:165|85:114,1,119.999996337891,10|0,3:0|2:0,2:0:0:0:
227,69,114265,1,0,3:0:0:0:
218,79,114352,2,0,P|156:86|133:35,1,119.999996337891,10|0,3:0|3:0,2:0:0:0:
321,10,114701,1,10,3:0:0:0:
332,10,114788,1,0,3:0:0:0:
345,26,114875,1,2,3:2:0:0:
356,27,114962,1,0,3:0:0:0:
367,28,115049,1,10,3:0:0:0:
379,29,115137,1,0,3:0:0:0:
390,30,115224,6,0,B|420:30|420:30|438:4,1,59.9999981689454,2|0,3:2|3:0,2:0:0:0:
493,51,115398,2,0,B|458:100|458:100|399:99,1,119.999996337891,10|0,3:0|3:0,2:0:0:0:
299,177,115747,1,10,3:0:0:0:
292,164,115834,1,0,3:0:0:0:
452,176,116009,1,0,3:0:0:0:
448,187,116096,1,10,3:0:0:0:
444,198,116183,1,0,3:0:0:0:
440,209,116270,2,0,B|387:231|382:270|382:270|398:305,1,119.999996337891,0|10,3:0|3:0,2:0:0:0:
511,375,116532,1,0,3:0:0:0:
503,365,116619,6,0,B|492:338|472:336|472:336|455:344,1,59.9999981689454,6|0,3:2|3:0,2:0:0:0:
383,377,116794,2,0,B|339:369|339:369|310:379|310:379|260:367,1,119.999996337891,10|0,3:0|3:0,2:0:0:0:
43,306,117142,1,10,3:0:0:0:
51,295,117230,2,0,B|95:287|95:287|124:297|124:297|174:285,1,119.999996337891,0|0,3:0|3:0,2:0:0:0:
134,203,117491,1,10,3:0:0:0:
132,190,117579,1,0,3:0:0:0:
131,178,117666,1,0,3:0:0:0:
130,166,117753,1,0,3:0:0:0:
129,154,117840,1,10,3:0:0:0:
127,142,117927,1,0,3:0:0:0:
125,128,118015,6,0,B|122:91|122:91|152:54|206:84,1,119.999996337891,2|10,3:2|3:0,2:0:0:0:
277,164,118276,1,0,3:0:0:0:
291,163,118363,2,0,P|313:137|314:103,1,59.9999981689454,0|0,3:0|3:0,2:0:0:0:
383,21,118538,2,0,P|405:47|406:81,1,59.9999981689454,10|0,3:0|3:0,2:0:0:0:
496,142,118712,1,2,3:2:0:0:
494,153,118799,1,0,3:0:0:0:
492,164,118887,1,10,3:0:0:0:
475,175,118974,1,2,3:2:0:0:
473,186,119061,1,0,3:0:0:0:
471,197,119148,1,0,3:0:0:0:
484,208,119235,1,10,3:0:0:0:
482,219,119323,1,0,3:0:0:0:
479,229,119410,6,0,B|455:249|455:249|461:285,1,59.9999981689454,2|0,3:2|3:0,2:0:0:0:
500,354,119584,2,0,B|453:374|407:343|407:343|379:359,1,119.999996337891,10|0,3:0|3:0,2:0:0:0:
258,384,119933,1,10,3:0:0:0:
258,384,120020,1,0,3:0:0:0:
258,384,120108,2,0,L|246:319,1,59.9999981689454,0|0,3:0|3:0,2:0:0:0:
170,165,120282,1,10,3:0:0:0:
170,165,120369,1,0,3:0:0:0:
170,165,120457,2,0,L|158:230,1,59.9999981689454,2|0,3:2|3:0,2:0:0:0:
68,368,120631,1,10,3:0:0:0:
68,368,120718,1,0,3:0:0:0:
68,368,120805,6,0,L|47:245,1,119.999996337891,0|0,3:0|3:0,2:0:0:0:
100,78,121154,1,0,2:0:0:0:
143,68,121241,1,0,2:0:0:0:
190,58,121329,1,0,2:0:0:0:
236,48,121416,1,0,2:0:0:0:
282,38,121503,6,0,L|469:9,1,179.999994506836,4|0,3:0|3:0,2:0:0:0:
473,39,121852,2,0,L|347:58,1,119.999996337891,4|10,3:0|3:0,2:0:0:0:
421,129,122113,1,8,3:0:0:0:
415,142,122201,6,0,B|400:187|421:227|421:227|398:262,1,119.999996337891,4|10,3:2|3:0,2:0:0:0:
487,180,122462,1,0,3:0:0:0:
345,309,122636,1,0,3:0:0:0:
273,347,122724,2,0,B|258:302|279:261|279:261|256:227,1,119.999996337891,10|0,3:0|3:0,2:0:0:0:
200,269,122985,1,0,3:0:0:0:
186,270,123073,1,10,3:0:0:0:
91,141,123247,1,2,3:2:0:0:
87,129,123334,1,0,3:0:0:0:
85,116,123422,1,10,3:0:0:0:
28,41,123596,6,0,P|83:20|141:39,1,119.999996337891,2|10,3:2|3:0,2:0:0:0:
159,58,123858,1,0,3:0:0:0:
208,176,124032,1,0,3:0:0:0:
210,163,124120,1,10,3:0:0:0:
298,45,124294,1,2,3:2:0:0:
327,40,124381,1,0,3:0:0:0:
356,35,124468,1,10,3:0:0:0:
389,51,124555,1,0,3:0:0:0:
418,47,124642,1,2,3:2:0:0:
447,42,124730,1,0,3:0:0:0:
472,17,124817,1,10,3:0:0:0:
423,137,124991,6,0,B|403:182|403:182|417:292,1,150.000005722046,6|0,3:0|3:0,2:0:0:0:
327,342,125340,1,8,3:0:0:0:
313,347,125427,1,8,3:0:0:0:
299,353,125515,1,8,3:0:0:0:
285,359,125602,1,0,3:0:0:0:
269,365,125689,2,0,B|249:320|249:320|263:210,1,150.000005722046,6|0,3:0|3:0,2:0:0:0:
188,105,126038,1,8,3:0:0:0:
188,105,126125,1,8,3:0:0:0:
188,105,126212,2,0,L|177:183,1,75.0000028610231,8|0,3:0|3:0,2:0:0:0:
77,279,126387,6,0,P|77:217|43:179,1,100.000003814697,6|0,3:2|3:0,2:0:0:0:
102,56,126619,1,0,2:0:0:0:
102,56,126735,2,0,P|138:18|187:13,1,100.000003814697,0|0,2:0|2:0,2:0:0:0:
269,148,126968,1,0,2:0:0:0:
269,148,127084,2,0,P|233:110|184:105,1,100.000003814697,8|8,2:3|2:3,2:0:0:0:
346,43,127317,1,8,2:3:0:0:
409,84,127433,1,8,3:3:0:0:
484,72,127549,1,8,3:3:0:0:
512,5,127666,1,8,3:3:0:0:
443,15,127782,6,0,P|451:76|466:137,1,119.999996337891,6|0,2:0|2:0,2:0:0:0:
498,249,128305,1,8,2:3:0:0:
498,249,128392,1,8,2:3:0:0:
498,249,128480,2,0,P|490:310|475:371,1,119.999996337891,4|0,2:0|2:0,2:0:0:0:
373,384,129003,1,8,2:3:0:0:
321,320,129177,6,0,P|349:302|389:305,1,59.9999981689454,2|8,2:0|2:3,2:0:0:0:
227,363,129526,2,0,P|199:381|159:378,1,59.9999981689454,2|10,2:0|2:3,2:0:0:0:
58,384,129875,2,0,P|60:327|51:259,1,119.999996337891,4|10,2:0|2:3,2:0:0:0:
0,196,130398,1,8,2:3:0:0:
0,196,130573,6,0,P|40:186|72:183,1,59.9999981689454,14|8,2:3|2:3,2:0:0:0:
133,253,130922,1,0,2:0:0:0:
204,189,131096,1,8,2:3:0:0:
204,189,131183,1,8,2:3:0:0:
204,189,131270,2,0,P|271:205|325:210,1,119.999996337891,4|8,2:0|2:3,2:0:0:0:
469,31,131968,5,0,2:0:0:0:
447,59,132055,1,0,2:0:0:0:
439,94,132142,1,0,2:0:0:0:
443,130,132230,1,0,2:0:0:0:
462,160,132317,5,8,2:3:0:0:
462,160,132404,1,0,2:0:0:0:
462,160,132491,2,0,L|468:217,1,50,0|8,2:0|2:3,2:0:0:0:
316,260,132666,5,8,2:3:0:0:
316,260,132753,1,0,2:0:0:0:
316,260,132840,2,0,L|322:203,1,50,0|0,2:0|2:0,2:0:0:0:
268,77,133015,5,8,2:3:0:0:
228,55,133102,1,8,2:3:0:0:
183,46,133189,1,8,2:3:0:0:
140,60,133276,1,8,2:3:0:0:
130,69,133363,6,0,L|129:153,1,59.9999981689454,6|0,3:2|3:0,2:0:0:0:
80,205,133538,2,0,B|53:175|53:175|53:85,1,119.999996337891,10|0,3:0|3:0,2:0:0:0:
23,288,133887,1,10,3:0:0:0:
40,292,133974,2,0,B|83:301|83:301|115:295|115:295|166:305,1,119.999996337891,0|0,3:0|3:0,2:0:0:0:
247,319,134235,1,10,3:0:0:0:
258,316,134323,1,0,3:0:0:0:
269,314,134410,1,0,3:0:0:0:
280,313,134497,1,0,3:0:0:0:
291,312,134584,1,10,3:0:0:0:
302,310,134672,1,0,3:0:0:0:
311,309,134759,6,0,L|386:298,1,59.9999981689454,2|0,3:2|3:0,2:0:0:0:
512,357,134933,2,0,L|362:379,1,119.999996337891,10|0,3:0|3:0,2:0:0:0:
225,251,135282,1,10,3:0:0:0:
216,237,135369,2,0,L|224:164,1,59.9999981689454,0|2,3:0|3:2,2:0:0:0:
299,113,135544,1,0,3:0:0:0:
311,101,135631,2,0,P|317:69|305:47,1,59.9999981689454,10|2,3:0|3:2,2:0:0:0:
200,15,135805,2,0,P|193:46|206:69,1,59.9999981689454,0|0,3:0|3:0,2:0:0:0:
133,143,135980,1,10,3:0:0:0:
121,144,136067,1,0,3:0:0:0:
109,148,136154,6,0,L|99:69,1,59.9999981689454,2|0,3:2|3:0,2:0:0:0:
32,144,136329,2,0,B|42:228|42:228|66:262,1,119.999996337891,10|0,3:0|2:0,2:0:0:0:
179,363,136677,1,10,3:0:0:0:
181,350,136765,2,0,B|191:266|191:266|215:232,1,119.999996337891,0|0,3:0|3:0,2:0:0:0:
261,293,137026,1,10,3:0:0:0:
356,226,137201,1,2,3:2:0:0:
367,222,137288,1,0,3:0:0:0:
378,218,137375,1,10,3:0:0:0:
389,214,137462,1,0,3:0:0:0:
400,211,137549,6,0,L|465:186,1,59.9999981689454,2|0,3:2|3:0,2:0:0:0:
512,227,137724,2,0,B|482:208|482:208|469:124,1,119.999996337891,10|0,3:0|3:0,2:0:0:0:
415,0,138073,1,10,3:0:0:0:
421,12,138160,2,0,L|289:32,1,119.999996337891,0|0,3:0|3:0,2:0:0:0:
275,122,138422,1,10,3:0:0:0:
245,115,138509,1,0,3:0:0:0:
215,108,138596,1,0,3:0:0:0:
185,101,138683,1,0,3:0:0:0:
155,94,138770,1,10,3:0:0:0:
125,87,138858,1,0,3:0:0:0:
95,80,138945,6,0,L|26:64,1,59.9999981689454,6|0,3:2|3:0,2:0:0:0:
52,145,139119,2,0,L|168:172,1,119.999996337891,10|0,3:0|3:0,2:0:0:0:
168,172,139468,1,10,3:0:0:0:
166,187,139555,2,0,B|164:269|164:269|195:308,1,119.999996337891,0|0,3:0|3:0,2:0:0:0:
301,233,139817,2,0,P|279:224|239:233,1,59.9999981689454,10|0,3:0|3:0,2:0:0:0:
322,369,139991,1,0,3:0:0:0:
334,367,140079,1,0,3:0:0:0:
345,365,140166,1,10,3:0:0:0:
356,363,140253,1,0,3:0:0:0:
367,362,140340,6,0,L|386:240,1,119.999996337891,2|10,3:2|3:0,2:0:0:0:
254,96,140689,1,0,3:0:0:0:
469,199,140863,1,10,3:0:0:0:
467,184,140951,2,0,P|449:159|414:146,1,59.9999981689454,0|2,3:0|3:2,2:0:0:0:
332,130,141125,1,0,3:0:0:0:
332,115,141213,2,0,P|349:90|375:77,1,59.9999981689454,10|2,3:0|3:2,2:0:0:0:
407,0,141387,1,0,3:0:0:0:
377,2,141474,1,0,3:0:0:0:
347,4,141561,1,10,3:0:0:0:
317,6,141648,1,0,3:0:0:0:
287,7,141735,6,0,P|249:9|214:20,1,59.9999981689454,2|0,3:2|3:0,2:0:0:0:
174,86,141910,2,0,P|98:82|28:60,1,119.999996337891,10|0,3:0|3:0,2:0:0:0:
55,70,142259,1,10,3:0:0:0:
58,85,142346,2,0,L|72:207,1,119.999996337891,0|0,3:0|3:0,2:0:0:0:
26,266,142608,1,10,3:0:0:0:
26,266,142695,1,0,3:0:0:0:
26,266,142782,1,2,3:2:0:0:
22,295,142869,1,0,3:0:0:0:
18,324,142956,1,10,3:0:0:0:
14,354,143044,1,0,3:0:0:0:
10,383,143131,6,0,L|81:381,1,59.9999981689454,0|0,3:0|3:0,2:0:0:0:
168,306,143305,2,0,L|97:308,1,59.9999981689454,0|0,3:0|3:0,2:0:0:0:
246,350,143480,1,0,2:0:0:0:
261,324,143567,1,0,2:0:0:0:
288,311,143654,1,0,2:0:0:0:
317,308,143741,1,0,2:0:0:0:
331,316,143829,6,0,P|345:271|417:262,1,119.999996337891,4|0,3:0|3:0,2:0:0:0:
481,284,144090,2,0,B|501:245|470:212|470:212|490:174,1,119.999996337891,4|0,3:0|3:0,2:0:0:0:
398,178,144352,1,10,3:0:0:0:
386,168,144439,1,8,3:0:0:0:
368,155,144526,6,0,B|392:116|392:116|421:102|421:102|444:62,1,119.999996337891,4|10,3:2|3:0,2:0:0:0:
453,42,144788,1,0,3:0:0:0:
305,30,144962,1,0,3:0:0:0:
289,6,145049,1,10,3:0:0:0:
284,166,145224,2,0,L|245:225,2,59.9999981689454,0|0|10,3:0|3:0|3:0,2:0:0:0:
185,86,145573,1,2,3:2:0:0:
169,62,145660,1,0,3:0:0:0:
153,36,145747,1,10,3:0:0:0:
115,194,145922,6,0,B|82:233|97:275|97:275|72:297,1,119.999996337891,2|10,3:2|3:0,2:0:0:0:
54,316,146183,1,0,3:0:0:0:
267,300,146358,1,0,3:0:0:0:
214,354,146445,2,0,B|181:315|196:273|196:273|171:250,1,119.999996337891,10|2,3:0|3:2,2:0:0:0:
128,343,146706,1,0,3:0:0:0:
125,368,146794,1,10,3:0:0:0:
185,173,146968,1,2,3:2:0:0:
185,158,147055,1,0,3:0:0:0:
197,165,147142,1,10,3:0:0:0:
331,372,147317,6,0,B|356:325|356:325|349:213,1,150.000005722046,6|0,3:0|3:0,2:0:0:0:
291,114,147666,1,8,3:0:0:0:
291,114,147753,1,8,3:0:0:0:
291,114,147840,1,10,3:0:0:0:
182,250,148015,6,0,B|157:203|157:203|164:91,1,150.000005722046,4|0,3:0|3:0,2:0:0:0:
276,0,148363,1,8,3:0:0:0:
276,0,148450,1,8,3:0:0:0:
276,0,148538,2,0,P|243:17|195:15,1,75.0000028610231,10|0,2:3|2:0,2:0:0:0:
101,20,148712,6,0,P|41:-1|1:9,1,100.000003814697,6|0,3:2|3:0,2:0:0:0:
0,150,148945,1,0,2:0:0:0:
8,136,149061,2,0,P|53:120|83:127,1,79.9999975585938,0|0,2:0|2:0,2:0:0:0:
102,253,149294,1,0,2:0:0:0:
94,239,149410,2,0,P|61:227|39:233,1,53.3333333333333,8|8,2:3|2:3,2:0:0:0:
19,356,149642,1,8,2:3:0:0:
0,337,149759,1,8,3:3:0:0:
19,318,149875,1,8,3:3:0:0:
37,337,149991,1,8,3:3:0:0:
17,336,150108,6,0,L|156:325,1,119.999996337891,6|0,2:0|2:0,2:0:0:0:
204,384,150631,1,8,2:3:0:0:
204,384,150718,1,8,2:3:0:0:
204,384,150805,2,0,P|230:323|194:260,1,119.999996337891,4|0,2:3|2:0,2:0:0:0:
158,195,151329,1,8,2:3:0:0:
158,195,151503,2,0,P|192:180|234:180,1,59.9999981689454,2|8,2:0|2:3,2:0:0:0:
302,264,151852,1,2,2:0:0:0:
386,197,152026,1,10,2:3:0:0:
386,197,152113,1,8,2:3:0:0:
386,197,152201,6,0,P|420:212|462:212,2,59.9999981689454,4|2|2,2:3|2:0|2:0,2:0:0:0:
346,69,152724,1,0,2:0:0:0:
346,69,152898,6,0,P|397:77|434:138,2,119.999996337891,10|8|8,2:3|2:3|2:3,2:0:0:0:
275,185,153770,1,8,2:3:0:0:
275,185,153945,6,0,P|249:189|231:219,1,59.9999981689454,12|0,0:3|2:0,2:0:0:0:
228,384,154294,5,8,2:3:0:0:
58,377,154468,1,0,2:0:0:0:
58,377,154555,1,0,2:0:0:0:
58,377,154642,1,2,2:0:0:0:
40,370,154730,1,0,2:0:0:0:
26,357,154817,1,0,2:0:0:0:
20,339,154904,1,0,2:0:0:0:
23,321,154991,1,10,2:3:0:0:
41,297,155079,1,0,2:3:0:0:
50,268,155166,1,0,2:3:0:0:
42,238,155253,1,0,2:3:0:0:
17,221,155340,1,10,2:3:0:0:
17,44,155515,1,8,2:3:0:0:
9,58,155602,1,0,2:3:0:0:
0,73,155689,6,0,P|34:82|70:84,1,64.9999970245363,6|0,3:2|3:0,2:0:0:0:
117,40,155863,2,0,P|85:102|95:165,1,129.999994049073,10|0,3:0|3:0,2:0:0:0:
132,229,156125,1,0,3:0:0:0:
144,224,156212,1,10,3:0:0:0:
261,129,156387,2,0,P|300:137|319:164,1,64.9999970245363,0|0,3:0|3:0,2:0:0:0:
360,93,156561,2,0,P|389:119|392:152,1,64.9999970245363,10|0,3:0|3:0,2:0:0:0:
466,113,156735,2,0,P|478:150|464:180,1,64.9999970245363,2|0,3:2|3:0,2:0:0:0:
385,242,156910,1,10,3:0:0:0:
385,242,156997,1,0,3:0:0:0:
385,242,157084,6,0,L|366:374,1,129.999994049073,0|10,3:0|3:0,2:0:0:0:
212,345,157433,2,0,B|220:355|220:355|191:356|176:331,1,64.9999970245363,2|0,3:2|3:0,2:0:0:0:
168,243,157608,2,0,B|176:233|176:233|147:232|132:257,1,64.9999970245363,10|0,3:0|3:0,2:0:0:0:
58,376,157782,1,2,3:2:0:0:
57,362,157869,1,0,3:0:0:0:
56,349,157956,1,10,3:0:0:0:
55,335,158044,1,0,3:0:0:0:
40,322,158131,1,2,3:2:0:0:
40,309,158218,1,0,3:0:0:0:
39,296,158305,1,10,3:0:0:0:
38,283,158392,1,0,3:0:0:0:
50,268,158480,6,0,L|46:203,1,64.9999970245363,6|0,3:2|3:0,2:0:0:0:
5,148,158654,2,0,B|43:175|43:175|116:127,1,129.999994049073,10|0,3:0|3:0,2:0:0:0:
111,46,158916,1,0,3:0:0:0:
102,53,159003,2,0,L|43:90,1,64.9999970245363,10|0,3:0|3:0,2:0:0:0:
118,211,159177,2,0,B|197:158|197:158|252:155,1,129.999994049073,0|10,3:0|3:0,2:0:0:0:
222,228,159439,1,0,3:0:0:0:
274,55,159613,1,0,3:0:0:0:
287,53,159701,2,0,L|351:46,1,64.9999970245363,10|0,3:0|3:0,2:0:0:0:
385,21,159875,6,0,P|373:91|420:131,1,129.999994049073,0|10,3:0|3:0,2:0:0:0:
512,215,160224,1,0,3:0:0:0:
512,215,160311,1,0,3:0:0:0:
512,215,160398,1,10,3:0:0:0:
397,255,160573,2,0,P|378:246|391:270,1,64.9999970245363,0|0,3:0|3:0,2:0:0:0:
512,341,160747,2,0,P|493:350|506:326,1,64.9999970245363,10|0,3:0|3:0,2:0:0:0:
376,380,160922,1,2,3:2:0:0:
363,379,161009,1,0,3:0:0:0:
350,378,161096,1,10,3:0:0:0:
337,377,161183,1,0,3:0:0:0:
323,378,161270,6,0,B|303:378|303:378|283:367|258:370,1,64.9999970245363,6|0,3:2|3:0,2:0:0:0:
232,384,161445,2,0,B|225:286|225:286|199:258,1,129.999994049073,10|0,3:0|3:0,2:0:0:0:
150,317,161706,1,0,3:0:0:0:
139,324,161794,1,10,3:0:0:0:
119,189,161968,5,0,3:0:0:0:
34,277,162142,1,10,3:0:0:0:
39,290,162230,1,0,3:0:0:0:
119,189,162404,1,0,3:0:0:0:
122,177,162491,2,0,L|129:109,1,64.9999970245363,10|0,3:0|3:0,2:0:0:0:
84,61,162666,6,0,B|128:84|128:84|219:53,1,129.999994049073,2|10,3:2|3:0,2:0:0:0:
296,0,162927,1,0,3:0:0:0:
307,5,163015,2,0,B|323:33|323:33|319:68,1,64.9999970245363,2|0,3:2|3:0,2:0:0:0:
267,205,163189,2,0,B|251:177|251:177|255:142,1,64.9999970245363,10|0,3:0|3:0,2:0:0:0:
412,64,163363,1,2,3:2:0:0:
413,76,163451,1,0,3:0:0:0:
414,88,163538,1,10,3:0:0:0:
415,100,163625,1,0,3:0:0:0:
434,112,163712,1,2,3:2:0:0:
435,124,163799,1,0,3:0:0:0:
437,136,163887,1,10,3:0:0:0:
438,148,163974,1,0,3:0:0:0:
422,160,164061,6,0,L|429:238,1,64.9999970245363,6|0,3:2|3:0,2:0:0:0:
496,254,164235,2,0,P|429:253|409:312,1,129.999994049073,10|0,3:0|3:0,2:0:0:0:
408,383,164497,1,0,3:0:0:0:
395,384,164584,1,10,3:0:0:0:
294,217,164759,1,0,3:0:0:0:
227,353,164933,1,10,3:0:0:0:
240,354,165020,1,0,3:0:0:0:
294,217,165195,1,0,3:0:0:0:
294,204,165282,1,10,3:0:0:0:
294,191,165369,1,0,3:0:0:0:
295,178,165456,6,0,L|296:106,2,64.9999970245363,0|0|8,3:0|3:0|3:0,2:0:0:0:
168,241,165805,1,0,3:0:0:0:
168,241,165892,1,0,3:0:0:0:
168,241,165980,1,12,3:0:0:0:
49,103,166154,5,0,2:0:0:0:
46,141,166241,1,0,2:0:0:0:
44,180,166329,1,0,2:0:0:0:
42,218,166416,1,0,2:0:0:0:
40,256,166503,5,10,3:0:0:0:
87,319,166619,1,8,3:0:0:0:
49,382,166735,1,8,3:0:0:0:
11,322,166852,6,0,P|82:335|121:299,1,119.999996337891,6|0,2:0|2:0,2:0:0:0:
234,218,167375,1,0,2:0:0:0:
234,218,167462,1,0,2:0:0:0:
234,218,167549,2,0,P|163:231|124:195,1,119.999996337891,8|0,2:3|2:0,2:0:0:0:
105,118,168073,1,8,2:3:0:0:
199,119,168247,6,0,P|210:86|214:53,1,59.9999981689454,8|0,2:3|2:0,2:0:0:0:
315,0,168596,2,0,P|317:29|330:66,1,59.9999981689454,2|8,2:0|2:3,2:0:0:0:
375,149,168945,2,0,B|420:131|467:158|467:158|446:152|429:163,1,133.333333333333,6|0,2:0|2:0,2:0:0:0:
468,245,169294,2,0,B|459:297|409:325|409:325|426:309|425:288,1,146.666671142578,6|0,2:0|2:0,2:0:0:0:
336,281,169642,6,0,P|301:245|300:171,1,119.999996337891,6|0,2:0|2:0,2:0:0:0:
390,225,170166,1,10,2:3:0:0:
199,227,170340,2,0,P|187:281|155:298,1,89.9999972534181,10|0,2:3|2:0,2:0:0:0:
85,165,170689,2,0,P|91:209|127:235,1,89.9999972534181,0|0,2:0|2:0,2:0:0:0:
228,162,171038,6,0,P|201:150|175:162,1,59.9999981689454,8|8,2:3|2:3,2:0:0:0:
37,262,171387,1,0,2:0:0:0:
0,99,171561,1,0,2:0:0:0:
0,99,171648,1,0,2:0:0:0:
0,99,171735,5,8,2:3:0:0:
147,0,171910,1,8,2:3:0:0:
129,112,172084,1,10,3:3:0:0:
219,49,172259,1,8,3:3:0:0:
217,135,172433,6,0,P|279:126|363:122,1,119.999996337891,6|0,2:0|2:0,2:0:0:0:
402,64,172956,1,0,3:0:0:0:
402,64,173044,1,0,3:0:0:0:
402,64,173131,2,0,P|422:109|417:159,1,89.9999972534181,8|0,2:3|2:0,2:0:0:0:
380,202,173480,2,0,P|360:247|365:297,1,89.9999972534181,6|0,2:0|2:0,2:0:0:0:
420,326,173829,6,0,P|369:316|310:346,1,119.999996337891,6|2,2:0|2:0,2:0:0:0:
155,244,174352,1,8,2:3:0:0:
155,244,174526,6,0,P|194:236|240:259,1,89.9999972534181,10|0,2:3|2:0,2:0:0:0:
189,306,174875,2,0,P|185:334|177:364,1,59.9999981689454,2|0,2:0|3:0,2:0:0:0:
84,384,175224,5,2,3:0:0:0:
27,228,175398,1,0,3:0:0:0:
189,306,175573,1,0,3:0:0:0:
0,323,175747,1,0,3:0:0:0:
0,323,175834,1,0,3:0:0:0:
0,323,175922,1,0,3:0:0:0:
209,154,176096,1,0,3:0:0:0:
0,159,176270,1,2,3:2:0:0:
0,159,176358,1,0,3:0:0:0:
0,159,176445,1,2,3:2:0:0:
259,246,176619,5,2,3:2:0:0:
109,6,176794,1,8,2:3:0:0:
113,29,176881,1,8,2:3:0:0:
117,52,176968,1,8,2:3:0:0:
121,75,177055,1,8,2:3:0:0:
125,98,177142,1,8,2:3:0:0:
129,121,177230,1,8,2:3:0:0:
133,144,177317,1,8,2:3:0:0:
133,144,178015,5,10,2:3:0:0:
180,59,178189,1,0,2:0:0:0:
184,32,178276,1,0,2:0:0:0:
229,198,178451,1,0,2:0:0:0:
180,59,178625,1,0,2:0:0:0:
184,32,178712,1,8,2:3:0:0:
311,130,178887,1,0,2:0:0:0:
339,125,178974,2,0,L|439:109,1,100,0|0,2:0|2:0,2:0:0:0:
512,253,179323,1,0,2:0:0:0:
495,232,179410,6,0,B|465:211|465:211|397:222,1,100,10|0,2:3|2:0,2:0:0:0:
337,283,179672,2,0,B|366:303|366:303|434:292,1,100,0|0,2:0|2:0,2:0:0:0:
325,208,179933,1,0,2:0:0:0:
235,327,180108,1,10,2:3:0:0:
215,327,180195,1,0,2:0:0:0:
195,327,180282,1,0,2:0:0:0:
175,327,180369,1,0,2:0:0:0:
156,309,180456,1,2,2:3:0:0:
136,309,180543,1,0,2:3:0:0:
116,309,180630,1,0,2:3:0:0:
96,309,180717,1,0,2:3:0:0:
72,288,180805,6,0,B|48:257|48:257|47:177,1,100,14|0,2:3|2:0,2:0:0:0:
50,83,181067,2,0,B|74:114|74:114|75:194,1,100,0|0,2:0|2:0,2:0:0:0:
224,210,181416,1,0,2:0:0:0:
201,205,181503,6,0,B|177:174|177:174|176:94,1,100,8|0,2:3|2:0,2:0:0:0:
179,0,181765,2,0,B|203:31|203:31|204:111,1,100,0|0,2:0|2:0,2:0:0:0:
129,60,182026,1,0,2:0:0:0:
129,60,182113,1,0,2:0:0:0:
129,60,182201,1,10,2:3:0:0:
306,13,182375,1,0,2:0:0:0:
331,0,182462,1,0,2:0:0:0:
258,145,182637,1,0,2:0:0:0:
434,120,182811,1,0,2:0:0:0:
450,126,182898,6,0,L|462:178,1,50,10|0,2:3|2:0,2:0:0:0:
413,361,183073,2,0,L|425:309,1,50,0|0,2:0|2:0,2:0:0:0:
350,220,183247,1,2,2:3:0:0:
344,239,183334,1,0,2:3:0:0:
338,258,183422,1,0,2:3:0:0:
333,277,183509,1,0,2:3:0:0:
327,296,183596,2,0,B|299:320|299:320|227:318,1,100,14|0,2:3|2:0,2:0:0:0:
151,268,183858,2,0,B|179:244|179:244|251:246,1,100,0|0,2:0|2:0,2:0:0:0:
159,355,184119,1,0,2:0:0:0:
159,355,184206,1,0,2:0:0:0:
159,355,184294,1,8,2:3:0:0:
69,207,184468,5,0,2:0:0:0:
55,181,184555,1,0,2:0:0:0:
159,355,184730,1,0,2:0:0:0:
192,157,184904,1,0,2:0:0:0:
206,131,184991,1,10,2:3:0:0:
98,65,185166,1,0,2:0:0:0:
46,17,185253,6,0,B|80:-3|80:-3|165:4,1,100,0|0,2:0|2:0,2:0:0:0:
223,33,185515,1,0,2:0:0:0:
223,33,185602,1,0,2:0:0:0:
223,33,185689,1,10,2:3:0:0:
251,42,185776,1,0,2:0:0:0:
279,51,185863,1,0,2:0:0:0:
307,60,185951,1,0,2:0:0:0:
344,46,186038,1,10,2:3:0:0:
372,55,186125,1,0,2:3:0:0:
400,64,186212,1,0,2:3:0:0:
428,73,186299,1,0,2:3:0:0:
456,82,186387,6,0,B|486:97|486:97|504:171,1,100,14|0,2:3|2:0,2:0:0:0:
502,305,186648,2,0,B|472:290|472:290|454:216,1,100,0|0,2:0|2:0,2:0:0:0:
422,155,186910,1,0,2:0:0:0:
422,155,186997,1,0,2:0:0:0:
422,155,187084,1,8,2:3:0:0:
356,295,187259,1,0,2:0:0:0:
326,293,187346,1,0,2:0:0:0:
299,259,187433,1,2,2:0:0:0:
269,257,187520,1,0,2:3:0:0:
235,287,187608,1,2,2:3:0:0:
205,285,187695,1,0,2:3:0:0:
175,283,187782,6,0,B|134:278|134:278|91:229,1,100,14|0,2:3|2:0,2:0:0:0:
34,105,188044,2,0,B|75:110|75:110|118:159,1,100,0|0,2:0|2:0,2:0:0:0:
201,165,188305,2,0,B|198:185|198:185|174:207,1,50,0|0,2:0|2:0,2:0:0:0:
169,94,188480,1,8,2:3:0:0:
205,78,188567,1,0,2:0:0:0:
244,83,188654,1,0,2:0:0:0:
276,106,188741,1,0,2:0:0:0:
292,142,188829,1,8,2:3:0:0:
322,167,188916,1,0,2:3:0:0:
360,176,189003,1,0,2:3:0:0:
399,171,189090,1,0,2:3:0:0:
409,160,189177,6,0,B|422:234|422:234|445:262|445:262|457:329,1,179.999994506836,14|0,2:3|2:0,2:0:0:0:
376,293,189526,1,0,2:0:0:0:
341,282,189613,1,0,2:0:0:0:
304,284,189701,1,0,2:0:0:0:
269,293,189788,1,0,2:0:0:0:
244,319,189875,1,8,2:3:0:0:
96,384,190049,5,0,3:0:0:0:
84,349,190137,1,0,3:0:0:0:
72,314,190224,1,0,3:0:0:0:
60,279,190311,1,0,3:0:0:0:
136,181,190485,1,0,2:0:0:0:
148,146,190572,1,8,2:3:0:0:
61,46,190747,5,0,2:0:0:0:
92,30,190834,1,0,2:0:0:0:
125,15,190922,1,0,2:0:0:0:
157,0,191009,1,0,2:0:0:0:
234,99,191183,1,0,2:0:0:0:
246,134,191270,1,8,2:3:0:0:
322,0,191445,1,0,2:0:0:0:
354,15,191532,1,0,2:0:0:0:
387,30,191620,1,8,2:3:0:0:
246,134,191794,1,0,2:0:0:0:
387,30,191968,6,0,B|401:88|401:88|425:108|425:108|443:168,1,150.000005722046,12|0,2:3|2:0,2:0:0:0:
386,287,192317,1,8,2:3:0:0:
360,158,192491,1,0,2:0:0:0:
360,158,192579,1,0,2:0:0:0:
360,158,192666,6,0,B|346:216|346:216|322:236|322:236|304:296,1,150.000005722046,12|0,2:3|2:0,2:0:0:0:
214,384,193015,1,8,2:3:0:0:
170,269,193189,1,0,2:0:0:0:
170,269,193276,1,0,2:0:0:0:
170,269,193363,6,0,B|156:211|156:211|132:191|132:191|114:131,1,150.000005722046,12|0,2:3|2:0,2:0:0:0:
0,113,193712,1,8,2:3:0:0:
88,257,193887,1,0,2:0:0:0:
88,257,193974,1,0,2:0:0:0:
88,257,194061,1,8,2:3:0:0:
198,145,194235,1,0,2:0:0:0:
241,132,194323,1,0,2:0:0:0:
284,120,194410,1,8,2:3:0:0:
327,108,194497,1,8,2:3:0:0:
370,96,194584,1,8,2:3:0:0:
512,57,194759,5,6,2:0:0:0:
488,75,194846,1,0,2:0:0:0:
471,99,194933,1,10,2:3:0:0:
463,128,195020,1,0,2:0:0:0:
467,157,195108,1,0,2:0:0:0:
475,185,195195,1,0,2:0:0:0:
493,208,195282,5,10,2:3:0:0:
451,210,195369,1,0,2:0:0:0:
413,229,195456,1,2,2:0:0:0:
394,267,195544,1,0,2:0:0:0:
391,308,195631,1,10,2:3:0:0:
369,343,195718,1,0,2:0:0:0:
331,362,195805,1,0,2:0:0:0:
289,362,195892,1,0,2:0:0:0:
257,333,195980,1,10,2:3:0:0:
240,294,196067,1,0,2:0:0:0:
211,263,196154,1,6,2:0:0:0:
170,253,196241,1,0,2:0:0:0:
129,265,196329,1,10,2:3:0:0:
111,303,196416,1,0,2:0:0:0:
122,343,196503,6,0,P|161:292|185:202,1,150,2|0,2:0|2:0,2:0:0:0:
94,169,196852,2,0,L|30:146,2,59.9999981689454,2|0|10,2:0|2:0|2:3,2:0:0:0:
170,91,197113,2,0,L|157:24,2,59.9999981689454,2|0|0,2:0|2:0|2:0,2:0:0:0:
275,144,197375,2,0,L|326:100,1,59.9999981689454,10|0,2:3|2:0,2:0:0:0:
423,33,197549,5,6,2:0:0:0:
467,51,197637,1,0,2:0:0:0:
487,94,197724,1,10,2:3:0:0:
486,141,197811,1,0,2:0:0:0:
450,172,197898,1,0,2:0:0:0:
426,213,197985,1,0,2:0:0:0:
423,261,198073,1,10,2:3:0:0:
428,308,198160,1,0,2:0:0:0:
457,345,198247,1,2,2:0:0:0:
457,345,198334,1,0,2:0:0:0:
457,345,198422,6,0,L|474:281,1,59.9999981689454,10|0,2:3|2:0,2:0:0:0:
334,194,198596,2,0,L|351:258,1,59.9999981689454,0|0,2:0|2:0,2:0:0:0:
255,384,198770,2,0,L|272:320,1,59.9999981689454,10|0,2:3|2:0,2:0:0:0:
201,249,198945,2,0,B|156:230|109:249|125:269|77:290|31:275,1,179.999994506836,8|8,2:3|2:3,2:0:0:0:
56,197,199294,5,6,2:0:0:0:
56,197,199381,1,0,2:0:0:0:
56,197,199468,2,0,L|43:130,1,59.9999981689454,0|0,2:0|2:0,2:0:0:0:
170,321,199642,5,6,2:0:0:0:
170,321,199729,1,0,2:0:0:0:
170,321,199816,2,0,L|157:388,1,59.9999981689454,0|0,2:0|2:0,2:0:0:0:
262,197,199991,5,6,2:0:0:0:
262,197,200078,1,0,2:0:0:0:
262,197,200165,2,0,L|249:130,1,59.9999981689454,0|0,2:0|2:0,2:0:0:0:
44,308,200340,5,6,3:2:0:0:
81,283,200427,1,0,3:0:0:0:
125,272,200515,1,10,3:0:0:0:
169,281,200602,1,0,3:0:0:0:
202,312,200689,1,0,3:0:0:0:
240,336,200776,1,0,3:0:0:0:
285,339,200863,1,10,3:0:0:0:
328,325,200951,1,0,3:0:0:0:
360,293,201038,1,0,3:0:0:0:
348,249,201125,1,0,3:0:0:0:
349,203,201212,1,10,3:0:0:0:
374,165,201299,1,0,3:0:0:0:
418,152,201387,6,0,L|485:146,1,64.9999970245363,2|0,3:2|3:0,2:0:0:0:
448,61,201561,2,0,L|515:55,1,64.9999970245363,10|0,3:0|3:0,2:0:0:0:
302,0,201735,6,0,L|235:6,1,64.9999970245363,6|0,3:2|3:0,2:0:0:0:
247,99,201910,2,0,L|180:105,1,64.9999970245363,10|0,3:0|3:0,2:0:0:0:
105,51,202084,1,0,3:0:0:0:
105,51,202172,1,0,3:0:0:0:
105,51,202259,2,0,L|38:45,1,64.9999970245363,10|0,3:0|3:0,2:0:0:0:
142,251,202433,5,6,2:0:0:0:
142,251,202520,1,0,3:0:0:0:
142,251,202608,2,0,P|156:215|147:183,1,64.9999970245363,10|0,3:0|3:0,2:0:0:0:
224,384,202783,2,0,P|210:348|219:316,1,64.9999970245363,2|0,3:2|3:0,2:0:0:0:
286,254,202957,2,0,P|300:218|291:186,1,64.9999970245363,10|0,3:0|3:0,2:0:0:0:
336,113,203131,5,6,3:2:0:0:
352,103,203218,1,0,3:0:0:0:
371,104,203305,1,10,3:0:0:0:
389,109,203392,1,0,3:0:0:0:
402,123,203480,1,0,3:0:0:0:
416,136,203567,1,0,3:0:0:0:
435,138,203654,1,10,3:0:0:0:
454,136,203741,1,0,3:0:0:0:
467,127,203829,5,6,3:2:0:0:
442,131,203916,1,0,3:0:0:0:
420,148,204003,1,10,3:0:0:0:
405,170,204090,1,0,3:0:0:0:
402,197,204177,1,0,3:0:0:0:
404,224,204265,1,0,3:0:0:0:
413,250,204352,1,10,3:0:0:0:
431,270,204439,1,0,3:0:0:0:
454,291,204526,5,6,3:2:0:0:
401,291,204613,1,0,3:0:0:0:
348,291,204701,1,10,3:0:0:0:
295,292,204788,1,0,3:0:0:0:
243,293,204875,1,0,3:0:0:0:
191,293,204962,1,0,3:0:0:0:
138,294,205049,1,10,3:0:0:0:
85,293,205137,1,0,3:0:0:0:
37,293,205224,5,6,3:2:0:0:
99,306,205311,1,8,3:0:0:0:
161,287,205398,1,10,3:0:0:0:
207,242,205485,1,8,3:0:0:0:
226,181,205572,1,8,3:0:0:0:
213,118,205660,1,8,3:0:0:0:
172,68,205747,1,10,3:0:0:0:
113,44,205834,1,8,3:0:0:0:
49,50,205921,5,6,3:2:0:0:
91,68,206009,1,0,3:0:0:0:
134,80,206096,1,10,3:0:0:0:
179,80,206183,1,0,3:0:0:0:
221,65,206270,1,0,3:0:0:0:
265,52,206358,1,0,3:0:0:0:
310,51,206445,1,10,3:0:0:0:
350,71,206532,1,0,3:0:0:0:
377,106,206619,5,0,3:0:0:0:
348,141,206706,1,0,3:0:0:0:
334,184,206794,1,10,3:0:0:0:
334,229,206881,1,0,3:0:0:0:
354,269,206968,1,0,3:0:0:0:
362,313,207055,1,0,3:0:0:0:
337,351,207142,1,10,3:0:0:0:
297,375,207230,1,0,3:0:0:0:
254,360,207317,1,0,3:0:0:0:
247,348,207404,1,0,3:0:0:0:
242,335,207491,1,10,3:0:0:0:
235,323,207579,1,0,3:0:0:0:
229,311,207666,6,0,L|157:282,3,64.9999970245363,6|0|10|0,3:2|3:0|3:0|3:0,2:0:0:0:
188,163,208015,2,0,L|140:101,3,64.9999970245363,6|0|10|0,3:2|3:0|3:0|3:0,2:0:0:0:
300,64,208363,2,0,L|289:-12,3,64.9999970245363,6|0|10|0,3:2|3:0|3:0|3:0,2:0:0:0:
439,85,208712,5,6,3:2:0:0:
472,115,208799,1,0,3:0:0:0:
488,157,208887,1,10,3:0:0:0:
482,202,208974,1,0,3:0:0:0:
444,228,209061,1,0,3:0:0:0:
414,262,209148,1,0,3:0:0:0:
400,305,209235,1,10,3:0:0:0:
407,350,209323,1,0,3:0:0:0:
443,376,209410,1,0,3:0:0:0:
443,376,209497,1,0,3:0:0:0:
443,376,209584,6,0,P|404:377|370:357,1,64.9999970245363,10|0,3:0|3:0,2:0:0:0:
198,312,209759,2,0,P|237:313|271:293,1,64.9999970245363,2|0,3:2|3:0,2:0:0:0:
339,196,209933,2,0,P|300:197|266:177,1,64.9999970245363,10|0,3:0|3:0,2:0:0:0:
268,56,210108,5,8,2:3:0:0:
201,72,210224,1,8,2:3:0:0:
134,89,210340,1,8,2:3:0:0:
90,190,210456,5,8,3:0:0:0:
144,203,210572,1,8,3:0:0:0:
198,217,210689,1,8,3:0:0:0:
286,295,210805,5,4,3:0:0:0:
259,302,210922,1,4,3:0:0:0:
232,308,211038,1,4,3:0:0:0:
148,354,211154,6,0,L|113:354,1,30,8|0,2:3|2:0,2:0:0:0:
74,366,211503,6,0,P|92:305|79:236,1,119.999996337891,4|2,2:0|2:0,2:0:0:0:
23,182,212026,1,0,2:0:0:0:
23,182,212201,2,0,P|82:151|135:180,1,119.999996337891,10|2,2:3|2:0,2:0:0:0:
407,17,212898,5,0,2:0:0:0:
407,17,213073,2,0,P|410:49|419:77,1,59.9999981689454,10|2,2:3|2:0,2:0:0:0:
355,149,213422,1,2,2:0:0:0:
355,149,213509,1,0,2:0:0:0:
355,149,213597,2,0,P|350:180|343:209,1,59.9999981689454,8|2,2:3|2:0,2:0:0:0:
413,280,213945,2,0,P|416:311|425:340,1,59.9999981689454,0|0,2:0|2:0,2:0:0:0:
311,384,214294,5,4,2:0:0:0:
228,253,214468,1,8,2:3:0:0:
11,243,214817,5,8,2:3:0:0:
68,125,214991,1,10,2:3:0:0:
207,384,215340,5,6,2:0:0:0:
305,164,215689,5,6,2:0:0:0:
252,64,215863,1,8,2:3:0:0:
402,116,216038,1,2,2:0:0:0:
349,16,216212,1,0,2:0:0:0:
487,132,216387,2,0,P|471:169|420:203,2,89.9999972534181,10|2|2,2:3|2:0|2:0,2:0:0:0:
476,384,217084,6,0,B|495:343|495:343|486:251,1,119.999996337891,14|0,2:3|2:0,2:0:0:0:
376,245,217608,1,0,2:0:0:0:
348,327,217782,2,0,B|381:334|381:334|426:324,1,59.9999981689454,8|0,2:3|2:0,2:0:0:0:
260,288,218131,5,4,2:3:0:0:
260,288,218305,2,0,B|203:275|203:275|125:293,1,119.999996337891,4|0,2:0|2:3,2:0:0:0:
47,323,218829,2,0,L|37:247,1,59.9999981689454,2|0,2:0|2:0,2:0:0:0:
30,165,219177,1,8,2:3:0:0:
421,37,219526,1,8,2:3:0:0:
507,348,219875,6,0,B|455:320|455:320|383:333,1,119.999996337891,6|0,2:0|2:0,2:0:0:0:
301,384,220398,1,2,2:0:0:0:
301,384,220573,2,0,B|307:355|307:355|281:293,1,89.9999972534181,10|0,2:3|2:0,2:0:0:0:
272,269,220922,1,2,2:0:0:0:
214,384,221096,1,10,2:3:0:0:
214,384,221270,6,0,L|144:374,1,59.9999981689454,10|0,2:3|2:0,2:0:0:0:
25,318,221619,2,0,L|95:308,1,59.9999981689454,10|0,2:3|2:0,2:0:0:0:
186,289,221968,1,10,2:3:0:0:
38,232,222142,1,2,2:0:0:0:
3,84,222317,1,10,2:3:0:0:
2,104,222404,1,0,2:0:0:0:
1,124,222491,1,0,2:0:0:0:
0,145,222579,1,0,2:0:0:0:
0,164,222666,6,0,B|43:144|83:166|83:166|124:151,1,129.999994049073,6|10,3:2|3:0,2:0:0:0:
324,134,223015,2,0,B|294:117|294:117|260:122,1,64.9999970245363,0|0,3:0|3:0,2:0:0:0:
215,200,223189,2,0,B|235:154|235:154|218:68,1,129.999994049073,10|0,3:0|3:0,2:0:0:0:
406,14,223538,1,10,3:0:0:0:
420,42,223625,1,0,3:0:0:0:
434,174,223799,1,0,3:0:0:0:
420,202,223886,1,10,3:0:0:0:
395,342,224061,6,0,P|458:355|513:323,2,129.999994049073,2|10|2,3:2|3:0|3:2,2:0:0:0:
281,384,224497,1,0,3:0:0:0:
288,371,224584,2,0,B|300:329|300:329|272:235,1,129.999994049073,10|0,3:0|3:0,2:0:0:0:
213,102,224933,1,10,3:0:0:0:
208,74,225020,1,0,3:0:0:0:
127,339,225195,1,0,3:0:0:0:
114,340,225282,1,10,3:0:0:0:
101,341,225369,1,0,3:0:0:0:
88,343,225456,6,0,L|50:202,1,129.999994049073,6|10,3:2|3:0,2:0:0:0:
0,83,225805,2,0,B|35:88|35:88|68:68,1,64.9999970245363,2|0,3:2|3:0,2:0:0:0:
104,21,225980,2,0,B|87:58|87:58|137:152,1,129.999994049073,10|0,3:0|3:0,2:0:0:0:
226,236,226329,1,10,3:0:0:0:
239,209,226416,1,0,3:0:0:0:
327,110,226590,1,0,3:0:0:0:
314,83,226677,1,10,3:0:0:0:
394,232,226852,5,2,3:2:0:0:
398,264,226939,1,0,3:0:0:0:
389,295,227026,1,10,3:0:0:0:
366,317,227113,1,0,3:0:0:0:
334,326,227201,1,0,3:0:0:0:
301,323,227288,1,0,3:0:0:0:
274,304,227375,1,10,3:0:0:0:
243,269,227462,1,0,3:0:0:0:
202,247,227549,1,0,3:0:0:0:
156,248,227637,1,8,3:0:0:0:
118,273,227724,1,10,3:0:0:0:
106,317,227811,1,8,3:0:0:0:
110,326,227898,6,0,L|156:321,1,44.999998626709,6|0,3:2|2:0,2:0:0:0:
190,384,228247,6,0,L|177:235,1,129.999994049073,6|10,3:2|3:0,2:0:0:0:
246,122,228596,2,0,P|209:106|166:108,1,64.9999970245363,2|0,3:2|3:0,2:0:0:0:
122,150,228770,2,0,P|48:182|-38:178,1,129.999994049073,10|0,3:0|3:0,2:0:0:0:
47,40,229119,1,10,3:0:0:0:
39,11,229206,1,0,3:0:0:0:
185,203,229381,1,0,3:0:0:0:
177,232,229468,1,10,3:0:0:0:
350,58,229642,6,0,L|361:138,1,64.9999970245363,2|0,3:2|3:0,2:0:0:0:
260,310,229817,2,0,L|271:230,1,64.9999970245363,10|0,3:0|3:0,2:0:0:0:
195,116,229991,2,0,P|167:132|122:127,3,64.9999970245363,2|0|10|0,3:2|3:0|3:0|3:0,2:0:0:0:
46,134,230340,2,0,P|46:101|72:65,3,64.9999970245363,0|0|10|0,3:0|3:0|3:0|3:0,2:0:0:0:
105,1,230689,2,0,P|132:17|151:58,3,64.9999970245363,2|0|10|0,3:2|3:0|3:0|3:0,2:0:0:0:
350,58,231038,5,10,3:0:0:0:
367,49,231125,1,8,3:0:0:0:
385,44,231212,1,8,3:0:0:0:
404,44,231299,1,8,3:0:0:0:
422,50,231387,5,6,3:0:0:0:
401,75,231474,1,0,3:0:0:0:
386,104,231561,1,0,3:0:0:0:
379,135,231648,1,0,3:0:0:0:
379,167,231735,1,0,3:0:0:0:
387,198,231823,1,0,3:0:0:0:
410,220,231910,5,6,3:0:0:0:
440,253,231997,1,0,3:0:0:0:
438,298,232084,1,0,3:0:0:0:
412,336,232172,1,0,3:0:0:0:
368,348,232259,1,0,3:0:0:0:
325,331,232346,1,0,3:0:0:0:
306,289,232433,5,6,3:2:0:0:
268,252,232520,1,0,3:0:0:0:
217,237,232608,1,0,3:0:0:0:
167,251,232695,1,0,3:0:0:0:
141,295,232782,1,0,3:0:0:0:
144,346,232869,1,0,3:0:0:0:
183,379,232956,5,14,2:3:0:0:
238,344,233044,1,8,2:3:0:0:
246,279,233131,1,8,2:3:0:0:
200,233,233218,1,8,2:3:0:0:
140,206,233305,1,8,2:3:0:0:
120,144,233392,1,8,2:3:0:0:
148,84,233480,5,14,2:3:0:0:
224,67,233567,1,8,2:3:0:0:
300,54,233654,1,8,2:3:0:0:
376,41,233741,1,8,2:3:0:0:
452,28,233829,6,0,B|412:56|349:69|291:43|291:43|252:30|202:46|174:102|206:163|262:168|262:168|298:174|335:168|369:147|369:147|337:163|312:192|302:231|302:231|307:267|324:301|356:324|356:324|330:300|295:285|255:288|255:288|222:302|194:330|181:368|181:368|198:336|200:298|187:261|187:261|161:233|127:217|88:217|88:217|122:219|160:211|191:186,1,1280,6|0,2:0|2:0,2:0:0:0:
0,134,245829,6,0,L|60:129,1,60,2|0,2:0|2:0,2:0:0:0:
0,134,247141,2,0,L|120:124,1,120,2|0,2:0|2:0,2:0:0:0:
0,134,248454,2,0,L|182:118,1,179.999994506836,2|0,2:0|2:0,2:0:0:0:
0,134,249766,2,0,L|240:113,1,240,2|0,2:0|2:0,2:0:0:0:
0,134,251079,6,0,B|104:124|104:124|106:126|106:126|220:116|220:116|223:114|223:114|300:108,1,300,2|0,2:0|2:0,2:0:0:0:
0,134,252391,2,0,B|61:127|61:127|63:130|63:130|126:123|126:123|128:125|128:125|199:119|199:119|201:117|201:117|268:113|268:113|270:110|270:110|317:105|317:105|319:107|319:107|364:104,1,359.999989013672,2|0,2:0|3:0,2:0:0:0:
0,134,253704,2,0,B|59:125|59:125|84:132|84:132|157:121|157:121|166:114|166:114|215:109|215:109|220:114|220:114|275:109|275:109|283:115|283:115|311:116|311:116|315:114|315:114|339:111|339:111|351:105|351:105|423:97,1,419.999987182618,2|0,2:0|2:0,2:0:0:0:
0,134,255016,2,0,B|45:131|45:131|46:133|46:133|77:134|77:134|102:128|102:128|104:122|104:122|132:114|132:114|161:119|161:119|163:123|163:123|204:124|204:124|248:116|248:116|250:111|250:111|284:103|284:103|319:108|319:108|322:105|322:105|359:111|359:111|398:102|398:102|402:106|402:106|443:92|443:92|479:92,1,500,2|0,2:0|2:0,2:0:0:0:
64,27,256235,5,8,3:0:0:0:
66,39,256292,1,8,3:0:0:0:
68,53,256349,1,8,3:0:0:0:
173,350,257133,5,0,3:0:0:0:
283,48,257453,1,0,3:0:0:0:
33,199,257776,1,0,3:0:0:0:
379,297,258101,1,0,3:0:0:0:
249,212,258263,1,0,3:0:0:0:
379,297,258425,5,4,3:0:0:0:
119,127,258754,1,4,3:0:0:0:
512,0,259229,5,0,3:0:0:0:
347,210,259555,1,0,3:0:0:0:
439,94,259721,1,0,3:0:0:0:
439,94,260043,1,0,3:0:0:0:
302,147,260199,1,0,3:0:0:0:
440,232,260362,1,0,3:0:0:0:
291,276,260525,5,4,3:0:0:0:
0,143,260848,1,4,3:0:0:0:
283,50,261173,5,0,3:0:0:0:
199,140,261336,1,0,3:0:0:0:
203,174,261414,1,0,3:0:0:0:
207,208,261492,1,0,3:0:0:0:
211,242,261570,1,0,3:0:0:0:
215,276,261648,1,0,3:0:0:0:
121,160,261818,5,0,2:0:0:0:
123,177,261899,1,0,2:0:0:0:
125,194,261980,1,0,2:0:0:0:
127,211,262061,1,0,2:0:0:0:
129,228,262142,1,0,2:0:0:0:
44,201,262299,5,0,2:3:0:0:
46,214,262382,1,0,2:3:0:0:
47,226,262465,1,0,2:3:0:0:
49,239,262549,1,0,2:3:0:0:
50,252,262632,1,0,2:3:0:0:
164,384,262857,5,0,3:0:0:0:
169,372,262936,1,0,3:0:0:0:
300,280,263107,1,0,3:0:0:0:
427,360,263271,5,0,3:0:0:0:
300,280,263421,1,0,3:0:0:0:
432,212,263578,1,0,2:0:0:0:
422,178,263661,1,0,2:0:0:0:
413,144,263744,1,0,2:0:0:0:
404,109,263828,1,0,2:0:0:0:
395,75,263911,1,0,2:0:0:0:
386,41,263994,1,0,2:0:0:0:
377,7,264077,1,0,2:0:0:0:
318,91,264246,5,2,3:2:0:0:
197,162,264409,1,2,3:2:0:0:
8,152,264572,2,0,L|4:102,1,44.999998626709,2|0,3:2|3:0,2:0:0:0:
0,81,264881,6,0,P|60:89|105:65,1,100,6|10,3:0|3:0,2:0:0:0:
197,18,265203,2,0,P|227:14|249:26,1,50,2|0,3:2|3:0,2:0:0:0:
264,48,265364,1,10,3:0:0:0:
342,202,265526,6,0,P|344:152|353:97,1,100,2|10,3:2|3:0,2:0:0:0:
436,65,265768,1,0,3:0:0:0:
438,49,265848,2,0,P|437:24|432:-3,1,50,2|0,3:2|3:0,2:0:0:0:
500,138,266010,1,10,3:0:0:0:
445,308,266171,6,0,P|390:305|332:303,1,100,2|10,3:2|3:0,2:0:0:0:
216,275,266493,2,0,P|216:302|224:336,1,50,2|0,2:0|2:0,2:0:0:0:
298,384,266655,1,10,2:3:0:0:
114,352,266816,1,2,2:0:0:0:
65,342,266897,1,0,2:0:0:0:
75,295,266977,1,10,2:3:0:0:
122,304,267058,1,0,2:0:0:0:
90,340,267139,1,8,2:3:0:0:
77,319,267220,1,8,2:3:0:0:
97,306,267300,1,10,2:3:0:0:
110,326,267381,1,8,2:3:0:0:
92,324,267461,6,0,P|103:282|76:210,1,100,6|10,3:0|3:0,2:0:0:0:
46,73,267784,2,0,P|40:94|54:130,1,50,2|0,3:2|3:0,2:0:0:0:
58,145,267945,1,10,3:0:0:0:
153,102,268106,6,0,P|209:103|256:90,1,100,2|10,3:2|3:0,2:0:0:0:
323,36,268348,1,0,3:0:0:0:
331,49,268429,2,0,P|338:74|337:106,1,50,2|0,3:2|3:0,2:0:0:0:
327,235,268590,1,10,3:0:0:0:
460,188,268751,6,0,P|446:238|448:302,1,100,2|10,3:2|3:0,2:0:0:0:
361,378,269074,2,0,P|328:370|300:370,1,50,2|0,2:0|2:0,2:0:0:0:
291,381,269235,1,10,2:3:0:0:
125,384,269397,1,2,2:0:0:0:
123,374,269477,1,0,2:0:0:0:
121,364,269558,1,10,2:3:0:0:
119,354,269639,1,0,2:0:0:0:
117,344,269719,1,8,2:3:0:0:
115,334,269800,1,8,2:3:0:0:
113,324,269881,1,10,2:3:0:0:
112,314,269961,1,8,2:3:0:0:
109,304,270042,6,0,P|63:255|15:267,1,100,6|10,3:0|3:0,2:0:0:0:
163,208,270284,1,0,3:0:0:0:
174,204,270364,2,0,P|183:172|166:154,1,50,2|0,3:2|3:0,2:0:0:0:
92,109,270526,1,10,3:0:0:0:
302,93,270687,6,0,P|329:95|361:89,1,50,2|0,3:2|3:0,2:0:0:0:
394,7,270848,2,0,P|367:5|335:11,1,50,10|0,3:0|3:0,2:0:0:0:
444,114,271010,1,2,3:2:0:0:
452,82,271090,1,0,3:0:0:0:
459,52,271171,1,10,3:0:0:0:
321,268,271332,6,0,L|308:169,1,100,2|10,3:2|3:0,2:0:0:0:
402,327,271655,1,2,2:0:0:0:
352,337,271736,1,0,2:0:0:0:
363,384,271816,1,10,2:3:0:0:
410,375,271897,1,0,2:0:0:0:
403,341,271977,1,2,2:0:0:0:
366,334,272058,1,0,2:0:0:0:
361,370,272138,1,10,2:3:0:0:
396,376,272219,1,0,2:0:0:0:
400,351,272300,1,8,2:3:0:0:
376,336,272381,1,8,2:3:0:0:
362,359,272461,1,10,2:3:0:0:
385,373,272542,1,8,2:3:0:0:
382,355,272622,6,0,P|331:375|281:363,1,100,6|10,3:0|3:0,2:0:0:0:
169,299,272945,2,0,P|194:309|219:303,1,50,2|0,3:2|3:0,2:0:0:0:
291,270,273106,1,10,3:0:0:0:
189,217,273268,5,2,3:2:0:0:
179,216,273348,1,0,3:0:0:0:
168,215,273429,1,10,3:0:0:0:
157,214,273510,1,0,3:0:0:0:
147,213,273590,1,2,3:2:0:0:
136,212,273671,1,0,3:0:0:0:
126,211,273751,1,10,3:0:0:0:
115,210,273832,1,0,3:0:0:0:
101,210,273913,6,0,L|18:204,1,64.9999970245363,2|0,3:2|3:0,2:0:0:0:
64,98,274074,2,0,L|-19:92,1,64.9999970245363,10|0,3:0|3:0,2:0:0:0:
321,189,274235,1,2,2:0:0:0:
321,189,274316,1,0,2:0:0:0:
321,189,274397,2,0,L|404:195,1,64.9999970245363,10|0,2:3|2:0,2:0:0:0:
84,294,274558,6,0,L|1:288,1,64.9999970245363,2|0,2:0|2:0,2:0:0:0:
141,212,274719,2,0,L|224:218,1,64.9999970245363,10|0,2:3|2:0,2:0:0:0:
88,119,274881,2,0,L|16:113,3,64.9999970245363,8|8|10|8,2:3|2:3|2:3|2:3,2:0:0:0:
94,100,275203,5,6,3:0:0:0:
119,83,275284,1,0,3:0:0:0:
148,78,275364,1,10,3:0:0:0:
177,85,275445,1,0,3:0:0:0:
202,100,275526,1,0,3:0:0:0:
213,127,275606,1,0,3:0:0:0:
213,157,275687,1,10,3:0:0:0:
202,185,275768,1,0,3:0:0:0:
177,201,275848,5,2,3:0:0:0:
151,238,275929,1,0,3:0:0:0:
152,283,276010,1,10,3:0:0:0:
176,320,276090,1,0,3:0:0:0:
217,337,276171,1,0,3:0:0:0:
261,335,276251,1,0,3:0:0:0:
300,313,276332,1,10,3:0:0:0:
316,270,276413,1,0,3:0:0:0:
344,236,276493,1,0,3:0:0:0:
388,228,276574,1,0,3:0:0:0:
432,238,276655,1,10,3:0:0:0:
463,269,276735,1,0,3:0:0:0:
470,313,276816,6,0,L|477:372,1,50,0|0,3:0|3:0,2:0:0:0:
393,277,276977,2,0,L|386:218,1,50,10|0,3:0|3:0,2:0:0:0:
494,140,277139,6,0,L|501:199,1,50,2|0,3:0|3:0,2:0:0:0:
417,104,277300,2,0,L|410:45,1,50,10|0,3:0|3:0,2:0:0:0:
318,14,277461,1,2,3:0:0:0:
307,13,277542,1,0,3:0:0:0:
297,12,277622,1,10,3:0:0:0:
286,11,277703,1,0,3:0:0:0:
275,10,277784,5,6,3:0:0:0:
246,18,277864,1,0,3:0:0:0:
218,29,277945,1,10,3:0:0:0:
202,60,278026,1,0,3:0:0:0:
208,88,278106,1,0,3:0:0:0:
203,117,278187,1,0,3:0:0:0:
189,143,278268,1,10,3:0:0:0:
160,152,278348,1,0,3:0:0:0:
130,145,278429,5,2,3:0:0:0:
158,180,278510,1,0,3:0:0:0:
164,224,278590,1,10,3:0:0:0:
155,268,278671,1,0,3:0:0:0:
123,300,278751,1,0,3:0:0:0:
78,309,278832,1,0,3:0:0:0:
36,291,278913,1,10,3:0:0:0:
13,252,278993,1,0,3:0:0:0:
12,206,279074,1,0,3:0:0:0:
48,232,279155,1,0,3:0:0:0:
92,235,279235,1,10,3:0:0:0:
134,220,279316,1,0,3:0:0:0:
166,188,279397,1,0,3:0:0:0:
206,169,279477,1,0,3:0:0:0:
250,174,279558,1,10,3:0:0:0:
287,198,279639,1,0,3:0:0:0:
309,236,279719,6,0,L|305:288,1,50,2|0,3:0|3:0,2:0:0:0:
385,306,279881,2,0,L|381:358,1,50,10|0,3:0|3:0,2:0:0:0:
409,209,280042,2,0,L|405:157,1,50,2|0,3:0|3:0,2:0:0:0:
485,139,280204,2,0,L|481:87,1,50,10|0,3:0|3:0,2:0:0:0:
352,43,280364,5,6,3:0:0:0:
322,24,280445,1,0,3:0:0:0:
287,15,280526,1,10,3:0:0:0:
253,22,280606,1,0,3:0:0:0:
227,46,280687,1,0,3:0:0:0:
198,66,280768,1,0,3:0:0:0:
165,77,280848,1,10,3:0:0:0:
130,70,280929,1,0,3:0:0:0:
101,48,281010,5,2,3:0:0:0:
109,96,281090,1,0,3:0:0:0:
118,145,281171,1,10,3:0:0:0:
127,193,281251,1,0,3:0:0:0:
160,208,281332,1,0,3:0:0:0:
168,256,281412,1,0,3:0:0:0:
177,305,281493,1,10,3:0:0:0:
186,353,281573,1,0,3:0:0:0:
190,371,281655,6,0,L|131:359,1,50,2|0,3:0|3:0,2:0:0:0:
106,293,281816,2,0,L|47:281,1,50,10|0,3:0|3:0,2:0:0:0:
287,291,281977,1,0,3:0:0:0:
287,291,282058,1,0,3:0:0:0:
287,291,282139,2,0,L|346:279,1,50,10|0,3:0|3:0,2:0:0:0:
371,213,282300,2,0,L|430:201,1,50,2|0,3:0|3:0,2:0:0:0:
469,114,282461,2,0,L|410:126,1,50,10|0,3:0|3:0,2:0:0:0:
251,137,282622,2,0,L|310:125,1,50,2|0,3:0|3:0,2:0:0:0:
349,38,282783,2,0,L|290:50,1,50,10|0,3:0|3:0,2:0:0:0:
187,67,282945,5,4,3:0:0:0:
44,86,283106,1,8,2:3:0:0:
41,111,283187,1,8,2:3:0:0:
39,136,283268,1,8,2:3:0:0:
37,160,283348,1,8,2:3:0:0:
35,185,283429,1,8,2:3:0:0:
119,48,283590,5,8,3:0:0:0:
117,73,283671,1,8,3:0:0:0:
115,97,283751,1,8,3:0:0:0:
113,122,283832,1,8,3:0:0:0:
125,143,283913,5,0,3:0:0:0:
123,161,283994,1,0,3:0:0:0:
122,179,284074,1,0,3:0:0:0:
120,198,284155,1,0,3:0:0:0:
138,220,284235,5,0,3:0:0:0:
137,229,284316,1,0,3:0:0:0:
136,238,284396,1,0,3:0:0:0:
135,247,284477,1,0,3:0:0:0:
134,256,284558,1,0,3:0:0:0:
156,359,284719,6,0,P|193:351|218:312,1,75,4|0,3:0|3:0,2:0:0:0:
275,288,285042,2,0,P|237:295|212:334,1,75,4|0,3:0|3:0,2:0:0:0:
277,366,285364,1,8,3:0:0:0:
418,384,285526,6,0,L|433:269,1,100,4|10,3:0|3:0,2:0:0:0:
308,211,285848,1,0,3:0:0:0:
308,191,285929,1,0,3:0:0:0:
323,201,286010,1,10,3:0:0:0:
441,151,286171,2,0,P|466:163|500:160,1,50,0|0,3:0|3:0,2:0:0:0:
512,79,286332,2,0,P|487:67|453:70,1,50,10|0,3:0|3:0,2:0:0:0:
359,119,286494,1,0,3:0:0:0:
366,91,286574,1,0,3:0:0:0:
375,66,286655,1,10,3:0:0:0:
200,126,286816,6,0,P|156:158|77:129,1,100,0|10,2:0|3:0,2:0:0:0:
30,72,287058,1,0,3:0:0:0:
38,49,287139,2,0,P|38:19|32:-6,1,50,0|0,3:0|3:0,2:0:0:0:
108,106,287300,2,0,P|108:136|114:161,1,50,10|0,3:0|3:0,2:0:0:0:
194,252,287461,2,0,L|86:232,1,100,0|10,3:0|3:0,2:0:0:0:
6,200,287784,1,0,3:0:0:0:
3,209,287864,1,0,3:0:0:0:
0,218,287945,1,10,3:0:0:0:
82,366,288106,5,4,3:0:0:0:
177,276,288268,1,10,3:0:0:0:
194,252,288348,1,0,3:0:0:0:
289,341,288510,1,0,3:0:0:0:
306,365,288590,1,10,3:0:0:0:
394,254,288751,6,0,P|415:220|416:191,1,50,0|0,2:0|3:0,2:0:0:0:
343,139,288913,2,0,P|322:173|321:202,1,50,10|0,3:0|3:0,2:0:0:0:
408,245,289074,2,0,P|419:207|412:178,1,50,0|0,2:0|3:0,2:0:0:0:
328,147,289235,2,0,P|317:185|324:214,1,50,10|0,3:0|3:0,2:0:0:0:
419,233,289397,2,0,P|420:193|406:167,1,50,0|0,2:0|3:0,2:0:0:0:
317,159,289559,2,0,P|316:199|330:225,1,50,10|0,3:0|3:0,2:0:0:0:
427,219,289719,2,0,P|417:180|398:159,1,50,0|0,3:0|3:0,2:0:0:0:
309,173,289881,2,0,P|319:212|338:233,1,50,10|0,3:0|3:0,2:0:0:0:
390,85,290042,6,0,L|443:74,1,50,0|0,3:0|3:0,2:0:0:0:
307,32,290203,2,0,L|254:43,1,50,10|0,3:0|3:0,2:0:0:0:
193,121,290364,1,0,2:0:0:0:
193,121,290445,1,0,2:0:0:0:
193,121,290526,1,10,2:3:0:0:
98,53,290687,6,0,P|77:97|85:160,1,100,4|10,3:0|3:0,2:0:0:0:
132,254,291010,2,0,P|131:284|123:314,1,50,0|0,3:0|3:0,2:0:0:0:
46,312,291171,2,0,P|47:342|55:372,1,50,10|0,3:0|3:0,2:0:0:0:
131,276,291332,2,0,P|130:306|122:336,1,50,0|0,3:0|3:0,2:0:0:0:
45,334,291493,2,0,P|46:364|54:394,1,50,10|0,3:0|3:0,2:0:0:0:
215,375,291655,1,0,3:0:0:0:
239,363,291735,1,0,3:0:0:0:
265,352,291816,1,10,3:0:0:0:
411,384,291977,6,0,P|416:333|408:278,1,100,0|10,2:0|3:0,2:0:0:0:
335,232,292219,1,0,3:0:0:0:
351,212,292300,2,0,P|375:196|398:192,1,50,0|0,3:0|3:0,2:0:0:0:
309,120,292461,2,0,P|285:104|262:100,1,50,10|0,3:0|3:0,2:0:0:0:
378,55,292622,6,0,P|426:23|472:15,1,100,0|10,3:0|3:0,2:0:0:0:
300,19,292945,1,0,3:0:0:0:
300,0,293026,1,0,3:0:0:0:
285,9,293106,1,10,3:0:0:0:
244,174,293268,5,4,3:0:0:0:
166,50,293429,1,10,3:0:0:0:
156,22,293510,1,0,3:0:0:0:
80,156,293671,1,0,3:0:0:0:
90,128,293752,1,10,3:0:0:0:
13,267,293913,6,0,P|61:283|119:276,1,80,4|10,3:0|3:0,2:0:0:0:
236,188,294235,1,0,3:0:0:0:
236,168,294316,1,0,3:0:0:0:
253,178,294397,1,10,3:0:0:0:
195,364,294558,5,4,3:0:0:0:
321,284,294719,1,10,3:0:0:0:
303,258,294800,1,0,3:0:0:0:
469,344,294961,1,0,3:0:0:0:
451,370,295042,1,10,3:0:0:0:
482,218,295203,6,0,P|437:222|413:197,1,80,6|10,3:0|3:0,2:0:0:0:
318,78,295526,1,8,2:3:0:0:
303,63,295606,1,8,2:3:0:0:
318,49,295687,1,8,2:3:0:0:
332,63,295768,1,8,2:3:0:0:
317,60,295848,6,0,P|262:54|231:86,1,100,4|10,3:0|3:0,2:0:0:0:
162,183,296171,1,0,3:0:0:0:
152,202,296251,1,0,3:0:0:0:
172,200,296332,1,10,3:0:0:0:
71,105,296493,2,0,P|60:78|59:49,1,50,0|0,3:0|3:0,2:0:0:0:
143,51,296655,2,0,P|154:78|155:107,1,50,10|0,3:0|3:0,2:0:0:0:
61,187,296816,1,0,3:0:0:0:
71,206,296896,1,0,3:0:0:0:
51,204,296977,1,10,3:0:0:0:
166,273,297139,6,0,P|151:320|166:375,1,100,0|10,2:0|3:0,2:0:0:0:
236,326,297381,1,0,3:0:0:0:
258,321,297461,2,0,L|305:306,1,50,0|0,3:0|3:0,2:0:0:0:
252,235,297622,2,0,L|299:220,1,50,10|0,3:0|3:0,2:0:0:0:
425,291,297784,6,0,P|418:233|402:188,1,100,0|10,3:0|3:0,2:0:0:0:
461,51,298106,1,0,3:0:0:0:
461,25,298187,1,0,3:0:0:0:
472,3,298268,1,10,3:0:0:0:
311,124,298429,5,4,3:0:0:0:
206,53,298590,1,10,3:0:0:0:
174,36,298671,1,0,3:0:0:0:
366,2,298832,1,0,3:0:0:0:
334,19,298913,1,10,3:0:0:0:
196,159,299074,6,0,L|183:265,1,100,0|10,2:0|3:0,2:0:0:0:
77,366,299397,1,0,2:0:0:0:
66,381,299478,1,0,3:0:0:0:
58,366,299558,1,10,3:0:0:0:
250,365,299719,6,0,L|313:360,1,50,0|0,2:0|3:0,2:0:0:0:
288,289,299881,2,0,L|351:284,1,50,10|0,3:0|3:0,2:0:0:0:
279,363,300042,6,0,L|342:358,1,50,0|0,3:0|3:0,2:0:0:0:
317,287,300204,2,0,L|380:282,1,50,10|0,3:0|3:0,2:0:0:0:
308,361,300364,6,0,L|371:356,1,50,0|0,3:0|3:0,2:0:0:0:
346,285,300526,2,0,L|409:280,1,50,10|0,3:0|3:0,2:0:0:0:
470,351,300687,1,0,2:0:0:0:
475,322,300768,1,0,2:0:0:0:
479,293,300848,1,10,3:0:0:0:
489,150,301010,6,0,L|383:158,1,100,4|10,3:0|3:0,2:0:0:0:
340,90,301251,1,0,3:0:0:0:
327,99,301332,2,0,P|310:124|305:146,1,50,0|0,3:0|3:0,2:0:0:0:
433,81,301493,2,0,P|450:56|455:34,1,50,10|0,3:0|3:0,2:0:0:0:
381,1,301655,6,0,L|275:9,1,100,0|10,3:0|3:0,2:0:0:0:
157,0,301977,1,0,3:0:0:0:
158,25,302058,1,0,3:0:0:0:
180,11,302139,1,10,3:0:0:0:
51,34,302300,5,0,2:0:0:0:
171,148,302461,1,10,3:0:0:0:
199,133,302542,1,0,3:0:0:0:
28,196,302703,1,0,3:0:0:0:
0,181,302784,1,10,3:0:0:0:
97,136,302945,6,0,L|108:242,1,100,0|10,3:0|3:0,2:0:0:0:
185,338,303268,1,0,3:0:0:0:
195,360,303348,1,0,3:0:0:0:
209,339,303429,1,10,3:0:0:0:
267,200,303590,5,4,3:0:0:0:
363,350,303751,1,10,3:0:0:0:
351,327,303832,1,0,3:0:0:0:
374,315,303913,1,0,3:0:0:0:
384,338,303993,1,0,3:0:0:0:
369,330,304074,1,10,3:0:0:0:
447,197,304235,6,0,P|449:169|439:148,1,50,4|0,3:0|3:0,2:0:0:0:
349,65,304397,2,0,P|347:93|357:114,1,50,10|0,3:0|3:0,2:0:0:0:
462,182,304558,6,0,P|457:154|442:136,1,50,0|0,3:0|3:0,2:0:0:0:
333,79,304720,2,0,P|338:107|353:125,1,50,10|0,3:0|3:0,2:0:0:0:
213,11,304880,5,4,3:0:0:0:
132,113,305042,1,10,2:3:0:0:
122,151,305122,1,0,2:0:0:0:
112,190,305203,1,8,2:3:0:0:
102,229,305284,1,8,2:3:0:0:
92,267,305364,1,10,2:3:0:0:
219,243,305526,6,0,L|308:234,1,89.9999972534181,4|0,2:0|3:0,2:0:0:0:
291,311,305848,6,0,L|354:305,1,60,4|0,2:0|3:0,2:0:0:0:
389,366,306171,6,0,P|385:297|405:235,1,119.999996337891,4|10,3:0|3:0,2:0:0:0:
400,167,306493,1,0,3:0:0:0:
417,171,306574,1,0,3:0:0:0:
434,175,306655,1,10,3:0:0:0:
506,313,306816,5,0,3:0:0:0:
512,165,306977,1,10,3:0:0:0:
501,137,307058,1,0,3:0:0:0:
335,118,307219,1,0,3:0:0:0:
324,146,307300,1,10,3:0:0:0:
408,58,307461,6,0,P|356:28|284:40,1,119.999996337891,0|10,3:0|3:0,2:0:0:0:
122,51,307784,1,2,2:0:0:0:
106,35,307864,1,0,3:0:0:0:
122,19,307945,1,10,3:0:0:0:
136,35,308026,1,0,3:0:0:0:
122,57,308106,1,2,2:0:0:0:
101,35,308186,1,0,2:0:0:0:
122,13,308267,1,8,2:3:0:0:
142,35,308348,1,0,2:0:0:0:
123,63,308429,1,10,2:3:0:0:
94,35,308509,1,8,2:3:0:0:
123,6,308590,1,10,2:3:0:0:
148,35,308671,1,8,2:3:0:0:
121,35,308751,6,0,L|133:157,1,119.999996337891,4|10,3:0|3:0,2:0:0:0:
116,245,309074,1,0,3:0:0:0:
134,244,309155,1,0,3:0:0:0:
151,243,309235,1,10,3:0:0:0:
240,113,309397,5,0,3:0:0:0:
271,258,309558,1,10,3:0:0:0:
253,279,309639,1,0,3:0:0:0:
360,162,309800,1,0,3:0:0:0:
342,141,309881,1,10,3:0:0:0:
385,292,310042,6,0,L|508:283,1,119.999996337891,0|10,3:0|3:0,2:0:0:0:
512,103,310364,1,2,2:0:0:0:
486,74,310445,1,0,3:0:0:0:
458,103,310526,1,10,3:0:0:0:
486,130,310606,1,0,3:0:0:0:
506,103,310687,1,2,2:0:0:0:
485,81,310768,1,0,2:0:0:0:
465,103,310849,1,8,2:3:0:0:
485,124,310929,1,0,2:0:0:0:
500,103,311009,1,10,2:3:0:0:
485,87,311090,1,8,2:3:0:0:
470,103,311171,1,10,2:3:0:0:
485,118,311251,1,8,2:3:0:0:
484,106,311332,6,0,P|419:101|385:57,1,119.999996337891,4|10,3:0|3:0,2:0:0:0:
266,1,311655,1,0,3:0:0:0:
266,19,311735,1,0,3:0:0:0:
251,10,311816,1,10,3:0:0:0:
318,148,311977,5,0,3:0:0:0:
193,102,312139,1,10,3:0:0:0:
164,92,312219,1,0,3:0:0:0:
65,145,312380,1,0,3:0:0:0:
36,155,312460,1,10,3:0:0:0:
95,280,312622,6,0,P|92:340|38:378,1,119.999996337891,0|10,3:0|3:0,2:0:0:0:
0,282,312945,1,0,2:0:0:0:
0,300,313025,1,0,3:0:0:0:
15,291,313106,1,10,3:0:0:0:
242,261,313268,1,0,2:0:0:0:
253,259,313348,1,0,2:0:0:0:
264,257,313429,1,8,2:3:0:0:
275,255,313510,1,0,2:0:0:0:
286,252,313590,2,0,P|319:248|353:255,1,60,8|8,2:3|2:3,2:0:0:0:
389,318,313913,6,0,P|374:259|380:218,1,100,4|0,3:0|3:0,2:0:0:0:
429,104,314200,1,0,2:0:0:0:
409,100,314271,1,0,3:0:0:0:
389,96,314343,1,0,3:0:0:0:
369,92,314415,1,0,2:0:0:0:
245,99,314558,6,0,P|243:66|261:30,2,66.6666666666667,4|0|0,3:0|2:0|2:0,2:0:0:0:
279,171,314880,1,0,2:0:0:0:
198,169,314988,6,0,B|149:142|101:177|122:190|70:227|12:189,1,200,4|8,3:2|2:3,2:0:0:0:
58,126,315364,1,0,3:0:0:0:
177,266,315525,2,0,P|179:289|175:315,1,50,4|0,2:0|3:0,2:0:0:0:
53,379,315686,2,0,P|51:356|55:330,1,50,8|0,2:3|3:0,2:0:0:0:
276,304,315848,5,8,2:3:0:0:
293,293,315928,1,8,2:3:0:0:
312,288,316009,1,8,2:3:0:0:
332,287,316090,1,8,2:3:0:0:
350,294,316170,1,8,2:3:0:0:
389,287,316251,1,8,2:3:0:0:
417,258,316332,1,8,2:3:0:0:
420,218,316412,1,8,3:0:0:0:
393,189,316493,6,0,P|370:156|388:69,1,119.999996337891,4|10,3:0|3:0,2:0:0:0:
374,5,316815,1,0,3:0:0:0:
385,6,316896,1,0,3:0:0:0:
396,7,316977,1,10,3:0:0:0:
488,127,317138,5,0,3:0:0:0:
297,105,317299,1,10,3:0:0:0:
268,97,317380,1,0,3:0:0:0:
481,37,317541,1,0,3:0:0:0:
510,29,317622,1,10,3:0:0:0:
259,22,317783,6,0,P|198:60|192:113,1,119.999996337891,0|10,3:0|3:0,2:0:0:0:
304,217,318106,1,2,2:0:0:0:
292,215,318186,1,0,3:0:0:0:
279,213,318267,1,10,3:0:0:0:
266,211,318348,1,0,3:0:0:0:
254,209,318428,1,2,2:0:0:0:
241,208,318509,1,0,2:0:0:0:
228,207,318590,1,8,2:3:0:0:
216,206,318670,1,0,2:0:0:0:
203,205,318751,1,10,2:3:0:0:
160,202,318832,1,8,2:3:0:0:
118,198,318912,1,8,2:3:0:0:
75,195,318993,1,8,2:3:0:0:
33,193,319073,6,0,L|48:322,1,119.999996337891,4|10,3:0|3:0,2:0:0:0:
229,365,319396,1,0,3:0:0:0:
229,383,319476,1,0,3:0:0:0:
244,374,319557,1,10,3:0:0:0:
64,384,319719,5,0,3:0:0:0:
182,290,319880,1,10,3:0:0:0:
206,273,319961,1,0,3:0:0:0:
352,336,320122,1,0,3:0:0:0:
376,353,320203,1,10,3:0:0:0:
283,212,320364,6,0,P|347:208|417:195,1,119.999996337891,0|10,3:0|3:0,2:0:0:0:
512,290,320686,1,2,2:0:0:0:
509,278,320767,1,0,3:0:0:0:
506,266,320848,1,10,3:0:0:0:
503,254,320928,1,0,3:0:0:0:
500,242,321009,1,2,2:0:0:0:
497,230,321090,1,0,2:0:0:0:
494,218,321170,1,8,2:3:0:0:
491,206,321251,1,0,2:0:0:0:
488,194,321332,1,10,2:3:0:0:
475,154,321412,1,8,2:3:0:0:
465,111,321493,1,10,2:3:0:0:
455,70,321573,1,8,2:3:0:0:
444,29,321654,6,0,P|396:38|318:22,1,119.999996337891,4|10,3:0|3:0,2:0:0:0:
107,0,321977,1,0,3:0:0:0:
95,3,322057,1,0,3:0:0:0:
83,6,322138,1,10,3:0:0:0:
284,172,322299,5,0,3:0:0:0:
221,29,322461,1,10,3:0:0:0:
194,19,322541,1,0,3:0:0:0:
123,167,322703,1,0,3:0:0:0:
96,177,322783,1,10,3:0:0:0:
340,299,322944,5,8,3:0:0:0:
351,327,323025,1,8,3:0:0:0:
341,355,323106,1,8,3:0:0:0:
136,384,323267,5,8,2:3:0:0:
125,356,323348,1,8,2:3:0:0:
135,328,323429,1,8,2:3:0:0:
233,272,323590,6,0,P|213:191|141:157,1,159.999995117188,4|0,0:0|0:0,3:0:0:0:
16,133,323912,1,8,3:0:0:0:
104,30,324029,5,8,3:0:0:0:
173,0,324131,1,8,3:0:0:0:
222,55,324235,6,0,L|349:63,3,119.999996337891,6|2|2|2,2:0|2:0|2:0|2:0,2:0:0:0:
427,0,325364,1,0,2:0:0:0:
427,0,325444,1,0,2:0:0:0:
427,0,325525,6,0,P|446:29|442:69,1,59.9999981689454,2|0,2:0|2:0,2:0:0:0:
504,184,325847,1,2,2:0:0:0:
504,184,326009,2,0,L|438:190,1,59.9999981689454,0|2,2:0|2:0,2:0:0:0:
382,253,326331,2,0,L|316:259,1,59.9999981689454,0|2,2:0|2:0,2:0:0:0:
193,242,326654,1,0,2:0:0:0:
233,185,326815,6,0,P|223:240|224:310,3,119.999996337891,2|2|2|2,2:0|2:0|2:0|2:0,2:0:0:0:
91,383,328105,2,0,P|101:328|100:258,3,119.999996337891,2|2|2|2,2:0|2:0|2:0|2:0,2:0:0:0:
47,177,329235,1,0,3:0:0:0:
47,177,329315,1,0,3:0:0:0:
47,177,329396,6,0,P|90:165|128:164,1,59.9999981689454,6|0,2:0|2:0,2:0:0:0:
212,164,329718,1,0,3:3:0:0:
162,64,329880,2,0,P|119:52|81:51,1,59.9999981689454,2|0,2:0|0:0,2:0:0:0:
274,97,330202,2,0,P|317:85|355:84,1,59.9999981689454,2|0,2:0|0:0,2:0:0:0:
413,41,330525,1,0,3:0:0:0:
413,41,330605,1,0,3:0:0:0:
413,41,330686,6,0,L|423:101,1,59.9999981689454,4|0,2:0|2:0,2:0:0:0:
366,179,331009,1,0,3:3:0:0:
450,250,331170,2,0,L|510:260,1,59.9999981689454,2|0,2:0|2:0,2:0:0:0:
383,329,331493,2,0,L|323:319,1,59.9999981689454,2|0,2:0|2:0,2:0:0:0:
251,250,331815,1,2,3:0:0:0:
251,250,331896,1,2,3:0:0:0:
251,250,331976,6,0,B|220:285|220:285|222:332,1,89.9999972534181,2|0,2:0|3:0,2:0:0:0:
222,354,332299,1,2,2:0:0:0:
0,291,332622,2,0,P|43:300|91:282,2,89.9999972534181,2|2|2,2:0|2:0|2:0,2:0:0:0:
39,206,333267,5,6,2:0:0:0:
39,197,333347,1,2,2:0:0:0:
39,187,333428,1,2,2:0:0:0:
39,177,333509,1,2,2:0:0:0:
25,165,333589,5,8,2:3:0:0:
25,156,333669,1,8,2:3:0:0:
25,146,333750,1,8,2:3:0:0:
25,136,333831,1,8,2:3:0:0:
13,116,333912,5,4,2:3:0:0:
13,107,333992,1,0,2:0:0:0:
13,97,334073,1,0,2:0:0:0:
13,87,334154,1,0,2:0:0:0:
0,65,334235,5,4,2:3:0:0:
0,65,334557,6,0,P|50:63|112:76,1,100,4|10,3:0|3:0,2:0:0:0:
177,164,334880,1,0,3:0:0:0:
206,172,334960,1,0,3:0:0:0:
183,193,335041,1,10,3:0:0:0:
277,63,335202,2,0,P|287:40|285:16,1,50,0|0,3:0|3:0,2:0:0:0:
196,0,335364,2,0,P|185:22|187:46,1,50,10|0,3:0|3:0,2:0:0:0:
351,111,335525,1,0,3:0:0:0:
351,135,335605,1,0,3:0:0:0:
344,159,335686,1,10,3:0:0:0:
277,273,335847,6,0,P|333:259|392:260,1,100,0|10,2:0|3:0,2:0:0:0:
445,304,336089,1,0,3:0:0:0:
444,320,336170,2,0,L|441:380,1,50,0|0,3:0|3:0,2:0:0:0:
336,384,336331,2,0,L|339:324,1,50,10|0,3:0|3:0,2:0:0:0:
214,323,336493,2,0,P|158:337|99:336,1,100,0|10,3:0|3:0,2:0:0:0:
0,282,336815,1,0,3:0:0:0:
6,257,336896,1,0,3:0:0:0:
13,233,336976,1,10,3:0:0:0:
138,78,337138,5,4,3:0:0:0:
131,197,337299,1,10,3:0:0:0:
142,223,337380,1,0,3:0:0:0:
30,37,337541,1,0,3:0:0:0:
19,63,337622,1,10,3:0:0:0:
257,100,337783,6,0,L|312:120,1,50,0|0,2:0|3:0,2:0:0:0:
400,61,337944,2,0,L|345:41,1,50,10|0,3:0|3:0,2:0:0:0:
264,117,338105,2,0,L|322:122,1,50,0|0,2:0|3:0,2:0:0:0:
392,43,338266,2,0,L|334:38,1,50,10|0,3:0|3:0,2:0:0:0:
424,152,338428,5,0,2:0:0:0:
324,244,338589,1,10,3:0:0:0:
317,269,338670,1,0,3:0:0:0:
425,359,338831,1,0,3:0:0:0:
432,384,338912,1,10,3:0:0:0:
227,341,339073,6,0,P|197:345|168:335,1,50,0|0,3:0|3:0,2:0:0:0:
180,253,339235,2,0,P|210:249|239:259,1,50,10|0,3:0|3:0,2:0:0:0:
91,292,339396,1,0,2:0:0:0:
66,297,339476,1,0,2:0:0:0:
73,274,339557,1,10,2:3:0:0:
0,206,339718,6,0,L|13:95,1,100,4|10,3:0|3:0,2:0:0:0:
3,25,340041,1,0,3:0:0:0:
13,25,340122,1,0,3:0:0:0:
22,25,340202,1,10,3:0:0:0:
138,161,340364,5,0,3:0:0:0:
113,44,340525,2,0,P|145:45|176:40,1,50,10|0,3:0|3:0,2:0:0:0:
261,54,340686,2,0,P|252:28|254:2,1,50,0|0,3:0|3:0,2:0:0:0:
345,0,340847,2,0,P|354:26|352:52,1,50,10|0,3:0|3:0,2:0:0:0:
294,137,341009,5,0,2:0:0:0:
380,221,341170,1,10,3:0:0:0:
392,195,341251,1,0,3:0:0:0:
311,313,341412,1,0,3:0:0:0:
299,287,341493,1,10,3:0:0:0:
446,373,341654,6,0,L|343:385,1,100,0|10,3:0|3:0,2:0:0:0:
226,331,341976,1,0,3:0:0:0:
226,331,342057,1,0,3:0:0:0:
226,331,342138,1,10,3:0:0:0:
469,247,342299,5,4,3:0:0:0:
405,168,342460,1,10,3:0:0:0:
419,142,342541,1,0,3:0:0:0:
490,76,342702,1,0,3:0:0:0:
476,50,342783,1,10,3:0:0:0:
325,46,342944,6,0,L|217:37,1,100,4|10,3:0|3:0,2:0:0:0:
158,111,343267,1,0,3:0:0:0:
158,111,343347,1,0,3:0:0:0:
158,111,343428,1,10,3:0:0:0:
1,197,343589,6,0,L|109:188,1,100,4|10,3:0|3:0,2:0:0:0:
168,262,343912,1,0,3:0:0:0:
168,262,343992,1,0,3:0:0:0:
168,262,344073,1,10,3:0:0:0:
342,319,344235,6,0,L|234:310,1,100,6|10,3:0|3:0,2:0:0:0:
27,369,344557,1,8,2:3:0:0:
16,358,344638,1,8,2:3:0:0:
27,348,344718,1,8,2:3:0:0:
36,357,344799,1,8,2:3:0:0:
23,361,344880,6,0,P|72:376|130:365,1,100,4|10,3:0|3:0,2:0:0:0:
81,302,345122,1,0,3:0:0:0:
80,279,345202,1,0,3:0:0:0:
258,220,345364,2,0,P|307:205|365:216,1,100,10|0,3:0|3:0,2:0:0:0:
466,302,345686,1,10,3:0:0:0:
419,117,345847,1,0,3:0:0:0:
408,95,345928,1,0,3:0:0:0:
430,97,346009,1,10,3:0:0:0:
295,0,346170,6,0,P|238:0|192:19,1,100,0|10,2:0|3:0,2:0:0:0:
146,68,346412,1,0,3:0:0:0:
144,89,346493,2,0,L|138:138,1,50,0|0,3:0|3:0,2:0:0:0:
48,163,346654,2,0,L|54:114,1,50,10|0,3:0|3:0,2:0:0:0:
12,237,346815,6,0,P|69:237|115:218,1,100,0|10,3:0|3:0,2:0:0:0:
243,137,347138,1,0,3:0:0:0:
262,121,347219,1,0,3:0:0:0:
266,143,347300,1,10,3:0:0:0:
172,322,347460,5,4,3:0:0:0:
294,256,347622,1,10,3:0:0:0:
320,241,347702,1,0,3:0:0:0:
420,321,347864,1,0,3:0:0:0:
446,336,347944,1,10,3:0:0:0:
482,216,348105,6,0,L|489:152,1,50,0|0,2:0|3:0,2:0:0:0:
419,98,348267,2,0,L|412:162,1,50,10|0,3:0|3:0,2:0:0:0:
496,67,348428,1,0,2:0:0:0:
496,67,348508,1,0,3:0:0:0:
496,67,348589,1,10,3:0:0:0:
258,45,348751,5,0,2:0:0:0:
338,148,348912,1,10,3:0:0:0:
348,172,348993,1,0,3:0:0:0:
297,247,349154,1,0,3:0:0:0:
307,271,349235,1,10,3:0:0:0:
246,348,349396,6,0,P|217:348|191:330,1,50,0|0,3:0|3:0,2:0:0:0:
110,240,349557,2,0,P|139:240|165:258,1,50,10|0,3:0|3:0,2:0:0:0:
229,363,349718,2,0,P|201:356|181:332,1,50,0|0,2:0|2:0,2:0:0:0:
126,224,349879,2,0,P|154:231|174:255,1,50,10|0,3:0|2:0,2:0:0:0:
65,340,350041,5,4,3:0:0:0:
7,190,350202,1,10,3:0:0:0:
23,221,350283,1,0,3:0:0:0:
115,93,350444,1,0,3:0:0:0:
99,124,350525,1,10,3:0:0:0:
0,8,350686,2,0,L|106:-2,1,100,0|10,3:0|3:0,2:0:0:0:
219,39,351009,1,0,3:0:0:0:
226,11,351089,1,0,3:0:0:0:
251,32,351170,1,10,3:0:0:0:
362,2,351331,5,0,2:0:0:0:
290,118,351493,1,10,3:0:0:0:
279,145,351573,1,0,3:0:0:0:
437,124,351735,1,0,3:0:0:0:
448,151,351815,1,10,3:0:0:0:
364,257,351976,6,0,L|375:310,1,50,0|0,3:0|3:0,2:0:0:0:
290,361,352138,2,0,L|279:308,1,50,10|0,3:0|3:0,2:0:0:0:
376,268,352299,2,0,L|373:322,1,50,0|0,3:0|3:0,2:0:0:0:
277,349,352461,2,0,L|280:295,1,50,10|0,3:0|3:0,2:0:0:0:
182,263,352622,5,4,3:0:0:0:
119,139,352783,1,10,3:0:0:0:
109,136,352864,1,0,3:0:0:0:
99,133,352944,1,0,3:0:0:0:
89,130,353025,1,0,3:0:0:0:
79,127,353105,1,10,3:0:0:0:
192,53,353267,5,4,3:0:0:0:
211,49,353347,1,0,3:0:0:0:
230,46,353428,1,10,3:0:0:0:
249,43,353509,1,0,3:0:0:0:
268,40,353589,1,0,3:0:0:0:
287,37,353670,1,0,3:0:0:0:
306,34,353751,1,10,3:0:0:0:
265,159,353912,5,4,3:0:0:0:
353,255,354073,1,10,2:3:0:0:
353,255,354154,1,0,2:0:0:0:
353,255,354235,1,8,2:3:0:0:
361,216,354315,1,8,2:3:0:0:
370,176,354396,1,10,2:3:0:0:
379,137,354476,1,8,2:3:0:0:
388,98,354557,5,4,2:0:0:0:
299,384,354880,5,4,2:0:0:0:
45,157,355202,6,0,L|172:173,1,119.999996337891,4|10,3:0|3:0,2:0:0:0:
272,121,355525,1,0,3:0:0:0:
275,132,355605,1,0,3:0:0:0:
278,143,355686,1,10,3:0:0:0:
393,266,355847,5,0,3:0:0:0:
376,129,356009,1,10,3:0:0:0:
383,100,356089,1,0,3:0:0:0:
281,286,356251,1,0,3:0:0:0:
288,315,356331,1,10,3:0:0:0:
440,51,356493,6,0,P|383:22|329:50,1,119.999996337891,0|10,3:0|3:0,2:0:0:0:
213,94,356815,1,2,2:0:0:0:
230,82,356896,1,0,3:0:0:0:
243,99,356976,1,10,3:0:0:0:
225,111,357057,1,0,3:0:0:0:
209,85,357138,1,2,2:0:0:0:
237,78,357219,1,0,2:0:0:0:
247,108,357299,1,8,2:3:0:0:
215,114,357380,1,0,2:0:0:0:
209,72,357460,1,10,2:3:0:0:
251,76,357541,1,8,2:3:0:0:
247,122,357621,1,10,2:3:0:0:
201,114,357702,1,8,2:3:0:0:
227,97,357783,6,0,L|100:81,1,119.999996337891,4|10,3:0|3:0,2:0:0:0:
0,63,358105,1,0,3:0:0:0:
3,74,358185,1,0,3:0:0:0:
6,85,358266,1,10,3:0:0:0:
134,170,358428,5,0,3:0:0:0:
28,232,358589,1,10,3:0:0:0:
3,253,358670,1,0,3:0:0:0:
142,302,358831,1,0,3:0:0:0:
147,330,358912,1,10,3:0:0:0:
261,237,359073,6,0,P|315:281|367:270,1,119.999996337891,0|10,3:0|3:0,2:0:0:0:
512,294,359396,1,2,2:0:0:0:
509,282,359476,1,0,3:0:0:0:
506,270,359557,1,10,3:0:0:0:
503,258,359638,1,0,3:0:0:0:
500,246,359718,1,2,2:0:0:0:
497,234,359799,1,0,2:0:0:0:
494,222,359880,1,8,2:3:0:0:
491,210,359960,1,0,2:0:0:0:
489,198,360041,1,10,2:3:0:0:
475,157,360122,1,8,2:3:0:0:
465,116,360202,1,10,2:3:0:0:
453,75,360283,1,8,2:3:0:0:
441,34,360364,6,0,L|306:26,1,119.999996337891,4|10,3:0|3:0,2:0:0:0:
165,40,360686,1,0,3:0:0:0:
163,28,360766,1,0,3:0:0:0:
161,17,360847,1,10,3:0:0:0:
139,256,361009,5,0,3:0:0:0:
40,94,361170,1,10,3:0:0:0:
23,71,361251,1,0,3:0:0:0:
184,192,361412,1,0,3:0:0:0:
201,169,361493,1,10,3:0:0:0:
82,327,361654,6,0,P|140:351|203:320,1,119.999996337891,0|10,3:0|3:0,2:0:0:0:
301,321,361976,1,0,2:0:0:0:
298,309,362057,1,0,3:0:0:0:
296,296,362138,1,10,3:0:0:0:
279,117,362299,1,0,2:0:0:0:
257,95,362380,1,0,2:0:0:0:
279,74,362460,1,8,2:3:0:0:
300,95,362541,1,0,2:0:0:0:
277,93,362622,1,8,2:3:0:0:
475,320,362944,5,4,3:0:0:0:
217,254,363175,1,8,3:0:0:0:
192,249,363253,1,8,3:0:0:0:
167,244,363332,1,8,3:0:0:0:
142,239,363411,1,8,3:0:0:0:
117,234,363490,1,8,3:0:0:0:
0,207,363589,5,4,3:0:0:0:
53,126,363730,1,0,2:0:0:0:
76,117,363810,1,0,2:0:0:0:
99,108,363891,1,0,2:0:0:0:
122,100,363971,1,0,2:0:0:0:
145,92,364072,1,4,3:2:0:0:
266,29,364235,5,0,2:0:0:0:
266,29,364315,1,0,3:0:0:0:
266,29,364396,2,0,L|285:78,1,50,4|0,3:0|3:0,2:0:0:0:
400,25,364557,2,0,L|391:76,1,50,4|0,3:0|3:0,2:0:0:0:
499,106,364718,2,0,L|466:146,1,50,4|0,3:0|3:0,2:0:0:0:
358,192,364880,5,4,3:0:0:0:
356,201,364960,1,0,3:0:0:0:
354,210,365041,1,0,3:0:0:0:
352,219,365122,1,0,3:0:0:0:
350,228,365202,1,8,3:0:0:0:
348,237,365283,1,8,3:0:0:0:
346,246,365364,1,8,3:0:0:0:
344,255,365444,1,8,3:0:0:0:
341,263,365525,6,0,L|214:277,1,119.999996337891,4|10,3:0|3:0,2:0:0:0:
77,269,365847,1,0,3:0:0:0:
65,266,365928,1,0,3:0:0:0:
53,263,366009,1,10,3:0:0:0:
123,86,366170,5,0,3:0:0:0:
193,179,366331,1,10,3:0:0:0:
210,206,366412,1,0,3:0:0:0:
156,329,366573,1,0,3:0:0:0:
139,356,366654,1,10,3:0:0:0:
39,128,366815,6,0,P|32:66|69:10,1,119.999996337891,0|10,3:0|3:0,2:0:0:0:
182,28,367138,1,2,2:0:0:0:
210,9,367219,1,0,3:0:0:0:
231,36,367299,1,10,3:0:0:0:
201,55,367380,1,0,3:0:0:0:
196,21,367461,1,2,2:0:0:0:
216,22,367542,1,0,2:0:0:0:
218,43,367622,1,8,2:3:0:0:
195,41,367703,1,0,2:0:0:0:
205,22,367783,1,10,2:3:0:0:
215,31,367864,1,8,2:3:0:0:
206,41,367944,1,10,2:3:0:0:
196,32,368025,1,8,2:3:0:0:
206,33,368105,6,0,L|343:42,1,119.999996337891,4|10,3:0|3:0,2:0:0:0:
512,54,368428,1,0,3:0:0:0:
507,65,368509,1,0,3:0:0:0:
502,76,368589,1,10,3:0:0:0:
362,248,368751,5,0,3:0:0:0:
339,66,368912,1,10,3:0:0:0:
325,40,368993,1,0,3:0:0:0:
497,248,369154,1,0,3:0:0:0:
511,222,369235,1,10,3:0:0:0:
277,170,369396,5,0,3:0:0:0:
343,350,369557,1,10,3:0:0:0:
343,350,369638,1,0,3:0:0:0:
343,350,369718,1,2,2:0:0:0:
314,359,369799,1,0,3:0:0:0:
283,360,369880,1,10,3:0:0:0:
255,349,369960,1,0,3:0:0:0:
235,326,370041,1,2,2:0:0:0:
203,298,370122,1,0,2:0:0:0:
162,286,370202,1,8,2:3:0:0:
119,288,370283,1,0,2:0:0:0:
85,313,370364,2,0,L|17:307,3,59.9999981689454,10|8|10|8,2:3|2:3|2:3|2:3,2:0:0:0:
54,144,370686,5,4,2:0:0:0:
92,132,370767,1,0,3:0:0:0:
130,121,370847,1,10,3:0:0:0:
168,110,370928,1,0,3:0:0:0:
198,141,371009,5,0,2:0:0:0:
236,153,371090,1,0,3:0:0:0:
274,164,371170,1,10,3:0:0:0:
312,175,371251,1,0,3:0:0:0:
343,148,371331,5,0,2:0:0:0:
381,136,371412,1,0,3:0:0:0:
419,125,371492,1,10,3:0:0:0:
457,114,371573,1,0,3:0:0:0:
488,141,371654,2,0,L|459:193,3,59.9999981689454,0|0|10|0,2:0|3:0|3:0|3:0,2:0:0:0:
359,336,371976,5,4,2:0:0:0:
359,336,372057,1,0,3:0:0:0:
359,336,372138,2,0,L|388:284,1,59.9999981689454,10|0,3:0|3:0,2:0:0:0:
252,267,372299,5,4,2:0:0:0:
252,267,372380,1,0,3:0:0:0:
252,267,372461,2,0,L|251:207,1,59.9999981689454,10|0,3:0|3:0,2:0:0:0:
128,270,372622,5,4,2:0:0:0:
128,270,372703,1,0,3:0:0:0:
128,270,372784,2,0,L|97:218,1,59.9999981689454,10|0,3:0|3:0,2:0:0:0:
54,361,372944,5,4,2:0:0:0:
54,361,373025,1,0,3:0:0:0:
54,361,373106,2,0,L|1:332,1,59.9999981689454,10|0,3:0|3:0,2:0:0:0:
4,111,373267,5,4,2:0:0:0:
37,69,373347,1,0,3:0:0:0:
86,46,373428,1,10,3:0:0:0:
140,51,373509,1,0,3:0:0:0:
184,81,373589,1,0,2:0:0:0:
198,133,373670,1,0,3:0:0:0:
198,186,373751,1,10,3:0:0:0:
176,234,373831,1,0,3:0:0:0:
188,286,373912,5,0,2:0:0:0:
226,324,373993,1,0,2:0:0:0:
278,332,374073,1,10,2:3:0:0:
326,308,374154,1,0,2:0:0:0:
333,298,374235,2,0,P|354:238|464:234,1,179.999994506836,4|0,2:0|3:0,2:0:0:0:
412,292,374557,5,4,3:0:0:0:
476,116,374718,1,8,3:0:0:0:
479,96,374799,1,8,3:0:0:0:
482,77,374880,1,8,3:0:0:0:
485,58,374960,1,8,3:0:0:0:
488,38,375041,1,8,3:0:0:0:
492,19,375122,1,8,3:0:0:0:
495,0,375202,1,12,3:0:0:0:
179,223,375364,5,8,2:3:0:0:
176,232,375440,1,8,2:3:0:0:
173,243,375517,1,8,2:3:0:0:
171,254,375594,1,8,2:3:0:0:
169,264,375671,1,8,2:3:0:0:
166,274,375748,1,8,2:3:0:0:
162,286,375847,6,0,L|67:272,1,80,14|0,2:3|3:0,2:0:0:0:
0,180,376169,1,2,2:0:0:0:
56,125,376330,1,8,2:3:0:0:
56,125,376411,1,8,2:3:0:0:
56,125,376492,2,0,P|76:160|76:204,1,80,4|2,2:0|2:0,2:0:0:0:
183,359,376814,2,0,P|163:324|163:280,1,80,0|0,2:0|2:0,2:0:0:0:
212,121,377137,5,2,2:0:0:0:
257,204,377298,1,8,2:3:0:0:
257,204,377459,1,0,2:0:0:0:
323,66,377621,1,8,2:3:0:0:
408,202,377782,2,0,P|407:240|417:282,1,80,10|0,2:3|3:0,2:0:0:0:
456,375,378105,2,0,B|419:359|419:359|380:375,1,80,10|0,2:3|2:0,2:0:0:0:
224,280,378427,6,0,B|261:296|261:296|300:280,1,80,6|0,2:0|3:0,2:0:0:0:
408,202,378750,1,2,2:0:0:0:
294,152,378911,1,8,2:3:0:0:
408,202,379072,2,0,P|398:154|393:111,1,80,2|0,2:0|3:0,2:0:0:0:
279,0,379395,2,0,P|288:44|294:91,1,80,2|8,2:0|2:3,2:0:0:0:
184,217,379717,5,0,2:0:0:0:
111,85,379879,1,8,2:3:0:0:
221,133,380040,1,0,2:0:0:0:
59,234,380201,1,8,2:3:0:0:
59,234,380282,1,8,2:3:0:0:
59,234,380363,6,0,P|92:278|169:279,1,120,6|0,2:0|3:0,2:0:0:0:
128,356,380685,2,0,P|182:349|221:283,1,120,6|0,2:0|3:0,2:0:0:0:
200,233,381008,2,0,P|279:261|277:340,1,160,10|0,2:3|2:0,2:0:0:0:
376,384,381492,1,8,2:3:0:0:
365,282,381653,2,0,P|428:276|496:265,1,120,2|0,2:0|3:0,2:0:0:0:
509,260,381976,1,2,2:0:0:0:
414,191,382137,1,8,2:3:0:0:
512,163,382298,6,0,P|499:116|495:78,1,80,2|8,2:0|2:3,2:0:0:0:
512,0,382621,1,0,2:0:0:0:
388,37,382782,1,8,2:3:0:0:
388,37,382863,1,8,2:3:0:0:
388,37,382943,2,0,P|340:44|303:56,1,80,8|0,2:3|3:0,2:0:0:0:
206,26,383266,2,0,P|138:17|81:-1,1,120,4|0,2:0|3:0,2:0:0:0:
60,0,383588,6,0,P|64:43|57:97,1,80,4|0,2:0|2:0,2:0:0:0:
84,187,383911,1,0,2:0:0:0:
0,149,384072,1,2,2:0:0:0:
0,149,384153,1,2,2:0:0:0:
0,149,384234,6,0,P|-4:192|3:246,1,80,8|0,2:3|3:0,2:0:0:0:
61,325,384556,1,8,2:3:0:0:
290,222,384717,1,4,2:0:0:0:
212,185,384879,5,0,2:0:0:0:
226,357,385040,1,8,2:3:0:0:
146,139,385201,1,4,2:0:0:0:
117,259,385363,5,8,2:3:0:0:
121,274,385443,1,8,2:3:0:0:
125,289,385524,2,0,P|171:280|227:279,1,80,8|8,2:3|2:3,2:0:0:0:
316,298,385847,2,0,P|362:307|418:308,1,80,8|8,2:3|2:3,2:0:0:0:
417,384,386169,6,0,L|429:232,1,150,4|0,2:0|3:0,2:0:0:0:
433,208,386492,1,0,2:0:0:0:
310,176,386653,1,0,2:0:0:0:
310,176,386734,1,0,2:0:0:0:
310,176,386814,2,0,L|298:24,1,150,8|0,2:3|3:0,2:0:0:0:
294,0,387137,1,0,2:0:0:0:
390,104,387298,1,8,2:3:0:0:
207,136,387459,5,0,2:0:0:0:
227,36,387621,1,0,2:0:0:0:
207,136,387782,5,8,2:3:0:0:
148,46,387944,1,0,2:0:0:0:
207,136,388105,1,10,2:3:0:0:
76,384,388427,5,10,2:3:0:0:
114,287,388588,1,0,2:0:0:0:
180,366,388750,2,0,P|234:355|289:355,1,100,8|8,2:3|2:3,2:0:0:0:
435,384,389072,1,0,2:0:0:0:
344,234,389234,1,0,2:0:0:0:
338,204,389314,1,0,2:0:0:0:
334,174,389395,1,4,2:0:0:0:
0,243,389717,5,8,2:3:0:0:
173,0,390040,5,0,2:0:0:0:
226,142,390201,1,8,2:3:0:0:
226,142,390363,1,0,2:0:0:0:
283,48,390524,1,0,2:0:0:0:
96,124,390685,1,8,2:3:0:0:
96,124,391008,2,0,L|126:287,1,150,8|0,2:3|3:0,2:0:0:0:
129,295,391330,5,12,3:0:0:0:
273,384,391492,1,0,3:0:0:0:
191,184,391653,1,0,3:0:0:0:
220,176,391734,1,0,3:0:0:0:
248,168,391814,1,0,3:0:0:0:
277,160,391895,1,0,3:0:0:0:
306,152,391976,5,8,3:0:0:0:
456,246,392137,1,8,3:0:0:0:
417,61,392298,1,12,3:0:0:0:
388,53,392379,1,0,3:0:0:0:
359,45,392460,1,0,3:0:0:0:
331,37,392540,1,0,3:0:0:0:
302,29,392621,5,12,3:0:0:0:
166,115,392782,1,8,3:0:0:0:
46,1,392943,1,8,2:3:0:0:
49,41,393024,1,0,2:0:0:0:
52,81,393105,1,0,2:0:0:0:
55,120,393185,1,0,2:0:0:0:
58,159,393266,1,0,2:0:0:0:
62,198,393347,1,0,2:0:0:0:
66,237,393427,1,0,2:0:0:0:
70,276,393508,1,0,2:0:0:0:
74,315,393588,2,0,P|152:302|232:293,1,150,4|0,2:0|3:0,2:0:0:0:
249,290,393911,5,4,3:0:0:0:
249,290,394234,5,10,3:0:0:0:
302,157,394395,1,0,3:0:0:0:
391,285,394556,1,10,3:0:0:0:
180,145,394717,5,0,3:0:0:0:
414,98,394879,1,10,3:0:0:0:
329,318,395040,1,0,3:0:0:0:
333,35,395201,5,10,3:0:0:0:
459,315,395363,1,0,3:0:0:0:
496,61,395524,5,10,3:0:0:0:
291,376,395685,1,0,3:0:0:0:
257,97,395847,5,0,2:0:0:0:
221,78,395927,1,0,2:0:0:0:
180,75,396008,1,0,2:0:0:0:
144,93,396088,1,0,2:0:0:0:
120,125,396169,1,8,2:3:0:0:
86,147,396250,1,8,2:3:0:0:
46,152,396330,1,8,2:3:0:0:
9,134,396411,1,8,2:3:0:0:
0,122,396492,6,0,L|10:192,1,70,4|0,2:0|3:0,2:0:0:0:
0,322,398105,5,2,2:0:0:0:
14,307,398185,1,0,2:0:0:0:
25,309,398266,1,0,2:0:0:0:
40,296,398347,1,0,2:0:0:0:
52,301,398427,1,2,2:0:0:0:
68,294,398508,1,0,2:0:0:0:
80,304,398588,1,0,2:0:0:0:
95,300,398669,1,0,2:0:0:0:
106,313,398750,1,2,2:0:0:0:
120,313,398830,1,0,2:0:0:0:
126,328,398911,1,8,3:0:0:0:
156,353,398992,1,8,3:0:0:0:
180,384,399072,6,0,L|186:312,1,70,6|0,2:0|3:0,2:0:0:0:
150,146,400363,5,2,2:0:0:0:
157,144,400443,1,0,2:0:0:0:
164,144,400524,1,0,2:0:0:0:
170,148,400605,1,0,2:0:0:0:
186,167,400685,5,2,2:0:0:0:
200,169,400765,1,0,2:0:0:0:
215,169,400846,1,0,2:0:0:0:
228,162,400927,1,0,2:0:0:0:
249,142,401008,5,8,2:3:0:0:
269,138,401088,1,8,2:3:0:0:
289,134,401169,1,0,2:0:0:0:
309,132,401250,1,0,2:0:0:0:
330,150,401330,5,8,2:3:0:0:
360,144,401410,1,8,2:3:0:0:
390,138,401491,1,8,2:3:0:0:
420,135,401572,1,8,2:3:0:0:
450,101,401653,6,0,L|462:172,1,70,6|0,2:0|3:0,2:0:0:0:
453,337,402943,5,2,2:0:0:0:
431,315,403024,1,0,2:0:0:0:
453,294,403105,1,0,2:0:0:0:
474,315,403185,1,0,2:0:0:0:
453,323,403266,1,2,2:0:0:0:
427,338,403347,1,0,2:0:0:0:
401,353,403427,1,0,2:0:0:0:
375,369,403508,1,0,2:0:0:0:
349,384,403588,1,8,2:3:0:0:
306,376,403669,1,8,2:3:0:0:
263,368,403750,6,0,L|279:251,1,112.500004291535,12|0,2:3|3:0,2:0:0:0:
282,242,404072,6,0,L|320:247,2,37.5000014305115,0|0|4,3:0|3:0|3:0,2:0:0:0:
252,106,404395,1,0,3:0:0:0:
173,214,404556,1,0,3:0:0:0:
163,242,404637,1,0,3:0:0:0:
78,112,404798,5,0,3:0:0:0:
68,84,404879,1,4,3:0:0:0:
23,273,405040,1,0,3:0:0:0:
173,214,405201,1,0,3:0:0:0:
183,186,405282,1,0,3:0:0:0:
320,247,405443,5,0,3:0:0:0:
330,275,405523,1,4,3:0:0:0:
473,384,405685,1,0,3:0:0:0:
385,196,405847,1,0,3:0:0:0:
267,372,406008,1,0,3:0:0:0:
203,204,406169,1,0,3:0:0:0:
220,189,406250,1,0,3:0:0:0:
234,206,406330,1,0,3:0:0:0:
217,220,406411,1,0,3:0:0:0:
219,205,406492,6,0,L|197:120,1,75,2|0,3:0|3:0,2:0:0:0:
254,97,406814,6,0,P|194:119|136:109,1,119.999996337891,0|0,3:0|3:0,2:0:0:0:
398,32,407137,2,0,P|458:10|516:20,1,119.999996337891,10|0,3:0|3:0,2:0:0:0:
317,7,407459,2,0,L|341:188,1,179.999994506836,8|0,3:0|3:0,2:0:0:0:
343,209,407782,1,10,3:0:0:0:
315,311,407943,6,0,P|404:298|439:220,1,179.999994506836,4|0,3:0|3:0,2:0:0:0:
239,228,408266,2,0,P|261:283|313:310,1,119.999996337891,0|10,3:0|3:0,2:0:0:0:
186,69,408588,1,0,3:0:0:0:
95,190,408750,1,0,3:0:0:0:
303,150,408911,1,0,3:0:0:0:
101,102,409072,1,10,2:3:0:0:
76,101,409153,1,0,2:0:0:0:
51,101,409234,1,0,2:0:0:0:
27,101,409314,1,0,2:0:0:0:
2,101,409395,6,0,L|18:235,1,119.999996337891,4|0,3:0|3:0,2:0:0:0:
174,384,409717,2,0,L|158:250,1,119.999996337891,10|0,3:0|3:0,2:0:0:0:
95,190,410040,2,0,P|171:168|250:240,1,179.999994506836,0|0,3:0|3:0,2:0:0:0:
256,250,410363,1,10,3:0:0:0:
401,372,410524,6,0,P|391:273|377:186,1,179.999994506836,0|0,3:0|3:0,2:0:0:0:
438,136,410847,2,0,P|444:67|454:7,1,119.999996337891,0|10,3:0|3:0,2:0:0:0:
261,0,411169,1,0,3:0:0:0:
414,65,411330,1,8,3:0:0:0:
238,107,411492,1,8,3:0:0:0:
378,193,411653,1,10,3:0:0:0:
378,193,411815,1,8,3:0:0:0:
82,31,411976,6,0,L|109:167,1,119.999996337891,4|0,3:0|3:0,2:0:0:0:
167,90,412298,2,0,P|84:67|23:128,1,179.999994506836,10|0,3:0|3:0,2:0:0:0:
128,233,412621,2,0,P|188:172|160:84,1,179.999994506836,2|0,3:0|3:0,2:0:0:0:
19,203,412943,2,0,P|69:235|127:232,1,119.999996337891,10|0,3:0|3:0,2:0:0:0:
263,152,413266,5,2,3:0:0:0:
154,360,413427,1,0,3:0:0:0:
154,360,413508,1,0,3:0:0:0:
154,360,413588,1,10,3:0:0:0:
263,152,413750,1,0,3:0:0:0:
324,367,413911,2,0,B|380:386|380:386|440:357,1,119.999996337891,0|0,3:0|3:0,2:0:0:0:
378,252,414234,2,0,L|385:70,1,179.999994506836,10|0,3:0|3:0,2:0:0:0:
385,41,414556,6,0,P|354:28|323:46,1,59.9999981689454,4|0,2:0|2:0,2:0:0:0:
268,0,414717,2,0,P|241:20|241:56,1,59.9999981689454,0|0,2:0|2:0,2:0:0:0:
154,71,414879,1,8,2:3:0:0:
154,71,414959,1,0,2:0:0:0:
154,71,415040,1,0,2:0:0:0:
127,343,415201,6,0,P|158:356|189:338,1,59.9999981689454,4|0,2:0|2:0,2:0:0:0:
244,384,415362,2,0,P|270:363|270:327,1,59.9999981689454,0|0,2:0|2:0,2:0:0:0:
358,313,415524,1,8,2:3:0:0:
358,313,415604,1,0,2:0:0:0:
358,313,415685,1,0,2:0:0:0:
512,148,415846,6,0,L|441:136,1,59.9999981689454,4|0,2:0|2:0,2:0:0:0:
427,227,416008,2,0,L|356:215,1,59.9999981689454,0|0,2:0|2:0,2:0:0:0:
305,146,416169,1,8,2:3:0:0:
277,134,416250,1,0,2:0:0:0:
247,131,416330,1,0,2:0:0:0:
219,143,416411,1,0,2:0:0:0:
206,170,416492,1,8,3:3:0:0:
195,216,416572,1,8,3:3:0:0:
155,243,416653,1,8,3:3:0:0:
106,242,416734,1,8,3:3:0:0:
72,208,416814,6,0,L|66:129,1,75,12|0,2:3|3:0,2:0:0:0:
0,111,417137,6,0,L|132:98,1,129.999994049073,0|0,3:0|3:0,2:0:0:0:
329,304,417459,2,0,L|197:317,1,129.999994049073,10|0,3:0|3:0,2:0:0:0:
0,237,417782,1,8,3:0:0:0:
0,237,417943,1,8,3:0:0:0:
97,384,418105,1,10,3:0:0:0:
188,225,418266,6,0,L|382:205,1,194.999991073609,4|0,3:0|3:0,2:0:0:0:
512,194,418588,2,0,L|381:206,1,129.999994049073,0|10,3:0|3:0,2:0:0:0:
128,183,418911,1,0,3:0:0:0:
339,330,419072,1,0,3:0:0:0:
339,330,419234,1,0,3:0:0:0:
366,94,419395,1,10,2:3:0:0:
366,80,419476,1,0,2:0:0:0:
366,67,419556,1,0,2:0:0:0:
366,53,419637,1,0,2:0:0:0:
366,38,419717,6,0,P|299:58|183:-10,1,194.999991073609,4|0,3:0|3:0,2:0:0:0:
160,117,420040,2,0,P|191:86|191:2,1,129.999994049073,10|0,3:0|3:0,2:0:0:0:
0,0,420363,1,0,3:0:0:0:
121,46,420524,1,0,3:0:0:0:
0,142,420685,1,10,3:0:0:0:
115,253,420846,2,0,L|129:388,1,129.999994049073,0|0,3:0|3:0,2:0:0:0:
323,318,421169,2,0,L|309:183,1,129.999994049073,0|10,3:0|3:0,2:0:0:0:
185,33,421492,1,0,3:0:0:0:
115,253,421653,1,8,3:0:0:0:
115,253,421814,1,8,3:0:0:0:
333,124,421976,1,10,3:0:0:0:
345,122,422056,1,0,3:0:0:0:
357,120,422137,1,8,3:0:0:0:
369,118,422217,1,0,3:0:0:0:
383,115,422298,6,0,P|332:66|215:104,1,194.999991073609,4|0,3:0|3:0,2:0:0:0:
360,228,422621,2,0,P|395:175|382:113,1,129.999994049073,10|0,3:0|3:0,2:0:0:0:
128,95,422943,1,2,3:0:0:0:
128,95,423105,1,0,3:0:0:0:
237,315,423266,2,0,L|375:301,1,129.999994049073,10|0,3:0|3:0,2:0:0:0:
512,194,423588,5,2,3:0:0:0:
356,384,423750,1,0,3:0:0:0:
356,384,423830,1,0,3:0:0:0:
356,384,423911,1,10,3:0:0:0:
287,162,424072,1,0,3:0:0:0:
460,331,424234,1,2,3:2:0:0:
382,113,424395,1,0,3:0:0:0:
237,305,424556,2,0,B|194:276|149:304|149:304|146:364|84:375,1,194.999991073609,10|0,3:0|3:0,2:0:0:0:
73,301,424879,5,0,2:0:0:0:
73,301,425040,1,0,2:0:0:0:
73,301,425201,2,0,P|71:202|49:96,1,194.999991073609,12|0,2:3|2:0,2:0:0:0:
91,32,425524,5,0,2:0:0:0:
91,32,425685,1,0,2:0:0:0:
239,80,425846,2,0,B|119:61|184:123|50:107,1,194.999991073609,12|0,2:3|2:0,2:0:0:0:
202,168,426169,5,0,2:0:0:0:
202,168,426330,1,0,2:0:0:0:
168,258,426492,2,0,B|287:276|222:214|356:230,1,194.999991073609,12|0,2:3|2:0,2:0:0:0:
311,319,426814,5,8,2:3:0:0:
311,319,426976,1,0,2:0:0:0:
26,199,427137,1,8,2:3:0:0:
28,193,427217,1,8,2:3:0:0:
30,187,427298,1,8,2:3:0:0:
32,181,427379,1,8,2:3:0:0:
34,172,427459,5,6,2:0:0:0:
16,154,427540,1,0,2:0:0:0:
3,132,427621,1,0,2:0:0:0:
0,107,427701,1,0,2:0:0:0:
9,83,427782,5,10,2:3:0:0:
23,103,427863,1,0,2:0:0:0:
45,114,427943,1,0,2:0:0:0:
69,118,428024,1,0,2:0:0:0:
93,111,428105,5,2,2:0:0:0:
79,90,428185,1,0,2:0:0:0:
75,65,428266,1,0,2:0:0:0:
85,42,428346,1,0,2:0:0:0:
107,26,428427,2,0,L|160:11,1,50,10|0,2:3|2:0,2:0:0:0:
203,80,428588,2,0,L|256:65,1,50,2|0,2:0|2:0,2:0:0:0:
364,40,428750,5,0,2:0:0:0:
364,40,428830,1,0,2:0:0:0:
364,40,428911,1,0,2:0:0:0:
384,54,428992,1,0,2:0:0:0:
399,73,429072,1,10,2:3:0:0:
407,96,429153,1,0,2:0:0:0:
406,119,429234,5,0,2:0:0:0:
450,138,429314,1,0,2:0:0:0:
463,182,429395,5,2,2:0:0:0:
445,212,429475,1,0,2:0:0:0:
404,222,429556,5,0,2:0:0:0:
425,258,429636,1,0,2:0:0:0:
424,299,429717,5,10,2:3:0:0:
399,295,429798,1,0,2:0:0:0:
374,291,429879,1,10,2:3:0:0:
349,287,429959,1,0,2:0:0:0:
324,283,430040,5,6,2:0:0:0:
332,317,430121,1,0,2:0:0:0:
319,349,430201,1,0,2:0:0:0:
294,374,430282,1,0,2:0:0:0:
260,384,430363,5,10,2:3:0:0:
258,349,430443,1,0,2:0:0:0:
248,315,430524,1,0,2:0:0:0:
222,291,430605,1,0,2:0:0:0:
188,283,430685,5,2,2:0:0:0:
192,317,430766,1,0,2:0:0:0:
177,348,430846,1,0,2:0:0:0:
150,370,430927,1,0,2:0:0:0:
115,374,431008,2,0,L|45:362,1,50,10|0,2:3|2:0,2:0:0:0:
86,288,431169,2,0,L|16:276,1,50,2|0,2:0|2:0,2:0:0:0:
143,171,431330,5,0,2:0:0:0:
143,171,431411,1,0,2:0:0:0:
143,171,431492,1,0,2:0:0:0:
176,161,431572,1,0,2:0:0:0:
201,137,431653,1,10,2:3:0:0:
215,105,431734,1,0,2:0:0:0:
206,71,431814,5,0,2:0:0:0:
225,41,431895,1,0,2:0:0:0:
272,21,431976,5,2,2:0:0:0:
303,35,432057,1,0,2:0:0:0:
323,74,432137,5,0,2:0:0:0:
351,54,432218,1,0,2:0:0:0:
379,17,432298,5,10,2:3:0:0:
386,51,432379,1,0,2:0:0:0:
393,84,432459,1,10,2:3:0:0:
401,118,432540,1,0,2:0:0:0:
409,152,432621,5,6,2:0:0:0:
360,141,432701,1,0,2:0:0:0:
310,149,432782,1,0,2:0:0:0:
271,181,432863,1,0,2:0:0:0:
240,219,432943,2,0,L|225:281,1,50,10|0,2:3|2:0,2:0:0:0:
128,257,433105,2,0,L|113:319,1,50,0|0,2:0|2:0,2:0:0:0:
59,184,433266,5,2,2:0:0:0:
70,135,433346,1,0,2:0:0:0:
96,92,433427,1,0,2:0:0:0:
139,66,433508,1,0,2:0:0:0:
188,67,433588,5,10,2:3:0:0:
175,115,433669,1,0,2:0:0:0:
194,161,433750,1,2,2:0:0:0:
237,185,433830,1,0,2:0:0:0:
286,179,433911,5,6,2:0:0:0:
301,226,433992,1,0,2:0:0:0:
315,273,434072,1,0,2:0:0:0:
330,320,434153,1,0,2:0:0:0:
345,367,434234,5,12,2:3:0:0:
350,327,434314,1,0,2:0:0:0:
355,287,434395,1,0,2:0:0:0:
360,247,434476,1,0,2:0:0:0:
366,207,434556,5,4,2:0:0:0:
377,234,434637,1,0,2:0:0:0:
388,261,434717,1,0,2:0:0:0:
400,288,434798,1,0,2:0:0:0:
412,315,434879,5,12,2:3:0:0:
414,305,434959,1,8,2:3:0:0:
416,295,435040,1,10,2:3:0:0:
419,285,435121,1,8,2:3:0:0:
420,274,435201,2,0,L|436:191,1,75,12|0,2:3|3:0,2:0:0:0:
509,133,435524,5,0,2:0:0:0:
512,102,435605,1,0,2:0:0:0:
485,90,435685,1,0,2:0:0:0:
464,113,435766,1,0,2:0:0:0:
480,138,435846,1,4,2:0:0:0:
94,88,436169,5,8,2:3:0:0:
88,30,436250,1,8,2:3:0:0:
138,7,436330,1,8,2:3:0:0:
177,50,436411,1,8,2:3:0:0:
148,97,436491,1,12,2:3:0:0:
219,359,436814,5,8,2:3:0:0:
312,119,436976,5,0,2:0:0:0:
312,96,437056,1,0,2:0:0:0:
330,108,437137,1,0,2:0:0:0:
330,130,437217,1,0,2:0:0:0:
294,108,437297,1,0,2:0:0:0:
330,85,437378,1,0,2:0:0:0:
318,111,437459,1,8,2:3:0:0:
393,353,437782,5,4,2:0:0:0:
139,281,438024,1,0,2:0:0:0:
128,280,438105,1,8,2:3:0:0:
298,263,438266,5,0,2:0:0:0:
139,281,438508,1,0,2:0:0:0:
128,280,438589,1,0,2:0:0:0:
118,279,438669,1,8,2:3:0:0:
215,126,438830,5,0,2:0:0:0:
70,166,438992,1,0,2:0:0:0:
215,126,439153,1,0,2:0:0:0:
70,166,439314,5,0,2:0:0:0:
58,170,439395,1,8,2:3:0:0:
181,41,439556,1,0,2:0:0:0:
285,176,439717,1,0,2:0:0:0:
386,40,439879,5,0,2:0:0:0:
410,71,439959,1,0,2:0:0:0:
415,105,440040,1,0,2:0:0:0:
400,131,440121,1,0,2:0:0:0:
393,154,440201,1,0,2:0:0:0:
392,174,440282,1,0,2:0:0:0:
397,188,440363,1,8,2:3:0:0:
512,263,440524,5,2,2:0:0:0:
496,261,440605,1,0,2:0:0:0:
481,259,440685,1,4,2:0:0:0:
459,331,440846,5,2,2:0:0:0:
435,328,440927,1,0,2:0:0:0:
412,324,441007,1,4,2:0:0:0:
368,384,441169,5,2,2:0:0:0:
332,380,441250,1,0,2:0:0:0:
296,373,441330,1,4,2:0:0:0:
160,348,441492,5,8,2:3:0:0:
196,226,441655,1,8,3:0:0:0:
72,293,441811,1,8,3:0:0:0:
67,264,441889,1,0,3:0:0:0:
63,235,441967,1,0,3:0:0:0:
58,205,442047,1,0,3:0:0:0:
54,175,442128,1,0,3:0:0:0:
50,145,442208,1,0,3:0:0:0:
44,115,442289,5,0,2:0:0:0:
66,81,442397,1,0,2:0:0:0:
105,75,442504,1,0,2:0:0:0:
175,112,442612,5,0,2:0:0:0:
214,106,442723,1,0,2:0:0:0:
236,72,442834,1,0,2:0:0:0:
311,19,442945,5,12,3:0:0:0:
316,54,443078,5,8,3:0:0:0:
324,96,443211,5,8,3:0:0:0:
332,145,443345,5,8,3:0:0:0:
343,210,443495,5,8,3:0:0:0:
356,280,443652,5,8,3:0:0:0:
369,358,443798,5,8,3:0:0:0:
198,376,444206,5,8,3:0:0:0:
117,246,444806,5,8,3:0:0:0:
82,172,445606,6,0,B|117:153|168:168|158:186|208:201|239:180|239:180|225:152|234:108|234:108|268:115|295:97,1,300,4|0,2:0|2:0,2:0:0:0:
294,97,449433,1,8,2:3:0:0:
223,239,453013,5,8,2:3:0:0:
223,239,453260,1,8,2:3:0:0:
302,326,453383,2,0,L|150:313,1,150,12|0,2:3|2:0,2:0:0:0:
152,313,455359,1,8,2:3:0:0:
27,271,455729,5,2,2:0:0:0:
3,104,456099,1,2,2:0:0:0:
136,1,456470,1,2,2:0:0:0:
300,32,456840,1,2,2:0:0:0:
340,198,457210,5,10,2:3:0:0:
292,262,457334,2,0,P|261:227|289:135,1,150,12|0,2:3|2:0,2:0:0:0:
287,136,459309,1,8,2:3:0:0:
118,70,460667,5,8,2:3:0:0:
52,261,460914,1,0,3:0:0:0:
48,272,460976,1,0,3:0:0:0:
44,283,461038,2,0,L|33:324,2,37.5000014305115,0|0|0,3:0|3:0|3:0,0:0:0:0:
134,319,461285,6,0,B|210:332|210:332|251:313|251:313|329:327,1,200,6|0,2:0|2:0,2:0:0:0:
458,215,461655,2,0,B|416:221|416:221|399:212|399:212|356:222,1,100,10|0,2:3|3:0,2:0:0:0:
195,240,461902,5,2,2:0:0:0:
188,250,462025,1,2,2:0:0:0:
316,120,462149,2,0,B|369:68|369:68|345:75,1,100,10|0,2:3|3:0,2:0:0:0:
195,240,462396,5,2,2:0:0:0:
188,250,462519,1,2,2:0:0:0:
224,74,462643,2,0,B|244:2|244:2|227:21,1,100,10|0,2:3|3:0,2:0:0:0:
195,240,462889,1,2,2:0:0:0:
111,117,463013,1,2,2:0:0:0:
202,247,463136,1,10,2:3:0:0:
104,106,463260,6,0,B|186:96|186:96|215:113|215:113|303:102,1,200,6|0,2:0|2:0,2:0:0:0:
39,155,463630,2,0,B|14:202|14:202|27:254,1,100,10|0,2:3|3:0,2:0:0:0:
86,380,463877,5,2,2:0:0:0:
204,320,464001,1,2,2:0:0:0:
75,384,464124,2,0,B|52:313|52:313|76:328,1,100,10|0,2:3|3:0,2:0:0:0:
328,272,464371,5,2,2:0:0:0:
209,214,464495,1,2,2:0:0:0:
338,278,464618,2,0,B|360:207|360:207|336:222,1,100,10|0,2:3|3:0,2:0:0:0:
143,262,464865,1,2,2:0:0:0:
308,146,464988,1,2,2:0:0:0:
134,267,465112,1,10,2:3:0:0:
225,103,465235,6,0,L|423:133,1,200,6|0,2:0|2:0,2:0:0:0:
486,64,465606,2,0,B|528:86|528:86|531:120|505:143,1,100,10|0,2:3|3:0,2:0:0:0:
321,119,465852,5,2,2:0:0:0:
316,107,465976,1,2,2:0:0:0:
394,251,466099,2,0,B|353:276|353:276|323:261|316:227,1,100,10|0,2:3|3:0,2:0:0:0:
321,119,466346,5,2,2:0:0:0:
316,107,466470,1,2,2:0:0:0:
200,89,466593,2,0,B|198:41|198:41|225:22|258:33,1,100,10|0,2:3|3:0,2:0:0:0:
443,169,466840,1,2,2:0:0:0:
323,30,466964,1,2,2:0:0:0:
453,180,467087,1,10,2:3:0:0:
313,19,467210,6,0,L|100:48,1,200,6|0,2:0|2:0,2:0:0:0:
23,17,467581,2,0,B|4:64|4:64|34:103,1,100,10|0,2:3|3:0,2:0:0:0:
23,205,467828,5,2,2:0:0:0:
34,211,467951,1,2,2:0:0:0:
105,249,468075,2,0,B|155:241|155:241|174:195,1,100,10|0,2:3|3:0,2:0:0:0:
281,160,468322,5,2,2:0:0:0:
280,146,468445,1,2,2:0:0:0:
259,66,468568,2,0,B|227:26|227:26|178:33,1,100,10|0,2:3|3:0,2:0:0:0:
34,103,468815,1,10,2:3:0:0:
173,195,468939,1,10,2:3:0:0:
17,252,469062,1,10,2:3:0:0:
155,316,469186,6,0,B|237:304|237:304|272:322|272:322|354:309,1,200,6|0,2:0|2:0,2:0:0:0:
416,259,469556,2,0,B|457:265|457:265|474:256|474:256|517:266,1,100,10|0,2:3|3:0,2:0:0:0:
314,192,469803,5,2,2:0:0:0:
305,202,469926,1,2,2:0:0:0:
406,104,470050,2,0,B|439:79|439:79|445:60|445:60|483:37,1,100,10|0,2:3|3:0,2:0:0:0:
314,192,470297,5,2,2:0:0:0:
305,202,470420,1,2,2:0:0:0:
217,96,470544,2,0,B|223:55|223:55|214:37|214:37|224:-5,1,100,10|0,2:3|3:0,2:0:0:0:
314,192,470791,1,2,2:0:0:0:
128,192,470914,1,2,2:0:0:0:
328,195,471038,1,10,2:3:0:0:
113,189,471161,6,0,B|91:109|91:109|104:72|104:72|73:-10,1,200,6|0,2:0|2:0,2:0:0:0:
41,263,471531,2,0,P|91:289|140:282,1,100,10|0,2:3|3:0,2:0:0:0:
205,166,471778,5,2,2:0:0:0:
196,157,471902,1,2,2:0:0:0:
172,365,472025,2,0,P|219:334|237:288,1,100,10|0,2:3|3:0,2:0:0:0:
205,166,472272,5,2,2:0:0:0:
196,157,472396,1,2,2:0:0:0:
334,313,472519,2,0,P|331:256|300:217,1,100,10|0,2:3|3:0,2:0:0:0:
205,166,472766,1,2,2:0:0:0:
403,137,472889,1,2,2:0:0:0:
193,169,473013,1,10,2:3:0:0:
429,244,473136,6,0,L|438:32,1,200,6|0,2:0|2:0,2:0:0:0:
302,0,473507,2,0,B|267:3|253:34|253:34|270:67,1,100,10|0,2:3|3:0,2:0:0:0:
296,171,473754,5,2,2:0:0:0:
123,159,473877,1,2,2:0:0:0:
311,174,474001,2,0,B|345:177|359:208|359:208|342:241,1,100,10|0,2:3|3:0,2:0:0:0:
53,46,474247,5,2,2:0:0:0:
226,32,474370,1,2,2:0:0:0:
38,47,474494,2,0,B|3:50|-10:81|-10:81|6:114,1,100,10|0,2:3|3:0,2:0:0:0:
95,273,474741,1,2,2:0:0:0:
215,137,474865,1,2,2:0:0:0:
15,191,474988,1,10,2:3:0:0:
230,300,475112,6,0,B|400:314|400:314|362:290,1,200,6|0,2:0|2:0,2:0:0:0:
497,262,475482,2,0,L|510:368,1,100,10|0,2:3|3:0,2:0:0:0:
421,120,475729,5,2,2:0:0:0:
423,105,475852,1,2,2:0:0:0:
414,214,475976,2,0,L|401:320,1,100,10|0,2:3|3:0,2:0:0:0:
445,29,476223,5,2,2:0:0:0:
442,13,476346,1,2,2:0:0:0:
484,162,476470,2,0,L|497:268,1,100,10|0,2:3|3:0,2:0:0:0:
433,384,476717,5,10,2:3:0:0:
320,286,476840,1,10,2:3:0:0:
170,307,476964,1,10,2:3:0:0:
68,197,477087,1,12,2:3:0:0:
32,75,478198,5,8,2:3:0:0:
41,76,478260,1,0,2:3:0:0:
50,77,478322,1,0,2:3:0:0:
59,78,478383,1,0,2:3:0:0:
97,83,478445,1,8,2:3:0:0:
181,11,478568,6,0,B|208:62|208:62|170:210,1,200,4|0,2:0|2:0,2:0:0:0:
103,307,478938,2,0,B|132:341|132:341|187:326,1,100,10|0,2:3|2:0,2:0:0:0:
282,210,479185,1,2,2:0:0:0:
282,210,479309,1,0,2:0:0:0:
267,345,479432,2,0,B|238:311|238:311|183:326,1,100,10|0,2:3|2:0,2:0:0:0:
375,384,479679,6,0,B|373:340|373:340|365:328|365:328|364:279,1,100,2|0,2:0|2:0,2:0:0:0:
438,121,479926,1,10,2:3:0:0:
480,283,480050,2,0,B|482:239|482:239|490:227|490:227|491:178,1,100,2|0,2:0|2:0,2:0:0:0:
348,23,480296,2,0,B|350:67|350:67|358:79|358:79|359:128,1,100,2|10,2:0|2:3,2:0:0:0:
408,192,480543,6,0,B|355:213|355:213|283:170|283:170|224:191,1,200,6|0,2:0|2:0,2:0:0:0:
109,254,480914,2,0,B|88:223|81:189|81:189|98:160,1,100,10|0,2:3|2:0,2:0:0:0:
222,73,481161,1,2,2:0:0:0:
222,73,481284,1,0,2:0:0:0:
20,36,481408,2,0,B|-1:67|-8:101|-8:101|9:130,1,100,10|0,2:3|2:0,2:0:0:0:
109,254,481654,6,0,B|160:262|160:262|160:265|160:265|212:274,1,100,2|0,2:0|2:0,2:0:0:0:
260,350,481901,1,10,2:3:0:0:
293,203,482025,6,0,B|344:211|344:211|344:214|344:214|396:223,1,100,2|0,2:0|2:0,2:0:0:0:
450,299,482272,1,10,2:3:0:0:
450,299,482395,1,10,2:3:0:0:
416,82,482519,6,0,L|216:120,1,200,6|0,3:0|3:0,2:0:0:0:
192,21,482889,2,0,P|203:78|92:158,1,200,10|0,3:0|3:0,2:0:0:0:
104,159,483259,1,0,3:0:0:0:
104,159,483383,1,10,3:0:0:0:
34,221,483506,6,0,P|3:262|4:326,1,100,2|0,3:2|3:0,2:0:0:0:
93,294,483753,2,0,P|113:341|168:372,1,100,2|10,3:2|3:0,2:0:0:0:
186,277,484000,2,0,P|237:283|291:250,1,100,2|0,3:2|3:0,2:0:0:0:
362,159,484247,1,0,3:0:0:0:
219,204,484371,1,10,3:0:0:0:
407,292,484494,1,4,3:0:0:0:
485,192,484617,5,2,3:2:0:0:
353,236,484741,1,0,3:0:0:0:
459,197,484864,2,0,L|437:88,1,100,10|0,3:0|2:0,2:0:0:0:
237,57,485111,5,6,3:2:0:0:
390,14,485235,1,0,3:0:0:0:
263,52,485358,2,0,L|285:161,1,100,10|0,3:0|2:0,2:0:0:0:
312,243,485605,6,0,P|260:243|218:210,1,100,6|0,3:2|3:0,2:0:0:0:
155,139,485852,2,0,P|103:138|61:171,1,100,10|0,3:0|2:0,2:0:0:0:
10,303,486099,1,8,3:0:0:0:
142,240,486222,1,8,3:0:0:0:
0,315,486346,1,10,3:0:0:0:
65,166,486469,6,0,B|0:109|37:32|37:32|78:53|121:17,1,239.999992675781,6|0,2:0|2:0,2:0:0:0:
237,93,486840,2,0,B|262:112|267:160|267:160|237:193,1,119.999996337891,10|0,2:3|2:0,2:0:0:0:
181,337,487087,1,0,2:0:0:0:
317,232,487210,1,0,2:0:0:0:
168,347,487333,2,0,B|187:321|235:316|235:316|268:346,1,119.999996337891,10|0,2:3|2:0,2:0:0:0:
382,384,487580,6,0,B|385:324|385:324|389:326|389:326|393:260,1,119.999996337891,2|0,2:0|2:0,2:0:0:0:
498,228,487827,1,10,2:3:0:0:
392,269,487951,6,0,B|395:209|395:209|399:211|399:211|403:145,1,119.999996337891,2|8,2:0|2:3,2:0:0:0:
495,96,488198,1,10,2:3:0:0:
402,154,488321,1,10,2:3:0:0:
424,11,488445,6,0,B|367:-4|367:-4|269:63|269:63|208:50,1,239.999992675781,6|0,2:0|2:0,2:0:0:0:
208,50,488815,2,0,B|125:31|125:31|151:64,1,119.999996337891,10|0,2:3|2:0,2:0:0:0:
77,169,489062,1,2,2:0:0:0:
207,178,489185,1,0,2:0:0:0:
61,176,489309,2,0,B|-22:195|-22:195|4:162,1,119.999996337891,10|0,2:3|2:0,2:0:0:0:
58,0,489556,5,2,2:0:0:0:
142,130,489679,1,0,2:0:0:0:
31,101,489803,1,10,2:3:0:0:
153,235,489926,6,0,B|188:260|231:259|231:259|266:229,1,119.999996337891,2|8,2:0|2:3,2:0:0:0:
365,235,490173,2,0,B|330:210|287:211|287:211|252:241,1,119.999996337891,8|10,2:3|2:3,2:0:0:0:
239,384,490420,6,0,L|33:371,1,200,6|0,2:0|3:0,2:0:0:0:
39,371,490790,1,10,3:0:0:0:
337,99,491037,5,0,3:0:0:0:
397,45,491161,1,0,3:0:0:0:
419,121,491284,1,10,3:0:0:0:
440,286,491531,5,0,3:0:0:0:
380,232,491655,1,0,3:0:0:0:
358,308,491778,2,0,P|283:297|188:289,1,150,10|0,3:0|2:0,2:0:0:0:
181,282,492025,2,0,P|211:237|208:189,1,100,8|8,3:0|3:0,2:0:0:0:
155,139,492272,1,10,3:0:0:0:
106,217,492395,6,0,P|51:185|105:77,1,200,6|0,2:0|3:0,2:0:0:0:
95,79,492766,1,10,3:0:0:0:
16,326,493012,5,0,3:0:0:0:
76,380,493136,1,0,3:0:0:0:
98,304,493259,1,10,3:0:0:0:
361,213,493506,5,2,3:2:0:0:
301,267,493630,1,0,3:0:0:0:
279,191,493753,1,10,3:0:0:0:
50,71,494000,5,10,3:0:0:0:
110,125,494124,1,8,3:0:0:0:
132,49,494247,1,10,3:0:0:0:
97,81,494371,6,0,B|281:104|281:104|333:82,1,239.999992675781,6|0,2:0|2:0,2:0:0:0:
331,82,494741,2,0,B|370:65|370:65|409:64|409:64|442:48,1,119.999996337891,10|0,2:3|2:0,2:0:0:0:
512,0,494988,1,2,2:0:0:0:
503,193,495111,1,0,2:0:0:0:
389,139,495235,2,0,B|406:178|406:178|407:217|407:217|423:250,1,119.999996337891,10|0,2:3|2:0,2:0:0:0:
423,251,495482,6,0,B|382:233|382:233|326:294,1,119.999996337891,2|0,2:0|2:0,2:0:0:0:
257,382,495729,1,10,2:3:0:0:
138,202,495852,2,0,B|179:184|179:184|235:245,1,119.999996337891,2|8,2:0|2:3,2:0:0:0:
53,328,496099,2,0,B|94:346|94:346|150:285,1,119.999996337891,10|10,2:3|2:3,2:0:0:0:
239,118,496346,6,0,B|176:97|176:97|74:145|74:145|11:128,1,239.999992675781,6|0,2:0|2:0,2:0:0:0:
15,129,496716,2,0,B|21:66|21:66|25:69|25:69|32:11,1,119.999996337891,10|0,2:3|2:0,2:0:0:0:
179,185,496963,1,2,2:0:0:0:
304,13,497087,1,0,2:0:0:0:
304,13,497210,2,0,B|310:76|310:76|314:73|314:73|321:131,1,119.999996337891,10|0,2:3|2:0,2:0:0:0:
253,225,497457,6,0,B|276:265|313:275|313:275|361:258,1,119.999996337891,2|0,2:0|2:0,2:0:0:0:
444,314,497704,1,10,2:3:0:0:
444,314,497827,2,0,B|479:284|482:246|482:246|457:201,1,119.999996337891,2|8,2:0|2:3,2:0:0:0:
388,74,498074,1,8,2:3:0:0:
512,114,498198,1,10,2:3:0:0:
364,187,498321,6,0,L|328:394,1,200,6|0,3:2|3:0,2:0:0:0:
329,384,498692,1,10,3:0:0:0:
99,319,498938,5,0,3:0:0:0:
27,383,499062,1,0,3:0:0:0:
0,292,499185,1,10,3:0:0:0:
196,174,499432,5,0,3:0:0:0:
268,238,499556,1,0,3:0:0:0:
295,147,499679,1,10,3:0:0:0:
32,62,499926,6,0,P|83:82|145:74,1,100,8|8,3:0|3:0,2:0:0:0:
235,98,500173,1,10,3:0:0:0:
203,21,500296,2,0,B|253:2|302:29|280:43|335:73|394:41,1,200,6|0,3:2|3:0,2:0:0:0:
391,42,500667,1,10,3:0:0:0:
461,289,500914,5,0,3:0:0:0:
472,384,501038,1,0,3:0:0:0:
382,354,501161,1,10,3:0:0:0:
141,333,501408,6,0,P|82:342|29:319,1,100,2|0,3:2|3:0,2:0:0:0:
106,236,501654,1,10,3:0:0:0:
45,330,501778,2,0,P|7:283|1:226,1,100,2|8,3:2|3:0,2:0:0:0:
106,236,502025,1,8,3:0:0:0:
0,129,502148,1,10,3:0:0:0:
118,236,502272,6,0,B|311:223|311:223|360:191,1,239.999992675781,6|0,2:0|2:0,2:0:0:0:
262,14,502642,2,0,B|243:73|243:73|273:129,1,119.999996337891,10|0,2:3|2:0,2:0:0:0:
426,124,502889,1,0,2:0:0:0:
335,65,503012,1,0,2:0:0:0:
440,146,503136,2,0,B|459:205|459:205|429:261,1,119.999996337891,10|0,2:3|2:0,2:0:0:0:
448,367,503383,6,0,B|412:383|362:365|362:365|349:327,1,119.999996337891,2|0,2:0|2:0,2:0:0:0:
266,255,503630,1,10,2:3:0:0:
169,287,503753,6,0,B|205:303|255:285|255:285|268:247,1,119.999996337891,2|8,2:0|2:3,2:0:0:0:
97,145,504000,2,0,B|61:129|11:147|11:147|-2:185,1,119.999996337891,10|10,2:3|2:3,2:0:0:0:
57,277,504247,6,0,L|254:125,1,239.999992675781,6|0,2:0|2:0,2:0:0:0:
247,130,504617,2,0,B|310:78|310:78|263:85,1,119.999996337891,10|0,2:3|2:0,2:0:0:0:
97,145,504864,1,10,2:3:0:0:
324,191,504988,1,8,2:3:0:0:
185,37,505111,1,10,2:3:0:0:
408,79,505235,6,0,B|390:148|390:148|409:182|409:182|383:267|383:267|397:306,1,239.999992675781,6|0,2:0|2:0,2:0:0:0:
286,384,505605,5,0,2:0:0:0:
302,276,505729,1,0,2:0:0:0:
178,305,505852,5,8,2:3:0:0:
143,208,505975,1,8,2:3:0:0:
18,269,506099,2,0,L|-2:187,1,80,8|8,2:3|2:3,2:0:0:0:
0,51,506346,5,6,3:2:0:0:
51,126,506469,2,0,L|167:109,1,100,0|0,3:0|3:0,2:0:0:0:
321,149,506716,5,0,3:0:0:0:
269,225,506839,2,0,L|153:208,1,100,6|0,3:2|2:0,2:0:0:0:
0,280,507087,5,0,3:0:0:0:
60,353,507210,2,0,B|135:346|135:346|171:333|171:333|257:325,1,200,4|0,3:2|3:0,2:0:0:0:
360,363,507580,2,0,B|398:369|398:369|414:378|414:378|456:384,1,100,0|0,3:0|3:0,2:0:0:0:
430,159,507827,5,6,3:0:0:0:
348,266,507951,1,0,3:0:0:0:
451,155,508074,1,0,3:0:0:0:
320,103,508198,6,0,B|254:81|210:125|210:125|232:164|202:210,1,200,6|0,3:2|3:0,2:0:0:0:
59,238,508568,2,0,P|81:182|124:170,1,100,0|0,3:0|3:0,2:0:0:0:
206,202,508815,2,0,L|220:352,1,150,6|0,3:2|2:0,2:0:0:0:
196,360,509062,2,0,P|143:378|99:354,1,100,0|0,3:0|2:0,2:0:0:0:
325,278,509309,2,0,P|378:296|422:272,1,100,6|0,3:0|3:0,2:0:0:0:
450,126,509556,5,0,3:0:0:0:
450,126,509638,1,0,3:0:0:0:
450,126,509720,1,0,3:0:0:0:
416,92,509803,1,2,3:2:0:0:
371,78,509885,1,2,3:0:0:0:
325,89,509967,1,2,3:0:0:0:
285,115,510050,1,8,3:0:0:0:
238,117,510132,1,8,3:0:0:0:
199,91,510214,1,8,3:0:0:0:
197,78,510296,6,0,B|45:76|45:76|17:52,1,179.999994506836,6|0,3:2|2:0,2:0:0:0:
23,57,510543,2,0,B|51:87|51:87|54:131|28:172,1,119.999996337891,10|0,3:0|3:0,2:0:0:0:
0,291,510790,5,2,3:2:0:0:
0,291,510914,1,0,3:0:0:0:
115,207,511037,2,0,B|152:190|152:190|195:203|224:241,1,119.999996337891,10|0,3:0|3:0,2:0:0:0:
327,309,511284,5,2,3:2:0:0:
327,309,511408,1,0,3:0:0:0:
191,358,511531,2,0,B|153:341|153:341|110:354|81:392,1,119.999996337891,10|0,3:0|3:0,2:0:0:0:
327,309,511778,2,0,L|335:179,1,119.999996337891,10|8,3:0|3:0,2:0:0:0:
343,22,512025,1,2,3:0:0:0:
382,95,512148,6,0,B|322:125|274:78|274:78|217:105|242:183,1,239.999992675781,6|0,3:2|3:0,2:0:0:0:
420,324,512519,2,0,B|451:303|450:255|450:255|416:231,1,119.999996337891,10|0,3:0|3:0,2:0:0:0:
482,42,512766,2,0,B|513:62|512:110|512:110|478:134,1,119.999996337891,0|0,3:0|3:0,2:0:0:0:
324,179,513012,1,10,3:0:0:0:
342,21,513136,6,0,B|157:15|157:15|112:46,1,239.999992675781,6|0,3:2|3:0,2:0:0:0:
111,46,513506,2,0,B|76:72|74:119|74:119|101:158,1,119.999996337891,10|0,3:0|3:0,2:0:0:0:
82,250,513753,1,0,3:0:0:0:
173,105,513877,1,0,3:0:0:0:
26,314,514000,2,0,B|-8:287|-11:241|-11:241|16:202,1,119.999996337891,10|0,3:0|3:0,2:0:0:0:
235,215,514247,5,8,2:3:0:0:
265,226,514329,1,0,2:0:0:0:
290,249,514411,1,0,2:0:0:0:
305,278,514493,1,0,2:0:0:0:
308,311,514576,1,0,2:0:0:0:
300,343,514658,1,0,2:0:0:0:
280,370,514740,1,4,2:0:0:0:
497,164,514988,5,8,2:3:0:0:
467,153,515070,1,0,2:0:0:0:
442,130,515152,1,0,2:0:0:0:
427,101,515234,1,0,2:0:0:0:
424,68,515317,1,0,2:0:0:0:
432,36,515399,1,0,2:0:0:0:
452,9,515481,1,4,2:0:0:0:
163,297,515729,5,0,2:0:0:0:
192,325,515811,1,0,2:0:0:0:
163,352,515893,1,0,2:0:0:0:
139,325,515975,1,6,2:0:0:0:
115,115,516222,5,8,2:3:0:0:
104,82,516305,1,0,2:0:0:0:
107,49,516387,1,0,2:0:0:0:
127,23,516469,1,0,2:0:0:0:
137,54,516552,1,0,2:0:0:0:
163,74,516634,1,0,2:0:0:0:
196,77,516716,1,4,2:0:0:0:
446,350,516963,5,8,2:3:0:0:
460,305,517046,1,0,2:0:0:0:
456,260,517128,1,0,2:0:0:0:
429,224,517210,1,0,2:0:0:0:
416,266,517293,1,0,2:0:0:0:
380,294,517375,1,0,2:0:0:0:
335,298,517457,1,4,2:0:0:0:
375,42,517704,5,0,2:0:0:0:
418,84,517786,1,0,2:0:0:0:
375,124,517868,1,0,2:0:0:0:
339,84,517950,1,6,2:0:0:0:
54,358,518198,6,0,B|45:208|45:208|62:243,1,179.999994506836,6|0,3:2|2:0,2:0:0:0:
57,234,518445,2,0,B|80:291|80:291|120:238,1,119.999996337891,10|0,3:0|3:0,2:0:0:0:
193,135,518692,5,2,3:2:0:0:
193,135,518815,1,0,3:0:0:0:
309,206,518938,2,0,B|286:263|286:263|246:210,1,119.999996337891,10|0,3:0|3:0,2:0:0:0:
332,69,519185,5,2,3:2:0:0:
332,69,519308,1,0,3:0:0:0:
448,140,519432,2,0,B|425:197|425:197|385:144,1,119.999996337891,10|0,3:0|3:0,2:0:0:0:
220,0,519679,2,0,B|80:5|80:5|112:36,1,179.999994506836,10|0,3:0|2:0,2:0:0:0:
167,68,519926,1,10,3:0:0:0:
483,76,520050,6,0,B|457:275|457:275|491:241,1,239.999992675781,6|0,3:2|3:0,2:0:0:0:
384,344,520420,2,0,B|286:333|286:333|301:357,1,119.999996337891,10|0,3:0|3:0,2:0:0:0:
149,380,520667,1,0,3:0:0:0:
244,261,520790,1,0,3:0:0:0:
137,383,520914,2,0,L|111:182,1,179.999994506836,10|0,3:0|2:0,2:0:0:0:
110,176,521161,6,0,B|34:176|74:202|-10:199,1,119.999996337891,0|0,3:0|3:0,2:0:0:0:
215,129,521408,2,0,B|290:129|250:155|335:152,1,119.999996337891,10|0,3:0|3:0,2:0:0:0:
167,68,521654,1,2,3:2:0:0:
186,210,521778,1,0,3:0:0:0:
326,67,521901,2,0,B|348:33|383:24|383:24|429:44,1,119.999996337891,10|0,3:0|3:0,2:0:0:0:
512,216,522148,5,10,2:3:0:0:
498,246,522231,1,0,2:0:0:0:
471,266,522313,1,0,2:0:0:0:
437,267,522395,1,10,2:3:0:0:
441,226,522478,1,0,2:0:0:0:
421,191,522560,1,0,2:0:0:0:
385,172,522642,5,6,2:0:0:0:
370,178,522724,1,0,2:0:0:0:
355,185,522807,1,0,2:0:0:0:
337,211,522889,5,6,2:0:0:0:
305,205,522971,1,0,2:0:0:0:
273,199,523054,1,0,2:0:0:0:
265,168,523136,5,12,2:3:0:0:
219,181,523218,1,0,2:0:0:0:
173,196,523301,1,0,2:0:0:0:
127,212,523383,1,10,2:3:0:0:
99,251,523465,5,0,2:0:0:0:
66,255,523547,1,0,2:0:0:0:
37,239,523630,1,10,2:3:0:0:
25,209,523712,1,0,2:0:0:0:
36,177,523794,1,0,2:0:0:0:
57,152,523877,1,10,2:3:0:0:
90,147,523959,1,0,2:0:0:0:
118,165,524041,5,0,2:0:0:0:
171,148,524124,1,10,2:3:0:0:
223,130,524206,1,0,2:0:0:0:
276,115,524288,1,0,2:0:0:0:
330,98,524371,5,10,2:3:0:0:
322,137,524453,1,0,2:0:0:0:
314,176,524535,1,0,2:0:0:0:
313,208,524617,5,10,2:3:0:0:
291,232,524699,1,0,2:0:0:0:
269,254,524781,1,0,2:0:0:0:
237,255,524864,5,10,2:3:0:0:
221,259,524946,1,0,2:0:0:0:
205,263,525028,1,0,2:0:0:0:
189,268,525111,5,12,3:0:0:0:
162,317,525194,1,8,3:0:0:0:
106,324,525276,1,8,3:0:0:0:
73,279,525358,5,2,3:2:0:0:
75,265,525440,1,0,3:0:0:0:
77,251,525523,1,0,3:0:0:0:
65,236,525605,1,2,3:2:0:0:
67,222,525687,1,0,3:0:0:0:
69,208,525770,1,0,3:0:0:0:
85,195,525852,1,10,3:0:0:0:
87,181,525934,1,8,3:0:0:0:
89,167,526017,1,8,3:0:0:0:
92,153,526099,6,0,P|139:94|206:132,1,150,4|0,3:2|2:0,2:0:0:0:
210,133,526346,2,0,B|242:172|242:172|190:154,1,100,10|0,3:0|2:0,2:0:0:0:
78,38,526593,1,2,3:2:0:0:
78,38,526716,1,0,3:0:0:0:
152,212,526840,1,10,3:0:0:0:
309,209,526963,6,0,B|332:173|305:134|305:134|343:72|408:108,1,200,4|0,3:0|3:0,2:0:0:0:
377,259,527333,2,0,P|336:287|274:285,1,100,10|0,3:0|2:0,2:0:0:0:
90,258,527580,1,2,3:2:0:0:
90,258,527704,1,0,3:0:0:0:
206,358,527827,1,10,3:0:0:0:
107,125,527951,6,0,B|130:103|130:103|167:92|190:131,1,100,6|0,3:2|3:0,2:0:0:0:
211,268,528198,1,8,3:0:0:0:
400,65,528321,2,0,B|365:33|365:33|313:18|278:74,1,150,10|0,3:0|2:0,2:0:0:0:
265,96,528568,1,0,2:0:0:0:
265,96,528692,1,0,2:0:0:0:
352,168,528815,1,10,2:3:0:0:
427,17,528938,6,0,B|433:91|433:91|451:75,1,100,0|0,2:0|2:0,2:0:0:0:
489,224,529185,1,0,2:0:0:0:
352,168,529309,6,0,B|345:242|345:242|328:226,1,100,10|0,2:3|2:0,2:0:0:0:
296,365,529556,1,8,2:3:0:0:
224,186,529679,1,8,2:3:0:0:
152,309,529803,1,10,2:3:0:0:
73,95,529926,6,0,B|143:44|203:87|203:87|179:140|225:187,1,250,6|0,3:2|3:0,2:0:0:0:
266,288,530296,2,0,B|326:293|355:259|355:259|318:247,1,125,10|0,3:0|2:0,2:0:0:0:
296,115,530543,2,0,B|371:106|371:106|406:122|406:122|484:109,1,187.5,2|0,3:2|2:0,2:0:0:0:
415,48,530790,2,0,B|449:40|449:40|363:15,1,125,10|0,3:0|3:0,2:0:0:0:
146,35,531037,6,0,B|154:110|154:110|139:145|139:145|152:223,1,187.5,2|0,3:2|2:0,2:0:0:0:
94,263,531284,2,0,B|88:313|88:313|98:336|98:336|89:388,1,125,10|0,3:0|2:0,2:0:0:0:
89,384,531531,2,0,B|123:354|123:354|205:370,1,125,6|0,3:2|2:0,2:0:0:0:
355,311,531778,1,2,3:0:0:0:
291,384,531901,6,0,B|266:312|266:312|305:211|305:211|279:150,1,250,6|0,3:2|3:0,2:0:0:0:
279,150,532272,2,0,B|265:114|265:114|291:71|339:78,1,125,10|0,3:0|2:0,2:0:0:0:
458,130,532519,1,0,2:0:0:0:
454,154,532642,1,0,2:0:0:0:
450,178,532766,1,10,2:3:0:0:
446,202,532889,1,0,2:0:0:0:
428,268,533012,5,2,2:0:0:0:
382,185,533136,1,0,2:0:0:0:
464,140,533259,1,10,2:3:0:0:
509,221,533383,1,0,2:0:0:0:
446,202,533506,5,10,2:3:0:0:
349,173,533630,1,8,2:3:0:0:
253,144,533753,1,10,2:3:0:0:
204,198,533877,6,0,B|224:146|188:107|188:107|123:135,1,150,6|0,3:2|2:0,2:0:0:0:
115,143,534124,1,0,3:0:0:0:
209,286,534247,2,0,B|147:290|179:269|111:276,1,100,10|0,3:0|2:0,2:0:0:0:
370,269,534494,2,0,B|431:264|399:285|468:279,1,100,0|0,3:0|2:0,2:0:0:0:
299,348,534741,1,10,3:0:0:0:
299,348,534864,6,0,B|291:310|291:310|297:290|297:290|288:246,1,100,6|0,3:2|3:0,2:0:0:0:
330,75,535111,1,0,3:0:0:0:
285,146,535235,2,0,P|336:163|411:90,1,150,10|0,3:0|2:0,2:0:0:0:
416,83,535482,1,8,3:0:0:0:
416,83,535605,1,8,3:0:0:0:
511,159,535729,1,8,3:0:0:0:
383,6,535852,6,0,B|278:-25|323:22|217:-9|217:-9|238:1|253:25,1,200,4|0,3:2|3:0,2:0:0:0:
96,122,536222,2,0,B|88:201|88:201|107:191,1,100,10|0,3:0|2:0,2:0:0:0:
184,62,536469,1,0,3:0:0:0:
184,62,536593,1,0,3:0:0:0:
0,163,536716,1,10,3:0:0:0:
88,198,536840,1,0,3:0:0:0:
98,291,536963,6,0,B|167:255|167:255|156:283,1,100,0|0,3:0|3:0,2:0:0:0:
223,361,537210,1,10,3:0:0:0:
168,259,537333,2,0,B|246:262|246:262|222:281,1,100,0|8,3:0|3:0,2:0:0:0:
226,379,537580,1,8,3:0:0:0:
318,257,537704,1,10,3:0:0:0:
417,381,537827,6,0,B|465:305|408:242|408:242|369:279|317:257,1,250,6|0,3:2|3:0,2:0:0:0:
249,133,538198,2,0,P|318:136|343:189,1,125,10|0,3:0|2:0,2:0:0:0:
512,0,538445,2,0,P|415:4|380:78,1,187.5,2|0,3:2|2:0,2:0:0:0:
381,101,538692,1,10,3:0:0:0:
179,72,538815,6,0,B|150:129|150:129|183:234|183:234|144:307,1,250,6|0,3:0|3:0,2:0:0:0:
15,213,539185,2,0,B|100:226|100:226|62:233,1,125,10|0,3:0|2:0,2:0:0:0:
298,250,539432,2,0,B|213:236|213:236|251:229,1,125,2|0,3:2|3:0,2:0:0:0:
122,130,539679,1,10,3:0:0:0:
89,328,539803,6,0,B|146:359|211:317|211:317|260:354,1,187.5,6|0,3:0|2:0,2:0:0:0:
275,364,540050,1,0,3:0:0:0:
512,198,540173,2,0,P|455:180|396:211,1,125,10|0,3:0|2:0,2:0:0:0:
275,364,540420,2,0,P|331:381|391:351,1,125,0|0,3:0|3:0,2:0:0:0:
464,267,540667,1,10,3:0:0:0:
408,103,540790,6,0,B|388:44|311:30|311:30|245:53,1,187.5,6|0,3:2|2:0,2:0:0:0:
228,63,541037,2,0,B|129:39|129:39|150:60,1,125,0|10,3:0|3:0,2:0:0:0:
251,150,541284,1,0,3:0:0:0:
97,145,541408,1,8,3:0:0:0:
78,161,541469,1,0,3:0:0:0:
67,183,541531,1,8,3:0:0:0:
62,207,541593,1,0,3:0:0:0:
68,230,541654,1,2,3:0:0:0:
162,357,541778,6,0,B|238:337|238:337|274:347|274:347|360:325,1,200,0|0,3:0|3:0,2:0:0:0:
399,207,542148,5,10,3:0:0:0:
441,29,542272,1,0,3:0:0:0:
284,259,542395,5,10,3:0:0:0:
254,49,542519,1,0,3:0:0:0:
168,212,542642,5,10,3:0:0:0:
34,9,542766,1,0,3:0:0:0:
182,229,542889,5,10,3:0:0:0:
32,119,543013,1,0,3:0:0:0:
195,248,543136,5,10,3:0:0:0:
75,225,543260,1,0,3:0:0:0:
208,265,543383,5,10,3:0:0:0:
141,304,543507,1,8,3:0:0:0:
207,145,543630,1,8,3:0:0:0:
399,259,543753,6,0,B|430:206|404:158|404:158|353:157|333:100,1,200,4|0,3:0|2:0,2:0:0:0:
422,64,544124,1,8,3:0:0:0:
189,0,544371,6,0,B|212:39|192:75|192:75|154:76|139:119,1,150,4|0,3:0|2:0,2:0:0:0:
135,140,544617,1,8,3:0:0:0:
489,163,544864,6,0,L|509:366,2,200,4|8|8,3:0|3:0|3:0,2:0:0:0:
417,97,545482,1,8,3:0:0:0:
316,127,545605,1,8,3:0:0:0:
274,48,545729,6,0,B|214:86|214:86|255:268,1,239.999992675781,6|0,3:2|2:0,2:0:0:0:
203,361,546099,2,0,B|169:382|169:382|138:385|103:340,1,119.999996337891,10|0,2:3|2:0,2:0:0:0:
28,146,546346,1,2,2:0:0:0:
147,226,546470,1,0,2:0:0:0:
4,321,546593,2,0,B|38:300|38:300|69:297|104:342,1,119.999996337891,10|0,2:3|2:0,2:0:0:0:
322,363,546840,6,0,B|326:304|326:304|329:306|329:306|333:239,1,119.999996337891,2|0,2:0|2:0,2:0:0:0:
398,66,547087,1,10,2:3:0:0:
494,311,547211,6,0,B|489:252|489:252|486:254|486:254|481:187,1,119.999996337891,2|0,2:0|2:0,2:0:0:0:
398,38,547458,1,2,2:0:0:0:
343,176,547581,1,10,2:3:0:0:
278,36,547704,6,0,B|195:187|195:187|188:119,1,239.999992675781,6|0,2:0|2:0,2:0:0:0:
147,44,548075,2,0,B|62:60|62:60|86:58|103:76,1,119.999996337891,10|0,2:3|2:0,2:0:0:0:
67,238,548322,1,2,2:0:0:0:
56,142,548445,1,0,2:0:0:0:
176,296,548568,2,0,B|92:310|92:310|115:304|124:281,1,119.999996337891,10|0,2:3|2:0,2:0:0:0:
298,381,548815,6,0,B|301:320|301:320|304:322|304:322|308:254,1,119.999996337891,2|0,2:0|2:0,2:0:0:0:
344,120,549062,1,10,2:3:0:0:
512,218,549186,2,0,B|453:202|453:202|410:243,1,119.999996337891,2|0,2:0|2:0,2:0:0:0:
308,267,549433,2,0,B|367:283|367:283|410:242,1,119.999996337891,10|10,2:3|2:3,2:0:0:0:
511,132,549680,6,0,L|316:83,1,200,6|0,3:0|3:0,2:0:0:0:
264,15,550050,2,0,P|289:76|173:118,1,200,10|0,3:0|3:0,2:0:0:0:
100,82,550420,1,0,3:0:0:0:
68,261,550544,1,10,3:0:0:0:
156,11,550667,6,0,P|109:-7|60:1,1,100,2|0,3:2|3:0,2:0:0:0:
15,182,550914,2,0,P|61:163|111:172,1,100,2|10,3:2|3:0,2:0:0:0:
239,259,551161,2,0,P|285:277|335:269,1,100,2|0,3:2|3:0,2:0:0:0:
172,218,551408,1,0,3:0:0:0:
237,384,551532,1,10,3:0:0:0:
386,200,551655,1,4,3:0:0:0:
299,161,551778,5,2,3:2:0:0:
299,161,551902,1,0,3:0:0:0:
436,272,552025,2,0,P|425:322|413:381,1,100,10|0,3:0|2:0,2:0:0:0:
299,161,552272,5,6,3:2:0:0:
299,161,552396,1,0,3:0:0:0:
155,97,552519,2,0,P|167:40|178:-12,1,100,10|0,3:0|2:0,2:0:0:0:
82,169,552766,6,0,P|125:198|185:197,1,100,6|0,3:2|3:0,2:0:0:0:
372,99,553012,2,0,P|329:70|269:71,1,100,10|0,3:0|2:0,2:0:0:0:
194,196,553260,1,8,3:0:0:0:
356,250,553383,1,8,3:0:0:0:
299,161,553507,1,10,3:0:0:0:
288,322,553630,6,0,B|349:357|349:357|510:305,1,239.999992675781,6|0,2:0|2:0,2:0:0:0:
175,210,554001,2,0,B|198:246|236:251|236:251|252:239|277:238,1,119.999996337891,10|0,2:3|2:0,2:0:0:0:
119,32,554248,2,0,B|95:-4|57:-9|57:-9|41:2|16:3,1,119.999996337891,0|0,2:0|2:0,2:0:0:0:
204,119,554494,2,0,B|126:97|164:136|86:114,1,119.999996337891,10|0,2:3|2:0,2:0:0:0:
277,237,554741,6,0,B|366:247|366:247|394:232,1,119.999996337891,2|0,2:0|2:0,2:0:0:0:
512,108,554988,1,10,2:3:0:0:
386,80,555112,2,0,B|351:172|351:172|372:160,1,119.999996337891,2|8,2:0|2:3,2:0:0:0:
505,213,555359,2,0,B|441:205|441:205|390:235,1,119.999996337891,10|10,2:3|2:3,2:0:0:0:
369,383,555606,6,0,B|268:223|268:223|271:164,1,239.999992675781,6|0,2:0|2:0,2:0:0:0:
210,327,555976,2,0,B|171:349|171:349|135:344|135:344|86:368|86:368,1,119.999996337891,10|0,2:3|2:0,2:0:0:0:
88,195,556223,1,2,2:0:0:0:
88,195,556346,1,0,2:0:0:0:
273,173,556469,2,0,B|276:128|276:128|301:101|301:101|304:48|304:48,1,119.999996337891,10|0,2:3|2:0,2:0:0:0:
456,275,556717,6,0,B|465:369|465:369|482:345,1,119.999996337891,2|0,2:0|2:0,2:0:0:0:
511,161,556964,1,10,2:3:0:0:
361,170,557087,6,0,B|351:264|351:264|335:240,1,119.999996337891,2|8,2:0|2:3,2:0:0:0:
423,46,557334,1,8,2:3:0:0:
269,149,557457,1,10,2:3:0:0:
304,62,557581,6,0,B|214:38|262:85|166:58|166:58|128:26|175:25,1,200,6|0,2:0|3:0,2:0:0:0:
174,25,557951,1,10,3:0:0:0:
73,344,558198,5,0,3:0:0:0:
118,254,558322,1,0,3:0:0:0:
182,329,558445,1,10,3:0:0:0:
444,275,558692,5,0,3:0:0:0:
399,185,558816,1,0,3:0:0:0:
335,260,558938,2,0,L|233:251,1,100,10|0,3:0|2:0,2:0:0:0:
135,142,559185,2,0,L|236:150,1,100,8|8,3:0|3:0,2:0:0:0:
336,114,559432,1,10,3:0:0:0:
261,150,559556,6,0,P|245:92|359:34,1,200,6|0,2:0|3:0,2:0:0:0:
347,29,559927,1,10,3:0:0:0:
112,104,560173,5,0,3:0:0:0:
67,14,560297,1,0,3:0:0:0:
3,89,560420,1,10,3:0:0:0:
48,288,560667,6,0,P|109:327|173:272,1,150,2|0,3:2|2:0,2:0:0:0:
176,261,560914,2,0,P|226:269|275:281,1,100,10|0,3:0|2:0,2:0:0:0:
340,354,561161,2,0,P|393:346|439:334,1,100,10|8,3:0|3:0,2:0:0:0:
511,216,561408,1,10,3:0:0:0:
436,129,561531,6,0,B|376:103|336:146|336:146|326:166|326:166|267:200|215:157,1,239.999992675781,6|0,2:0|2:0,2:0:0:0:
247,6,561901,2,0,B|233:46|265:82|265:82|281:49,1,119.999996337891,10|0,2:3|2:0,2:0:0:0:
475,38,562148,1,2,2:0:0:0:
475,38,562272,1,0,2:0:0:0:
402,212,562395,2,0,B|416:252|384:288|384:288|368:255,1,119.999996337891,10|0,2:3|2:0,2:0:0:0:
134,188,562642,6,0,B|83:175|83:175|67:186|67:186|17:175,1,119.999996337891,2|0,2:0|2:0,2:0:0:0:
112,334,562889,1,10,2:3:0:0:
112,334,563012,2,0,B|163:321|163:321|179:332|179:332|229:321,1,119.999996337891,2|8,2:0|2:3,2:0:0:0:
367,254,563259,1,10,2:3:0:0:
116,259,563383,1,10,2:3:0:0:
225,321,563506,6,0,B|249:264|249:264|201:148|201:148|216:91,1,239.999992675781,6|0,2:0|2:0,2:0:0:0:
412,104,563877,2,0,B|360:114|360:114|348:131|348:131|291:143,1,119.999996337891,10|0,2:3|2:0,2:0:0:0:
263,0,564124,1,2,2:0:0:0:
263,0,564247,1,0,2:0:0:0:
493,38,564371,2,0,B|521:90|521:90|507:154,1,119.999996337891,10|0,2:3|2:0,2:0:0:0:
407,286,564617,6,0,B|439:208|439:208|458:245,1,119.999996337891,2|0,2:0|2:0,2:0:0:0:
512,384,564864,1,10,2:3:0:0:
512,384,564988,1,2,2:0:0:0:
337,207,565111,2,0,B|304:129|304:129|286:166,1,119.999996337891,8|8,2:3|2:3,2:0:0:0:
208,302,565358,1,10,2:3:0:0:
234,222,565482,6,0,B|155:199|200:240|110:217|110:217|85:194|94:170|115:167|124:186,1,200,6|0,3:2|3:0,2:0:0:0:
124,186,565852,1,10,3:0:0:0:
344,107,566099,5,0,3:0:0:0:
429,23,566222,1,0,3:0:0:0:
468,136,566346,1,10,3:0:0:0:
75,52,566593,5,0,3:0:0:0:
134,317,566840,6,0,L|26:324,1,100,10|0,3:0|2:0,2:0:0:0:
241,225,567087,2,0,L|349:232,1,100,8|8,3:0|3:0,2:0:0:0:
417,330,567333,1,10,3:0:0:0:
155,157,567457,6,0,B|120:173|101:132|128:108|217:90|234:200,1,200,6|0,3:2|3:0,2:0:0:0:
233,195,567827,1,10,3:0:0:0:
386,94,568074,5,0,3:0:0:0:
511,129,568198,1,0,3:0:0:0:
483,13,568321,1,10,3:0:0:0:
445,261,568568,6,0,B|403:245|370:265|378:272|349:295|303:285,1,150,2|0,3:2|2:0,2:0:0:0:
276,281,568815,2,0,P|291:228|249:190,1,100,10|2,3:0|3:2,2:0:0:0:
0,217,569062,1,8,3:0:0:0:
174,251,569185,1,8,3:0:0:0:
97,354,569309,1,10,3:0:0:0:
97,354,569432,6,0,B|97:311|79:281|79:281|99:252|104:209|104:209|94:182|94:182|102:148|102:148|98:126,1,239.999992675781,6|0,2:0|2:0,2:0:0:0:
3,10,569803,2,0,B|36:36|36:36|70:7|111:27,1,119.999996337891,10|0,2:3|2:0,2:0:0:0:
328,60,570050,1,0,2:0:0:0:
188,151,570173,1,0,2:0:0:0:
214,42,570296,2,0,B|180:15|180:15|146:44|105:24,1,119.999996337891,10|0,2:3|2:0,2:0:0:0:
305,144,570543,6,0,B|285:105|285:105|475:49,1,239.999992675781,2|10,2:0|2:3,2:0:0:0:
285,227,570914,2,0,B|316:301|316:301|276:291,1,119.999996337891,2|8,2:0|2:3,2:0:0:0:
486,199,571161,2,0,B|425:146|425:146|466:132,1,119.999996337891,10|10,2:3|2:3,2:0:0:0:
512,323,571408,2,0,B|362:196|362:196|381:239,1,239.999992675781,6|0,2:0|2:0,2:0:0:0:
213,369,571778,6,0,B|244:313|244:313|218:257,1,119.999996337891,10|0,2:3|2:0,2:0:0:0:
178,137,572025,1,10,2:3:0:0:
178,137,572148,1,8,2:3:0:0:
142,306,572272,2,0,B|117:278|128:242|128:242|105:220|105:220|63:221|63:221|32:244,1,179.999994506836,14|0,2:3|2:0,2:0:0:0:
34,244,572519,6,0,B|38:194|38:194|40:196|40:196|45:136,1,100,0|0,3:0|2:0,2:0:0:0:
168,42,572766,2,0,B|172:92|172:92|174:90|174:90|179:150,1,100,10|0,3:0|2:0,2:0:0:0:
282,208,573012,1,0,3:0:0:0:
352,24,573136,1,0,3:0:0:0:
397,177,573259,1,8,3:0:0:0:
435,86,573383,1,8,3:0:0:0:
512,251,573506,6,0,B|406:251|461:291|351:291,2,160,6|8|2,2:0|2:3|2:0,2:0:0:0:
213,197,574247,5,8,2:3:0:0:
170,286,574371,2,0,L|260:277,1,80,8|2,2:3|2:0,2:0:0:0:
85,121,574617,5,8,2:3:0:0:
45,210,574741,2,0,L|135:201,1,80,8|0,2:3|2:0,2:0:0:0:
213,197,574988,1,2,2:0:0:0:
301,73,575235,5,8,2:3:0:0:
301,73,575358,1,8,2:3:0:0:
402,28,575482,2,0,L|391:112,1,80,6|0,2:0|2:0,2:0:0:0:
295,99,575729,5,8,2:3:0:0:
391,107,575853,2,0,L|380:191,1,80,6|0,2:0|2:0,2:0:0:0:
292,128,576099,5,8,2:3:0:0:
380,186,576223,2,0,L|369:270,1,80,6|0,2:0|2:0,2:0:0:0:
300,350,576469,2,0,L|289:266,1,80,6|8,2:0|2:3,2:0:0:0:
221,83,576716,5,0,3:0:0:0:
214,100,576840,1,0,3:0:0:0:
164,183,576963,5,2,3:0:0:0:
167,211,577087,1,2,3:0:0:0:
209,313,577210,5,10,3:0:0:0:
201,384,577334,1,10,3:0:0:0:
382,383,577457,6,0,B|458:359|474:273|474:273|415:294|362:261,1,259.999988098145,6|10,2:0|3:0,2:0:0:0:
211,286,577827,2,0,B|135:262|119:176|119:176|178:197|231:164,1,259.999988098145,2|0,3:2|3:0,2:0:0:0:
362,126,578198,2,0,B|400:114|408:71|408:71|378:81|352:65,1,129.999994049073,10|0,3:0|3:0,2:0:0:0:
208,45,578445,5,6,3:0:0:0:
208,45,578568,1,0,3:0:0:0:
311,197,578692,1,10,3:0:0:0:
424,5,578815,6,0,B|438:112|438:112|470:146|470:146|486:255,1,259.999988098145,2|0,3:2|3:0,2:0:0:0:
311,197,579185,2,0,B|303:250|303:250|287:267|287:267|279:322,1,129.999994049073,10|0,3:0|3:0,2:0:0:0:
49,193,579432,6,0,B|92:162|168:184|168:184|138:228,1,165.000005035401,2|0,3:2|2:0,2:0:0:0:
144,218,579679,2,0,P|122:171|175:122,1,110.000003356934,10|0,3:0|2:0,2:0:0:0:
274,52,579926,1,2,3:2:0:0:
274,52,580050,1,0,3:0:0:0:
51,3,580173,2,0,P|73:50|20:99,1,110.000003356934,10|0,3:0|3:0,2:0:0:0:
0,339,580420,6,0,B|73:294|129:344|129:344|79:381,1,194.999991073609,6|0,3:2|2:0,2:0:0:0:
84,376,580667,2,0,B|70:319|70:319|98:274,1,110.000003356934,10|0,3:0|3:0,2:0:0:0:
165,26,580914,2,0,B|179:83|179:83|151:128,1,110.000003356934,6|0,3:2|2:0,2:0:0:0:
248,230,581161,2,0,B|278:219|278:219|304:232,1,60,10|0,3:0|2:0,2:0:0:0:
390,289,581408,6,0,P|334:223|367:43,1,259.999988098145,6|10,2:0|3:0,2:0:0:0:
98,32,581778,2,0,P|172:-11|343:52,1,259.999988098145,2|0,3:2|3:0,2:0:0:0:
467,79,582148,2,0,P|443:42|352:30,1,129.999994049073,10|0,3:0|3:0,2:0:0:0:
172,93,582395,5,6,3:0:0:0:
172,93,582519,1,0,3:0:0:0:
93,165,582642,1,10,3:0:0:0:
0,67,582766,6,0,B|49:96|49:96|90:299,1,259.999988098145,2|0,3:2|3:0,2:0:0:0:
221,263,583136,2,0,B|196:277|196:277|176:379,1,129.999994049073,10|0,3:0|3:0,2:0:0:0:
253,169,583383,6,0,P|310:179|338:278,1,165.000005035401,2|0,3:2|2:0,2:0:0:0:
340,271,583630,2,0,B|299:231|299:231|317:182,1,110.000003356934,10|0,3:0|2:0,2:0:0:0:
370,46,583877,1,2,3:2:0:0:
424,198,584000,1,0,3:0:0:0:
498,81,584124,1,10,3:0:0:0:
317,181,584247,1,0,3:0:0:0:
509,274,584371,6,0,B|459:262|433:295|433:295|432:340|385:354,1,165.000005035401,6|0,3:2|2:0,2:0:0:0:
386,353,584617,2,0,B|340:359|340:359|314:349|314:349|267:353,1,110.000003356934,10|0,3:0|3:0,2:0:0:0:
33,220,584864,2,0,B|79:226|79:226|105:216|105:216|152:220,1,110.000003356934,6|0,3:2|2:0,2:0:0:0:
294,265,585111,1,10,3:0:0:0:
121,303,585235,1,8,3:0:0:0:
183,106,585358,6,0,B|235:72|301:106|301:106|261:103|253:144,1,179.999994506836,2|0,2:0|2:0,2:0:0:0:
256,131,585605,2,0,B|278:46|278:46|303:74,1,119.999996337891,10|0,3:0|3:0,2:0:0:0:
403,142,585852,1,0,3:0:0:0:
455,11,585975,1,0,3:0:0:0:
400,152,586099,1,10,3:0:0:0:
160,316,586346,6,0,B|115:295|67:320|67:320|64:372|7:376,1,179.999994506836,2|0,2:0|2:0,2:0:0:0:
15,375,586593,2,0,B|46:296|46:296|12:311,1,119.999996337891,10|0,3:0|3:0,2:0:0:0:
93,212,586840,1,2,3:2:0:0:
223,249,586963,1,0,3:0:0:0:
82,208,587087,2,0,L|96:129,1,75,10|0,3:0|2:0,2:0:0:0:
38,74,587333,6,0,P|94:106|187:48,1,179.999994506836,6|0,3:2|2:0,2:0:0:0:
185,52,587580,2,0,B|205:18|205:18|250:93,1,119.999996337891,10|0,3:0|3:0,2:0:0:0:
313,209,587827,1,0,3:0:0:0:
369,43,587951,1,0,3:0:0:0:
316,222,588074,2,0,L|409:210,1,75,10|0,3:0|2:0,2:0:0:0:
458,175,588321,6,0,B|485:218|452:269|452:269|448:310|497:343,1,179.999994506836,6|0,3:2|2:0,2:0:0:0:
487,336,588568,2,0,B|429:312|429:312|377:342,1,119.999996337891,10|0,3:0|3:0,2:0:0:0:
293,371,588815,1,2,3:2:0:0:
316,222,588938,1,0,3:0:0:0:
292,384,589062,1,10,3:0:0:0:
48,50,589309,5,8,2:3:0:0:
68,37,589391,1,0,2:0:0:0:
72,60,589473,1,0,2:0:0:0:
63,49,589556,2,0,B|56:107|56:107|72:142|72:142|62:215,1,159.999995117188,4|0,2:0|2:0,2:0:0:0:
272,371,589803,5,8,2:3:0:0:
292,384,589885,1,0,2:0:0:0:
296,361,589967,1,0,2:0:0:0:
287,373,590050,2,0,B|280:315|280:315|296:280|296:280|286:207,1,159.999995117188,4|0,2:0|2:0,2:0:0:0:
492,21,590296,5,8,2:3:0:0:
481,14,590379,1,0,2:0:0:0:
469,11,590461,1,0,2:0:0:0:
454,14,590543,5,8,2:3:0:0:
462,42,590626,1,0,2:0:0:0:
458,73,590708,1,0,2:0:0:0:
437,97,590790,5,8,2:3:0:0:
399,81,590873,1,0,2:0:0:0:
359,84,590955,1,0,2:0:0:0:
329,110,591037,1,4,2:0:0:0:
453,314,591284,5,8,2:3:0:0:
454,306,591366,1,0,2:0:0:0:
455,297,591449,1,0,2:0:0:0:
455,288,591531,2,0,L|290:274,1,159.999995117188,4|0,2:0|2:0,2:0:0:0:
4,183,591778,5,8,2:3:0:0:
3,175,591860,1,0,2:0:0:0:
2,166,591943,1,0,2:0:0:0:
1,156,592025,2,0,L|166:142,1,159.999995117188,4|0,2:0|2:0,2:0:0:0:
216,192,592272,6,0,P|190:137|232:54,1,133.333333333333,6|0,2:0|2:0,2:0:0:0:
316,23,592519,1,0,3:0:0:0:
284,128,592642,1,0,3:0:0:0:
342,250,592766,5,0,3:0:0:0:
368,279,592848,1,0,3:0:0:0:
368,318,592930,1,0,3:0:0:0:
346,351,593012,1,8,3:0:0:0:
309,332,593095,1,8,3:0:0:0:
269,333,593177,1,8,3:0:0:0:
259,338,593259,6,0,B|188:328|163:229|163:229|95:220|79:284,1,259.999988098145,6|10,2:0|3:0,2:0:0:0:
326,224,593630,2,0,B|397:214|422:115|422:115|490:106|506:170,1,259.999988098145,2|0,3:2|3:0,2:0:0:0:
290,100,594000,2,0,B|254:95|242:45|242:45|208:41|200:73,1,129.999994049073,10|0,3:0|3:0,2:0:0:0:
152,200,594247,5,6,3:0:0:0:
152,200,594371,1,0,3:0:0:0:
332,23,594494,1,10,3:0:0:0:
110,10,594617,2,0,B|90:112|90:112|54:151|54:151|35:254,1,259.999988098145,2|0,3:2|3:0,2:0:0:0:
218,263,594988,2,0,B|227:314|227:314|245:333|245:333|255:385,1,129.999994049073,10|0,3:0|3:0,2:0:0:0:
348,250,595235,6,0,B|453:215|414:293|513:257,1,165.000005035401,2|0,3:2|2:0,2:0:0:0:
506,260,595482,2,0,B|478:268|478:268|438:177,1,110.000003356934,10|0,3:0|2:0,2:0:0:0:
512,97,595729,1,2,3:2:0:0:
512,96,595852,1,0,3:0:0:0:
368,177,595975,1,10,3:0:0:0:
415,23,596099,1,0,3:0:0:0:
275,106,596222,6,0,B|218:134|170:104|170:104|169:55|106:41,1,194.999991073609,6|0,3:2|2:0,2:0:0:0:
118,44,596469,2,0,B|132:85|132:85|73:122,1,110.000003356934,10|0,3:0|3:0,2:0:0:0:
42,269,596716,2,0,B|56:228|56:228|-3:191,1,110.000003356934,6|0,3:2|2:0,2:0:0:0:
181,234,596963,2,0,B|203:226|203:226|223:258,1,60,10|0,3:0|2:0,2:0:0:0:
214,382,597210,6,0,P|229:305|393:233,1,259.999988098145,6|10,2:0|3:0,2:0:0:0:
361,22,597580,2,0,P|420:73|400:251,1,259.999988098145,2|0,3:2|3:0,2:0:0:0:
493,296,597951,2,0,P|455:308|383:255,1,129.999994049073,10|0,3:0|3:0,2:0:0:0:
322,107,598198,5,6,3:0:0:0:
322,107,598321,1,0,3:0:0:0:
113,154,598445,1,10,3:0:0:0:
212,326,598568,6,0,B|176:273|176:273|210:140|210:140|177:81,1,259.999988098145,2|0,3:2|3:0,2:0:0:0:
50,371,598938,2,0,B|68:344|68:344|51:278|51:278|67:248,1,129.999994049073,10|0,3:0|3:0,2:0:0:0:
4,68,599185,6,0,B|57:100|99:69|99:69|105:32|145:25,1,165.000005035401,6|0,3:2|2:0,2:0:0:0:
140,26,599432,2,0,B|248:11,1,110.000003356934,10|0,3:0|2:0,2:0:0:0:
365,0,599679,1,2,3:2:0:0:
365,0,599803,1,0,3:0:0:0:
300,116,599926,1,10,3:0:0:0:
449,122,600050,1,0,3:0:0:0:
449,122,600173,6,0,B|459:172|425:203|425:203|407:219|412:244|412:244|434:220|470:224,1,194.999991073609,6|0,3:2|2:0,2:0:0:0:
467,224,600420,2,0,P|427:226|401:291,1,110.000003356934,10|0,3:0|3:0,2:0:0:0:
342,384,600667,1,6,3:2:0:0:
190,215,600790,1,0,3:0:0:0:
221,312,600914,2,0,P|260:309|287:245,1,110.000003356934,10|8,3:0|3:0,2:0:0:0:
183,125,601161,6,0,B|145:124|123:150|123:150|59:113|80:49,1,179.999994506836,2|0,2:0|2:0,2:0:0:0:
77,56,601408,2,0,B|93:-4|93:-4|121:57,1,119.999996337891,10|0,3:0|3:0,2:0:0:0:
271,165,601654,1,0,3:0:0:0:
271,165,601778,1,0,3:0:0:0:
355,73,601901,2,0,B|339:12|339:12|311:73,1,119.999996337891,10|0,3:0|3:0,2:0:0:0:
239,283,602148,6,0,B|365:297|365:297|316:272,1,179.999994506836,2|0,2:0|2:0,2:0:0:0:
317,272,602395,2,0,P|304:342|256:367,1,119.999996337891,10|0,3:0|3:0,2:0:0:0:
103,328,602642,1,2,3:2:0:0:
103,328,602766,1,0,3:0:0:0:
163,224,602889,2,0,B|79:216,1,75,10|0,3:0|2:0,2:0:0:0:
89,217,603136,6,0,B|125:183|107:140|107:140|52:109|81:53,1,179.999994506836,6|0,3:2|2:0,2:0:0:0:
77,60,603383,2,0,P|107:30|178:59,1,119.999996337891,10|0,3:0|3:0,2:0:0:0:
194,184,603630,1,0,3:0:0:0:
194,184,603753,1,0,3:0:0:0:
361,112,603877,2,0,P|331:82|260:111,1,119.999996337891,10|0,3:0|3:0,2:0:0:0:
336,258,604124,6,0,B|437:275|383:244|480:260|480:260|471:228|429:225,1,209.999993591309,6|0,3:2|2:0,2:0:0:0:
431,225,604371,2,0,B|434:270|434:270|445:294|445:294|448:354,1,119.999996337891,10|0,3:0|3:0,2:0:0:0:
309,384,604617,1,2,3:2:0:0:
309,384,604741,1,0,3:0:0:0:
274,164,604864,2,0,B|271:209|271:209|260:233|260:233|257:293,1,119.999996337891,10|0,3:0|3:0,2:0:0:0:
64,370,605111,5,8,2:3:0:0:
48,352,605194,1,0,2:0:0:0:
71,348,605276,1,0,2:0:0:0:
63,358,605358,2,0,B|50:310|50:310|61:274|61:274|39:202,1,159.999995117188,4|0,2:0|2:0,2:0:0:0:
179,13,605605,5,8,2:3:0:0:
163,31,605688,1,0,2:0:0:0:
186,36,605770,1,0,2:0:0:0:
178,26,605852,2,0,B|165:74|165:74|176:110|176:110|154:182,1,159.999995117188,4|0,2:0|2:0,2:0:0:0:
257,326,606099,5,8,2:3:0:0:
289,348,606181,1,0,2:0:0:0:
329,352,606264,1,0,2:0:0:0:
363,332,606346,5,8,2:3:0:0:
335,302,606428,1,0,2:0:0:0:
326,263,606510,1,0,2:0:0:0:
343,226,606593,5,8,2:3:0:0:
368,256,606675,1,0,2:0:0:0:
406,265,606757,1,0,2:0:0:0:
445,256,606840,2,0,P|472:253|443:250,1,75,4|0,2:0|2:0,2:0:0:0:
445,256,607087,6,0,L|452:149,1,100,8|0,2:3|2:0,2:0:0:0:
509,314,607333,1,8,3:0:0:0:
331,159,607457,6,0,L|324:52,1,100,8|0,3:0|3:0,2:0:0:0:
267,217,607703,1,8,3:0:0:0:
211,95,607827,1,0,3:0:0:0:
143,247,607951,1,8,3:0:0:0:
346,239,608074,5,0,3:0:0:0:
346,239,608321,1,2,3:0:0:0:
346,239,608568,2,0,P|350:206|328:162,2,66.6666666666667,0|0|0,2:0|2:0|2:0,2:0:0:0:
253,319,608815,2,0,P|249:352|271:396,2,66.6666666666667,8|8|8,2:3|2:3|2:3,2:0:0:0:
183,212,609062,5,6,3:0:0:0:
159,214,609144,1,0,3:0:0:0:
137,206,609226,1,0,3:0:0:0:
120,191,609308,1,10,3:0:0:0:
111,170,609391,1,0,3:0:0:0:
111,146,609473,1,0,3:0:0:0:
121,125,609555,1,0,3:0:0:0:
138,110,609638,1,0,3:0:0:0:
160,103,609720,1,0,3:0:0:0:
184,106,609802,1,10,3:0:0:0:
203,118,609885,1,0,3:0:0:0:
217,137,609967,1,0,3:0:0:0:
220,160,610049,5,2,3:0:0:0:
197,201,610132,1,0,3:0:0:0:
200,247,610214,1,0,3:0:0:0:
223,288,610296,1,10,3:0:0:0:
260,315,610379,1,0,3:0:0:0:
306,325,610461,1,0,3:0:0:0:
351,316,610543,1,0,3:0:0:0:
389,290,610626,1,0,3:0:0:0:
412,250,610708,1,0,3:0:0:0:
418,203,610790,1,10,3:0:0:0:
404,160,610873,1,0,3:0:0:0:
373,125,610955,1,0,3:0:0:0:
359,122,611037,5,4,3:0:0:0:
313,132,611119,1,0,3:0:0:0:
267,142,611202,1,0,3:0:0:0:
232,183,611284,1,14,3:0:0:0:
186,173,611366,1,0,3:0:0:0:
140,163,611449,1,0,3:0:0:0:
103,128,611531,1,4,3:0:0:0:
93,174,611613,1,0,3:0:0:0:
83,220,611696,1,0,3:0:0:0:
57,268,611778,1,14,3:0:0:0:
67,314,611860,1,0,3:0:0:0:
77,360,611943,1,0,3:0:0:0:
85,370,612025,6,0,L|184:380,3,53.3333333333333,4|0|0|10,3:0|3:0|3:0|3:0,2:0:0:0:
425,253,612354,2,0,L|326:263,3,53.3333333333333,0|0|4|0,3:0|3:0|3:0|3:0,2:0:0:0:
123,119,612683,2,0,L|222:129,3,53.3333333333333,0|10|0|0,3:0|3:0|3:0|3:0,2:0:0:0:
392,32,613012,5,6,3:2:0:0:
387,77,613094,1,0,3:0:0:0:
356,111,613176,1,0,3:0:0:0:
312,121,613258,1,10,3:0:0:0:
270,103,613342,1,0,3:0:0:0:
227,85,613424,1,0,3:0:0:0:
183,96,613506,1,0,3:0:0:0:
153,131,613588,1,0,3:0:0:0:
150,177,613671,1,0,3:0:0:0:
155,223,613753,1,10,3:0:0:0:
134,264,613836,1,0,3:0:0:0:
94,285,613918,1,0,3:0:0:0:
48,269,614000,5,2,3:2:0:0:
87,265,614082,1,0,3:0:0:0:
128,258,614164,1,0,3:0:0:0:
169,252,614246,1,10,3:0:0:0:
202,223,614329,1,0,3:0:0:0:
244,229,614411,1,0,3:0:0:0:
285,235,614493,1,0,3:0:0:0:
327,241,614575,1,0,3:0:0:0:
338,281,614659,1,0,3:0:0:0:
380,275,614741,1,10,3:0:0:0:
421,269,614823,1,0,3:0:0:0:
462,263,614905,1,0,3:0:0:0:
497,285,614988,6,0,P|502:251|468:220,2,53.3333333333333,4|0|0,3:0|3:0|3:0,2:0:0:0:
512,141,615235,2,0,P|489:115|443:121,2,53.3333333333333,14|0|0,3:0|3:0|3:0,2:0:0:0:
420,31,615482,2,0,P|385:31|361:70,2,53.3333333333333,4|0|0,3:0|3:0|3:0,2:0:0:0:
267,31,615729,2,0,P|245:57|259:101,2,53.3333333333333,14|0|0,3:0|3:0|3:0,2:0:0:0:
64,97,615975,5,4,3:0:0:0:
64,97,616058,1,0,3:0:0:0:
64,97,616140,2,0,L|75:184,1,53.3333333333333,0|10,3:0|3:0,2:0:0:0:
160,283,616305,5,0,3:0:0:0:
160,283,616388,1,0,3:0:0:0:
160,283,616470,2,0,L|171:196,1,53.3333333333333,4|0,3:0|3:0,2:0:0:0:
244,75,616634,5,0,3:0:0:0:
244,75,616717,1,10,3:0:0:0:
244,75,616799,2,0,L|255:162,1,53.3333333333333,0|0,3:0|3:0,2:0:0:0:
294,317,616963,5,6,3:2:0:0:
334,338,617045,1,0,3:0:0:0:
379,333,617127,1,0,3:0:0:0:
413,301,617209,1,10,3:0:0:0:
421,256,617292,1,0,3:0:0:0:
403,213,617374,1,0,3:0:0:0:
400,167,617456,1,0,3:0:0:0:
412,122,617538,1,0,3:0:0:0:
435,80,617622,5,0,3:0:0:0:
394,101,617704,1,10,3:0:0:0:
349,94,617786,1,0,3:0:0:0:
316,62,617868,1,0,3:0:0:0:
306,16,617951,5,2,3:2:0:0:
336,49,618033,1,0,3:0:0:0:
338,95,618115,1,0,3:0:0:0:
311,132,618197,1,10,3:0:0:0:
280,161,618280,1,0,3:0:0:0:
306,198,618362,1,0,3:0:0:0:
304,244,618444,1,0,3:0:0:0:
274,279,618526,1,0,3:0:0:0:
229,289,618609,1,0,3:0:0:0:
187,269,618692,2,0,L|99:259,2,53.3333333333333,10|0|0,3:0|3:0|3:0,2:0:0:0:
362,301,618938,5,2,3:2:0:0:
370,301,619021,1,0,3:0:0:0:
377,301,619103,1,0,3:0:0:0:
384,301,619185,1,10,3:0:0:0:
392,301,619268,1,0,3:0:0:0:
399,302,619350,1,0,3:0:0:0:
426,285,619432,5,6,3:0:0:0:
431,253,619515,1,0,3:0:0:0:
420,222,619597,1,0,3:0:0:0:
392,206,619679,1,10,3:0:0:0:
371,181,619761,1,0,3:0:0:0:
369,148,619844,1,0,3:0:0:0:
386,121,619926,5,6,3:0:0:0:
405,164,620008,1,0,3:0:0:0:
383,207,620091,1,0,3:0:0:0:
335,214,620173,1,10,3:0:0:0:
292,192,620255,1,0,3:0:0:0:
243,191,620338,1,0,3:0:0:0:
203,217,620420,5,12,3:0:0:0:
173,282,620502,1,8,3:0:0:0:
198,349,620585,1,8,3:0:0:0:
265,373,620667,1,10,3:0:0:0:
333,350,620749,1,8,3:0:0:0:
366,286,620831,1,8,3:0:0:0:
326,222,620914,5,8,2:3:0:0:
322,214,620996,1,0,2:0:0:0:
318,206,621078,1,0,2:0:0:0:
385,171,621161,6,0,L|210:195,1,173.333325398763,4|0,2:0|2:0,2:0:0:0:
145,119,621408,5,8,2:3:0:0:
149,111,621490,1,0,2:0:0:0:
153,103,621572,1,0,2:0:0:0:
92,66,621655,6,0,L|267:90,1,173.333325398763,4|0,2:0|2:0,2:0:0:0:
464,126,621901,5,8,2:3:0:0:
466,134,621984,1,0,2:0:0:0:
468,142,622066,1,0,2:0:0:0:
453,160,622148,1,8,2:3:0:0:
455,168,622231,1,0,2:0:0:0:
457,176,622313,1,0,2:0:0:0:
477,188,622395,1,8,2:3:0:0:
479,196,622478,1,0,2:0:0:0:
481,204,622560,1,0,2:0:0:0:
497,223,622642,5,4,2:0:0:0:
495,231,622725,1,0,3:0:0:0:
493,239,622807,1,0,3:0:0:0:
490,248,622889,6,0,L|374:256,1,100,8|0,2:3|2:0,2:0:0:0:
326,342,623136,1,0,3:0:0:0:
142,173,623259,6,0,L|258:181,1,100,12|0,3:0|3:0,2:0:0:0:
299,265,623506,1,0,3:0:0:0:
299,265,623568,1,0,3:0:0:0:
299,265,623630,1,8,3:0:0:0:
110,74,623877,6,0,B|50:74|79:57|10:54,1,100,4|0,3:0|2:0,2:0:0:0:
299,265,624124,2,0,B|358:265|329:281|398:284,1,100,6|0,3:0|2:0,2:0:0:0:
138,166,624371,2,0,P|111:197|109:245,2,66.6666666666667,4|0|0,2:0|2:0|2:0,2:0:0:0:
207,260,624617,2,0,P|213:300|248:332,2,66.6666666666667,8|8|8,2:3|2:3|2:3,2:0:0:0:
220,55,624864,5,6,3:0:0:0:
269,47,624946,1,0,3:0:0:0:
318,61,625028,1,0,3:0:0:0:
359,90,625110,1,10,3:0:0:0:
386,133,625193,1,0,3:0:0:0:
395,182,625275,1,0,3:0:0:0:
387,232,625357,1,0,3:0:0:0:
360,275,625440,1,0,3:0:0:0:
319,304,625522,1,0,3:0:0:0:
270,317,625604,1,10,3:0:0:0:
221,312,625687,1,0,3:0:0:0:
176,289,625769,1,0,3:0:0:0:
143,250,625852,5,2,3:0:0:0:
193,247,625934,1,0,3:0:0:0:
235,220,626016,1,0,3:0:0:0:
255,174,626098,1,10,3:0:0:0:
250,125,626181,1,0,3:0:0:0:
218,85,626263,1,0,3:0:0:0:
172,67,626345,1,0,3:0:0:0:
123,76,626428,1,0,3:0:0:0:
86,108,626510,1,0,3:0:0:0:
72,155,626593,1,10,3:0:0:0:
83,201,626675,1,0,3:0:0:0:
118,234,626757,1,0,3:0:0:0:
166,239,626840,6,0,L|161:299,2,53.3333333333333,4|0|0,3:0|3:0|3:0,2:0:0:0:
255,108,627087,2,0,L|250:47,2,53.3333333333333,14|0|0,3:0|3:0|3:0,2:0:0:0:
327,196,627333,2,0,L|322:256,2,53.3333333333333,4|0|0,3:0|3:0|3:0,2:0:0:0:
416,65,627580,2,0,L|411:4,2,53.3333333333333,14|0|0,3:0|3:0|3:0,2:0:0:0:
512,184,627827,5,4,3:0:0:0:
498,232,627909,1,0,3:0:0:0:
463,269,627991,1,0,3:0:0:0:
415,286,628073,1,10,3:0:0:0:
366,279,628156,1,0,3:0:0:0:
324,250,628238,1,0,3:0:0:0:
301,206,628321,5,4,3:0:0:0:
256,180,628403,1,0,3:0:0:0:
206,182,628485,1,0,3:0:0:0:
165,211,628567,1,10,3:0:0:0:
144,255,628650,1,0,3:0:0:0:
149,305,628732,1,0,3:0:0:0:
181,345,628816,5,6,3:2:0:0:
235,323,628897,1,0,3:0:0:0:
257,269,628979,1,0,3:0:0:0:
234,214,629061,1,10,3:0:0:0:
209,158,629144,1,0,3:0:0:0:
233,103,629226,1,0,3:0:0:0:
283,74,629308,1,0,3:0:0:0:
342,78,629390,1,0,3:0:0:0:
388,115,629473,1,0,3:0:0:0:
395,173,629555,1,10,3:0:0:0:
368,226,629637,1,0,3:0:0:0:
311,243,629719,1,0,3:0:0:0:
257,228,629803,5,2,3:2:0:0:
251,287,629885,1,0,3:0:0:0:
202,321,629967,1,0,3:0:0:0:
142,311,630050,1,10,3:0:0:0:
109,262,630132,1,0,3:0:0:0:
125,205,630214,1,0,3:0:0:0:
182,192,630296,1,0,3:0:0:0:
224,148,630379,1,0,3:0:0:0:
229,88,630461,1,0,3:0:0:0:
199,35,630543,1,10,3:0:0:0:
139,26,630626,1,0,3:0:0:0:
86,50,630708,1,0,3:0:0:0:
79,62,630790,6,0,L|-7:58,2,53.3333333333333,4|0|0,3:0|3:0|3:0,2:0:0:0:
304,138,631037,2,0,L|357:139,2,53.3333333333333,14|0|0,3:0|3:0|3:0,2:0:0:0:
52,255,631284,2,0,L|-34:255,2,53.3333333333333,4|0|0,3:0|3:0|3:0,2:0:0:0:
350,359,631531,2,0,L|416:362,2,53.3333333333333,14|0|0,3:0|3:0|3:0,2:0:0:0:
197,347,631778,5,4,3:0:0:0:
167,302,631860,1,0,3:0:0:0:
180,250,631943,1,0,3:0:0:0:
223,218,632025,1,10,3:0:0:0:
276,215,632107,1,0,3:0:0:0:
321,187,632189,1,0,3:0:0:0:
354,146,632272,1,4,3:0:0:0:
406,152,632354,1,0,3:0:0:0:
446,186,632436,1,0,3:0:0:0:
454,243,632519,1,10,3:0:0:0:
428,289,632601,1,0,3:0:0:0:
382,317,632683,1,0,3:0:0:0:
330,301,632766,5,6,3:2:0:0:
286,331,632848,1,0,3:0:0:0:
233,321,632930,1,0,3:0:0:0:
213,271,633012,1,10,3:0:0:0:
226,218,633095,1,0,3:0:0:0:
270,189,633177,1,0,3:0:0:0:
293,141,633259,1,0,3:0:0:0:
280,88,633342,1,0,3:0:0:0:
231,66,633424,1,0,3:0:0:0:
178,75,633506,1,10,3:0:0:0:
152,122,633589,1,0,3:0:0:0:
166,173,633671,1,0,3:0:0:0:
210,202,633753,5,2,3:2:0:0:
265,181,633836,1,0,3:0:0:0:
318,156,633918,1,0,3:0:0:0:
370,130,634000,1,10,3:0:0:0:
423,106,634082,1,0,3:0:0:0:
468,143,634165,1,0,3:0:0:0:
483,200,634247,1,0,3:0:0:0:
450,250,634329,1,0,3:0:0:0:
390,263,634412,1,0,3:0:0:0:
340,228,634494,1,10,3:0:0:0:
322,170,634576,1,0,3:0:0:0:
270,137,634659,1,0,3:0:0:0:
214,157,634741,5,2,3:2:0:0:
214,167,634823,1,0,3:0:0:0:
214,177,634905,1,0,3:0:0:0:
214,187,634988,1,10,3:0:0:0:
215,197,635070,1,0,3:0:0:0:
215,207,635152,1,0,3:0:0:0:
215,220,635235,5,6,3:0:0:0:
194,204,635317,1,0,3:0:0:0:
173,188,635399,1,0,3:0:0:0:
152,172,635482,1,10,3:0:0:0:
131,156,635564,1,0,3:0:0:0:
110,140,635646,1,0,3:0:0:0:
88,124,635729,5,6,3:0:0:0:
104,160,635811,1,0,3:0:0:0:
116,198,635893,1,0,3:0:0:0:
106,236,635975,1,10,3:0:0:0:
76,262,636058,1,0,3:0:0:0:
39,274,636140,1,0,3:0:0:0:
0,271,636222,5,12,3:0:0:0:
49,247,636305,1,8,3:0:0:0:
102,236,636387,1,8,3:0:0:0:
150,260,636469,1,10,3:0:0:0:
192,303,636552,1,8,3:0:0:0:
258,312,636634,1,8,3:0:0:0:
318,266,636716,5,8,2:3:0:0:
320,252,636798,1,0,2:0:0:0:
322,238,636881,1,0,2:0:0:0:
396,214,636963,6,0,L|198:199,1,194.999991073609,4|0,2:0|2:0,2:0:0:0:
82,117,637210,5,8,2:3:0:0:
80,103,637292,1,0,2:0:0:0:
78,89,637375,1,0,2:0:0:0:
4,65,637457,6,0,L|202:50,1,194.999991073609,4|0,2:0|2:0,2:0:0:0:
512,0,637704,5,8,2:3:0:0:
512,8,637786,1,0,2:0:0:0:
510,16,637868,1,0,2:0:0:0:
498,27,637951,1,8,2:3:0:0:
496,35,638033,1,0,2:0:0:0:
494,43,638115,1,0,2:0:0:0:
475,60,638198,1,8,2:3:0:0:
473,68,638280,1,0,2:0:0:0:
471,76,638362,1,0,2:0:0:0:
455,80,638445,2,0,B|446:121|371:117|371:117|365:58|314:48,1,194.999991073609,4|0,2:0|2:0,2:0:0:0:
84,131,638692,5,8,2:3:0:0:
108,106,638774,1,0,2:0:0:0:
120,138,638856,1,0,2:0:0:0:
106,124,638938,2,0,B|190:112|190:112|218:127|218:127|300:116,1,194.999991073609,4|0,2:0|2:0,2:0:0:0:
437,285,639185,5,8,2:3:0:0:
413,260,639267,1,0,2:0:0:0:
401,292,639349,1,0,2:0:0:0:
415,278,639431,2,0,B|329:266|329:266|301:281|301:281|218:269,1,194.999991073609,4|0,2:0|2:0,2:0:0:0:
38,269,639679,5,8,2:3:0:0:
50,237,639761,1,0,2:0:0:0:
74,262,639843,1,0,2:0:0:0:
51,257,639926,2,0,B|22:229|22:229|175:199,1,194.999991073609,4|0,2:0|2:0,2:0:0:0:
459,105,640173,5,8,2:3:0:0:
447,137,640255,1,0,2:0:0:0:
423,112,640337,1,0,2:0:0:0:
441,120,640420,2,0,B|469:147|469:147|318:177,1,194.999991073609,4|0,2:0|2:0,2:0:0:0:
139,100,640667,5,10,3:0:0:0:
121,148,640749,1,0,3:0:0:0:
104,197,640831,1,0,3:0:0:0:
79,232,640914,5,10,3:0:0:0:
97,280,640996,1,0,3:0:0:0:
114,329,641078,1,0,3:0:0:0:
118,341,641161,5,10,3:0:0:0:
169,347,641243,1,0,3:0:0:0:
220,353,641325,1,0,3:0:0:0:
272,359,641408,1,10,3:0:0:0:
323,365,641490,1,0,3:0:0:0:
374,371,641572,1,0,3:0:0:0:
425,378,641654,5,10,3:0:0:0:
375,342,641737,1,0,3:0:0:0:
325,307,641819,1,0,3:0:0:0:
275,272,641901,1,10,3:0:0:0:
225,236,641984,1,0,3:0:0:0:
175,201,642066,1,0,3:0:0:0:
125,166,642148,5,10,3:0:0:0:
190,140,642231,1,0,3:0:0:0:
254,115,642313,1,0,3:0:0:0:
318,90,642395,1,10,3:0:0:0:
383,65,642478,1,0,3:0:0:0:
447,40,642560,1,0,3:0:0:0:
510,13,642642,5,10,3:0:0:0:
455,68,642724,1,0,3:0:0:0:
399,123,642807,1,0,3:0:0:0:
344,178,642889,1,10,3:0:0:0:
289,233,642971,1,0,3:0:0:0:
234,289,643054,1,0,3:0:0:0:
180,345,643136,5,10,3:0:0:0:
208,263,643218,1,0,3:0:0:0:
236,180,643301,1,0,3:0:0:0:
260,97,643383,2,0,B|250:47|197:37|197:37|178:84|130:82,1,173.333325398763,14|0,3:0|2:0,2:0:0:0:
0,0,643630,5,0,3:0:0:0:
0,17,643712,1,0,3:0:0:0:
0,35,643794,1,0,3:0:0:0:
19,59,643877,1,0,3:0:0:0:
19,77,643959,1,0,3:0:0:0:
19,94,644041,1,0,3:0:0:0:
33,116,644124,1,0,2:0:0:0:
33,134,644206,1,0,2:0:0:0:
33,152,644288,1,0,2:0:0:0:
49,166,644371,2,0,B|66:309|66:309|85:247,1,200,0|0,2:0|2:0,2:0:0:0:
272,108,645314,6,0,P|318:68|358:76,1,100,2|0,2:0|2:0,2:0:0:0:
424,125,645995,1,2,2:0:0:0:
424,125,646677,5,2,2:0:0:0:
399,221,647017,1,0,2:0:0:0:
317,278,647358,1,2,2:0:0:0:
427,237,647699,1,0,2:0:0:0:
456,129,648040,1,2,2:0:0:0:
456,129,648722,5,2,2:0:0:0:
323,65,649063,1,0,2:0:0:0:
339,204,649404,1,2,2:0:0:0:
206,140,649745,1,0,2:0:0:0:
298,312,650086,5,2,2:0:0:0:
284,142,650427,1,0,2:0:0:0:
124,228,650767,2,0,L|132:335,1,100,2|0,2:0|2:0,2:0:0:0:
124,228,651449,2,0,L|128:281,1,50,2|0,2:0|2:0,2:0:0:0:
124,228,652131,2,0,L|126:254,1,25,2|0,2:0|2:0,2:0:0:0:
324,56,652813,5,2,2:0:0:0:
324,56,653154,1,0,2:0:0:0:
423,127,653495,1,2,2:0:0:0:
423,127,653836,1,0,2:0:0:0:
364,216,654177,1,2,2:0:0:0:
111,168,654858,5,2,2:0:0:0:
108,196,655199,1,0,2:0:0:0:
41,282,655540,1,2,2:0:0:0:
44,310,655881,1,0,2:0:0:0:
108,384,656222,1,2,2:0:0:0:
97,27,656904,5,2,2:0:0:0:
256,192,657245,1,0,2:0:0:0:
108,103,657586,5,0,2:0:0:0:
256,192,657927,1,0,2:0:0:0:
132,156,658267,5,0,2:0:0:0:
256,192,658608,1,0,2:0:0:0:
159,190,658949,5,0,2:0:0:0:
256,192,659290,1,0,2:0:0:0:
185,209,659631,5,0,2:0:0:0:
256,192,659972,1,0,2:0:0:0:
208,218,660313,5,0,2:0:0:0:
256,192,660654,1,0,2:0:0:0:
0,384,661006,5,2,2:3:0:0:
