osu file format v14

[General]
AudioFilename: croiX - TeamGrimoire+Amaneko.mp3
AudioLeadIn: 0
PreviewTime: 15757
Countdown: 0
SampleSet: Soft
StackLeniency: 0.7
Mode: 3
LetterboxInBreaks: 0
SpecialStyle: 0
WidescreenStoryboard: 0

[Editor]
Bookmarks: 64067
DistanceSpacing: 0.5
BeatDivisor: 4
GridSize: 4
TimelineZoom: 1.9

[Metadata]
Title:croiX
TitleUnicode:croiX
Artist:TeamGrimoire+amaneko
ArtistUnicode:TeamGrimoire+あま猫
Creator:Takane6
Version:ADVANCED
Source:SOUND VOLTEX BOOTH
Tags:SDVX FLOOR KAC2012 オリジナル楽曲コンテスト Original Song Contest ULTIMATE MEDLEY -HISTORIA SOUND VOLTEX- DE-CADE Shinzo- SpectorDG Eon- II -infinite infection- Grimoire of Blue
BeatmapID:724147
BeatmapSetID:326079

[Difficulty]
HPDrainRate:7.5
CircleSize:4
OverallDifficulty:8
ApproachRate:5
SliderMultiplier:1.4
SliderTickRate:1

[Events]
//Background and Video events
0,0,"-croiX-.png",0,0
//Break Periods
//Storyboard Layer 0 (Background)
//Storyboard Layer 1 (Fail)
//Storyboard Layer 2 (Pass)
//Storyboard Layer 3 (Foreground)
//Storyboard Sound Samples

[TimingPoints]
1541,307.692307692308,4,2,2,25,1,0
8925,333.333333333333,4,2,2,25,1,0
8925,-92.5925925925926,4,2,2,25,0,0
9591,352.941176470588,4,2,2,25,1,0
9591,-86.9565217391304,4,2,2,25,0,0
10296,375,4,2,2,25,1,0
10296,-81.9672131147541,4,2,2,25,0,0
13296,307.692307692308,4,2,2,25,1,0
16988,-100,4,2,1,25,0,1
36680,-100,4,2,1,25,0,0
56988,315.789473684211,4,2,1,25,1,0
56988,-97.0873786407767,4,2,1,25,0,0
57619,324.324324324324,4,2,1,25,1,0
57619,-95.2380952380952,4,2,1,25,0,0
58267,333.333333333333,4,2,1,25,1,0
58267,-92.5925925925926,4,2,1,25,0,0
58933,342.857142857143,4,2,1,25,1,0
58933,-90.0900900900901,4,2,1,25,0,0
59618,352.941176470588,4,2,1,25,1,0
59618,-86.9565217391304,4,2,1,25,0,0
60323,363.636363636364,4,2,1,25,1,0
60323,-84.7457627118644,4,2,1,25,0,0
61050,375,4,2,1,25,1,0
61050,-81.9672131147541,4,2,1,25,0,0
62550,363.636363636364,4,2,1,25,1,0
62550,-84.7457627118644,4,2,1,25,0,0
63277,352.941176470588,4,2,1,25,1,0
63277,-86.9565217391304,4,2,1,25,0,0
63982,342.857142857143,4,2,1,25,1,0
63982,-90.0900900900901,4,2,1,25,0,0
64667,333.333333333333,4,2,1,25,1,0
64667,-92.5925925925926,4,2,1,25,0,0
65333,324.324324324324,4,2,1,25,1,0
65333,-95.2380952380952,4,2,1,25,0,0
65981,315.789473684211,4,2,1,25,1,0
65981,-97.0873786407767,4,2,1,25,0,0
66612,307.692307692308,4,2,1,25,1,0
67227,307.692307692308,4,2,1,25,1,0
86919,-100,4,2,1,25,0,1
96457,-100,4,2,1,25,0,0
96765,-100,4,2,1,25,0,1
106611,-100,4,2,2,25,0,0

[HitObjects]
64,192,1540,5,2,0:0:0:0:
320,192,1694,1,2,0:0:0:0:
192,192,1848,1,2,0:0:0:0:
448,192,2002,1,2,0:0:0:0:
64,192,2156,1,0,0:0:0:0:
192,192,2156,1,2,0:0:0:0:
448,192,2464,1,2,0:0:0:0:
64,192,2464,1,0,0:0:0:0:
192,192,2617,1,2,0:0:0:0:
320,192,2771,1,2,0:0:0:0:
448,192,2771,1,0,0:0:0:0:
192,192,3079,1,2,0:0:0:0:
64,192,3079,1,0,0:0:0:0:
320,192,3233,1,2,0:0:0:0:
64,192,3387,1,0,0:0:0:0:
448,192,3387,1,2,0:0:0:0:
320,192,3694,1,2,0:0:0:0:
64,192,4002,1,2,0:0:0:0:
448,192,4002,1,0,0:0:0:0:
192,192,4156,1,2,0:0:0:0:
320,192,4310,1,2,0:0:0:0:
192,192,4464,1,2,0:0:0:0:
64,192,4617,1,2,0:0:0:0:
448,192,4617,1,0,0:0:0:0:
64,192,4925,1,2,0:0:0:0:
192,192,5079,1,2,0:0:0:0:
320,192,5233,1,2,0:0:0:0:
448,192,5387,1,2,0:0:0:0:
192,192,5541,1,2,0:0:0:0:
64,192,5694,1,2,0:0:0:0:
320,192,5848,1,2,0:0:0:0:
448,192,6156,1,2,0:0:0:0:
320,192,6464,1,0,0:0:0:0:
448,192,6464,1,2,0:0:0:0:
192,192,6771,1,2,0:0:0:0:
64,192,6771,1,0,0:0:0:0:
64,192,7079,1,0,0:0:0:0:
448,192,7079,1,2,0:0:0:0:
64,192,7387,1,2,0:0:0:0:
192,192,7541,1,2,0:0:0:0:
64,192,7694,1,0,0:0:0:0:
448,192,7694,1,2,0:0:0:0:
320,192,7848,1,2,0:0:0:0:
448,192,8002,1,2,0:0:0:0:
320,192,8156,1,2,0:0:0:0:
192,192,8310,1,2,0:0:0:0:
64,192,8310,1,0,0:0:0:0:
448,192,8464,1,0,0:0:0:0:
192,192,8617,1,0,0:0:0:0:
320,192,8617,1,2,0:0:0:0:
320,192,8925,1,2,0:0:0:0:
448,192,8925,1,0,0:0:0:0:
192,192,9091,1,2,0:0:0:0:
64,192,9258,1,2,0:0:0:0:
448,192,9258,1,0,0:0:0:0:
320,192,9425,1,2,0:0:0:0:
192,192,9591,1,2,0:0:0:0:
64,192,9591,1,0,0:0:0:0:
320,192,9767,1,2,0:0:0:0:
64,192,9943,1,0,0:0:0:0:
448,192,9943,1,2,0:0:0:0:
192,192,10120,1,2,0:0:0:0:
320,192,10296,1,2,0:0:0:0:
448,192,10296,1,0,0:0:0:0:
192,192,10483,1,2,0:0:0:0:
64,192,10671,1,2,0:0:0:0:
448,192,10671,1,0,0:0:0:0:
192,192,10858,1,2,0:0:0:0:
320,192,11046,1,2,0:0:0:0:
448,192,11046,1,0,0:0:0:0:
192,192,11233,1,2,0:0:0:0:
448,192,11421,1,0,0:0:0:0:
64,192,11421,128,2,15757:0:0:0:0:
320,192,15757,1,0,0:0:0:0:
192,192,15834,1,0,0:0:0:0:
320,192,15911,1,0,0:0:0:0:
448,192,15988,1,0,0:0:0:0:
64,192,16065,1,0,0:0:0:0:
192,192,16142,1,0,0:0:0:0:
320,192,16219,1,0,0:0:0:0:
448,192,16296,1,0,0:0:0:0:
64,192,16372,1,0,0:0:0:0:
448,192,16449,1,0,0:0:0:0:
320,192,16526,1,0,0:0:0:0:
192,192,16603,1,0,0:0:0:0:
64,192,16680,1,0,0:0:0:0:
448,192,16757,1,0,0:0:0:0:
320,192,16834,1,0,0:0:0:0:
192,192,16911,1,0,0:0:0:0:
64,192,16988,1,0,0:0:0:30:soft-hitfinish.wav
448,192,16988,1,0,0:0:0:0:
320,192,17065,1,0,0:0:0:0:
192,192,17142,1,0,0:0:0:0:
320,192,17296,1,0,0:0:0:30:normal-hitclap.wav
64,192,17296,1,0,0:0:0:0:
192,192,17449,1,0,0:0:0:0:
320,192,17526,1,0,0:0:0:0:
448,192,17603,1,0,0:0:0:0:
64,192,17757,1,0,0:0:0:0:
320,192,17911,1,0,0:0:0:30:normal-hitclap.wav
448,192,17911,1,0,0:0:0:0:
64,192,18065,1,0,0:0:0:0:
192,192,18142,1,0,0:0:0:0:
64,192,18219,1,0,0:0:0:0:
448,192,18219,1,0,0:0:0:0:
320,192,18296,1,0,0:0:0:0:
192,192,18372,1,0,0:0:0:0:
448,192,18526,1,0,0:0:0:30:normal-hitclap.wav
64,192,18526,1,0,0:0:0:0:
192,192,18680,1,0,0:0:0:0:
320,192,18757,1,0,0:0:0:0:
448,192,18834,1,0,0:0:0:0:
192,192,18988,1,0,0:0:0:0:
320,192,19142,1,0,0:0:0:30:normal-hitclap.wav
64,192,19142,1,0,0:0:0:0:
448,192,19296,1,0,0:0:0:0:
320,192,19372,1,0,0:0:0:0:
64,192,19449,1,0,0:0:0:0:
448,192,19449,1,0,0:0:0:0:
192,192,19526,1,0,0:0:0:0:
320,192,19603,1,0,0:0:0:0:
448,192,19757,1,0,0:0:0:30:normal-hitclap.wav
64,192,19757,1,0,0:0:0:0:
320,192,19911,1,0,0:0:0:0:
192,192,19988,1,0,0:0:0:0:
64,192,20065,1,0,0:0:0:0:
448,192,20219,1,0,0:0:0:0:
192,192,20372,1,0,0:0:0:30:normal-hitclap.wav
320,192,20372,1,0,0:0:0:0:
64,192,20526,1,0,0:0:0:0:
192,192,20603,1,0,0:0:0:0:
64,192,20680,1,0,0:0:0:0:
320,192,20680,1,0,0:0:0:0:
448,192,20834,1,0,0:0:0:0:
320,192,20911,1,0,0:0:0:0:
192,192,20988,1,0,0:0:0:30:normal-hitclap.wav
448,192,20988,1,0,0:0:0:0:
64,192,21142,1,0,0:0:0:0:
320,192,21142,1,0,0:0:0:0:
192,192,21219,1,0,0:0:0:0:
64,192,21296,1,0,0:0:0:0:
448,192,21449,1,0,0:0:0:0:
320,192,21526,1,0,0:0:0:0:
64,192,21603,1,0,0:0:0:30:normal-hitclap.wav
192,192,21603,1,0,0:0:0:0:
320,192,21757,1,0,0:0:0:0:
192,192,21834,1,0,0:0:0:0:
448,192,21911,1,0,0:0:0:0:
64,192,21911,1,0,0:0:0:0:
320,192,22219,1,0,0:0:0:30:normal-hitclap.wav
448,192,22219,1,0,0:0:0:0:
192,192,22372,1,0,0:0:0:0:
448,192,22526,1,0,0:0:0:0:
64,192,22680,1,0,0:0:0:0:
192,192,22834,1,0,0:0:0:30:normal-hitclap.wav
448,192,22834,1,0,0:0:0:0:
64,192,22988,1,0,0:0:0:0:
192,192,23065,1,0,0:0:0:0:
320,192,23142,1,0,0:0:0:0:
448,192,23142,1,0,0:0:0:0:
64,192,23449,1,0,0:0:0:30:normal-hitclap.wav
192,192,23449,1,0,0:0:0:0:
320,192,23603,1,0,0:0:0:0:
192,192,23680,1,0,0:0:0:0:
64,192,23757,1,0,0:0:0:0:
320,192,23911,1,0,0:0:0:0:
192,192,24065,1,0,0:0:0:30:normal-hitclap.wav
448,192,24065,1,0,0:0:0:0:
64,192,24219,1,0,0:0:0:0:
192,192,24296,1,0,0:0:0:0:
320,192,24372,1,0,0:0:0:0:
448,192,24372,1,0,0:0:0:0:
64,192,24680,1,0,0:0:0:30:normal-hitclap.wav
192,192,24680,1,0,0:0:0:0:
320,192,24834,1,0,0:0:0:0:
192,192,24911,1,0,0:0:0:0:
64,192,24988,1,0,0:0:0:0:
448,192,25142,1,0,0:0:0:0:
320,192,25219,1,0,0:0:0:0:
192,192,25296,1,0,0:0:0:30:normal-hitclap.wav
64,192,25296,1,0,0:0:0:0:
448,192,25449,1,0,0:0:0:0:
320,192,25526,1,0,0:0:0:0:
192,192,25603,1,0,0:0:0:30:normal-hitclap.wav
64,192,25603,1,0,0:0:0:0:
320,192,25757,128,0,25911:0:0:0:0:
448,192,25911,1,0,0:0:0:30:normal-hitclap.wav
64,192,25911,1,0,0:0:0:0:
192,192,26065,128,0,26219:0:0:0:0:
448,192,26219,1,0,0:0:0:30:normal-hitclap.wav
320,192,26219,1,0,0:0:0:0:
64,192,26372,128,0,26526:0:0:0:0:
448,192,26526,128,0,26834:0:0:0:30:normal-hitclap.wav
320,192,26526,128,0,26834:0:0:0:0:
192,192,26834,1,0,0:0:0:30:soft-hitfinish.wav
64,192,26834,1,0,0:0:0:0:
320,192,26911,1,0,0:0:0:0:
448,192,26988,1,0,0:0:0:0:
192,192,27142,1,0,0:0:0:30:normal-hitclap.wav
64,192,27142,1,0,0:0:0:0:
320,192,27296,1,0,0:0:0:0:
192,192,27372,1,0,0:0:0:0:
64,192,27449,1,0,0:0:0:0:
320,192,27603,1,0,0:0:0:0:
192,192,27757,1,0,0:0:0:30:normal-hitclap.wav
448,192,27757,1,0,0:0:0:0:
64,192,27911,1,0,0:0:0:0:
192,192,27988,1,0,0:0:0:0:
320,192,28065,1,0,0:0:0:0:
448,192,28065,1,0,0:0:0:0:
192,192,28142,1,0,0:0:0:0:
64,192,28219,1,0,0:0:0:0:
448,192,28372,1,0,0:0:0:30:normal-hitclap.wav
320,192,28372,1,0,0:0:0:0:
64,192,28526,1,0,0:0:0:0:
192,192,28603,1,0,0:0:0:0:
320,192,28680,1,0,0:0:0:0:
192,192,28834,1,0,0:0:0:0:
64,192,28988,1,0,0:0:0:30:normal-hitclap.wav
448,192,28988,1,0,0:0:0:0:
320,192,29142,1,0,0:0:0:0:
192,192,29219,1,0,0:0:0:0:
448,192,29296,1,0,0:0:0:0:
64,192,29296,1,0,0:0:0:0:
320,192,29372,1,0,0:0:0:0:
192,192,29449,1,0,0:0:0:0:
448,192,29603,1,0,0:0:0:30:normal-hitclap.wav
320,192,29603,1,0,0:0:0:0:
192,192,29757,1,0,0:0:0:0:
320,192,29834,1,0,0:0:0:0:
448,192,29911,1,0,0:0:0:0:
192,192,30065,1,0,0:0:0:0:
320,192,30219,1,0,0:0:0:30:normal-hitclap.wav
64,192,30219,1,0,0:0:0:0:
192,192,30372,1,0,0:0:0:0:
320,192,30449,1,0,0:0:0:0:
64,192,30526,1,0,0:0:0:0:
448,192,30526,1,0,0:0:0:0:
192,192,30680,1,0,0:0:0:0:
320,192,30757,1,0,0:0:0:0:
64,192,30834,1,0,0:0:0:30:normal-hitclap.wav
448,192,30834,1,0,0:0:0:0:
192,192,30988,1,0,0:0:0:0:
64,192,31065,1,0,0:0:0:0:
320,192,31142,1,0,0:0:0:0:
448,192,31142,1,0,0:0:0:0:
64,192,31296,1,0,0:0:0:0:
192,192,31372,1,0,0:0:0:0:
320,192,31449,1,0,0:0:0:30:normal-hitclap.wav
448,192,31449,1,0,0:0:0:0:
192,192,31603,1,0,0:0:0:0:
320,192,31680,1,0,0:0:0:0:
64,192,31757,1,0,0:0:0:0:
448,192,31757,1,0,0:0:0:0:
192,192,31911,1,0,0:0:0:0:
64,192,32065,1,0,0:0:0:30:normal-hitclap.wav
448,192,32065,1,0,0:0:0:0:
320,192,32219,1,0,0:0:0:0:
192,192,32372,1,0,0:0:0:0:
64,192,32372,1,0,0:0:0:0:
320,192,32526,1,0,0:0:0:0:
192,192,32680,1,0,0:0:0:30:normal-hitclap.wav
448,192,32680,1,0,0:0:0:0:
64,192,32834,1,0,0:0:0:0:
192,192,32911,1,0,0:0:0:0:
448,192,32988,1,0,0:0:0:0:
320,192,32988,1,0,0:0:0:0:
192,192,33142,1,0,0:0:0:0:
64,192,33296,1,0,0:0:0:30:normal-hitclap.wav
320,192,33296,1,0,0:0:0:0:
192,192,33449,1,0,0:0:0:0:
320,192,33526,1,0,0:0:0:0:
64,192,33603,1,0,0:0:0:0:
448,192,33603,1,0,0:0:0:0:
320,192,33757,1,0,0:0:0:0:
192,192,33911,1,0,0:0:0:30:normal-hitclap.wav
448,192,33911,1,0,0:0:0:0:
320,192,34065,1,0,0:0:0:0:
192,192,34142,1,0,0:0:0:0:
64,192,34219,5,0,0:0:0:30:normal-hitclap.wav
448,192,34219,1,0,0:0:0:0:
320,192,34296,1,0,0:0:0:0:
64,192,34372,1,0,0:0:0:0:
192,192,34449,1,0,0:0:0:0:
448,192,34526,1,0,0:0:0:30:normal-hitclap.wav
320,192,34603,1,0,0:0:0:0:
64,192,34680,1,0,0:0:0:0:
192,192,34757,1,0,0:0:0:0:
448,192,34834,1,0,0:0:0:30:normal-hitclap.wav
320,192,34911,1,0,0:0:0:0:
64,192,34988,1,0,0:0:0:0:
192,192,35065,1,0,0:0:0:0:
448,192,35142,1,0,0:0:0:30:normal-hitclap.wav
320,192,35219,1,0,0:0:0:0:
64,192,35296,1,0,0:0:0:0:
192,192,35372,1,0,0:0:0:0:
448,192,35449,1,0,0:0:0:30:normal-hitclap.wav
64,192,35449,128,0,36065:0:0:0:0:
320,192,35526,1,0,0:0:0:0:
448,192,35603,1,0,0:0:0:0:
192,192,35680,1,0,0:0:0:0:
320,192,35757,1,0,0:0:0:0:
192,192,35834,1,0,0:0:0:0:
448,192,35911,1,0,0:0:0:0:
320,192,35988,1,0,0:0:0:0:
448,192,36065,1,0,0:0:0:30:soft-hitfinish.wav
192,192,36065,1,0,0:0:0:0:
320,192,36219,1,0,0:0:0:0:
448,192,36372,1,0,0:0:0:0:
64,192,36372,1,0,0:0:0:0:
320,192,36449,1,0,0:0:0:0:
192,192,36526,1,0,0:0:0:0:
64,192,36603,1,0,0:0:0:0:
448,192,36680,1,2,0:0:0:0:
320,192,36680,1,2,0:0:0:0:
192,192,36834,1,0,0:0:0:0:
320,192,36988,1,0,0:0:0:0:
64,192,36988,1,0,0:0:0:0:
192,192,37142,1,2,0:0:0:0:
448,192,37142,1,2,0:0:0:0:
192,192,37449,1,0,0:0:0:0:
320,192,37449,1,0,0:0:0:0:
64,192,37603,1,2,0:0:0:0:
448,192,37603,1,2,0:0:0:0:
320,192,37757,1,0,0:0:0:0:
192,192,37834,1,0,0:0:0:0:
64,192,37911,1,0,0:0:0:0:
320,192,37911,1,0,0:0:0:0:
448,192,38065,1,0,0:0:0:0:
320,192,38219,1,0,0:0:0:0:
64,192,38219,1,0,0:0:0:0:
448,192,38372,1,0,0:0:0:0:
192,192,38372,1,0,0:0:0:0:
192,192,38680,1,0,0:0:0:0:
320,192,38680,1,0,0:0:0:0:
448,192,38834,1,2,0:0:0:0:
320,192,38834,1,2,0:0:0:0:
192,192,38988,1,0,0:0:0:0:
320,192,39065,1,0,0:0:0:0:
64,192,39142,1,2,0:0:0:0:
448,192,39142,1,2,0:0:0:0:
320,192,39296,1,0,0:0:0:0:
192,192,39449,1,0,0:0:0:0:
64,192,39449,1,0,0:0:0:0:
320,192,39603,1,2,0:0:0:0:
448,192,39603,1,2,0:0:0:0:
64,192,39911,1,0,0:0:0:0:
448,192,39911,1,0,0:0:0:0:
320,192,40065,1,2,0:0:0:0:
192,192,40065,1,2,0:0:0:0:
448,192,40219,1,0,0:0:0:0:
320,192,40296,1,0,0:0:0:0:
192,192,40372,1,0,0:0:0:0:
448,192,40372,1,0,0:0:0:0:
64,192,40526,1,2,0:0:0:0:
192,192,40603,1,0,0:0:0:0:
320,192,40680,1,0,0:0:0:0:
64,192,40680,1,0,0:0:0:0:
192,192,40834,1,0,0:0:0:0:
448,192,40834,1,0,0:0:0:0:
192,192,41142,1,0,0:0:0:0:
448,192,41142,1,0,0:0:0:0:
64,192,41219,1,0,0:0:0:0:
192,192,41296,1,2,0:0:0:0:
320,192,41296,1,2,0:0:0:0:
64,192,41372,1,0,0:0:0:0:
320,192,41449,1,0,0:0:0:0:
448,192,41449,1,0,0:0:0:0:
320,192,41757,1,0,0:0:0:0:
64,192,41757,1,0,0:0:0:0:
448,192,41834,1,0,0:0:0:0:
192,192,41834,1,0,0:0:0:0:
64,192,41911,1,0,0:0:0:0:
320,192,41911,1,0,0:0:0:0:
192,192,42065,1,2,0:0:0:0:
448,192,42065,1,2,0:0:0:0:
64,192,42372,1,0,0:0:0:0:
320,192,42372,1,0,0:0:0:0:
192,192,42526,1,2,0:0:0:0:
448,192,42526,1,2,0:0:0:0:
320,192,42680,1,0,0:0:0:0:
192,192,42757,1,0,0:0:0:0:
64,192,42834,1,0,0:0:0:0:
448,192,42834,1,0,0:0:0:0:
320,192,42988,1,2,0:0:0:0:
192,192,43142,1,0,0:0:0:0:
64,192,43142,1,0,0:0:0:0:
320,192,43296,1,0,0:0:0:0:
448,192,43296,1,0,0:0:0:0:
192,192,43603,1,0,0:0:0:0:
64,192,43603,1,0,0:0:0:0:
320,192,43757,1,2,0:0:0:0:
448,192,43757,1,2,0:0:0:0:
64,192,43911,1,0,0:0:0:0:
192,192,43988,1,0,0:0:0:0:
320,192,44065,1,2,0:0:0:0:
448,192,44065,1,2,0:0:0:0:
64,192,44219,1,0,0:0:0:0:
192,192,44372,1,0,0:0:0:0:
448,192,44372,1,0,0:0:0:0:
320,192,44526,1,2,0:0:0:0:
64,192,44526,1,2,0:0:0:0:
64,192,44834,1,0,0:0:0:0:
320,192,44834,1,0,0:0:0:0:
192,192,44988,1,2,0:0:0:0:
448,192,44988,1,2,0:0:0:0:
64,192,45142,1,0,0:0:0:0:
192,192,45219,1,0,0:0:0:0:
320,192,45296,1,0,0:0:0:0:
448,192,45296,1,0,0:0:0:0:
192,192,45449,1,2,0:0:0:0:
320,192,45526,1,0,0:0:0:0:
64,192,45603,1,0,0:0:0:0:
448,192,45603,1,0,0:0:0:0:
192,192,45757,1,0,0:0:0:0:
320,192,45757,1,0,0:0:0:0:
448,192,46065,1,0,0:0:0:0:
320,192,46142,1,0,0:0:0:0:
192,192,46219,1,2,0:0:0:0:
64,192,46219,1,2,0:0:0:0:
320,192,46372,1,0,0:0:0:0:
192,192,46449,1,0,0:0:0:0:
64,192,46526,1,0,0:0:0:30:soft-hitfinish.wav
448,192,46526,128,0,46680:0:0:0:0:
320,192,46680,128,0,46834:0:0:0:0:
192,192,46834,128,0,46988:0:0:0:30:normal-hitclap.wav
448,192,46988,1,0,0:0:0:0:
64,192,46988,128,0,47142:0:0:0:0:
320,192,47142,128,0,47296:0:0:0:0:
192,192,47296,128,0,47449:0:0:0:0:
64,192,47449,1,0,0:0:0:30:normal-hitclap.wav
448,192,47449,128,0,47603:0:0:0:0:
320,192,47603,128,0,47757:0:0:0:0:
192,192,47757,128,0,47911:0:0:0:0:
448,192,47911,1,0,0:0:0:0:
64,192,47911,128,0,48065:0:0:0:0:
320,192,48065,128,0,48219:0:0:0:30:normal-hitclap.wav
192,192,48219,128,0,48372:0:0:0:0:
64,192,48372,1,0,0:0:0:0:
448,192,48372,128,0,48526:0:0:0:0:
320,192,48526,128,0,48680:0:0:0:0:
192,192,48680,1,0,0:0:0:30:normal-hitclap.wav
448,192,48680,1,0,0:0:0:0:
64,192,48757,1,0,0:0:0:0:
320,192,48834,1,0,0:0:0:0:
192,192,48911,1,0,0:0:0:0:
448,192,48988,1,0,0:0:0:0:
64,192,48988,128,0,49142:0:0:0:0:
192,192,49142,128,0,49296:0:0:0:0:
320,192,49296,128,0,49449:0:0:0:30:normal-hitclap.wav
64,192,49449,1,0,0:0:0:0:
448,192,49449,128,0,49603:0:0:0:0:
192,192,49603,128,0,49757:0:0:0:0:
320,192,49757,128,0,49911:0:0:0:0:
448,192,49911,1,0,0:0:0:30:normal-hitclap.wav
64,192,49911,128,0,50065:0:0:0:0:
320,192,50065,1,0,0:0:0:0:
192,192,50142,1,0,0:0:0:0:
320,192,50219,1,0,0:0:0:0:
448,192,50219,128,0,50372:0:0:0:0:
192,192,50372,128,0,50526:0:0:0:0:
64,192,50526,1,0,0:0:0:30:normal-hitclap.wav
448,192,50526,128,0,50680:0:0:0:0:
320,192,50680,128,0,50834:0:0:0:0:
64,192,50834,1,0,0:0:0:0:
448,192,50834,128,0,50988:0:0:0:0:
192,192,50988,1,0,0:0:0:0:
320,192,51065,1,0,0:0:0:0:
64,192,51142,1,0,0:0:0:30:normal-hitclap.wav
448,192,51142,1,0,0:0:0:0:
192,192,51296,1,0,0:0:0:0:
320,192,51296,1,0,0:0:0:0:
448,192,51449,1,0,0:0:0:30:soft-hitfinish.wav
64,192,51449,128,0,51603:0:0:0:0:
320,192,51603,128,0,51757:0:0:0:0:
192,192,51757,128,0,51911:0:0:0:30:normal-hitclap.wav
64,192,51911,1,0,0:0:0:0:
448,192,51911,128,0,52065:0:0:0:0:
192,192,52065,128,0,52219:0:0:0:0:
320,192,52219,128,0,52372:0:0:0:0:
448,192,52372,1,0,0:0:0:30:normal-hitclap.wav
64,192,52372,128,0,52526:0:0:0:0:
192,192,52526,128,0,52680:0:0:0:0:
320,192,52680,1,0,0:0:0:30:soft-hitfinish.wav
64,192,52680,1,0,0:0:0:0:
448,192,52834,1,0,0:0:0:0:
192,192,52834,128,0,52988:0:0:0:0:
320,192,52988,1,0,0:0:0:30:normal-hitclap.wav
192,192,53142,1,0,0:0:0:0:
448,192,53142,1,0,0:0:0:0:
64,192,53296,1,0,0:0:0:0:
320,192,53296,128,0,53449:0:0:0:0:
192,192,53449,1,0,0:0:0:0:
64,192,53603,1,0,0:0:0:30:normal-hitclap.wav
448,192,53603,1,0,0:0:0:0:
320,192,53680,1,0,0:0:0:0:
192,192,53757,1,0,0:0:0:0:
64,192,53834,1,0,0:0:0:0:
320,192,53911,1,0,0:0:0:30:soft-hitfinish.wav
448,192,53911,1,0,0:0:0:0:
192,192,54065,1,0,0:0:0:0:
64,192,54219,1,0,0:0:0:30:normal-hitclap.wav
320,192,54219,1,0,0:0:0:0:
192,192,54372,1,0,0:0:0:0:
320,192,54449,1,0,0:0:0:0:
64,192,54526,1,0,0:0:0:30:soft-hitfinish.wav
448,192,54526,1,0,0:0:0:0:
320,192,54680,1,0,0:0:0:0:
192,192,54834,1,0,0:0:0:30:normal-hitclap.wav
448,192,54834,1,0,0:0:0:0:
320,192,54988,1,0,0:0:0:0:
192,192,55142,1,0,0:0:0:30:soft-hitfinish.wav
64,192,55142,1,0,0:0:0:0:
448,192,55219,1,0,0:0:0:0:
320,192,55296,1,0,0:0:0:0:
64,192,55372,1,0,0:0:0:0:
192,192,55449,1,0,0:0:0:30:normal-hitclap.wav
448,192,55526,1,0,0:0:0:0:
320,192,55603,1,0,0:0:0:0:
64,192,55680,1,0,0:0:0:0:
192,192,55757,1,0,0:0:0:30:normal-hitclap.wav
448,192,55834,1,0,0:0:0:0:
320,192,55911,1,0,0:0:0:0:
64,192,55988,1,0,0:0:0:0:
192,192,56065,128,0,56372:0:0:0:30:normal-hitclap.wav
320,192,56219,128,0,56372:0:0:0:0:
448,192,56372,1,0,0:0:0:30:soft-hitfinish.wav
64,192,56372,128,0,56526:0:0:0:0:
192,192,56526,128,0,56680:0:0:0:0:
320,192,56680,128,0,56834:0:0:0:30:normal-hitclap.wav
448,192,56834,128,0,56988:0:0:0:0:
64,192,56988,128,0,57145:0:0:0:0:
192,192,57145,128,0,57303:0:0:0:0:
320,192,57303,128,0,57461:0:0:0:30:normal-hitclap.wav
448,192,57461,128,0,57619:0:0:0:0:
64,192,57619,128,0,57781:0:0:0:0:
192,192,57781,128,0,57943:0:0:0:0:
320,192,57943,128,0,58105:0:0:0:30:normal-hitclap.wav
448,192,58105,128,0,58267:0:0:0:0:
64,192,58267,128,0,58433:0:0:0:0:
192,192,58433,128,0,58600:0:0:0:0:
320,192,58600,128,0,58767:0:0:0:30:normal-hitclap.wav
192,192,58767,128,0,58933:0:0:0:0:
448,192,58933,128,0,59104:0:0:0:0:
320,192,59104,128,0,59275:0:0:0:0:
192,192,59275,128,0,59447:0:0:0:30:normal-hitclap.wav
64,192,59447,128,0,59618:0:0:0:0:
448,192,59618,128,0,59794:0:0:0:0:
320,192,59794,128,0,59970:0:0:0:0:
192,192,59970,128,0,60147:0:0:0:30:normal-hitclap.wav
64,192,60147,128,0,60323:0:0:0:0:
448,192,60323,128,0,60504:0:0:0:0:
320,192,60504,128,0,60686:0:0:0:0:
192,192,60686,128,0,60868:0:0:0:30:normal-hitclap.wav
64,192,60868,128,0,61050:0:0:0:0:
448,192,61050,128,0,61237:0:0:0:0:
320,192,61237,128,0,61425:0:0:0:0:
192,192,61425,128,0,61612:0:0:0:30:normal-hitclap.wav
320,192,61612,128,0,61800:0:0:0:0:
64,192,61800,128,0,61987:0:0:0:0:
192,192,61987,128,0,62175:0:0:0:0:
320,192,62175,128,0,62362:0:0:0:30:normal-hitclap.wav
448,192,62362,128,0,62550:0:0:0:0:
320,192,62550,128,0,62731:0:0:0:30:normal-hitclap.wav
192,192,62731,128,0,62913:0:0:0:0:
64,192,62913,128,0,63095:0:0:0:30:soft-hitfinish.wav
448,192,62913,1,0,0:0:0:0:
192,192,63095,128,0,63277:0:0:0:0:
320,192,63277,128,0,63453:0:0:0:30:normal-hitclap.wav
448,192,63453,128,0,63629:0:0:0:0:
320,192,63629,128,0,63806:0:0:0:30:normal-hitclap.wav
192,192,63806,128,0,63982:0:0:0:0:
64,192,63982,128,0,64153:0:0:0:30:normal-hitclap.wav
192,192,64153,128,0,64324:0:0:0:0:
448,192,64324,1,0,0:0:0:30:soft-hitfinish.wav
320,192,64324,128,0,64496:0:0:0:0:
192,192,64496,128,0,64667:0:0:0:0:
448,192,64667,128,0,64833:0:0:0:30:normal-hitclap.wav
320,192,64833,128,0,65000:0:0:0:30:normal-hitclap.wav
192,192,65000,128,0,65167:0:0:0:30:normal-hitclap.wav
64,192,65167,128,0,65333:0:0:0:30:normal-hitclap.wav
448,192,65333,128,0,65495:0:0:0:30:normal-hitclap.wav
320,192,65495,128,0,65657:0:0:0:30:normal-hitclap.wav
64,192,65657,1,0,0:0:0:30:soft-hitfinish.wav
192,192,65657,128,0,65819:0:0:0:30:normal-hitclap.wav
320,192,65819,128,0,65981:0:0:0:30:normal-hitclap.wav
448,192,65981,128,0,66138:0:0:0:30:normal-hitclap.wav
320,192,66138,128,0,66296:0:0:0:30:normal-hitclap.wav
192,192,66296,128,0,66454:0:0:0:30:normal-hitclap.wav
64,192,66454,128,0,66612:0:0:0:30:normal-hitclap.wav
448,192,66612,128,0,66765:0:0:0:30:normal-hitclap.wav
192,192,66612,1,0,0:0:0:0:
320,192,66765,128,0,66919:0:0:0:30:normal-hitclap.wav
64,192,66765,1,0,0:0:0:0:
448,192,66919,128,0,67073:0:0:0:30:normal-hitclap.wav
192,192,66919,1,0,0:0:0:0:
320,192,67073,128,0,67227:0:0:0:30:normal-hitclap.wav
64,192,67073,1,0,0:0:0:0:
192,192,67227,1,0,0:0:0:30:normal-hitclap.wav
448,192,67227,1,2,0:0:0:30:
64,192,67534,1,0,0:0:0:0:
448,192,67534,1,0,0:0:0:0:
64,192,67842,1,2,0:0:0:0:
320,192,67842,1,0,0:0:0:0:
192,192,68150,1,0,0:0:0:30:
320,192,68150,1,0,0:0:0:0:
192,192,68457,1,2,0:0:0:30:
448,192,68457,1,0,0:0:0:0:
64,192,68765,1,0,0:0:0:0:
192,192,68765,1,0,0:0:0:0:
320,192,68919,1,2,0:0:0:30:
192,192,69073,1,2,0:0:0:30:
448,192,69073,1,0,0:0:0:0:
64,192,69227,1,2,0:0:0:30:
320,192,69380,1,2,0:0:0:30:
448,192,69380,1,0,0:0:0:0:
320,192,69534,1,2,0:0:0:30:
192,192,69534,1,0,0:0:0:0:
192,192,69688,1,2,0:0:0:30:
64,192,69688,1,0,0:0:0:0:
320,192,69996,1,0,0:0:0:0:
448,192,69996,1,0,0:0:0:0:
192,192,70150,1,2,0:0:0:30:
64,192,70303,1,2,0:0:0:30:
320,192,70303,1,0,0:0:0:0:
192,192,70457,1,2,0:0:0:30:
64,192,70611,1,2,0:0:0:30:
320,192,70611,1,0,0:0:0:0:
448,192,70765,1,2,0:0:0:30:
320,192,70842,1,0,0:0:0:0:
64,192,70919,1,2,0:0:0:30:
192,192,70919,1,0,0:0:0:0:
320,192,71073,1,0,0:0:0:0:
192,192,71150,1,0,0:0:0:0:
64,192,71227,1,0,0:0:0:0:
448,192,71227,1,0,0:0:0:0:
192,192,71380,1,2,0:0:0:30:
64,192,71534,1,2,0:0:0:30:
320,192,71534,1,0,0:0:0:0:
448,192,71688,1,2,0:0:0:30:
320,192,71765,1,0,0:0:0:0:
64,192,71842,1,2,0:0:0:30:
192,192,71842,1,0,0:0:0:0:
448,192,71996,1,2,0:0:0:30:
320,192,72073,1,0,0:0:0:0:
64,192,72150,1,2,0:0:0:30:
192,192,72150,1,0,0:0:0:30:soft-hitfinish.wav
192,192,72457,1,0,0:0:0:30:normal-hitclap.wav
448,192,72457,1,0,0:0:0:0:
64,192,72611,1,0,0:0:0:0:
320,192,72611,1,0,0:0:0:0:
64,192,72919,1,0,0:0:0:0:
192,192,72919,1,0,0:0:0:0:
320,192,73073,1,2,0:0:0:30:
448,192,73073,1,0,0:0:0:30:normal-hitclap.wav
64,192,73227,1,2,0:0:0:30:
192,192,73303,1,2,0:0:0:30:
320,192,73380,1,2,0:0:0:30:
448,192,73380,1,0,0:0:0:30:soft-hitfinish.wav
192,192,73534,1,0,0:0:0:0:
64,192,73688,1,0,0:0:0:30:normal-hitclap.wav
320,192,73688,1,0,0:0:0:0:
192,192,73842,1,0,0:0:0:0:
448,192,73842,1,0,0:0:0:0:
64,192,74150,1,0,0:0:0:0:
320,192,74150,1,0,0:0:0:0:
192,192,74303,1,2,0:0:0:30:
448,192,74303,1,0,0:0:0:30:normal-hitclap.wav
320,192,74457,1,2,0:0:0:30:
192,192,74534,1,2,0:0:0:30:
64,192,74611,1,2,0:0:0:30:
448,192,74611,1,0,0:0:0:30:soft-hitfinish.wav
320,192,74765,1,0,0:0:0:30:normal-hitclap.wav
192,192,74919,1,0,0:0:0:30:normal-hitclap.wav
64,192,74919,1,0,0:0:0:0:
320,192,75073,1,0,0:0:0:30:normal-hitclap.wav
192,192,75227,1,0,0:0:0:30:normal-hitclap.wav
448,192,75227,1,0,0:0:0:30:soft-hitfinish.wav
320,192,75380,1,0,0:0:0:30:normal-hitclap.wav
64,192,75534,1,0,0:0:0:30:normal-hitclap.wav
448,192,75534,1,0,0:0:0:0:
192,192,75688,1,0,0:0:0:30:normal-hitclap.wav
320,192,75842,1,0,0:0:0:30:soft-hitfinish.wav
448,192,75842,1,0,0:0:0:0:
192,192,75919,1,0,0:0:0:0:
320,192,75996,1,0,0:0:0:0:
448,192,76073,1,0,0:0:0:0:
192,192,76150,1,0,0:0:0:30:normal-hitclap.wav
320,192,76227,1,0,0:0:0:0:
192,192,76303,1,0,0:0:0:0:
64,192,76380,1,0,0:0:0:0:
320,192,76457,1,0,0:0:0:0:
192,192,76534,1,0,0:0:0:0:
320,192,76611,1,0,0:0:0:0:
448,192,76688,1,0,0:0:0:0:
192,192,76765,1,0,0:0:0:30:normal-hitclap.wav
320,192,76842,1,0,0:0:0:0:
192,192,76919,1,0,0:0:0:0:
64,192,76996,1,0,0:0:0:0:
448,192,77073,1,2,0:0:0:30:
320,192,77073,1,0,0:0:0:30:soft-hitfinish.wav
192,192,77227,1,0,0:0:0:0:
64,192,77380,1,0,0:0:0:30:normal-hitclap.wav
448,192,77380,1,0,0:0:0:0:
192,192,77534,1,0,0:0:0:0:
64,192,77688,1,0,0:0:0:30:normal-hitclap.wav
320,192,77688,1,0,0:0:0:0:
192,192,77842,1,0,0:0:0:0:
320,192,77996,1,2,0:0:0:30:
448,192,77996,1,0,0:0:0:30:normal-hitclap.wav
64,192,78150,1,0,0:0:0:0:
320,192,78227,1,0,0:0:0:0:
192,192,78303,1,2,0:0:0:30:
448,192,78303,1,0,0:0:0:30:soft-hitfinish.wav
320,192,78457,1,0,0:0:0:0:
64,192,78611,1,0,0:0:0:30:normal-hitclap.wav
448,192,78611,1,0,0:0:0:0:
192,192,78765,1,2,0:0:0:30:
64,192,78919,1,2,0:0:0:30:
320,192,78919,1,0,0:0:0:30:normal-hitclap.wav
192,192,79073,1,2,0:0:0:30:
64,192,79227,1,2,0:0:0:30:
448,192,79227,1,0,0:0:0:30:normal-hitclap.wav
320,192,79380,1,2,0:0:0:30:
192,192,79457,1,2,0:0:0:0:
64,192,79534,1,2,0:0:0:30:
448,192,79534,1,0,0:0:0:30:soft-hitfinish.wav
320,192,79611,1,2,0:0:0:0:
192,192,79688,1,2,0:0:0:0:
64,192,79765,1,2,0:0:0:0:
320,192,79842,1,2,0:0:0:30:
192,192,79919,1,2,0:0:0:0:
320,192,79996,1,0,0:0:0:30:soft-hitfinish.wav
192,192,80073,1,2,0:0:0:0:
64,192,80150,1,2,0:0:0:30:
192,192,80227,1,0,0:0:0:0:
320,192,80303,1,0,0:0:0:0:
448,192,80380,1,0,0:0:0:0:
192,192,80457,1,2,0:0:0:30:
320,192,80534,1,2,0:0:0:0:
192,192,80611,1,2,0:0:0:30:
320,192,80688,1,2,0:0:0:0:
64,192,80765,1,2,0:0:0:30:
192,192,80842,1,2,0:0:0:30:
320,192,80919,1,2,0:0:0:30:
448,192,80996,1,2,0:0:0:30:
64,192,81073,1,2,0:0:0:30:
192,192,81150,1,2,0:0:0:30:
320,192,81227,1,2,0:0:0:30:
448,192,81303,1,2,0:0:0:30:
64,192,81380,1,2,0:0:0:30:
192,192,81457,1,2,0:0:0:30:
320,192,81534,1,2,0:0:0:30:
192,192,81611,1,2,0:0:0:30:
64,192,81688,1,2,0:0:0:30:
448,192,81765,1,2,0:0:0:30:
320,192,81842,1,2,0:0:0:30:
192,192,81919,1,2,0:0:0:30:
64,192,81996,1,2,0:0:0:30:
448,192,81996,1,0,0:0:0:30:soft-hitclap.wav
320,192,82073,1,0,0:0:0:0:
192,192,82150,1,0,0:0:0:0:
64,192,82227,1,0,0:0:0:0:
448,192,82303,1,0,0:0:0:30:soft-hitclap.wav
320,192,82380,1,0,0:0:0:0:
192,192,82457,1,0,0:0:0:0:
320,192,82534,1,0,0:0:0:0:
448,192,82611,1,0,0:0:0:30:soft-hitclap.wav
64,192,82688,1,0,0:0:0:0:
192,192,82765,1,0,0:0:0:0:
320,192,82842,1,0,0:0:0:0:
448,192,82919,1,0,0:0:0:30:soft-hitfinish.wav
64,192,82919,1,0,0:0:0:30:soft-hitclap.wav
320,192,82996,1,0,0:0:0:0:
192,192,83073,1,0,0:0:0:0:
320,192,83150,1,0,0:0:0:0:
64,192,83227,1,2,0:0:0:30:
448,192,83227,1,0,0:0:0:30:soft-hitclap.wav
192,192,83303,1,0,0:0:0:0:
320,192,83380,1,0,0:0:0:0:
448,192,83457,1,0,0:0:0:0:
64,192,83534,1,0,0:0:0:30:soft-hitclap.wav
192,192,83611,1,0,0:0:0:0:
320,192,83688,1,0,0:0:0:30:
192,192,83765,1,0,0:0:0:0:
64,192,83842,1,0,0:0:0:30:soft-hitclap.wav
448,192,83919,1,0,0:0:0:0:
320,192,83996,1,0,0:0:0:0:
192,192,84073,1,0,0:0:0:0:
64,192,84150,1,2,0:0:0:30:
448,192,84150,1,0,0:0:0:30:soft-hitclap.wav
192,192,84227,1,0,0:0:0:0:
320,192,84303,1,0,0:0:0:30:
448,192,84380,1,0,0:0:0:0:
64,192,84457,1,2,0:0:0:30:
192,192,84457,1,0,0:0:0:0:
320,192,84765,1,0,0:0:0:30:normal-hitclap.wav
192,192,84765,1,0,0:0:0:0:
448,192,84919,1,0,0:0:0:0:
192,192,85073,1,0,0:0:0:30:normal-hitclap.wav
320,192,85073,1,0,0:0:0:0:
64,192,85227,1,0,0:0:0:0:
192,192,85380,1,2,0:0:0:30:
448,192,85380,1,0,0:0:0:0:
320,192,85534,128,0,85688:0:0:0:0:
192,192,85688,128,0,85996:0:0:0:0:
64,192,85688,128,0,85996:0:0:0:0:
448,192,85996,1,0,0:0:0:0:
320,192,86073,1,0,0:0:0:0:
192,192,86150,1,0,0:0:0:0:
64,192,86227,1,0,0:0:0:0:
448,192,86303,1,2,0:0:0:30:
320,192,86303,1,0,0:0:0:0:
320,192,86611,1,0,0:0:0:0:
448,192,86611,1,0,0:0:0:0:
64,192,86688,1,0,0:0:0:0:
192,192,86765,1,0,0:0:0:0:
320,192,86842,1,0,0:0:0:0:
448,192,86919,1,0,0:0:0:30:soft-hitfinish.wav
64,192,86919,1,0,0:0:0:0:
192,192,86996,1,0,0:0:0:0:
320,192,87073,1,0,0:0:0:0:
64,192,87227,1,0,0:0:0:30:normal-hitclap.wav
448,192,87227,1,0,0:0:0:0:
192,192,87380,1,0,0:0:0:0:
320,192,87457,1,0,0:0:0:0:
448,192,87534,1,0,0:0:0:0:
192,192,87688,1,0,0:0:0:0:
320,192,87842,1,0,0:0:0:30:normal-hitclap.wav
64,192,87842,1,0,0:0:0:0:
192,192,87996,1,0,0:0:0:0:
320,192,88073,1,0,0:0:0:0:
448,192,88150,1,0,0:0:0:0:
64,192,88150,1,0,0:0:0:0:
192,192,88227,1,0,0:0:0:0:
320,192,88303,1,0,0:0:0:0:
448,192,88457,1,0,0:0:0:30:normal-hitclap.wav
64,192,88457,1,0,0:0:0:0:
320,192,88611,1,0,0:0:0:0:
192,192,88688,1,0,0:0:0:0:
64,192,88765,1,0,0:0:0:0:
320,192,88919,1,0,0:0:0:0:
192,192,89073,1,0,0:0:0:30:normal-hitclap.wav
448,192,89073,1,0,0:0:0:0:
64,192,89227,1,0,0:0:0:0:
192,192,89303,1,0,0:0:0:0:
448,192,89380,1,0,0:0:0:0:
64,192,89380,1,0,0:0:0:0:
320,192,89457,1,0,0:0:0:0:
192,192,89534,1,0,0:0:0:0:
64,192,89688,1,0,0:0:0:30:normal-hitclap.wav
448,192,89688,1,0,0:0:0:0:
192,192,89842,1,0,0:0:0:0:
320,192,89919,1,0,0:0:0:0:
448,192,89996,1,0,0:0:0:0:
64,192,90150,1,0,0:0:0:0:
320,192,90303,1,0,0:0:0:30:normal-hitclap.wav
192,192,90303,1,0,0:0:0:0:
448,192,90457,1,0,0:0:0:0:
320,192,90534,1,0,0:0:0:0:
192,192,90611,1,0,0:0:0:0:
448,192,90611,1,0,0:0:0:0:
64,192,90765,1,0,0:0:0:0:
192,192,90842,1,0,0:0:0:0:
64,192,90919,1,0,0:0:0:30:normal-hitclap.wav
320,192,90919,1,0,0:0:0:0:
448,192,91073,1,0,0:0:0:0:
192,192,91073,1,0,0:0:0:0:
320,192,91227,1,0,0:0:0:0:
64,192,91380,1,0,0:0:0:0:
192,192,91457,1,0,0:0:0:0:
320,192,91534,1,0,0:0:0:30:normal-hitclap.wav
448,192,91534,1,0,0:0:0:0:
64,192,91688,1,0,0:0:0:0:
192,192,91765,1,0,0:0:0:0:
320,192,91842,1,0,0:0:0:0:
448,192,91842,1,0,0:0:0:0:
64,192,92150,1,0,0:0:0:30:normal-hitclap.wav
192,192,92150,1,0,0:0:0:0:
320,192,92303,1,0,0:0:0:0:
64,192,92457,1,0,0:0:0:0:
448,192,92611,1,0,0:0:0:0:
64,192,92765,1,0,0:0:0:30:normal-hitclap.wav
320,192,92765,1,0,0:0:0:0:
448,192,92919,1,0,0:0:0:0:
320,192,92996,1,0,0:0:0:0:
64,192,93073,1,0,0:0:0:0:
192,192,93073,1,0,0:0:0:0:
448,192,93380,1,0,0:0:0:30:normal-hitclap.wav
320,192,93380,1,0,0:0:0:0:
192,192,93534,1,0,0:0:0:0:
320,192,93611,1,0,0:0:0:0:
448,192,93688,1,0,0:0:0:0:
192,192,93842,1,0,0:0:0:0:
64,192,93996,1,0,0:0:0:30:normal-hitclap.wav
320,192,93996,1,0,0:0:0:0:
448,192,94150,1,0,0:0:0:0:
320,192,94227,1,0,0:0:0:0:
64,192,94303,1,0,0:0:0:0:
192,192,94303,1,0,0:0:0:0:
448,192,94611,1,0,0:0:0:30:normal-hitclap.wav
320,192,94611,1,0,0:0:0:0:
192,192,94765,1,0,0:0:0:0:
64,192,94919,1,0,0:0:0:0:
192,192,95073,1,0,0:0:0:0:
320,192,95227,1,0,0:0:0:30:normal-hitclap.wav
448,192,95227,1,0,0:0:0:0:
64,192,95380,1,0,0:0:0:0:
192,192,95457,1,0,0:0:0:0:
448,192,95534,1,0,0:0:0:30:normal-hitclap.wav
320,192,95534,1,0,0:0:0:0:
192,192,95688,128,0,95842:0:0:0:0:
448,192,95842,1,0,0:0:0:30:normal-hitclap.wav
64,192,95842,1,0,0:0:0:0:
320,192,95996,128,0,96150:0:0:0:0:
64,192,96150,1,0,0:0:0:30:normal-hitclap.wav
192,192,96150,1,0,0:0:0:0:
448,192,96303,128,0,96457:0:0:0:0:
64,192,96457,128,0,96765:0:0:0:30:normal-hitclap.wav
192,192,96457,128,0,96765:0:0:0:0:
320,192,96765,1,0,0:0:0:30:soft-hitfinish.wav
448,192,96765,1,0,0:0:0:30:normal-hitclap.wav
192,192,96842,1,0,0:0:0:0:
64,192,96919,1,0,0:0:0:30:normal-hitclap.wav
320,192,97073,1,0,0:0:0:30:normal-hitclap.wav
448,192,97073,1,0,0:0:0:0:
192,192,97227,1,0,0:0:0:30:normal-hitclap.wav
320,192,97303,1,0,0:0:0:0:
448,192,97380,1,0,0:0:0:30:normal-hitclap.wav
192,192,97534,1,0,0:0:0:30:normal-hitclap.wav
64,192,97688,1,0,0:0:0:30:normal-hitclap.wav
320,192,97688,1,0,0:0:0:0:
448,192,97842,1,0,0:0:0:30:normal-hitclap.wav
320,192,97919,1,0,0:0:0:0:
64,192,97996,1,0,0:0:0:30:normal-hitclap.wav
192,192,97996,1,0,0:0:0:30:soft-hitfinish.wav
320,192,98073,1,0,0:0:0:0:
448,192,98150,1,0,0:0:0:30:normal-hitclap.wav
64,192,98303,1,0,0:0:0:30:normal-hitclap.wav
192,192,98457,1,0,0:0:0:30:normal-hitclap.wav
448,192,98457,1,0,0:0:0:0:
320,192,98534,1,0,0:0:0:0:
64,192,98611,1,0,0:0:0:30:normal-hitclap.wav
192,192,98765,1,0,0:0:0:30:normal-hitclap.wav
320,192,98765,1,0,0:0:0:0:
64,192,98919,1,0,0:0:0:30:normal-hitclap.wav
448,192,98919,1,0,0:0:0:0:
320,192,99073,128,0,99227:0:0:0:30:normal-hitclap.wav
448,192,99227,1,0,0:0:0:0:
64,192,99227,1,0,0:0:0:30:soft-hitfinish.wav
192,192,99303,1,0,0:0:0:0:
320,192,99380,1,0,0:0:0:30:normal-hitclap.wav
192,192,99534,128,0,99688:0:0:0:0:
64,192,99688,1,0,0:0:0:30:normal-hitclap.wav
448,192,99688,1,0,0:0:0:30:normal-hitclap.wav
320,192,99765,1,0,0:0:0:0:
192,192,99842,1,0,0:0:0:30:normal-hitclap.wav
448,192,99996,128,0,100150:0:0:0:30:normal-hitclap.wav
64,192,99996,1,0,0:0:0:0:
320,192,100150,1,0,0:0:0:30:soft-hitfinish.wav
192,192,100150,1,0,0:0:0:30:normal-hitclap.wav
64,192,100303,128,0,100457:0:0:0:30:normal-hitclap.wav
448,192,100303,1,0,0:0:0:0:
192,192,100457,1,0,0:0:0:30:normal-hitclap.wav
320,192,100457,1,0,0:0:0:30:normal-hitclap.wav
448,192,100611,1,0,0:0:0:30:normal-hitclap.wav
64,192,100765,1,0,0:0:0:30:soft-hitfinish.wav
192,192,100765,1,0,0:0:0:0:
320,192,100919,1,0,0:0:0:0:
448,192,101073,1,0,0:0:0:30:normal-hitclap.wav
64,192,101073,1,0,0:0:0:0:
192,192,101227,1,0,0:0:0:30:normal-hitclap.wav
320,192,101380,1,0,0:0:0:30:soft-hitfinish.wav
448,192,101380,128,0,101688:0:0:0:0:
192,192,101534,1,0,0:0:0:0:
64,192,101688,1,0,0:0:0:30:normal-hitclap.wav
320,192,101688,1,0,0:0:0:0:
192,192,101765,1,0,0:0:0:0:
320,192,101842,1,0,0:0:0:0:
192,192,101919,1,0,0:0:0:0:
448,192,101996,1,0,0:0:0:30:normal-hitclap.wav
320,192,102073,1,0,0:0:0:0:
192,192,102150,1,0,0:0:0:0:
320,192,102227,1,0,0:0:0:0:
64,192,102303,1,0,0:0:0:30:normal-hitclap.wav
192,192,102380,1,0,0:0:0:0:
320,192,102457,1,0,0:0:0:0:
192,192,102534,1,0,0:0:0:0:
448,192,102611,1,0,0:0:0:30:soft-hitfinish.wav
64,192,102611,1,0,0:0:0:0:
192,192,102765,1,0,0:0:0:0:
320,192,102842,1,0,0:0:0:0:
64,192,102919,1,0,0:0:0:30:normal-hitclap.wav
448,192,102919,1,0,0:0:0:0:
192,192,102996,1,0,0:0:0:0:
320,192,103073,1,0,0:0:0:0:
64,192,103150,1,0,0:0:0:0:
448,192,103227,1,0,0:0:0:30:normal-hitclap.wav
320,192,103303,1,0,0:0:0:0:
192,192,103380,1,0,0:0:0:0:
448,192,103457,1,0,0:0:0:0:
64,192,103534,1,0,0:0:0:30:normal-hitclap.wav
192,192,103611,1,0,0:0:0:0:
320,192,103688,1,0,0:0:0:0:
192,192,103765,1,0,0:0:0:0:
448,192,103842,1,0,0:0:0:30:soft-hitfinish.wav
64,192,103842,1,0,0:0:0:0:
320,192,103919,1,0,0:0:0:0:
192,192,103996,1,0,0:0:0:0:
448,192,104073,1,0,0:0:0:0:
64,192,104150,1,0,0:0:0:30:normal-hitclap.wav
192,192,104150,1,0,0:0:0:0:
320,192,104303,1,0,0:0:0:0:
192,192,104380,1,0,0:0:0:0:
64,192,104457,1,0,0:0:0:30:normal-hitclap.wav
448,192,104457,1,0,0:0:0:0:
192,192,104611,1,0,0:0:0:0:
320,192,104688,1,0,0:0:0:0:
64,192,104765,1,0,0:0:0:30:normal-hitclap.wav
448,192,104765,1,0,0:0:0:0:
448,192,104919,1,0,0:0:0:0:
320,192,104996,1,0,0:0:0:0:
192,192,105073,1,0,0:0:0:30:soft-hitfinish.wav
64,192,105073,1,0,0:0:0:0:
448,192,105227,1,0,0:0:0:0:
320,192,105303,1,0,0:0:0:0:
192,192,105380,1,0,0:0:0:0:
64,192,105457,1,0,0:0:0:0:
448,192,105534,1,0,0:0:0:0:
320,192,105611,1,0,0:0:0:0:
64,192,105688,1,0,0:0:0:0:
192,192,105765,1,0,0:0:0:0:
320,192,105842,1,0,0:0:0:0:
448,192,105919,1,0,0:0:0:0:
64,192,105996,1,0,0:0:0:30:soft-hitfinish.wav
192,192,105996,1,0,0:0:0:0:
320,192,106150,1,0,0:0:0:0:
64,192,106303,1,0,0:0:0:0:
192,192,106303,1,0,0:0:0:0:
448,192,106380,1,0,0:0:0:0:
320,192,106457,1,0,0:0:0:0:
192,192,106534,1,0,0:0:0:0:
448,192,106611,1,0,0:0:0:30:soft-hitfinish.wav
64,192,106611,1,0,0:0:0:0:
320,192,106688,1,0,0:0:0:0:
192,192,106765,1,0,0:0:0:0:
320,192,106842,1,0,0:0:0:0:
64,192,106919,1,0,0:0:0:0:
448,192,106996,1,0,0:0:0:0:
320,192,107073,1,0,0:0:0:0:
192,192,107150,1,0,0:0:0:0:
64,192,107227,1,0,0:0:0:0:
448,192,107303,1,0,0:0:0:0:
320,192,107380,1,0,0:0:0:0:
192,192,107457,1,0,0:0:0:0:
64,192,107534,1,0,0:0:0:0:
192,192,107611,1,0,0:0:0:0:
320,192,107688,1,0,0:0:0:0:
448,192,107765,1,0,0:0:0:0:
64,192,107842,1,2,0:0:0:30:
192,192,107842,1,0,0:0:0:0:
320,192,107919,1,0,0:0:0:0:
192,192,107996,1,0,0:0:0:0:
448,192,108073,1,0,0:0:0:0:
320,192,108150,1,0,0:0:0:0:
64,192,108227,1,0,0:0:0:0:
448,192,108303,1,0,0:0:0:0:
320,192,108380,1,0,0:0:0:0:
192,192,108457,1,0,0:0:0:0:
64,192,108534,1,0,0:0:0:0:
192,192,108611,1,0,0:0:0:0:
320,192,108688,1,0,0:0:0:0:
448,192,108765,1,0,0:0:0:0:
64,192,108842,1,0,0:0:0:0:
192,192,108919,1,0,0:0:0:0:
320,192,108996,1,0,0:0:0:0:
448,192,109073,1,2,0:0:0:30:
64,192,109073,1,0,0:0:0:0:
320,192,109150,1,0,0:0:0:0:
192,192,109227,1,0,0:0:0:0:
320,192,109303,1,0,0:0:0:0:
448,192,109380,1,0,0:0:0:0:
64,192,109457,1,0,0:0:0:0:
192,192,109534,1,0,0:0:0:0:
320,192,109611,1,0,0:0:0:0:
448,192,109688,1,0,0:0:0:0:
64,192,109765,1,0,0:0:0:0:
192,192,109842,1,0,0:0:0:0:
320,192,109919,1,0,0:0:0:0:
448,192,109996,1,0,0:0:0:0:
64,192,110073,1,0,0:0:0:0:
192,192,110150,1,0,0:0:0:0:
320,192,110227,1,0,0:0:0:0:
448,192,110303,1,0,0:0:0:0:
320,192,110380,1,0,0:0:0:0:
448,192,110457,1,0,0:0:0:0:
320,192,110534,1,0,0:0:0:0:
192,192,110611,1,0,0:0:0:0:
320,192,110688,1,0,0:0:0:0:
192,192,110765,1,0,0:0:0:0:
64,192,110842,1,0,0:0:0:0:
192,192,110919,1,0,0:0:0:0:
64,192,110996,1,0,0:0:0:0:
448,192,111073,1,0,0:0:0:0:
320,192,111150,1,0,0:0:0:0:
192,192,111227,1,0,0:0:0:0:
64,192,111303,1,0,0:0:0:0:
192,192,111380,1,0,0:0:0:0:
320,192,111457,1,0,0:0:0:0:
448,192,111534,1,0,0:0:0:0:
64,192,111534,1,0,0:0:0:0:
