osu file format v14

[General]
AudioFilename: adio.mp3
AudioLeadIn: 0
PreviewTime: 57492
Countdown: 0
SampleSet: None
StackLeniency: 0.7
Mode: 3
LetterboxInBreaks: 0
SpecialStyle: 0
WidescreenStoryboard: 0

[Editor]
DistanceSpacing: 0.8
BeatDivisor: 8
GridSize: 32
TimelineZoom: 2.2

[Metadata]
Title:tsunagukizuna
TitleUnicode:ツナグキズナ
Artist:Team.Nekokan[Neko] featuring.Amaoto Junka
ArtistUnicode:Team.ねこかん【猫】 featuring.天乙准花
Creator:CrazyOnePro
Version:EXTRA
Source:ヨスガノソラ
Tags:
BeatmapID:1596196
BeatmapSetID:758927

[Difficulty]
HPDrainRate:8
CircleSize:7
OverallDifficulty:8
ApproachRate:5
SliderMultiplier:1.4
SliderTickRate:1

[Events]
//Background and Video events
0,0,"animresfdfsd.jpg",0,0
//Break Periods
//Storyboard Layer 0 (Background)
//Storyboard Layer 1 (Fail)
//Storyboard Layer 2 (Pass)
//Storyboard Layer 3 (Foreground)
//Storyboard Sound Samples

[TimingPoints]
159,444.444444444444,4,2,0,18,1,0
57492,-100,4,2,0,18,0,1
81047,-100,4,2,0,18,0,0

[HitObjects]
109,192,159,5,0,0:0:0:0:
182,192,159,128,0,381:0:0:0:0:
256,192,381,1,0,0:0:0:0:
329,192,381,128,0,603:0:0:0:0:
109,192,603,1,0,0:0:0:0:
475,192,603,1,0,0:0:0:0:
182,192,603,128,0,825:0:0:0:0:
36,192,825,1,0,0:0:0:0:
402,192,825,1,0,0:0:0:0:
256,192,825,128,0,1047:0:0:0:0:
182,192,1047,1,0,0:0:0:0:
475,192,1047,1,0,0:0:0:0:
329,192,1047,128,0,1270:0:0:0:0:
402,192,1270,1,0,0:0:0:0:
36,192,1270,1,0,0:0:0:0:
109,192,1270,128,0,1714:0:0:0:0:
256,192,1714,128,0,1936:0:0:0:0:
329,192,1936,1,0,0:0:0:0:
475,192,1936,1,0,0:0:0:0:
109,192,1936,128,0,2158:0:0:0:0:
402,192,2158,1,0,0:0:0:0:
182,192,2158,128,0,2381:0:0:0:0:
329,192,2381,1,0,0:0:0:0:
36,192,2381,1,0,0:0:0:0:
256,192,2381,128,0,2603:0:0:0:0:
182,192,2603,1,0,0:0:0:0:
402,192,2603,128,0,2825:0:0:0:0:
256,192,2825,1,0,0:0:0:0:
475,192,2825,1,0,0:0:0:0:
329,192,2825,128,0,3047:0:0:0:0:
402,192,3047,1,0,0:0:0:0:
182,192,3047,1,0,0:0:0:0:
109,192,3047,128,0,3492:0:0:0:0:
256,192,3492,128,0,3714:0:0:0:0:
329,192,3714,1,0,0:0:0:0:
475,192,3714,1,0,0:0:0:0:
109,192,3714,128,0,3936:0:0:0:0:
402,192,3936,1,0,0:0:0:0:
256,192,3936,1,0,0:0:0:0:
182,192,3936,128,0,4158:0:0:0:0:
329,192,4158,1,0,0:0:0:0:
109,192,4158,1,0,0:0:0:0:
256,192,4158,128,0,4381:0:0:0:0:
182,192,4381,1,0,0:0:0:0:
402,192,4381,128,0,4603:0:0:0:0:
256,192,4603,1,0,0:0:0:0:
475,192,4603,1,0,0:0:0:0:
329,192,4603,128,0,4825:0:0:0:0:
402,192,4825,1,0,0:0:0:0:
109,192,4825,128,0,5270:0:0:0:0:
182,192,5270,1,0,0:0:0:0:
402,192,5270,1,0,0:0:0:0:
475,192,5270,128,0,5492:0:0:0:0:
329,192,5492,1,0,0:0:0:0:
182,192,5492,1,0,0:0:0:0:
36,192,5492,128,0,5714:0:0:0:0:
402,192,5714,1,0,0:0:0:0:
109,192,5714,1,0,0:0:0:0:
182,192,5714,128,0,5936:0:0:0:0:
475,192,5936,128,0,6103:0:0:0:0:
256,192,5936,128,0,7714:0:0:0:0:
402,192,6103,128,0,6214:0:0:0:0:
329,192,6214,128,0,6325:0:0:0:0:
36,192,6325,128,0,6436:0:0:0:0:
109,192,6436,128,0,6547:0:0:0:0:
182,192,6547,128,0,6658:0:0:0:0:
475,192,6658,128,0,6770:0:0:0:0:
402,192,6770,128,0,6881:0:0:0:0:
329,192,6881,128,0,6992:0:0:0:0:
36,192,6936,1,0,0:0:0:0:
109,192,7047,1,0,0:0:0:0:
182,192,7158,1,0,0:0:0:0:
475,192,7270,128,0,7381:0:0:0:0:
402,192,7381,128,0,7492:0:0:0:0:
109,192,7381,1,0,0:0:0:0:
36,192,7381,1,0,0:0:0:0:
329,192,7492,128,0,7603:0:0:0:0:
182,192,7492,1,0,0:0:0:0:
475,192,7492,1,0,0:0:0:0:
109,192,7603,1,0,0:0:0:0:
402,192,7603,1,0,0:0:0:0:
182,192,7714,1,0,0:0:0:0:
36,192,7714,128,0,8381:0:0:0:0:
329,192,7714,1,0,0:0:0:0:
109,192,7936,1,0,0:0:0:0:
329,192,8158,1,0,0:0:0:0:
402,192,8158,1,0,0:0:0:0:
475,192,8381,128,0,9492:0:0:0:0:
182,192,8603,1,0,0:0:0:0:
329,192,8603,1,0,0:0:0:0:
256,192,8825,1,0,0:0:0:0:
329,192,9047,1,0,0:0:0:0:
36,192,9047,1,0,0:0:0:0:
109,192,9270,1,0,0:0:0:0:
182,192,9492,1,0,0:0:0:0:
329,192,9492,128,0,9714:0:0:0:0:
182,192,9714,128,0,10381:0:0:0:0:
402,192,9936,1,0,0:0:0:0:
475,192,9936,1,0,0:0:0:0:
329,192,10158,1,0,0:0:0:0:
402,192,10381,128,0,10603:0:0:0:0:
475,192,10381,128,0,12381:0:0:0:0:
329,192,10603,128,0,10825:0:0:0:0:
109,192,10603,1,0,0:0:0:0:
256,192,10825,128,0,11047:0:0:0:0:
36,192,10825,1,0,0:0:0:0:
329,192,11047,128,0,11270:0:0:0:0:
182,192,11047,1,0,0:0:0:0:
402,192,11270,128,0,12381:0:0:0:0:
36,192,11270,1,0,0:0:0:0:
109,192,11270,1,0,0:0:0:0:
256,192,11492,1,0,0:0:0:0:
182,192,11714,1,0,0:0:0:0:
36,192,11714,1,0,0:0:0:0:
109,192,11936,1,0,0:0:0:0:
182,192,12158,1,0,0:0:0:0:
329,192,12158,1,0,0:0:0:0:
329,192,12381,1,0,0:0:0:0:
109,192,12381,1,0,0:0:0:0:
256,192,12492,1,0,0:0:0:0:
36,192,12492,1,0,0:0:0:0:
182,192,12603,1,0,0:0:0:0:
256,192,12714,1,0,0:0:0:0:
402,192,12714,1,0,0:0:0:0:
329,192,12825,1,0,0:0:0:0:
475,192,12825,128,0,13714:0:0:0:0:
402,192,13714,1,0,0:0:0:0:
36,192,13714,128,0,14158:0:0:0:0:
182,192,13936,1,0,0:0:0:0:
329,192,13936,1,0,0:0:0:0:
109,192,14158,128,0,14381:0:0:0:0:
256,192,14270,1,0,0:0:0:0:
402,192,14270,1,0,0:0:0:0:
475,192,14381,128,0,14603:0:0:0:0:
402,192,14603,128,0,14825:0:0:0:0:
329,192,14603,1,0,0:0:0:0:
36,192,14603,1,0,0:0:0:0:
329,192,14825,1,0,0:0:0:0:
36,192,14825,1,0,0:0:0:0:
256,192,14825,128,0,15492:0:0:0:0:
109,192,15270,1,0,0:0:0:0:
182,192,15492,128,0,17047:0:0:0:0:
329,192,15714,1,0,0:0:0:0:
402,192,16047,1,0,0:0:0:0:
402,192,16381,1,0,0:0:0:0:
109,192,16381,1,0,0:0:0:0:
256,192,16603,1,0,0:0:0:0:
475,192,16603,1,0,0:0:0:0:
329,192,16825,1,0,0:0:0:0:
109,192,17158,1,0,0:0:0:0:
329,192,17270,128,0,17492:0:0:0:0:
36,192,17492,1,0,0:0:0:0:
475,192,17492,1,0,0:0:0:0:
402,192,17492,1,0,0:0:0:0:
182,192,17492,128,0,17714:0:0:0:0:
256,192,17714,128,0,17936:0:0:0:0:
329,192,17936,128,0,18158:0:0:0:0:
109,192,18158,128,0,18381:0:0:0:0:
182,192,18158,1,0,0:0:0:0:
475,192,18158,1,0,0:0:0:0:
402,192,18381,1,0,0:0:0:0:
36,192,18381,1,0,0:0:0:0:
329,192,18381,1,0,0:0:0:0:
182,192,18381,128,0,19047:0:0:0:0:
256,192,18825,1,0,0:0:0:0:
475,192,19047,128,0,19714:0:0:0:0:
329,192,19270,1,0,0:0:0:0:
182,192,19603,1,0,0:0:0:0:
256,192,19714,128,0,20158:0:0:0:0:
36,192,19936,1,0,0:0:0:0:
182,192,19936,1,0,0:0:0:0:
329,192,20158,1,0,0:0:0:0:
475,192,20158,1,0,0:0:0:0:
109,192,20158,128,0,20825:0:0:0:0:
182,192,20381,1,0,0:0:0:0:
256,192,20714,1,0,0:0:0:0:
329,192,20825,128,0,21047:0:0:0:0:
36,192,20825,128,0,21936:0:0:0:0:
402,192,21047,128,0,21270:0:0:0:0:
475,192,21270,128,0,21492:0:0:0:0:
182,192,21492,128,0,21714:0:0:0:0:
109,192,21492,1,0,0:0:0:0:
256,192,21714,128,0,21936:0:0:0:0:
329,192,21714,1,0,0:0:0:0:
475,192,21714,1,0,0:0:0:0:
402,192,21936,128,0,22603:0:0:0:0:
182,192,21936,1,0,0:0:0:0:
109,192,21936,1,0,0:0:0:0:
475,192,21936,1,0,0:0:0:0:
329,192,22381,1,0,0:0:0:0:
256,192,22603,128,0,23270:0:0:0:0:
182,192,22825,1,0,0:0:0:0:
109,192,23158,1,0,0:0:0:0:
329,192,23270,128,0,24158:0:0:0:0:
36,192,23492,1,0,0:0:0:0:
256,192,23492,1,0,0:0:0:0:
109,192,23714,1,0,0:0:0:0:
475,192,23714,1,0,0:0:0:0:
256,192,24047,1,0,0:0:0:0:
109,192,24270,1,0,0:0:0:0:
182,192,24381,128,0,24603:0:0:0:0:
256,192,24381,128,0,25492:0:0:0:0:
109,192,24603,128,0,24825:0:0:0:0:
402,192,24825,128,0,25047:0:0:0:0:
329,192,25047,128,0,25270:0:0:0:0:
475,192,25047,1,0,0:0:0:0:
109,192,25270,1,0,0:0:0:0:
36,192,25270,1,0,0:0:0:0:
182,192,25270,128,0,25492:0:0:0:0:
475,192,25492,1,0,0:0:0:0:
402,192,25492,1,0,0:0:0:0:
109,192,25492,128,0,26603:0:0:0:0:
329,192,25936,1,0,0:0:0:0:
182,192,25936,1,0,0:0:0:0:
256,192,26158,1,0,0:0:0:0:
475,192,26158,1,0,0:0:0:0:
182,192,26603,128,0,26825:0:0:0:0:
402,192,26603,1,0,0:0:0:0:
475,192,26603,1,0,0:0:0:0:
256,192,26825,128,0,27047:0:0:0:0:
109,192,26825,1,0,0:0:0:0:
36,192,26825,1,0,0:0:0:0:
329,192,27047,1,0,0:0:0:0:
402,192,27047,1,0,0:0:0:0:
109,192,27047,128,0,28603:0:0:0:0:
182,192,27270,1,0,0:0:0:0:
402,192,27270,1,0,0:0:0:0:
329,192,27381,1,0,0:0:0:0:
256,192,27436,1,0,0:0:0:0:
475,192,27436,1,0,0:0:0:0:
402,192,27492,1,0,0:0:0:0:
182,192,27492,1,0,0:0:0:0:
256,192,27603,1,0,0:0:0:0:
475,192,27603,1,0,0:0:0:0:
402,192,27714,1,0,0:0:0:0:
182,192,27714,1,0,0:0:0:0:
256,192,27825,1,0,0:0:0:0:
329,192,27825,1,0,0:0:0:0:
36,192,27825,1,0,0:0:0:0:
402,192,27936,1,0,0:0:0:0:
475,192,27936,1,0,0:0:0:0:
182,192,28047,1,0,0:0:0:0:
36,192,28047,1,0,0:0:0:0:
256,192,28158,1,0,0:0:0:0:
402,192,28158,1,0,0:0:0:0:
475,192,28158,1,0,0:0:0:0:
182,192,28381,1,0,0:0:0:0:
329,192,28381,1,0,0:0:0:0:
256,192,28492,1,0,0:0:0:0:
475,192,28492,1,0,0:0:0:0:
36,192,28492,1,0,0:0:0:0:
329,192,28603,1,0,0:0:0:0:
402,192,28603,1,0,0:0:0:0:
182,192,28714,1,0,0:0:0:0:
475,192,28714,1,0,0:0:0:0:
256,192,28825,128,0,29047:0:0:0:0:
36,192,28825,1,0,0:0:0:0:
402,192,28825,1,0,0:0:0:0:
182,192,29047,1,0,0:0:0:0:
475,192,29047,128,0,29714:0:0:0:0:
109,192,29047,1,0,0:0:0:0:
329,192,29270,1,0,0:0:0:0:
182,192,29270,1,0,0:0:0:0:
256,192,29381,1,0,0:0:0:0:
402,192,29381,1,0,0:0:0:0:
182,192,29492,1,0,0:0:0:0:
36,192,29492,1,0,0:0:0:0:
109,192,29492,1,0,0:0:0:0:
329,192,29603,1,0,0:0:0:0:
402,192,29603,1,0,0:0:0:0:
109,192,29714,128,0,30381:0:0:0:0:
256,192,29714,1,0,0:0:0:0:
182,192,29714,1,0,0:0:0:0:
329,192,29825,1,0,0:0:0:0:
402,192,29825,1,0,0:0:0:0:
256,192,29936,1,0,0:0:0:0:
36,192,29936,1,0,0:0:0:0:
329,192,30047,1,0,0:0:0:0:
182,192,30047,1,0,0:0:0:0:
475,192,30047,1,0,0:0:0:0:
256,192,30158,1,0,0:0:0:0:
402,192,30158,1,0,0:0:0:0:
182,192,30270,1,0,0:0:0:0:
36,192,30270,1,0,0:0:0:0:
329,192,30381,128,0,31270:0:0:0:0:
402,192,30381,1,0,0:0:0:0:
475,192,30381,1,0,0:0:0:0:
256,192,30381,1,0,0:0:0:0:
182,192,30603,1,0,0:0:0:0:
36,192,30603,1,0,0:0:0:0:
109,192,30714,1,0,0:0:0:0:
256,192,30714,1,0,0:0:0:0:
475,192,30714,1,0,0:0:0:0:
182,192,30825,1,0,0:0:0:0:
402,192,30825,1,0,0:0:0:0:
256,192,30936,1,0,0:0:0:0:
36,192,30936,1,0,0:0:0:0:
475,192,30936,1,0,0:0:0:0:
182,192,31047,1,0,0:0:0:0:
109,192,31047,1,0,0:0:0:0:
256,192,31158,1,0,0:0:0:0:
475,192,31158,1,0,0:0:0:0:
36,192,31270,1,0,0:0:0:0:
182,192,31270,1,0,0:0:0:0:
402,192,31270,1,0,0:0:0:0:
256,192,31381,1,0,0:0:0:0:
475,192,31381,1,0,0:0:0:0:
402,192,31492,1,0,0:0:0:0:
329,192,31492,1,0,0:0:0:0:
109,192,31492,128,0,31603:0:0:0:0:
36,192,31603,1,0,0:0:0:0:
256,192,31603,1,0,0:0:0:0:
182,192,31714,128,0,31936:0:0:0:0:
329,192,31714,1,0,0:0:0:0:
475,192,31825,1,0,0:0:0:0:
402,192,31825,1,0,0:0:0:0:
329,192,31936,128,0,32047:0:0:0:0:
109,192,31936,1,0,0:0:0:0:
402,192,32047,1,0,0:0:0:0:
475,192,32047,1,0,0:0:0:0:
109,192,32158,128,0,32381:0:0:0:0:
256,192,32158,1,0,0:0:0:0:
182,192,32158,1,0,0:0:0:0:
402,192,32381,128,0,32603:0:0:0:0:
329,192,32381,1,0,0:0:0:0:
475,192,32381,1,0,0:0:0:0:
256,192,32492,1,0,0:0:0:0:
182,192,32492,1,0,0:0:0:0:
36,192,32603,128,0,32825:0:0:0:0:
109,192,32603,1,0,0:0:0:0:
329,192,32603,1,0,0:0:0:0:
182,192,32825,1,0,0:0:0:0:
475,192,32825,1,0,0:0:0:0:
329,192,32936,128,0,33158:0:0:0:0:
256,192,32936,1,0,0:0:0:0:
109,192,32936,1,0,0:0:0:0:
182,192,33047,1,0,0:0:0:0:
402,192,33047,1,0,0:0:0:0:
36,192,33047,1,0,0:0:0:0:
256,192,33158,128,0,33270:0:0:0:0:
475,192,33158,1,0,0:0:0:0:
109,192,33158,1,0,0:0:0:0:
182,192,33270,128,0,33936:0:0:0:0:
402,192,33270,1,0,0:0:0:0:
36,192,33270,1,0,0:0:0:0:
329,192,33381,1,0,0:0:0:0:
475,192,33381,1,0,0:0:0:0:
256,192,33492,1,0,0:0:0:0:
36,192,33492,1,0,0:0:0:0:
109,192,33603,1,0,0:0:0:0:
329,192,33603,1,0,0:0:0:0:
475,192,33603,1,0,0:0:0:0:
402,192,33714,1,0,0:0:0:0:
256,192,33714,1,0,0:0:0:0:
109,192,33825,1,0,0:0:0:0:
36,192,33825,1,0,0:0:0:0:
329,192,33936,1,0,0:0:0:0:
475,192,33936,1,0,0:0:0:0:
256,192,33936,1,0,0:0:0:0:
402,192,34158,128,0,34270:0:0:0:0:
329,192,34158,1,0,0:0:0:0:
109,192,34158,1,0,0:0:0:0:
36,192,34270,1,0,0:0:0:0:
182,192,34270,1,0,0:0:0:0:
329,192,34381,1,0,0:0:0:0:
475,192,34381,1,0,0:0:0:0:
109,192,34381,1,0,0:0:0:0:
256,192,34381,128,0,34603:0:0:0:0:
109,192,34603,1,0,0:0:0:0:
36,192,34603,1,0,0:0:0:0:
329,192,34714,128,0,34936:0:0:0:0:
182,192,34714,1,0,0:0:0:0:
402,192,34714,1,0,0:0:0:0:
475,192,34825,1,0,0:0:0:0:
109,192,34825,1,0,0:0:0:0:
36,192,34825,1,0,0:0:0:0:
256,192,34936,1,0,0:0:0:0:
182,192,34936,128,0,35047:0:0:0:0:
402,192,34936,1,0,0:0:0:0:
109,192,35047,128,0,35270:0:0:0:0:
475,192,35047,1,0,0:0:0:0:
36,192,35047,1,0,0:0:0:0:
329,192,35158,1,0,0:0:0:0:
402,192,35158,1,0,0:0:0:0:
256,192,35270,1,0,0:0:0:0:
475,192,35270,128,0,35381:0:0:0:0:
329,192,35381,1,0,0:0:0:0:
182,192,35381,1,0,0:0:0:0:
36,192,35381,1,0,0:0:0:0:
109,192,35492,128,0,35936:0:0:0:0:
256,192,35603,1,0,0:0:0:0:
402,192,35603,1,0,0:0:0:0:
329,192,35714,1,0,0:0:0:0:
182,192,35714,1,0,0:0:0:0:
36,192,35714,1,0,0:0:0:0:
402,192,35936,128,0,36158:0:0:0:0:
256,192,35936,1,0,0:0:0:0:
475,192,35936,1,0,0:0:0:0:
329,192,36047,1,0,0:0:0:0:
182,192,36047,1,0,0:0:0:0:
36,192,36047,1,0,0:0:0:0:
109,192,36158,1,0,0:0:0:0:
475,192,36158,1,0,0:0:0:0:
256,192,36158,128,0,37381:0:0:0:0:
182,192,36381,1,0,0:0:0:0:
402,192,36381,1,0,0:0:0:0:
329,192,36492,1,0,0:0:0:0:
109,192,36492,1,0,0:0:0:0:
182,192,36603,1,0,0:0:0:0:
36,192,36603,1,0,0:0:0:0:
475,192,36603,1,0,0:0:0:0:
402,192,36714,1,0,0:0:0:0:
329,192,36714,1,0,0:0:0:0:
182,192,36825,1,0,0:0:0:0:
109,192,36825,1,0,0:0:0:0:
36,192,36936,1,0,0:0:0:0:
402,192,36936,1,0,0:0:0:0:
329,192,37047,1,0,0:0:0:0:
475,192,37047,1,0,0:0:0:0:
182,192,37158,1,0,0:0:0:0:
109,192,37158,1,0,0:0:0:0:
402,192,37158,1,0,0:0:0:0:
329,192,37270,1,0,0:0:0:0:
475,192,37270,1,0,0:0:0:0:
182,192,37381,1,0,0:0:0:0:
109,192,37381,1,0,0:0:0:0:
36,192,37492,1,0,0:0:0:0:
329,192,37492,1,0,0:0:0:0:
402,192,37492,1,0,0:0:0:0:
182,192,37714,1,0,0:0:0:0:
109,192,37714,1,0,0:0:0:0:
475,192,37714,1,0,0:0:0:0:
256,192,37714,128,0,37825:0:0:0:0:
402,192,37825,1,0,0:0:0:0:
329,192,37825,1,0,0:0:0:0:
36,192,37936,1,0,0:0:0:0:
475,192,37936,1,0,0:0:0:0:
182,192,37936,128,0,38047:0:0:0:0:
329,192,38047,128,0,38325:0:0:0:0:
109,192,38047,1,0,0:0:0:0:
402,192,38047,1,0,0:0:0:0:
475,192,38158,1,0,0:0:0:0:
256,192,38158,1,0,0:0:0:0:
36,192,38158,1,0,0:0:0:0:
402,192,38270,1,0,0:0:0:0:
182,192,38270,1,0,0:0:0:0:
109,192,38325,128,0,38825:0:0:0:0:
256,192,38381,1,0,0:0:0:0:
36,192,38381,1,0,0:0:0:0:
475,192,38381,1,0,0:0:0:0:
182,192,38603,1,0,0:0:0:0:
329,192,38603,1,0,0:0:0:0:
256,192,38714,1,0,0:0:0:0:
402,192,38714,1,0,0:0:0:0:
475,192,38714,1,0,0:0:0:0:
329,192,38825,1,0,0:0:0:0:
182,192,38825,128,0,38936:0:0:0:0:
256,192,38936,1,0,0:0:0:0:
36,192,38936,1,0,0:0:0:0:
402,192,38936,1,0,0:0:0:0:
329,192,39047,128,0,39270:0:0:0:0:
109,192,39047,1,0,0:0:0:0:
475,192,39047,1,0,0:0:0:0:
109,192,39270,1,0,0:0:0:0:
402,192,39270,1,0,0:0:0:0:
256,192,39270,128,0,39381:0:0:0:0:
36,192,39270,1,0,0:0:0:0:
182,192,39492,1,0,0:0:0:0:
475,192,39492,1,0,0:0:0:0:
402,192,39492,128,0,41492:0:0:0:0:
109,192,39492,128,0,41492:0:0:0:0:
182,192,39936,1,0,0:0:0:0:
329,192,39936,1,0,0:0:0:0:
256,192,40047,1,0,0:0:0:0:
475,192,40047,1,0,0:0:0:0:
329,192,40158,1,0,0:0:0:0:
182,192,40158,1,0,0:0:0:0:
36,192,40158,1,0,0:0:0:0:
256,192,40381,1,0,0:0:0:0:
182,192,40381,1,0,0:0:0:0:
329,192,40492,1,0,0:0:0:0:
475,192,40492,1,0,0:0:0:0:
36,192,40603,1,0,0:0:0:0:
182,192,40603,1,0,0:0:0:0:
329,192,40714,1,0,0:0:0:0:
475,192,40714,1,0,0:0:0:0:
256,192,40714,1,0,0:0:0:0:
182,192,40825,1,0,0:0:0:0:
36,192,40825,1,0,0:0:0:0:
256,192,41047,1,0,0:0:0:0:
36,192,41047,1,0,0:0:0:0:
475,192,41047,1,0,0:0:0:0:
329,192,41158,1,0,0:0:0:0:
182,192,41270,1,0,0:0:0:0:
256,192,41270,1,0,0:0:0:0:
475,192,41492,1,0,0:0:0:0:
256,192,41492,128,0,43270:0:0:0:0:
36,192,41492,128,0,41603:0:0:0:0:
182,192,41492,1,0,0:0:0:0:
109,192,41603,128,0,41714:0:0:0:0:
182,192,41714,128,0,41825:0:0:0:0:
402,192,41714,1,0,0:0:0:0:
329,192,41825,128,0,41936:0:0:0:0:
36,192,41825,1,0,0:0:0:0:
402,192,41936,128,0,42047:0:0:0:0:
109,192,41936,1,0,0:0:0:0:
475,192,41936,1,0,0:0:0:0:
475,192,42047,128,0,42158:0:0:0:0:
182,192,42047,1,0,0:0:0:0:
329,192,42158,128,0,42270:0:0:0:0:
36,192,42158,128,0,42270:0:0:0:0:
109,192,42158,1,0,0:0:0:0:
402,192,42270,128,0,42381:0:0:0:0:
182,192,42270,1,0,0:0:0:0:
329,192,42381,128,0,42492:0:0:0:0:
109,192,42381,128,0,42714:0:0:0:0:
36,192,42381,1,0,0:0:0:0:
475,192,42381,1,0,0:0:0:0:
475,192,42492,128,0,42603:0:0:0:0:
182,192,42492,1,0,0:0:0:0:
402,192,42603,128,0,42714:0:0:0:0:
36,192,42603,1,0,0:0:0:0:
329,192,42603,1,0,0:0:0:0:
329,192,42714,128,0,42825:0:0:0:0:
182,192,42825,128,0,42936:0:0:0:0:
36,192,42825,1,0,0:0:0:0:
475,192,42825,1,0,0:0:0:0:
109,192,42936,128,0,43047:0:0:0:0:
402,192,42936,1,0,0:0:0:0:
36,192,43047,128,0,43158:0:0:0:0:
329,192,43047,1,0,0:0:0:0:
182,192,43158,128,0,43270:0:0:0:0:
402,192,43158,1,0,0:0:0:0:
475,192,43270,1,0,0:0:0:0:
109,192,43270,1,0,0:0:0:0:
329,192,43270,128,0,44381:0:0:0:0:
182,192,43492,1,0,0:0:0:0:
109,192,43603,128,0,43714:0:0:0:0:
36,192,43714,1,0,0:0:0:0:
256,192,43714,1,0,0:0:0:0:
475,192,43714,1,0,0:0:0:0:
182,192,43936,128,0,44047:0:0:0:0:
36,192,44158,128,0,44270:0:0:0:0:
109,192,44158,1,0,0:0:0:0:
182,192,44270,1,0,0:0:0:0:
475,192,44270,1,0,0:0:0:0:
256,192,44381,128,0,44603:0:0:0:0:
402,192,44492,128,0,44603:0:0:0:0:
182,192,44603,128,0,44714:0:0:0:0:
109,192,44603,1,0,0:0:0:0:
475,192,44603,1,0,0:0:0:0:
402,192,44825,128,0,45936:0:0:0:0:
36,192,45047,128,0,45492:0:0:0:0:
182,192,45047,1,0,0:0:0:0:
109,192,45047,1,0,0:0:0:0:
329,192,45492,128,0,45936:0:0:0:0:
256,192,45492,1,0,0:0:0:0:
182,192,45492,1,0,0:0:0:0:
109,192,45492,1,0,0:0:0:0:
256,192,45714,128,0,45825:0:0:0:0:
109,192,45936,128,0,46381:0:0:0:0:
182,192,45936,1,0,0:0:0:0:
475,192,45936,1,0,0:0:0:0:
36,192,46047,1,0,0:0:0:0:
256,192,46047,1,0,0:0:0:0:
182,192,46158,128,0,46381:0:0:0:0:
329,192,46381,128,0,46825:0:0:0:0:
402,192,46381,128,0,46603:0:0:0:0:
36,192,46381,1,0,0:0:0:0:
475,192,46381,1,0,0:0:0:0:
256,192,46603,128,0,46714:0:0:0:0:
182,192,46825,128,0,47047:0:0:0:0:
36,192,46825,1,0,0:0:0:0:
475,192,46825,1,0,0:0:0:0:
402,192,46825,1,0,0:0:0:0:
109,192,47047,128,0,47270:0:0:0:0:
329,192,47158,128,0,47270:0:0:0:0:
402,192,47270,128,0,47381:0:0:0:0:
256,192,47492,128,0,47603:0:0:0:0:
182,192,47603,128,0,47825:0:0:0:0:
109,192,47714,1,0,0:0:0:0:
36,192,47714,1,0,0:0:0:0:
402,192,47714,1,0,0:0:0:0:
256,192,47825,1,0,0:0:0:0:
475,192,47825,1,0,0:0:0:0:
329,192,47936,128,0,48047:0:0:0:0:
109,192,48047,128,0,48158:0:0:0:0:
182,192,48047,1,0,0:0:0:0:
36,192,48158,1,0,0:0:0:0:
475,192,48158,1,0,0:0:0:0:
402,192,48158,128,0,48381:0:0:0:0:
182,192,48381,128,0,49492:0:0:0:0:
329,192,48603,1,0,0:0:0:0:
475,192,48603,1,0,0:0:0:0:
36,192,48603,1,0,0:0:0:0:
109,192,48825,128,0,48992:0:0:0:0:
256,192,49047,1,0,0:0:0:0:
475,192,49047,1,0,0:0:0:0:
402,192,49047,1,0,0:0:0:0:
329,192,49270,128,0,49492:0:0:0:0:
109,192,49492,1,0,0:0:0:0:
36,192,49492,1,0,0:0:0:0:
475,192,49492,1,0,0:0:0:0:
256,192,49603,1,0,0:0:0:0:
402,192,49603,1,0,0:0:0:0:
329,192,49714,128,0,49936:0:0:0:0:
36,192,49936,1,0,0:0:0:0:
475,192,49936,1,0,0:0:0:0:
109,192,49936,128,0,50047:0:0:0:0:
256,192,50158,128,0,50270:0:0:0:0:
402,192,50158,1,0,0:0:0:0:
182,192,50158,1,0,0:0:0:0:
329,192,50214,128,0,50381:0:0:0:0:
182,192,50381,1,0,0:0:0:0:
475,192,50381,1,0,0:0:0:0:
36,192,50381,128,0,50603:0:0:0:0:
256,192,50714,128,0,51047:0:0:0:0:
182,192,50714,1,0,0:0:0:0:
109,192,50825,1,0,0:0:0:0:
36,192,50825,1,0,0:0:0:0:
402,192,51047,128,0,51603:0:0:0:0:
182,192,51270,1,0,0:0:0:0:
329,192,51270,1,0,0:0:0:0:
36,192,51270,1,0,0:0:0:0:
475,192,51381,1,0,0:0:0:0:
256,192,51381,128,0,51436:0:0:0:0:
182,192,51436,128,0,51492:0:0:0:0:
109,192,51492,128,0,51603:0:0:0:0:
36,192,51603,128,0,51714:0:0:0:0:
182,192,51714,1,0,0:0:0:0:
329,192,51714,128,0,52047:0:0:0:0:
475,192,51714,128,0,52158:0:0:0:0:
256,192,51714,1,0,0:0:0:0:
256,192,52047,128,0,52158:0:0:0:0:
182,192,52158,128,0,52492:0:0:0:0:
109,192,52158,1,0,0:0:0:0:
402,192,52158,1,0,0:0:0:0:
36,192,52158,1,0,0:0:0:0:
329,192,52270,1,0,0:0:0:0:
256,192,52270,1,0,0:0:0:0:
475,192,52270,1,0,0:0:0:0:
109,192,52381,1,0,0:0:0:0:
36,192,52381,1,0,0:0:0:0:
402,192,52381,1,0,0:0:0:0:
329,192,52492,1,0,0:0:0:0:
475,192,52492,1,0,0:0:0:0:
256,192,52492,1,0,0:0:0:0:
402,192,52603,1,0,0:0:0:0:
109,192,52603,1,0,0:0:0:0:
36,192,52603,1,0,0:0:0:0:
182,192,52714,1,0,0:0:0:0:
256,192,52714,1,0,0:0:0:0:
475,192,52714,1,0,0:0:0:0:
402,192,52825,128,0,53047:0:0:0:0:
36,192,52825,1,0,0:0:0:0:
109,192,52936,1,0,0:0:0:0:
256,192,52936,1,0,0:0:0:0:
182,192,53047,1,0,0:0:0:0:
329,192,53047,1,0,0:0:0:0:
475,192,53047,128,0,53270:0:0:0:0:
256,192,53158,1,0,0:0:0:0:
36,192,53158,1,0,0:0:0:0:
109,192,53270,1,0,0:0:0:0:
329,192,53270,1,0,0:0:0:0:
182,192,53381,1,0,0:0:0:0:
402,192,53381,1,0,0:0:0:0:
36,192,53381,128,0,53714:0:0:0:0:
329,192,53492,1,0,0:0:0:0:
109,192,53492,1,0,0:0:0:0:
182,192,53603,1,0,0:0:0:0:
475,192,53603,1,0,0:0:0:0:
402,192,53714,128,0,53825:0:0:0:0:
256,192,53714,1,0,0:0:0:0:
109,192,53714,1,0,0:0:0:0:
329,192,53714,1,0,0:0:0:0:
182,192,53825,1,0,0:0:0:0:
475,192,53825,1,0,0:0:0:0:
109,192,53936,128,0,55714:0:0:0:0:
329,192,53936,1,0,0:0:0:0:
256,192,53936,1,0,0:0:0:0:
182,192,54158,1,0,0:0:0:0:
256,192,54381,1,0,0:0:0:0:
402,192,54381,1,0,0:0:0:0:
475,192,54492,1,0,0:0:0:0:
329,192,54603,1,0,0:0:0:0:
182,192,54825,1,0,0:0:0:0:
329,192,55047,1,0,0:0:0:0:
256,192,55270,1,0,0:0:0:0:
182,192,55492,1,0,0:0:0:0:
475,192,55714,128,0,57492:0:0:0:0:
402,192,55714,128,0,55825:0:0:0:0:
256,192,55714,1,0,0:0:0:0:
329,192,55825,128,0,55936:0:0:0:0:
182,192,55825,1,0,0:0:0:0:
182,192,55936,128,0,56047:0:0:0:0:
36,192,55936,1,0,0:0:0:0:
256,192,56047,128,0,56158:0:0:0:0:
109,192,56047,1,0,0:0:0:0:
329,192,56158,128,0,56270:0:0:0:0:
182,192,56158,1,0,0:0:0:0:
36,192,56158,128,0,56492:0:0:0:0:
402,192,56270,128,0,56381:0:0:0:0:
256,192,56270,1,0,0:0:0:0:
109,192,56381,128,0,56492:0:0:0:0:
329,192,56381,1,0,0:0:0:0:
182,192,56492,128,0,56603:0:0:0:0:
402,192,56492,1,0,0:0:0:0:
256,192,56603,128,0,56714:0:0:0:0:
109,192,56603,128,0,56936:0:0:0:0:
329,192,56603,1,0,0:0:0:0:
329,192,56714,128,0,56825:0:0:0:0:
36,192,56714,1,0,0:0:0:0:
402,192,56825,128,0,56936:0:0:0:0:
256,192,56936,1,0,0:0:0:0:
36,192,56936,128,0,57047:0:0:0:0:
182,192,57047,128,0,57158:0:0:0:0:
109,192,57047,128,0,57381:0:0:0:0:
256,192,57158,128,0,57270:0:0:0:0:
329,192,57270,128,0,57381:0:0:0:0:
402,192,57381,128,0,57492:0:0:0:0:
182,192,57381,1,0,0:0:0:0:
36,192,57492,1,0,0:0:0:0:
256,192,57492,128,0,57825:0:0:0:0:
109,192,57714,1,0,0:0:0:0:
402,192,57714,1,0,0:0:0:0:
182,192,57825,128,0,58047:0:0:0:0:
329,192,57936,1,0,0:0:0:0:
475,192,57936,1,0,0:0:0:0:
109,192,57936,1,0,0:0:0:0:
36,192,57936,1,0,0:0:0:0:
256,192,58047,128,0,58158:0:0:0:0:
329,192,58158,128,0,58714:0:0:0:0:
109,192,58158,1,0,0:0:0:0:
36,192,58158,1,0,0:0:0:0:
182,192,58381,1,0,0:0:0:0:
256,192,58492,1,0,0:0:0:0:
475,192,58492,1,0,0:0:0:0:
402,192,58603,1,0,0:0:0:0:
109,192,58603,1,0,0:0:0:0:
182,192,58714,128,0,58825:0:0:0:0:
475,192,58714,1,0,0:0:0:0:
36,192,58825,128,0,59047:0:0:0:0:
256,192,58825,1,0,0:0:0:0:
402,192,58825,1,0,0:0:0:0:
109,192,58825,1,0,0:0:0:0:
109,192,59047,128,0,59158:0:0:0:0:
256,192,59047,1,0,0:0:0:0:
475,192,59047,1,0,0:0:0:0:
256,192,59270,128,0,59381:0:0:0:0:
402,192,59270,1,0,0:0:0:0:
182,192,59270,1,0,0:0:0:0:
329,192,59381,128,0,59492:0:0:0:0:
109,192,59492,1,0,0:0:0:0:
36,192,59492,1,0,0:0:0:0:
182,192,59492,128,0,59603:0:0:0:0:
256,192,59603,128,0,59825:0:0:0:0:
402,192,59603,1,0,0:0:0:0:
182,192,59714,1,0,0:0:0:0:
475,192,59714,1,0,0:0:0:0:
329,192,59714,1,0,0:0:0:0:
109,192,59825,128,0,59936:0:0:0:0:
402,192,59936,128,0,60547:0:0:0:0:
36,192,59936,1,0,0:0:0:0:
329,192,59936,1,0,0:0:0:0:
475,192,59936,1,0,0:0:0:0:
256,192,60047,1,0,0:0:0:0:
182,192,60158,1,0,0:0:0:0:
329,192,60158,1,0,0:0:0:0:
109,192,60270,1,0,0:0:0:0:
36,192,60270,1,0,0:0:0:0:
256,192,60270,1,0,0:0:0:0:
182,192,60381,1,0,0:0:0:0:
329,192,60381,1,0,0:0:0:0:
256,192,60492,1,0,0:0:0:0:
109,192,60492,1,0,0:0:0:0:
329,192,60603,1,0,0:0:0:0:
475,192,60603,1,0,0:0:0:0:
36,192,60603,1,0,0:0:0:0:
182,192,60603,1,0,0:0:0:0:
256,192,60714,1,0,0:0:0:0:
109,192,60825,1,0,0:0:0:0:
329,192,60825,128,0,61047:0:0:0:0:
402,192,60825,1,0,0:0:0:0:
36,192,61047,128,0,61381:0:0:0:0:
256,192,61047,1,0,0:0:0:0:
109,192,61047,1,0,0:0:0:0:
182,192,61270,1,0,0:0:0:0:
402,192,61270,1,0,0:0:0:0:
109,192,61381,128,0,61603:0:0:0:0:
256,192,61492,1,0,0:0:0:0:
329,192,61492,1,0,0:0:0:0:
475,192,61492,1,0,0:0:0:0:
402,192,61714,128,0,61936:0:0:0:0:
329,192,61714,1,0,0:0:0:0:
475,192,61714,1,0,0:0:0:0:
182,192,61714,1,0,0:0:0:0:
256,192,61936,128,0,62047:0:0:0:0:
109,192,62047,128,0,62270:0:0:0:0:
36,192,62047,1,0,0:0:0:0:
329,192,62047,1,0,0:0:0:0:
402,192,62158,1,0,0:0:0:0:
475,192,62158,1,0,0:0:0:0:
182,192,62270,128,0,62381:0:0:0:0:
402,192,62381,1,0,0:0:0:0:
475,192,62381,1,0,0:0:0:0:
36,192,62381,1,0,0:0:0:0:
329,192,62603,128,0,62714:0:0:0:0:
256,192,62603,1,0,0:0:0:0:
109,192,62603,1,0,0:0:0:0:
109,192,62825,128,0,63158:0:0:0:0:
182,192,62825,1,0,0:0:0:0:
402,192,62825,1,0,0:0:0:0:
256,192,62936,1,0,0:0:0:0:
475,192,62936,1,0,0:0:0:0:
402,192,63047,1,0,0:0:0:0:
329,192,63047,1,0,0:0:0:0:
182,192,63158,1,0,0:0:0:0:
475,192,63158,1,0,0:0:0:0:
36,192,63158,1,0,0:0:0:0:
256,192,63270,128,0,63714:0:0:0:0:
402,192,63270,1,0,0:0:0:0:
109,192,63492,1,0,0:0:0:0:
329,192,63492,1,0,0:0:0:0:
402,192,63603,1,0,0:0:0:0:
475,192,63603,1,0,0:0:0:0:
36,192,63603,1,0,0:0:0:0:
182,192,63714,128,0,64103:0:0:0:0:
329,192,63714,1,0,0:0:0:0:
109,192,63714,1,0,0:0:0:0:
402,192,63825,1,0,0:0:0:0:
256,192,63936,1,0,0:0:0:0:
475,192,63936,1,0,0:0:0:0:
329,192,64158,128,0,64603:0:0:0:0:
36,192,64158,1,0,0:0:0:0:
109,192,64158,1,0,0:0:0:0:
475,192,64158,1,0,0:0:0:0:
256,192,64381,1,0,0:0:0:0:
402,192,64381,1,0,0:0:0:0:
475,192,64492,1,0,0:0:0:0:
36,192,64603,128,0,64992:0:0:0:0:
182,192,64603,1,0,0:0:0:0:
109,192,64825,1,0,0:0:0:0:
256,192,64825,1,0,0:0:0:0:
182,192,65047,1,0,0:0:0:0:
475,192,65047,1,0,0:0:0:0:
402,192,65047,1,0,0:0:0:0:
256,192,65270,1,0,0:0:0:0:
109,192,65270,128,0,65381:0:0:0:0:
182,192,65381,128,0,65492:0:0:0:0:
402,192,65492,128,0,65770:0:0:0:0:
109,192,65603,1,0,0:0:0:0:
36,192,65603,1,0,0:0:0:0:
256,192,65714,1,0,0:0:0:0:
182,192,65714,1,0,0:0:0:0:
329,192,65770,128,0,65881:0:0:0:0:
256,192,65881,128,0,66047:0:0:0:0:
402,192,65936,1,0,0:0:0:0:
475,192,65936,1,0,0:0:0:0:
36,192,65936,1,0,0:0:0:0:
109,192,66047,128,0,66158:0:0:0:0:
329,192,66158,128,0,66381:0:0:0:0:
256,192,66381,128,0,66825:0:0:0:0:
182,192,66381,1,0,0:0:0:0:
36,192,66381,1,0,0:0:0:0:
109,192,66603,1,0,0:0:0:0:
402,192,66603,1,0,0:0:0:0:
182,192,66714,1,0,0:0:0:0:
36,192,66714,1,0,0:0:0:0:
475,192,66825,1,0,0:0:0:0:
402,192,66825,1,0,0:0:0:0:
109,192,66825,1,0,0:0:0:0:
36,192,67047,1,0,0:0:0:0:
329,192,67047,128,0,67158:0:0:0:0:
109,192,67158,1,0,0:0:0:0:
182,192,67270,1,0,0:0:0:0:
475,192,67270,1,0,0:0:0:0:
256,192,67270,128,0,67714:0:0:0:0:
402,192,67381,1,0,0:0:0:0:
36,192,67381,1,0,0:0:0:0:
182,192,67492,1,0,0:0:0:0:
329,192,67492,1,0,0:0:0:0:
109,192,67714,128,0,67936:0:0:0:0:
402,192,67714,1,0,0:0:0:0:
475,192,67714,1,0,0:0:0:0:
36,192,67714,1,0,0:0:0:0:
475,192,67936,128,0,68158:0:0:0:0:
329,192,67936,1,0,0:0:0:0:
182,192,67936,1,0,0:0:0:0:
256,192,68047,1,0,0:0:0:0:
36,192,68158,128,0,69047:0:0:0:0:
329,192,68158,1,0,0:0:0:0:
182,192,68381,1,0,0:0:0:0:
109,192,68381,1,0,0:0:0:0:
329,192,68603,1,0,0:0:0:0:
402,192,68603,1,0,0:0:0:0:
256,192,68825,1,0,0:0:0:0:
109,192,68825,1,0,0:0:0:0:
182,192,68936,1,0,0:0:0:0:
475,192,69047,128,0,69936:0:0:0:0:
256,192,69047,1,0,0:0:0:0:
402,192,69047,1,0,0:0:0:0:
109,192,69270,1,0,0:0:0:0:
329,192,69270,1,0,0:0:0:0:
256,192,69381,1,0,0:0:0:0:
182,192,69381,1,0,0:0:0:0:
109,192,69492,1,0,0:0:0:0:
329,192,69603,1,0,0:0:0:0:
402,192,69603,1,0,0:0:0:0:
256,192,69714,1,0,0:0:0:0:
182,192,69936,128,0,70381:0:0:0:0:
109,192,69936,1,0,0:0:0:0:
256,192,70158,1,0,0:0:0:0:
402,192,70158,1,0,0:0:0:0:
329,192,70270,1,0,0:0:0:0:
36,192,70270,1,0,0:0:0:0:
109,192,70381,1,0,0:0:0:0:
402,192,70381,1,0,0:0:0:0:
475,192,70381,1,0,0:0:0:0:
329,192,70603,1,0,0:0:0:0:
109,192,70603,1,0,0:0:0:0:
256,192,70770,128,0,70825:0:0:0:0:
182,192,70825,1,0,0:0:0:0:
329,192,70825,128,0,71158:0:0:0:0:
182,192,71047,1,0,0:0:0:0:
109,192,71047,1,0,0:0:0:0:
36,192,71158,128,0,71270:0:0:0:0:
182,192,71270,128,0,71714:0:0:0:0:
256,192,71270,1,0,0:0:0:0:
475,192,71270,1,0,0:0:0:0:
402,192,71270,1,0,0:0:0:0:
109,192,71492,1,0,0:0:0:0:
329,192,71492,1,0,0:0:0:0:
402,192,71714,128,0,71936:0:0:0:0:
256,192,71714,1,0,0:0:0:0:
36,192,71714,1,0,0:0:0:0:
109,192,71936,128,0,72047:0:0:0:0:
256,192,71936,1,0,0:0:0:0:
475,192,71936,1,0,0:0:0:0:
256,192,72047,128,0,72270:0:0:0:0:
182,192,72158,1,0,0:0:0:0:
36,192,72158,1,0,0:0:0:0:
402,192,72158,1,0,0:0:0:0:
402,192,72381,128,0,72936:0:0:0:0:
182,192,72381,1,0,0:0:0:0:
36,192,72381,1,0,0:0:0:0:
256,192,72492,1,0,0:0:0:0:
182,192,72603,1,0,0:0:0:0:
256,192,72714,1,0,0:0:0:0:
329,192,72714,1,0,0:0:0:0:
475,192,72714,1,0,0:0:0:0:
182,192,72825,1,0,0:0:0:0:
36,192,72825,1,0,0:0:0:0:
109,192,73047,128,0,73270:0:0:0:0:
256,192,73047,1,0,0:0:0:0:
475,192,73047,1,0,0:0:0:0:
329,192,73047,1,0,0:0:0:0:
182,192,73270,128,0,73492:0:0:0:0:
329,192,73270,1,0,0:0:0:0:
402,192,73270,1,0,0:0:0:0:
475,192,73492,1,0,0:0:0:0:
36,192,73492,1,0,0:0:0:0:
329,192,73714,1,0,0:0:0:0:
109,192,73714,128,0,73825:0:0:0:0:
402,192,73825,128,0,73936:0:0:0:0:
182,192,73936,1,0,0:0:0:0:
36,192,73936,1,0,0:0:0:0:
475,192,73936,1,0,0:0:0:0:
329,192,74047,128,0,74158:0:0:0:0:
109,192,74158,1,0,0:0:0:0:
182,192,74158,128,0,74714:0:0:0:0:
256,192,74270,1,0,0:0:0:0:
475,192,74381,1,0,0:0:0:0:
329,192,74492,1,0,0:0:0:0:
402,192,74492,1,0,0:0:0:0:
109,192,74492,1,0,0:0:0:0:
256,192,74603,1,0,0:0:0:0:
36,192,74603,1,0,0:0:0:0:
329,192,74714,1,0,0:0:0:0:
475,192,74714,1,0,0:0:0:0:
256,192,74825,1,0,0:0:0:0:
109,192,74825,1,0,0:0:0:0:
36,192,74825,1,0,0:0:0:0:
402,192,74825,1,0,0:0:0:0:
182,192,75047,1,0,0:0:0:0:
475,192,75047,1,0,0:0:0:0:
402,192,75047,128,0,75270:0:0:0:0:
329,192,75270,1,0,0:0:0:0:
36,192,75270,1,0,0:0:0:0:
109,192,75270,1,0,0:0:0:0:
256,192,75270,128,0,75492:0:0:0:0:
182,192,75492,1,0,0:0:0:0:
109,192,75492,1,0,0:0:0:0:
475,192,75492,1,0,0:0:0:0:
329,192,75603,128,0,75936:0:0:0:0:
256,192,75714,1,0,0:0:0:0:
36,192,75714,1,0,0:0:0:0:
402,192,75714,1,0,0:0:0:0:
109,192,75936,128,0,76158:0:0:0:0:
182,192,75936,1,0,0:0:0:0:
475,192,75936,1,0,0:0:0:0:
402,192,75936,1,0,0:0:0:0:
256,192,76158,128,0,76714:0:0:0:0:
402,192,76158,128,0,76492:0:0:0:0:
182,192,76270,1,0,0:0:0:0:
36,192,76270,1,0,0:0:0:0:
109,192,76381,1,0,0:0:0:0:
329,192,76381,1,0,0:0:0:0:
475,192,76492,128,0,76714:0:0:0:0:
182,192,76603,1,0,0:0:0:0:
36,192,76603,1,0,0:0:0:0:
329,192,76603,1,0,0:0:0:0:
109,192,76825,128,0,77047:0:0:0:0:
402,192,76825,1,0,0:0:0:0:
182,192,76825,1,0,0:0:0:0:
475,192,77047,1,0,0:0:0:0:
329,192,77047,128,0,77492:0:0:0:0:
256,192,77047,1,0,0:0:0:0:
182,192,77158,1,0,0:0:0:0:
402,192,77158,1,0,0:0:0:0:
256,192,77270,1,0,0:0:0:0:
36,192,77270,1,0,0:0:0:0:
182,192,77381,1,0,0:0:0:0:
475,192,77381,1,0,0:0:0:0:
402,192,77381,1,0,0:0:0:0:
109,192,77492,128,0,77936:0:0:0:0:
256,192,77492,1,0,0:0:0:0:
36,192,77492,1,0,0:0:0:0:
182,192,77714,128,0,77825:0:0:0:0:
329,192,77825,1,0,0:0:0:0:
475,192,77825,1,0,0:0:0:0:
256,192,77936,1,0,0:0:0:0:
36,192,77936,1,0,0:0:0:0:
402,192,77936,128,0,78381:0:0:0:0:
182,192,78047,1,0,0:0:0:0:
109,192,78158,1,0,0:0:0:0:
36,192,78158,1,0,0:0:0:0:
182,192,78381,128,0,78825:0:0:0:0:
329,192,78381,1,0,0:0:0:0:
256,192,78381,1,0,0:0:0:0:
36,192,78381,1,0,0:0:0:0:
109,192,78603,1,0,0:0:0:0:
329,192,78603,1,0,0:0:0:0:
329,192,78825,128,0,79270:0:0:0:0:
402,192,78825,1,0,0:0:0:0:
475,192,78825,1,0,0:0:0:0:
109,192,78825,1,0,0:0:0:0:
256,192,79047,1,0,0:0:0:0:
182,192,79047,1,0,0:0:0:0:
36,192,79047,1,0,0:0:0:0:
109,192,79270,1,0,0:0:0:0:
475,192,79270,1,0,0:0:0:0:
402,192,79270,1,0,0:0:0:0:
256,192,79270,1,0,0:0:0:0:
182,192,79492,1,0,0:0:0:0:
402,192,79492,1,0,0:0:0:0:
182,192,79714,128,0,80047:0:0:0:0:
256,192,79825,1,0,0:0:0:0:
475,192,79825,1,0,0:0:0:0:
36,192,79825,1,0,0:0:0:0:
109,192,79936,1,0,0:0:0:0:
329,192,79936,1,0,0:0:0:0:
402,192,80047,128,0,80381:0:0:0:0:
329,192,80158,1,0,0:0:0:0:
256,192,80158,1,0,0:0:0:0:
109,192,80158,1,0,0:0:0:0:
36,192,80381,128,0,80603:0:0:0:0:
182,192,80381,1,0,0:0:0:0:
109,192,80381,1,0,0:0:0:0:
256,192,80603,128,0,81770:0:0:0:0:
475,192,80603,128,0,82158:0:0:0:0:
329,192,80603,1,0,0:0:0:0:
402,192,80603,1,0,0:0:0:0:
182,192,81047,1,0,0:0:0:0:
109,192,81047,1,0,0:0:0:0:
36,192,81047,1,0,0:0:0:0:
329,192,81047,1,0,0:0:0:0:
182,192,82158,128,0,82214:0:0:0:0:
256,192,82270,128,0,82325:0:0:0:0:
329,192,82381,128,0,82603:0:0:0:0:
402,192,82381,1,0,0:0:0:0:
475,192,82381,1,0,0:0:0:0:
182,192,82381,1,0,0:0:0:0:
109,192,82603,128,0,82714:0:0:0:0:
182,192,82714,128,0,82936:0:0:0:0:
329,192,82936,128,0,83047:0:0:0:0:
256,192,83047,128,0,85825:0:0:0:0:
36,192,83881,128,0,83936:0:0:0:0:
475,192,83881,128,0,83936:0:0:0:0:
402,192,83936,128,0,84158:0:0:0:0:
109,192,83936,128,0,84158:0:0:0:0:
329,192,84825,128,0,86381:0:0:0:0:
109,192,84825,128,0,86381:0:0:0:0:
36,192,84825,128,0,86381:0:0:0:0:
182,192,85714,128,0,85992:0:0:0:0:
256,192,85992,128,0,86381:0:0:0:0:
475,192,86381,1,0,0:0:0:0:
