osu file format v14

[General]
AudioFilename: audio.mp3
AudioLeadIn: 0
PreviewTime: 68833
Countdown: 0
SampleSet: Soft
StackLeniency: 0.7
Mode: 3
LetterboxInBreaks: 0
SpecialStyle: 0
WidescreenStoryboard: 1

[Editor]
DistanceSpacing: 1
BeatDivisor: 4
GridSize: 4
TimelineZoom: 1.88

[Metadata]
Title:Salvage (TV Size)
TitleUnicode:Salvage (TV Size)
Artist:Team.Nekokan[Neko] featuring. Katakiri Rekka
ArtistUnicode:Team.Nekokan[Neko] featuring. Katakiri Rekka
Creator:- Ly0572 -
Version:HITSOUND
Source:ココロコネクト
Tags:[R] Popoii Virtue- Kokoro connect Ending 3
BeatmapID:1478059
BeatmapSetID:460904

[Difficulty]
HPDrainRate:8
CircleSize:4
OverallDifficulty:8
ApproachRate:5
SliderMultiplier:1.4
SliderTickRate:1

[Events]
//Background and Video events
0,0,"541805.jpg",0,0
//Break Periods
//Storyboard Layer 0 (Background)
//Storyboard Layer 1 (Fail)
//Storyboard Layer 2 (Pass)
//Storyboard Layer 3 (Foreground)
//Storyboard Sound Samples

[TimingPoints]
2010,337.552742616034,4,2,1,100,1,0
69520,-100,4,2,1,100,0,1
91123,-100,4,2,1,100,0,0

[HitObjects]
448,192,4710,5,2,0:0:0:0:
320,192,4710,1,8,0:0:0:0:
192,192,4710,1,4,0:0:0:0:
448,192,5047,1,2,0:0:0:0:
320,192,5047,1,0,0:0:0:0:
64,192,5385,1,8,0:0:0:0:
64,192,5891,1,8,0:0:0:0:
320,192,6060,1,0,0:0:0:0:
448,192,6060,1,2,0:0:0:0:
64,192,6398,1,8,0:0:0:0:
64,192,6566,1,8,0:0:0:0:
64,192,6904,1,8,0:0:0:0:
320,192,7073,1,0,0:0:0:0:
448,192,7073,1,2,0:0:0:0:
64,192,7410,1,8,0:0:0:0:
320,192,7748,1,0,0:0:0:0:
448,192,7748,1,2,0:0:0:0:
64,192,8085,1,8,0:0:0:0:
64,192,8592,1,8,0:0:0:0:
320,192,8761,1,0,0:0:0:0:
448,192,8761,1,2,0:0:0:0:
64,192,9098,1,8,0:0:0:0:
64,192,9267,1,8,0:0:0:0:
64,192,9604,1,8,0:0:0:0:
320,192,9773,1,0,0:0:0:0:
448,192,9773,1,2,0:0:0:0:
192,192,9773,1,0,0:0:0:0:
64,192,10111,1,8,0:0:0:0:
320,192,10448,1,0,0:0:0:0:
448,192,10448,1,2,0:0:0:0:
64,192,10786,1,8,0:0:0:0:
64,192,11292,1,8,0:0:0:0:
320,192,11461,1,0,0:0:0:0:
448,192,11461,1,2,0:0:0:0:
64,192,11799,1,8,0:0:0:0:
64,192,11967,1,8,0:0:0:0:
64,192,12305,1,8,0:0:0:0:
320,192,12474,1,0,0:0:0:0:
448,192,12474,1,2,0:0:0:0:
192,192,12811,1,0,0:0:0:0:
64,192,12811,1,8,0:0:0:0:
448,192,13149,1,2,0:0:0:0:
320,192,13149,1,0,0:0:0:0:
64,192,13486,1,8,0:0:0:0:
64,192,13993,1,8,0:0:0:0:
320,192,14161,1,0,0:0:0:0:
448,192,14161,1,2,0:0:0:0:
64,192,14499,1,8,0:0:0:0:
64,192,14668,1,8,0:0:0:0:
64,192,15005,1,8,0:0:0:0:
320,192,15174,1,0,0:0:0:0:
448,192,15174,1,2,0:0:0:0:
192,192,15512,1,0,0:0:0:0:
320,192,15512,1,0,0:0:0:0:
448,192,15512,1,2,0:0:0:0:
320,192,15849,1,0,0:0:0:0:
448,192,15849,1,2,0:0:0:0:
64,192,16018,1,8,0:0:0:0:
64,192,16187,1,8,0:0:0:0:
320,192,16524,1,0,0:0:0:0:
448,192,16524,1,2,0:0:0:0:
64,192,16862,1,8,0:0:0:0:
320,192,17199,1,0,0:0:0:0:
448,192,17199,1,2,0:0:0:0:
64,192,17368,1,8,0:0:0:0:
64,192,17537,1,8,0:0:0:0:
64,192,17706,1,8,0:0:0:0:
320,192,17874,1,0,0:0:0:0:
448,192,17874,1,2,0:0:0:0:
64,192,18043,1,8,0:0:0:0:
64,192,18212,1,8,0:0:0:0:
320,192,18550,1,0,0:0:0:0:
448,192,18550,1,2,0:0:0:0:
64,192,18887,1,8,0:0:0:0:
448,192,19225,1,2,0:0:0:0:
320,192,19225,1,0,0:0:0:0:
64,192,19562,1,8,0:0:0:0:
320,192,19900,1,0,0:0:0:0:
448,192,19900,1,2,0:0:0:0:
64,192,20069,1,8,0:0:0:0:
64,192,20237,1,8,0:0:0:0:
448,192,20406,1,2,0:0:0:0:
64,192,20406,1,8,0:0:0:0:
320,192,20575,1,0,0:0:0:0:
448,192,20575,1,2,0:0:0:0:
64,192,20744,1,8,0:0:0:0:
192,192,20912,1,0,0:0:0:0:
320,192,20912,1,0,0:0:0:0:
448,192,20912,1,2,0:0:0:0:
320,192,21250,1,0,0:0:0:0:
448,192,21250,1,2,0:0:0:0:
64,192,21419,1,8,0:0:0:0:
64,192,21588,1,8,0:0:0:0:
448,192,21925,1,2,0:0:0:0:
320,192,21925,1,0,0:0:0:0:
64,192,22263,1,8,0:0:0:0:
448,192,22600,1,2,0:0:0:0:
320,192,22600,1,0,0:0:0:0:
64,192,22769,1,8,0:0:0:0:
64,192,22938,1,8,0:0:0:0:
64,192,23107,1,8,0:0:0:0:
448,192,23275,1,2,0:0:0:0:
320,192,23275,1,0,0:0:0:0:
64,192,23444,1,8,0:0:0:0:
64,192,23613,1,8,0:0:0:0:
448,192,23950,1,2,0:0:0:0:
320,192,23950,1,0,0:0:0:0:
64,192,24119,1,8,0:0:0:0:
64,192,24288,1,8,0:0:0:0:
448,192,24288,1,2,0:0:0:0:
320,192,24288,1,0,0:0:0:0:
64,192,24457,1,8,0:0:0:0:
64,192,24626,1,8,0:0:0:0:
320,192,24794,1,0,0:0:0:0:
448,192,24794,1,2,0:0:0:0:
192,192,24794,1,0,0:0:0:0:
64,192,25132,1,8,0:0:0:0:
64,192,25301,1,8,0:0:0:0:
448,192,25469,1,2,0:0:0:0:
320,192,25469,1,0,0:0:0:0:
192,192,25469,1,0,0:0:0:0:
64,192,25638,1,8,0:0:0:0:
64,192,25807,1,8,0:0:0:0:
320,192,25976,1,0,0:0:0:0:
448,192,25976,1,2,0:0:0:0:
64,192,26145,1,8,0:0:0:0:
64,192,26313,1,8,0:0:0:0:
320,192,26313,1,0,0:0:0:0:
448,192,26313,1,2,0:0:0:0:
448,192,26651,1,2,0:0:0:0:
320,192,26651,1,0,0:0:0:0:
64,192,26820,1,8,0:0:0:0:
64,192,26988,1,8,0:0:0:0:
448,192,27326,1,2,0:0:0:0:
320,192,27326,1,0,0:0:0:0:
64,192,27495,1,8,0:0:0:0:
64,192,27664,1,8,0:0:0:0:
448,192,28001,1,2,0:0:0:0:
320,192,28001,1,0,0:0:0:0:
64,192,28170,1,8,0:0:0:0:
64,192,28339,1,8,0:0:0:0:
64,192,28507,1,8,0:0:0:0:
320,192,28676,1,0,0:0:0:0:
448,192,28676,1,2,0:0:0:0:
64,192,28845,1,8,0:0:0:0:
64,192,29014,1,8,0:0:0:0:
320,192,29351,1,0,0:0:0:0:
448,192,29351,1,2,0:0:0:0:
64,192,29520,1,8,0:0:0:0:
64,192,29689,1,8,0:0:0:0:
448,192,30026,1,2,0:0:0:0:
320,192,30026,1,0,0:0:0:0:
64,192,30195,1,8,0:0:0:0:
64,192,30364,1,8,0:0:0:0:
448,192,30701,1,2,0:0:0:0:
320,192,30701,1,0,0:0:0:0:
64,192,30870,1,8,0:0:0:0:
64,192,31039,1,8,0:0:0:0:
320,192,31208,1,0,0:0:0:0:
448,192,31208,1,2,0:0:0:0:
320,192,31377,1,0,0:0:0:0:
448,192,31377,1,2,0:0:0:0:
64,192,31545,1,8,0:0:0:0:
64,192,31714,1,8,0:0:0:0:
320,192,31714,1,0,0:0:0:0:
448,192,31714,1,2,0:0:0:0:
320,192,32052,1,0,0:0:0:0:
448,192,32052,1,2,0:0:0:0:
64,192,32220,1,8,0:0:0:0:
64,192,32389,1,8,0:0:0:0:
448,192,32727,1,2,0:0:0:0:
320,192,32727,1,0,0:0:0:0:
64,192,32896,1,8,0:0:0:0:
64,192,33064,1,8,0:0:0:0:
448,192,33402,1,2,0:0:0:0:
320,192,33402,1,0,0:0:0:0:
64,192,33571,1,8,0:0:0:0:
64,192,33739,1,8,0:0:0:0:
64,192,33908,1,8,0:0:0:0:
448,192,34077,1,2,0:0:0:0:
320,192,34077,1,0,0:0:0:0:
64,192,34246,1,8,0:0:0:0:
320,192,34415,1,0,0:0:0:0:
448,192,34415,1,2,0:0:0:0:
64,192,34583,1,8,0:0:0:0:
64,192,34752,1,8,0:0:0:0:
320,192,34921,1,0,0:0:0:0:
448,192,34921,1,2,0:0:0:0:
64,192,35090,1,8,0:0:0:0:
64,192,35258,1,8,0:0:0:0:
320,192,35427,1,0,0:0:0:0:
448,192,35427,1,2,0:0:0:0:
64,192,35596,1,8,0:0:0:0:
64,192,35765,1,8,0:0:0:0:
320,192,35934,1,0,0:0:0:0:
448,192,35934,1,2,0:0:0:0:
64,192,36102,1,8,0:0:0:0:
64,192,36271,1,8,0:0:0:0:
320,192,36440,1,0,0:0:0:0:
448,192,36440,1,2,0:0:0:0:
448,192,37115,1,2,0:0:0:0:
448,192,37453,1,2,0:0:0:0:
448,192,37790,1,2,0:0:0:0:
448,192,38128,1,2,0:0:0:0:
448,192,38465,1,2,0:0:0:0:
448,192,38803,1,2,0:0:0:0:
448,192,39140,1,2,0:0:0:0:
448,192,39478,1,2,0:0:0:0:
64,192,39647,1,8,0:0:0:0:
64,192,39815,1,8,0:0:0:0:
448,192,39815,1,2,0:0:0:0:
448,192,40153,1,2,0:0:0:0:
448,192,40491,1,2,0:0:0:0:
448,192,40828,1,2,0:0:0:0:
448,192,41166,1,2,0:0:0:0:
448,192,41503,1,2,0:0:0:0:
448,192,41841,1,2,0:0:0:0:
448,192,42178,1,2,0:0:0:0:
64,192,42347,1,8,0:0:0:0:
64,192,42516,1,8,0:0:0:0:
448,192,42516,1,2,0:0:0:0:
192,192,42516,1,0,0:0:0:0:
448,192,42853,1,2,0:0:0:0:
448,192,43191,1,2,0:0:0:0:
448,192,43528,1,2,0:0:0:0:
448,192,43866,1,2,0:0:0:0:
448,192,44204,1,2,0:0:0:0:
448,192,44541,1,2,0:0:0:0:
448,192,44879,1,2,0:0:0:0:
64,192,45047,1,8,0:0:0:0:
64,192,45216,1,8,0:0:0:0:
448,192,45216,1,2,0:0:0:0:
192,192,45216,1,0,0:0:0:0:
320,192,45554,1,0,0:0:0:0:
448,192,45554,1,2,0:0:0:0:
64,192,45723,1,8,0:0:0:0:
320,192,45891,1,0,0:0:0:0:
448,192,45891,1,2,0:0:0:0:
320,192,45976,1,0,0:0:0:0:
320,192,46060,1,0,0:0:0:0:
64,192,46398,1,8,0:0:0:0:
320,192,46398,1,0,0:0:0:0:
448,192,46398,1,2,0:0:0:0:
64,192,46735,1,8,0:0:0:0:
64,192,46904,1,8,0:0:0:0:
448,192,47073,1,2,0:0:0:0:
320,192,47073,1,0,0:0:0:0:
64,192,47242,1,8,0:0:0:0:
320,192,47410,1,0,0:0:0:0:
448,192,47410,1,2,0:0:0:0:
64,192,47579,1,8,0:0:0:0:
64,192,47748,1,8,0:0:0:0:
320,192,47748,1,0,0:0:0:0:
448,192,47748,1,2,0:0:0:0:
64,192,48085,1,8,0:0:0:0:
320,192,48254,1,0,0:0:0:0:
448,192,48254,1,2,0:0:0:0:
64,192,48592,1,8,0:0:0:0:
320,192,48929,1,0,0:0:0:0:
448,192,48929,1,2,0:0:0:0:
448,192,49098,1,2,0:0:0:0:
320,192,49098,1,0,0:0:0:0:
64,192,49098,1,8,0:0:0:0:
64,192,49436,1,8,0:0:0:0:
448,192,49604,1,2,0:0:0:0:
320,192,49604,1,0,0:0:0:0:
64,192,49773,1,8,0:0:0:0:
64,192,49942,1,8,0:0:0:0:
320,192,50280,1,0,0:0:0:0:
448,192,50280,1,2,0:0:0:0:
64,192,50448,1,8,0:0:0:0:
64,192,50786,1,8,0:0:0:0:
320,192,50955,1,0,0:0:0:0:
448,192,50955,1,2,0:0:0:0:
64,192,51123,1,8,0:0:0:0:
64,192,51292,1,8,0:0:0:0:
64,192,51461,1,8,0:0:0:0:
320,192,51630,1,0,0:0:0:0:
448,192,51630,1,2,0:0:0:0:
64,192,51799,1,8,0:0:0:0:
192,192,51799,1,0,0:0:0:0:
448,192,51799,1,2,0:0:0:0:
64,192,52136,1,8,0:0:0:0:
64,192,52305,1,8,0:0:0:0:
320,192,52474,1,0,0:0:0:0:
448,192,52474,1,2,0:0:0:0:
64,192,52642,1,8,0:0:0:0:
64,192,52811,1,8,0:0:0:0:
448,192,52980,1,2,0:0:0:0:
320,192,52980,1,0,0:0:0:0:
64,192,53149,1,8,0:0:0:0:
64,192,53486,1,8,0:0:0:0:
320,192,53655,1,0,0:0:0:0:
448,192,53655,1,2,0:0:0:0:
64,192,53824,1,8,0:0:0:0:
64,192,53908,1,8,0:0:0:0:
64,192,53993,1,8,0:0:0:0:
64,192,54161,1,8,0:0:0:0:
320,192,54330,1,0,0:0:0:0:
448,192,54330,1,2,0:0:0:0:
64,192,54499,1,8,0:0:0:0:
64,192,54837,1,8,0:0:0:0:
320,192,55005,1,0,0:0:0:0:
448,192,55005,1,2,0:0:0:0:
64,192,55174,1,8,0:0:0:0:
64,192,55258,1,8,0:0:0:0:
64,192,55343,1,8,0:0:0:0:
64,192,55512,1,8,0:0:0:0:
320,192,55680,1,0,0:0:0:0:
448,192,55680,1,2,0:0:0:0:
64,192,55849,1,8,0:0:0:0:
64,192,56187,1,8,0:0:0:0:
320,192,56355,1,0,0:0:0:0:
448,192,56355,1,2,0:0:0:0:
64,192,56524,1,8,0:0:0:0:
64,192,56693,1,8,0:0:0:0:
320,192,57031,1,0,0:0:0:0:
448,192,57031,1,2,0:0:0:0:
64,192,57199,1,8,0:0:0:0:
64,192,57368,1,8,0:0:0:0:
320,192,57706,1,0,0:0:0:0:
448,192,57706,1,2,0:0:0:0:
64,192,57874,1,8,0:0:0:0:
64,192,58043,1,8,0:0:0:0:
320,192,58212,1,0,0:0:0:0:
448,192,58212,1,2,0:0:0:0:
320,192,58381,1,0,0:0:0:0:
448,192,58381,1,2,0:0:0:0:
448,192,58718,1,2,0:0:0:0:
320,192,58718,1,0,0:0:0:0:
320,192,59225,1,0,0:0:0:0:
448,192,59225,1,2,0:0:0:0:
64,192,59393,1,8,0:0:0:0:
64,192,59562,1,8,0:0:0:0:
320,192,59731,1,0,0:0:0:0:
448,192,59731,1,2,0:0:0:0:
320,192,59900,1,0,0:0:0:0:
448,192,59900,1,2,0:0:0:0:
64,192,59984,1,8,0:0:0:0:
64,192,60069,1,8,0:0:0:0:
320,192,60575,1,0,0:0:0:0:
448,192,60575,1,2,0:0:0:0:
320,192,60912,1,0,0:0:0:0:
448,192,60912,1,2,0:0:0:0:
448,192,61081,1,2,0:0:0:0:
320,192,61081,1,0,0:0:0:0:
64,192,61166,1,8,0:0:0:0:
64,192,61250,1,8,0:0:0:0:
320,192,61419,1,0,0:0:0:0:
448,192,61419,1,2,0:0:0:0:
64,192,61588,1,8,0:0:0:0:
64,192,61756,1,8,0:0:0:0:
320,192,61925,1,0,0:0:0:0:
448,192,61925,1,2,0:0:0:0:
64,192,62094,1,8,0:0:0:0:
64,192,62263,1,8,0:0:0:0:
320,192,62431,1,0,0:0:0:0:
448,192,62431,1,2,0:0:0:0:
64,192,62600,1,8,0:0:0:0:
64,192,62769,1,8,0:0:0:0:
320,192,62938,1,0,0:0:0:0:
448,192,62938,1,2,0:0:0:0:
320,192,63444,1,0,0:0:0:0:
448,192,63444,1,0,0:0:0:0:
448,192,63613,1,0,0:0:0:0:
320,192,63613,1,0,0:0:0:0:
320,192,63782,1,0,0:0:0:0:
448,192,63782,1,0,0:0:0:0:
448,192,63950,1,0,0:0:0:0:
320,192,63950,1,0,0:0:0:0:
64,192,63950,1,8,0:0:0:0:
64,192,64288,1,8,0:0:0:0:
320,192,64457,1,0,0:0:0:0:
448,192,64457,1,0,0:0:0:0:
64,192,64626,1,8,0:0:0:0:
64,192,64710,1,8,0:0:0:0:
64,192,64794,1,8,0:0:0:0:
64,192,64963,1,8,0:0:0:0:
320,192,65132,1,0,0:0:0:0:
448,192,65132,1,0,0:0:0:0:
64,192,65301,1,8,0:0:0:0:
64,192,65638,1,8,0:0:0:0:
320,192,65807,1,0,0:0:0:0:
448,192,65807,1,0,0:0:0:0:
64,192,65976,1,8,0:0:0:0:
64,192,66060,1,8,0:0:0:0:
64,192,66145,1,8,0:0:0:0:
64,192,66313,1,8,0:0:0:0:
320,192,66482,1,0,0:0:0:0:
448,192,66482,1,0,0:0:0:0:
64,192,66651,1,8,0:0:0:0:
64,192,66988,1,8,0:0:0:0:
64,192,67157,1,8,0:0:0:0:
64,192,67326,1,8,0:0:0:0:
64,192,67495,1,8,0:0:0:0:
64,192,67664,1,8,0:0:0:0:
64,192,67832,1,8,0:0:0:0:
64,192,68001,1,8,0:0:0:0:
64,192,68170,1,8,0:0:0:0:
320,192,68170,1,0,0:0:0:0:
448,192,68170,1,0,0:0:0:0:
320,192,68339,1,0,0:0:0:0:
448,192,68339,1,0,0:0:0:0:
320,192,68507,1,0,0:0:0:0:
448,192,68507,1,0,0:0:0:0:
320,192,68676,1,0,0:0:0:0:
448,192,68676,1,0,0:0:0:0:
64,192,69014,1,8,0:0:0:0:
320,192,69182,1,0,0:0:0:0:
448,192,69182,1,0,0:0:0:0:
320,192,69520,1,0,0:0:0:0:
448,192,69520,1,0,0:0:0:0:
448,192,69858,1,0,0:0:0:0:
320,192,69858,1,0,0:0:0:0:
64,192,70195,1,8,0:0:0:0:
320,192,70533,1,0,0:0:0:0:
448,192,70533,1,0,0:0:0:0:
64,192,70870,1,8,0:0:0:0:
448,192,71208,1,0,0:0:0:0:
320,192,71208,1,0,0:0:0:0:
64,192,71545,1,0,0:0:0:0:
448,192,71883,1,0,0:0:0:0:
320,192,71883,1,0,0:0:0:0:
64,192,72220,1,8,0:0:0:0:
320,192,72558,1,0,0:0:0:0:
448,192,72558,1,0,0:0:0:0:
64,192,72896,1,8,0:0:0:0:
448,192,73233,1,0,0:0:0:0:
320,192,73233,1,0,0:0:0:0:
64,192,73571,1,0,0:0:0:0:
320,192,73908,1,0,0:0:0:0:
448,192,73908,1,0,0:0:0:0:
64,192,74246,1,8,0:0:0:0:
320,192,74415,1,0,0:0:0:0:
448,192,74415,1,0,0:0:0:0:
448,192,74583,1,0,0:0:0:0:
320,192,74583,1,0,0:0:0:0:
64,192,74921,1,8,0:0:0:0:
320,192,75258,1,0,0:0:0:0:
448,192,75258,1,0,0:0:0:0:
64,192,75596,1,0,0:0:0:0:
448,192,75934,1,0,0:0:0:0:
320,192,75934,1,0,0:0:0:0:
64,192,76271,1,8,0:0:0:0:
320,192,76609,1,0,0:0:0:0:
448,192,76609,1,0,0:0:0:0:
64,192,76946,1,8,0:0:0:0:
320,192,77115,1,0,0:0:0:0:
448,192,77115,1,0,0:0:0:0:
448,192,77284,1,0,0:0:0:0:
320,192,77284,1,0,0:0:0:0:
192,192,77453,1,0,0:0:0:0:
320,192,77453,1,0,0:0:0:0:
448,192,77453,1,0,0:0:0:0:
320,192,77790,1,0,0:0:0:0:
448,192,77790,1,0,0:0:0:0:
320,192,77959,1,0,0:0:0:0:
448,192,77959,1,0,0:0:0:0:
320,192,78128,1,0,0:0:0:0:
448,192,78128,1,0,0:0:0:0:
192,192,78128,1,0,0:0:0:0:
192,192,78634,1,0,0:0:0:0:
320,192,78634,1,0,0:0:0:0:
448,192,78634,1,0,0:0:0:0:
320,192,79140,1,0,0:0:0:0:
448,192,79140,1,0,0:0:0:0:
448,192,79309,1,0,0:0:0:0:
320,192,79309,1,0,0:0:0:0:
320,192,79478,1,0,0:0:0:0:
448,192,79478,1,0,0:0:0:0:
192,192,79478,1,0,0:0:0:0:
64,192,79647,1,0,0:0:0:0:
64,192,79731,1,0,0:0:0:0:
64,192,79815,1,0,0:0:0:0:
64,192,79900,1,0,0:0:0:0:
320,192,79984,1,0,0:0:0:0:
448,192,79984,1,0,0:0:0:0:
192,192,80322,1,0,0:0:0:0:
320,192,80322,1,0,0:0:0:0:
448,192,80322,1,0,0:0:0:0:
320,192,80659,1,0,0:0:0:0:
448,192,80659,1,0,0:0:0:0:
64,192,80997,1,8,0:0:0:0:
448,192,81334,1,0,0:0:0:0:
320,192,81334,1,0,0:0:0:0:
64,192,81672,1,8,0:0:0:0:
320,192,82010,1,0,0:0:0:0:
448,192,82010,1,0,0:0:0:0:
64,192,82347,1,0,0:0:0:0:
448,192,82685,1,0,0:0:0:0:
320,192,82685,1,0,0:0:0:0:
64,192,83022,1,8,0:0:0:0:
320,192,83360,1,0,0:0:0:0:
448,192,83360,1,0,0:0:0:0:
64,192,83697,1,8,0:0:0:0:
448,192,84035,1,0,0:0:0:0:
320,192,84035,1,0,0:0:0:0:
64,192,84372,1,0,0:0:0:0:
320,192,84710,1,0,0:0:0:0:
448,192,84710,1,0,0:0:0:0:
64,192,85047,1,8,0:0:0:0:
320,192,85216,1,0,0:0:0:0:
448,192,85216,1,0,0:0:0:0:
448,192,85385,1,0,0:0:0:0:
320,192,85385,1,0,0:0:0:0:
64,192,85723,1,8,0:0:0:0:
320,192,86060,1,0,0:0:0:0:
448,192,86060,1,0,0:0:0:0:
64,192,86398,1,0,0:0:0:0:
448,192,86735,1,0,0:0:0:0:
320,192,86735,1,0,0:0:0:0:
64,192,87073,1,8,0:0:0:0:
320,192,87410,1,0,0:0:0:0:
448,192,87410,1,0,0:0:0:0:
64,192,87748,1,8,0:0:0:0:
448,192,88085,1,0,0:0:0:0:
320,192,88085,1,0,0:0:0:0:
320,192,88254,1,0,0:0:0:0:
448,192,88254,1,0,0:0:0:0:
64,192,88592,1,0,0:0:0:0:
64,192,88761,1,0,0:0:0:0:
320,192,88929,1,0,0:0:0:0:
448,192,88929,1,0,0:0:0:0:
64,192,89267,1,0,0:0:0:0:
64,192,89436,1,0,0:0:0:0:
320,192,89604,1,0,0:0:0:0:
448,192,89604,1,0,0:0:0:0:
320,192,89942,1,0,0:0:0:0:
448,192,89942,1,0,0:0:0:0:
448,192,90111,1,0,0:0:0:0:
320,192,90111,1,0,0:0:0:0:
448,192,90280,1,0,0:0:0:0:
320,192,90280,1,0,0:0:0:0:
64,192,90617,1,0,0:0:0:0:
320,192,90786,1,0,0:0:0:0:
448,192,90786,1,0,0:0:0:0:
64,192,90955,1,0,0:0:0:0:
64,192,91292,1,0,0:0:0:0:
320,192,91461,1,0,0:0:0:0:
448,192,91461,1,0,0:0:0:0:
64,192,91630,1,0,0:0:0:0:
64,192,91714,1,0,0:0:0:0:
64,192,91799,1,0,0:0:0:0:
64,192,91967,1,0,0:0:0:0:
320,192,92136,1,0,0:0:0:0:
448,192,92136,1,0,0:0:0:0:
64,192,92305,1,0,0:0:0:0:
64,192,92642,1,0,0:0:0:0:
320,192,92811,1,0,0:0:0:0:
448,192,92811,1,0,0:0:0:0:
64,192,92980,1,0,0:0:0:0:
64,192,93064,1,0,0:0:0:0:
64,192,93149,1,0,0:0:0:0:
64,192,93318,1,0,0:0:0:0:
320,192,93486,1,0,0:0:0:0:
448,192,93486,1,0,0:0:0:0:
64,192,93655,1,0,0:0:0:0:
64,192,93993,1,0,0:0:0:0:
320,192,94161,1,0,0:0:0:0:
448,192,94161,1,0,0:0:0:0:
64,192,94330,1,0,0:0:0:0:
64,192,94415,1,0,0:0:0:0:
64,192,94499,1,0,0:0:0:0:
64,192,94668,1,0,0:0:0:0:
320,192,94837,1,0,0:0:0:0:
448,192,94837,1,0,0:0:0:0:
64,192,95005,1,0,0:0:0:0:
64,192,95343,1,0,0:0:0:0:
320,192,95512,1,0,0:0:0:0:
448,192,95512,1,0,0:0:0:0:
64,192,95680,1,0,0:0:0:0:
64,192,95765,1,0,0:0:0:0:
64,192,95849,1,0,0:0:0:0:
320,192,96018,1,0,0:0:0:0:
448,192,96018,1,0,0:0:0:0:
448,192,96187,1,0,0:0:0:0:
320,192,96187,1,0,0:0:0:0:
192,192,96355,1,0,0:0:0:0:
320,192,96355,1,0,0:0:0:0:
448,192,96355,1,0,0:0:0:0:
