osu file format v14

[General]
AudioFilename: audio.mp3
AudioLeadIn: 0
PreviewTime: 128261
Countdown: 0
SampleSet: Soft
StackLeniency: 0.3
Mode: 0
LetterboxInBreaks: 0
WidescreenStoryboard: 1

[Editor]
Bookmarks: 5402,16204,37807,48440,59411,70212,91647,97216,107849,118820,129622,140254,151056,174179,181436,184980,217216
DistanceSpacing: 1
BeatDivisor: 4
GridSize: 8
TimelineZoom: 1

[Metadata]
Title:Salvage
TitleUnicode:Salvage
Artist:Team.Nekokan[Neko] feat. Katakiri Rekka
ArtistUnicode:Team.ねこかん[猫] feat. 片霧烈火
Creator:Nyukai
Version:Mrgglock's Normal
Source:ココロコネクト
Tags:kokoro connect anime japanese j-pop jpop pop j-rock jrock rock ending 3 ed full version Kanui Crysisters Mrgglock collaboration collab female vocal vocalist カコランダム Kako Random nyanyannya sham
BeatmapID:3850919
BeatmapSetID:1865454

[Difficulty]
HPDrainRate:3
CircleSize:3
OverallDifficulty:4
ApproachRate:5
SliderMultiplier:0.999999999999999
SliderTickRate:1

[Events]
//Background and Video events
0,0,"background.jpg",0,0
//Break Periods
2,37997,44698
2,97406,104108
2,174368,180395
//Storyboard Layer 0 (Background)
//Storyboard Layer 1 (Fail)
//Storyboard Layer 2 (Pass)
//Storyboard Layer 3 (Foreground)
//Storyboard Layer 4 (Overlay)
//Storyboard Sound Samples

[TimingPoints]
1342,337.552742616034,4,2,1,40,1,0
1342,-125,4,2,1,40,0,0
5055,-125,4,2,1,5,0,0
5392,-111.111111111111,4,2,1,60,0,0
16194,-100,4,2,1,70,0,0
37797,-100,4,2,2,70,0,0
45477,-100,4,2,1,70,0,0
45561,-100,4,2,2,70,0,0
45898,-111.111111111111,4,2,2,70,0,0
46152,-111.111111111111,4,2,1,70,0,0
46235,-111.111111111111,4,2,1,70,0,0
48430,-100,4,2,1,70,0,0
59401,-111.111111111111,4,2,1,70,0,0
64633,-100,4,2,1,70,0,0
70202,-90.9090909090909,4,2,1,80,0,1
91637,-100,4,2,1,70,0,0
105308,-111.111111111111,4,2,1,60,0,0
107839,-100,4,2,1,70,0,0
118810,-111.111111111111,4,2,1,60,0,0
124042,-100,4,2,1,70,0,0
129612,-90.9090909090909,4,2,1,80,0,0
151046,-100,4,2,1,80,0,0
184970,-90.9090909090909,4,2,1,80,0,1
217206,-100,4,2,1,80,0,0
229190,-100,4,2,1,5,0,0

[Colours]
Combo1 : 82,117,193
Combo2 : 251,164,238

[HitObjects]
452,238,1342,5,2,0:0:0:0:
452,238,2692,2,0,L|466:126,1,79.9999999999999,2|2,0:0|0:0,0:0:0:0:
468,119,3198,1,2,0:0:0:0:
398,79,3536,1,2,0:0:0:0:
328,118,3873,2,0,B|233:136|233:136|181:84|181:84|67:106,1,280,2|0,0:0|0:0,0:0:0:0:
3,162,5392,6,0,P|27:205|27:253,1,89.999997253418,6|8,3:2|0:0,0:0:0:0:
0,330,6067,1,0,3:0:0:0:
126,376,6574,1,0,3:0:0:0:
126,376,6742,2,0,L|222:366,1,89.999997253418,10|0,3:2|3:0,0:0:0:0:
260,361,7249,1,10,0:3:0:0:
305,285,7586,1,2,3:2:0:0:
305,285,7755,1,10,0:0:0:0:
238,224,8093,6,0,P|222:178|250:122,1,89.999997253418,0|8,3:0|0:0,0:0:0:0:
292,71,8768,1,0,3:0:0:0:
420,111,9274,1,0,3:0:0:0:
420,111,9443,2,0,L|409:200,1,89.999997253418,10|0,3:2|3:0,0:0:0:0:
403,245,9949,1,10,0:3:0:0:
467,315,10287,1,2,3:2:0:0:
467,315,10455,1,14,0:0:0:0:
400,376,10793,6,0,P|360:349|309:355,1,89.999997253418,6|8,3:2|0:0,0:0:0:0:
233,376,11468,1,0,3:0:0:0:
170,256,11974,1,0,3:0:0:0:
170,256,12143,2,0,L|181:152,1,89.999997253418,10|0,3:2|3:0,0:0:0:0:
189,122,12650,1,10,0:3:0:0:
131,60,12987,1,2,3:2:0:0:
131,60,13156,1,10,0:0:0:0:
44,83,13493,6,0,P|12:123|19:176,1,89.999997253418,4|10,3:2|0:0,0:0:0:0:
51,241,14169,1,0,3:0:0:0:
9,369,14675,1,2,3:2:0:0:
9,369,14844,2,0,L|101:382,1,89.999997253418,8|0,3:2|3:0,0:0:0:0:
129,348,15350,2,0,L|218:335,1,89.999997253418,0|0,3:0|3:0,0:0:0:0:
253,363,15856,1,8,0:0:0:0:
320,289,16194,6,0,P|324:244|295:195,1,99.9999999999999,6|8,3:2|0:0,0:0:0:0:
260,157,16700,1,2,0:0:0:0:
260,157,16869,2,0,L|268:102,1,50,0|2,0:0|0:0,0:0:0:0:
342,41,17375,1,2,0:0:0:0:
431,86,17713,2,0,P|451:111|456:129,1,50,2|8,0:0|0:0,0:0:0:0:
456,177,18050,2,0,L|356:168,1,99.9999999999999,2|2,0:0|0:0,0:0:0:0:
305,169,18557,1,8,0:0:0:0:
218,120,18894,6,0,P|168:106|108:134,1,99.9999999999999,2|8,3:2|0:0,0:0:0:0:
94,161,19401,1,2,0:0:0:0:
94,161,19569,2,0,L|100:214,1,50,0|2,0:0|0:0,0:0:0:0:
28,281,20076,1,2,0:0:0:0:
77,366,20413,2,0,P|101:351|140:347,1,50,2|8,0:0|0:0,0:0:0:0:
172,343,20751,1,2,0:0:0:0:
266,374,21088,1,8,0:0:0:0:
266,374,21257,2,0,L|316:366,1,50,0|0,3:0|3:0,0:0:0:0:
364,353,21595,6,0,P|371:300|433:270,1,99.9999999999999,2|8,3:2|0:0,0:0:0:0:
455,263,22101,1,2,0:0:0:0:
455,263,22270,2,0,L|460:214,1,50,0|2,0:0|0:0,0:0:0:0:
501,122,22776,1,2,0:0:0:0:
401,116,23114,2,0,P|371:121|350:116,1,50,2|8,0:0|0:0,0:0:0:0:
314,83,23451,2,0,L|304:190,1,99.9999999999999,2|2,0:0|0:0,0:0:0:0:
310,233,23958,1,8,0:0:0:0:
213,259,24295,6,0,P|162:236|113:247,1,99.9999999999999,2|8,3:2|0:0,0:0:0:0:
78,271,24801,1,2,0:0:0:0:
78,271,24970,2,0,L|67:212,1,50,8|2,0:0|3:2,0:0:0:0:
13,138,25477,2,0,B|43:118|43:118|125:124,1,99.9999999999999,6|2,3:2|3:2,0:0:0:0:
179,49,26152,2,0,L|174:-16,2,50,14|2|2,0:0|3:2|3:2,0:0:0:0:
217,81,26658,2,0,L|211:130,1,50,14|2,0:0|0:0,0:0:0:0:
182,171,26996,6,0,P|158:223|178:270,1,99.9999999999999,6|8,3:2|0:0,0:0:0:0:
209,293,27502,1,2,0:0:0:0:
209,293,27671,2,0,L|258:300,1,50,0|2,0:0|0:0,0:0:0:0:
358,309,28177,1,2,0:0:0:0:
433,243,28515,2,0,P|422:222|421:185,1,50,2|8,0:0|0:0,0:0:0:0:
456,163,28852,2,0,B|469:128|469:128|456:63,1,99.9999999999999,2|2,0:0|0:0,0:0:0:0:
445,17,29359,1,8,0:0:0:0:
355,61,29696,6,0,L|250:49,1,99.9999999999999,2|8,3:2|0:0,0:0:0:0:
209,57,30203,1,2,0:0:0:0:
209,57,30371,2,0,P|224:84|226:112,1,50,0|2,0:0|0:0,0:0:0:0:
178,190,30878,1,2,0:0:0:0:
257,250,31215,2,0,P|242:277|240:305,1,50,2|8,0:0|0:0,0:0:0:0:
238,345,31553,1,2,0:0:0:0:
144,378,31890,1,8,0:0:0:0:
144,378,32059,2,0,L|79:371,1,50,0|0,3:0|3:0,0:0:0:0:
57,338,32397,6,0,P|67:287|22:237,1,99.9999999999999,2|8,3:2|0:0,0:0:0:0:
4,216,32903,1,2,0:0:0:0:
4,216,33071,2,0,L|9:167,1,50,0|2,0:0|0:0,0:0:0:0:
25,67,33578,1,2,0:0:0:0:
111,15,33916,2,0,P|137:16|160:28,1,50,2|8,0:0|0:0,0:0:0:0:
199,55,34253,2,0,L|309:44,1,99.9999999999999,2|2,0:0|0:0,0:0:0:0:
348,40,34759,1,8,0:0:0:0:
433,92,35097,6,0,P|430:153|398:185,1,99.9999999999999,14|0,3:2|3:0,0:0:0:0:
356,187,35603,2,0,L|300:179,1,50,14|0,0:0|3:0,0:0:0:0:
206,177,36109,2,0,B|190:215|190:215|205:276,1,99.9999999999999,14|0,0:0|3:0,0:0:0:0:
235,312,36616,2,0,L|302:304,1,50,14|0,0:0|3:0,0:0:0:0:
355,377,37122,2,0,P|390:343|451:329,1,99.9999999999999,14|0,0:0|0:0,0:0:0:0:
508,257,37797,5,6,3:2:0:0:
256,192,45898,6,0,L|271:84,1,89.999997253418,6|10,3:2|0:0,0:0:0:0:
254,59,46405,2,0,P|231:50|194:47,1,44.999998626709,0|8,3:0|0:0,0:0:0:0:
168,62,46742,1,10,0:0:0:0:
85,26,47080,2,0,L|76:120,1,89.999997253418,6|0,3:2|3:0,0:0:0:0:
30,192,47755,2,0,P|58:199|72:210,1,44.999998626709,8|0,0:0|3:0,0:0:0:0:
98,244,48093,1,10,0:0:0:0:
183,295,48430,6,0,L|200:171,1,99.9999999999999,6|0,3:2|3:0,0:0:0:0:
203,146,48936,1,10,0:0:0:0:
276,77,49274,2,0,P|311:80|331:74,1,50,0|2,3:0|3:2,0:0:0:0:
365,46,49612,1,8,0:0:0:0:
365,46,49780,2,0,P|423:49|459:104,1,99.9999999999999,2|0,3:2|3:0,0:0:0:0:
459,126,50287,1,8,0:0:0:0:
506,214,50624,2,0,L|498:263,1,50,0|2,3:0|3:2,0:0:0:0:
492,313,50962,1,8,0:0:0:0:
492,313,51131,6,0,B|435:302|435:302|372:323,1,99.9999999999999,2|0,3:2|3:0,0:0:0:0:
349,335,51637,1,10,0:0:0:0:
254,303,51974,1,0,3:0:0:0:
254,303,52143,2,0,L|263:248,1,50,2|8,3:2|0:0,0:0:0:0:
294,215,52481,2,0,L|274:61,1,150,6|0,3:2|3:0,0:0:0:0:
234,37,53156,1,12,0:0:0:0:
141,19,53493,1,0,3:0:0:0:
48,57,53831,6,0,L|59:167,1,99.9999999999999,6|0,3:2|3:0,0:0:0:0:
64,206,54337,1,10,0:0:0:0:
157,169,54675,2,0,P|193:173|224:192,1,50,2|0,3:2|3:0,0:0:0:0:
238,221,55012,1,10,0:0:0:0:
238,221,55181,2,0,L|344:210,1,99.9999999999999,6|0,3:2|3:0,0:0:0:0:
387,206,55687,1,10,0:0:0:0:
479,245,56025,2,0,P|466:269|464:300,1,50,2|0,3:2|3:0,0:0:0:0:
474,345,56363,1,10,0:0:0:0:
474,345,56531,6,0,L|374:339,1,99.9999999999999,6|0,3:2|3:0,0:0:0:0:
324,328,57038,2,0,P|293:289|245:275,1,99.9999999999999,8|0,0:0|3:0,0:0:0:0:
200,295,57544,1,2,0:0:0:0:
138,373,57882,1,2,0:0:0:0:
54,318,58219,2,0,L|63:261,1,50,2|8,0:0|0:0,0:0:0:0:
74,219,58557,1,2,0:0:0:0:
16,137,58894,1,8,0:0:0:0:
16,137,59063,2,0,L|77:128,1,50,2|2,3:2|3:2,0:0:0:0:
90,92,59401,6,0,P|119:49|168:51,1,89.999997253418,6|2,3:2|0:0,0:0:0:0:
235,82,60076,1,2,0:0:0:0:
318,44,60413,1,8,0:0:0:0:
318,44,60582,2,0,L|326:133,1,89.999997253418,10|2,0:0|3:2,0:0:0:0:
301,220,61257,2,0,P|358:240|387:289,1,89.999997253418,10|0,0:0|3:0,0:0:0:0:
391,303,61763,1,10,0:0:0:0:
478,279,62101,6,0,L|492:156,1,89.999997253418,10|0,0:0|3:0,0:0:0:0:
495,145,62607,1,10,0:0:0:0:
455,63,62945,1,0,3:0:0:0:
455,63,63114,2,0,B|421:49|421:49|368:64,1,89.999997253418,6|0,3:2|3:0,0:0:0:0:
328,81,63620,1,14,0:0:0:0:
242,51,63958,1,0,3:0:0:0:
242,51,64126,2,0,L|230:-7,2,44.999998626709,10|8|8,0:0|0:0|0:0,0:0:0:0:
208,88,64633,6,0,P|221:142|201:189,1,99.9999999999999,6|0,3:2|3:0,0:0:0:0:
170,217,65139,1,8,0:0:0:0:
217,305,65477,2,0,L|159:313,1,50,2|0,3:2|3:0,0:0:0:0:
125,338,65814,1,10,0:0:0:0:
125,338,65983,2,0,P|100:301|42:284,1,99.9999999999999,2|0,3:2|3:0,0:0:0:0:
0,271,66489,1,10,0:0:0:0:
42,180,66827,1,2,3:2:0:0:
42,180,66996,2,0,L|38:130,1,50,0|8,3:0|0:0,0:0:0:0:
38,80,67333,6,0,B|74:64|74:64|153:87,1,99.9999999999999,6|0,3:2|3:0,0:0:0:0:
177,101,67839,1,0,3:0:0:0:
268,61,68177,1,0,3:0:0:0:
334,135,68514,1,0,3:0:0:0:
284,221,68852,2,0,L|295:279,1,50,14|10,3:2|3:2,0:0:0:0:
308,323,69190,1,10,3:2:0:0:
308,323,69358,2,0,B|356:309|349:358|413:336,1,99.9999999999999,10|2,3:2|3:2,0:0:0:0:
446,314,69865,1,8,0:0:0:0:
503,220,70202,6,0,L|492:108,1,110.000003356934,6|8,3:2|0:0,0:0:0:0:
449,83,70709,2,0,B|410:67|410:67|337:87,1,110.000003356934,2|2,0:0|0:0,0:0:0:0:
294,106,71215,1,8,0:0:0:0:
294,106,71384,2,0,P|234:114|188:84,1,110.000003356934,2|2,0:0|0:0,0:0:0:0:
171,40,71890,1,8,0:0:0:0:
171,40,72059,1,2,0:0:0:0:
67,2,72396,1,2,0:0:0:0:
67,2,72565,2,0,L|58:74,1,55.0000016784668,8|0,0:0|0:0,0:0:0:0:
15,89,72903,6,0,P|48:146|37:199,1,110.000003356934,2|8,3:2|0:0,0:0:0:0:
18,237,73409,1,2,0:0:0:0:
122,271,73747,2,0,L|179:261,1,55.0000016784668,2|8,0:0|0:0,0:0:0:0:
210,218,74084,2,0,P|250:169|318:172,1,110.000003356934,2|2,0:0|0:0,0:0:0:0:
347,189,74590,1,8,0:0:0:0:
347,189,74759,1,2,0:0:0:0:
451,153,75097,1,10,0:0:0:0:
451,153,75266,2,0,L|458:210,1,55.0000016784668,2|2,3:2|3:2,0:0:0:0:
494,248,75603,6,0,L|482:360,1,110.000003356934,6|8,3:2|0:0,0:0:0:0:
431,378,76109,1,2,0:0:0:0:
344,310,76447,2,0,P|312:301|278:306,1,55.0000016784668,2|8,0:0|0:0,0:0:0:0:
244,333,76785,2,0,B|191:312|193:360|138:343,1,110.000003356934,2|2,0:0|0:0,0:0:0:0:
95,319,77291,1,8,0:0:0:0:
95,319,77460,1,2,0:0:0:0:
0,262,77797,2,0,L|8:195,1,55.0000016784668,10|0,0:0|3:0,0:0:0:0:
16,152,78135,6,0,P|74:145|117:177,1,110.000003356934,14|2,3:2|3:2,0:0:0:0:
212,223,78810,2,0,L|226:92,1,110.000003356934,14|2,3:2|3:2,0:0:0:0:
233,59,79316,1,8,0:0:0:0:
233,59,79485,2,0,B|192:73|192:73|123:56,1,110.000003356934,14|8,3:2|0:0,0:0:0:0:
76,36,79991,1,8,0:0:0:0:
76,36,80160,1,2,3:2:0:0:
2,118,80498,1,2,3:2:0:0:
2,118,80666,2,0,L|7:172,1,55.0000016784668,10|2,0:0|3:2,0:0:0:0:
14,227,81004,5,6,3:2:0:0:
112,275,81342,1,8,0:0:0:0:
112,275,81510,2,0,P|176:270|209:221,1,110.000003356934,2|2,0:0|0:0,0:0:0:0:
223,185,82017,1,8,0:0:0:0:
321,136,82354,2,0,L|384:145,1,55.0000016784668,0|2,3:0|0:0,0:0:0:0:
434,156,82692,1,8,0:0:0:0:
434,156,82860,1,2,0:0:0:0:
494,248,83199,2,0,P|494:283|484:302,1,55.0000016784668,2|8,0:0|0:0,0:0:0:0:
469,353,83536,6,0,B|428:345|428:345|406:360|406:360|354:352,1,110.000003356934,2|2,0:0|0:0,0:0:0:0:
315,345,84042,1,8,0:0:0:0:
315,345,84211,1,2,0:0:0:0:
210,379,84549,2,0,L|202:305,1,55.0000016784668,2|8,0:0|0:0,0:0:0:0:
170,281,84886,2,0,P|176:219|229:189,1,110.000003356934,2|2,0:0|0:0,0:0:0:0:
272,190,85393,1,8,0:0:0:0:
272,190,85561,1,2,0:0:0:0:
354,117,85898,1,10,0:0:0:0:
354,117,86067,2,0,L|344:49,1,55.0000016784668,2|2,3:2|3:2,0:0:0:0:
304,26,86405,6,0,B|246:7|254:60|191:39,1,110.000003356934,6|8,3:2|0:0,0:0:0:0:
150,18,86911,1,2,0:0:0:0:
58,78,87249,2,0,L|-1:69,2,55.0000016784668,2|8|2,0:0|0:0|0:0,0:0:0:0:
90,122,87755,2,0,P|94:159|83:180,1,55.0000016784668,0|2,3:0|0:0,0:0:0:0:
55,220,88093,1,8,0:0:0:0:
55,220,88261,2,0,P|112:253|132:306,1,110.000003356934,2|2,0:0|0:0,0:0:0:0:
194,380,88936,6,0,L|350:367,1,110.000003356934,14|2,3:2|3:2,0:0:0:0:
358,365,89443,1,0,3:0:0:0:
358,365,89612,2,0,P|368:303|404:278,1,110.000003356934,14|2,3:2|3:2,0:0:0:0:
458,271,90118,1,8,0:0:0:0:
458,271,90287,2,0,B|478:232|478:232|459:158,1,110.000003356934,6|8,3:2|0:0,0:0:0:0:
448,119,90793,1,0,3:0:0:0:
448,119,90962,1,0,3:0:0:0:
350,169,91299,2,0,L|295:167,1,55.0000016784668,0|8,3:0|0:0,0:0:0:0:
255,135,91637,6,0,P|265:95|215:25,1,99.9999999999999,6|0,3:2|3:0,0:0:0:0:
207,7,92143,1,10,0:0:0:0:
108,27,92481,2,0,L|96:135,1,99.9999999999999,0|10,3:0|0:0,0:0:0:0:
91,176,92987,1,2,3:2:0:0:
42,263,93325,2,0,P|78:270|103:289,1,50,0|10,3:0|0:0,0:0:0:0:
119,316,93662,2,0,B|156:333|156:333|228:313,1,99.9999999999999,2|0,3:2|3:0,0:0:0:0:
301,363,94337,6,0,L|317:255,1,99.9999999999999,6|0,3:2|3:0,0:0:0:0:
346,224,94844,1,2,3:2:0:0:
346,224,95012,2,0,L|330:116,1,99.9999999999999,10|0,3:2|3:0,0:0:0:0:
303,28,95687,2,0,P|355:31|400:4,1,99.9999999999999,2|10,3:2|0:0,0:0:0:0:
445,12,96194,2,0,L|439:63,1,50,2|0,3:2|3:0,0:0:0:0:
470,100,96531,2,0,L|482:200,1,99.9999999999999,14|0,3:2|0:0,0:0:0:0:
440,290,97206,5,2,3:2:0:0:
256,192,105308,6,0,B|272:157|272:157|252:79,1,89.999997253418,6|10,3:2|0:0,0:0:0:0:
229,22,105983,1,8,0:0:0:0:
229,22,106152,2,0,L|184:27,1,44.999998626709,2|0,3:2|3:0,0:0:0:0:
141,11,106489,2,0,P|102:26|77:91,1,89.999997253418,6|0,3:2|3:0,0:0:0:0:
3,116,107164,2,0,L|11:161,1,44.999998626709,8|0,0:0|3:0,0:0:0:0:
21,204,107502,1,10,0:0:0:0:
11,303,107839,6,0,B|49:289|49:289|135:312,1,99.9999999999999,6|0,3:2|3:0,0:0:0:0:
154,318,108345,1,8,0:0:0:0:
240,368,108683,2,0,L|248:314,1,50,0|2,3:0|3:2,0:0:0:0:
282,276,109021,1,8,0:0:0:0:
282,276,109189,2,0,L|264:151,1,99.9999999999999,2|0,3:2|3:0,0:0:0:0:
235,138,109696,1,8,0:0:0:0:
285,51,110033,2,0,P|321:45|351:56,1,50,0|2,3:0|3:2,0:0:0:0:
380,65,110371,1,8,0:0:0:0:
380,65,110540,6,0,B|363:106|363:106|383:162,1,99.9999999999999,2|0,3:2|3:0,0:0:0:0:
398,205,111046,1,8,0:0:0:0:
484,265,111383,1,2,3:2:0:0:
484,265,111552,2,0,L|476:317,1,50,2|8,3:2|0:0,0:0:0:0:
435,343,111890,2,0,B|358:311|363:383|269:341,1,150,6|0,3:2|3:0,0:0:0:0:
246,324,112565,1,8,0:0:0:0:
209,230,112902,1,0,3:0:0:0:
307,216,113240,6,0,L|321:111,1,99.9999999999999,6|0,3:2|3:0,0:0:0:0:
327,67,113746,1,8,0:0:0:0:
243,11,114084,2,0,P|212:12|192:20,1,50,2|0,3:2|3:0,0:0:0:0:
156,51,114421,1,10,0:0:0:0:
156,51,114590,2,0,L|56:37,1,99.9999999999999,6|0,3:2|3:0,0:0:0:0:
11,57,115096,1,10,0:0:0:0:
44,151,115434,2,0,L|34:210,1,50,2|0,3:2|3:0,0:0:0:0:
25,249,115772,1,8,0:0:0:0:
25,249,115940,6,0,P|91:280|98:314,1,99.9999999999999,6|0,3:2|3:0,0:0:0:0:
79,347,116447,2,0,P|125:373|171:359,1,99.9999999999999,8|0,0:0|3:0,0:0:0:0:
200,323,116953,1,2,0:0:0:0:
299,330,117291,1,2,0:0:0:0:
306,230,117628,2,0,L|297:173,1,50,2|8,0:0|0:0,0:0:0:0:
289,131,117966,1,2,0:0:0:0:
212,66,118303,1,8,0:0:0:0:
212,66,118472,2,0,P|242:55|261:34,1,50,2|0,3:2|3:0,0:0:0:0:
277,3,118810,6,0,L|366:15,1,89.999997253418,6|0,3:2|3:0,0:0:0:0:
454,31,119485,1,0,0:0:0:0:
495,110,119822,1,10,0:0:0:0:
495,110,119991,2,0,B|482:150|482:150|497:204,1,89.999997253418,2|2,3:2|0:0,0:0:0:0:
427,255,120666,2,0,P|383:221|337:230,1,89.999997253418,10|0,0:0|3:0,0:0:0:0:
310,244,121172,1,10,0:0:0:0:
238,188,121510,6,0,L|138:178,1,89.999997253418,10|0,0:0|3:0,0:0:0:0:
103,173,122016,1,10,0:0:0:0:
36,234,122354,1,0,3:0:0:0:
36,234,122523,2,0,B|21:274|21:274|39:333,1,89.999997253418,14|0,0:0|3:0,0:0:0:0:
67,349,123029,1,12,0:0:0:0:
152,314,123367,1,0,3:0:0:0:
152,314,123535,2,0,L|162:257,2,44.999998626709,10|8|8,0:0|0:0|0:0,0:0:0:0:
185,351,124042,6,0,P|237:362|292:343,1,99.9999999999999,6|0,3:2|3:0,0:0:0:0:
321,320,124548,1,8,0:0:0:0:
409,366,124886,2,0,L|419:294,1,50,2|2,3:2|3:2,0:0:0:0:
453,283,125223,1,8,0:0:0:0:
453,283,125392,2,0,L|441:177,1,99.9999999999999,2|0,3:2|3:0,0:0:0:0:
409,145,125898,1,10,0:0:0:0:
469,65,126236,1,2,3:2:0:0:
469,65,126405,2,0,P|445:60|421:46,1,50,0|8,3:0|0:0,0:0:0:0:
392,8,126742,6,0,B|352:22|352:22|292:7,1,99.9999999999999,6|0,3:2|3:0,0:0:0:0:
252,32,127248,1,0,3:0:0:0:
280,127,127586,1,0,3:0:0:0:
199,183,127924,1,0,3:0:0:0:
121,122,128261,2,0,L|129:66,1,50,14|10,0:0|0:0,0:0:0:0:
134,22,128599,1,10,0:0:0:0:
134,22,128768,2,0,P|74:8|34:29,1,99.9999999999999,10|2,0:0|3:2,0:0:0:0:
7,60,129274,1,10,0:0:0:0:
21,169,129612,6,0,L|6:279,1,110.000003356934,6|8,3:2|0:0,0:0:0:0:
36,324,130118,2,0,P|82:301|163:335,1,110.000003356934,2|2,0:0|0:0,0:0:0:0:
226,377,130793,2,0,L|243:243,1,110.000003356934,2|2,0:0|3:2,0:0:0:0:
250,213,131299,1,8,0:0:0:0:
338,147,131637,2,0,P|385:172|396:241,1,110.000003356934,0|8,3:0|0:0,0:0:0:0:
375,272,132143,1,0,0:0:0:0:
375,272,132312,6,0,L|493:262,1,110.000003356934,2|8,3:2|0:0,0:0:0:0:
506,154,132987,2,0,P|497:132|494:82,1,55.0000016784668,0|2,3:0|0:0,0:0:0:0:
494,45,133325,1,8,0:0:0:0:
494,45,133493,2,0,B|441:19|441:69|387:45,1,110.000003356934,2|2,0:0|3:2,0:0:0:0:
344,23,134000,1,8,0:0:0:0:
344,23,134169,1,2,3:2:0:0:
259,93,134506,1,10,0:0:0:0:
259,93,134675,2,0,L|266:150,1,55.0000016784668,0|2,3:0|3:2,0:0:0:0:
230,195,135012,6,0,B|221:236|221:236|235:262|235:262|228:300,1,110.000003356934,6|8,3:2|0:0,0:0:0:0:
216,354,135519,2,0,P|179:375|96:351,1,110.000003356934,2|2,0:0|0:0,0:0:0:0:
12,324,136194,2,0,B|28:287|28:287|8:209,1,110.000003356934,2|2,0:0|3:2,0:0:0:0:
35,170,136700,1,8,0:0:0:0:
76,68,137038,2,0,L|135:74,1,55.0000016784668,0|10,3:0|0:0,0:0:0:0:
185,79,137375,1,8,0:0:0:0:
185,79,137544,6,0,P|219:38|291:35,1,110.000003356934,14|2,3:2|3:2,0:0:0:0:
284,138,138219,2,0,L|272:253,1,110.000003356934,14|2,3:2|3:2,0:0:0:0:
262,304,138725,1,8,0:0:0:0:
262,304,138894,2,0,B|318:286|311:340|366:319,1,110.000003356934,14|10,3:2|0:0,0:0:0:0:
456,382,139569,2,0,L|468:268,1,110.000003356934,2|2,3:2|3:2,0:0:0:0:
476,218,140075,1,10,0:0:0:0:
489,108,140413,6,0,B|444:91|444:91|381:113,1,110.000003356934,6|8,3:2|0:0,0:0:0:0:
299,179,141088,2,0,B|254:196|254:196|191:174,1,110.000003356934,0|8,3:0|0:0,0:0:0:0:
146,149,141595,1,2,0:0:0:0:
40,179,141932,2,0,L|51:109,1,55.0000016784668,2|8,0:0|0:0,0:0:0:0:
28,73,142270,2,0,P|95:52|117:13,1,110.000003356934,2|2,0:0|0:0,0:0:0:0:
168,7,142776,1,8,0:0:0:0:
265,59,143114,6,0,L|374:70,1,110.000003356934,0|8,3:0|0:0,0:0:0:0:
433,77,143620,1,2,0:0:0:0:
433,77,143789,1,0,3:0:0:0:
506,158,144126,1,8,0:0:0:0:
506,158,144295,2,0,P|478:207|410:230,1,110.000003356934,2|2,0:0|0:0,0:0:0:0:
376,220,144801,1,8,0:0:0:0:
273,180,145139,2,0,L|218:186,1,55.0000016784668,0|10,3:0|0:0,0:0:0:0:
163,194,145477,1,0,3:0:0:0:
54,212,145814,6,0,B|69:258|69:258|44:342,1,110.000003356934,6|8,3:2|0:0,0:0:0:0:
76,372,146320,1,2,0:0:0:0:
76,372,146489,1,0,3:0:0:0:
181,332,146827,1,8,0:0:0:0:
181,332,146996,2,0,B|240:316|234:364|285:351,1,110.000003356934,2|2,0:0|0:0,0:0:0:0:
334,324,147502,1,8,0:0:0:0:
334,324,147671,1,2,0:0:0:0:
428,380,148008,2,0,L|435:326,1,55.0000016784668,2|8,3:2|0:0,0:0:0:0:
469,282,148346,6,0,L|455:166,1,110.000003356934,14|2,0:0|3:2,0:0:0:0:
446,118,148852,1,2,3:2:0:0:
503,24,149190,2,0,P|472:30|448:24,1,55.0000016784668,2|2,3:2|3:2,0:0:0:0:
403,5,149527,1,14,0:0:0:0:
403,5,149696,2,0,L|290:19,1,110.000003356934,2|10,3:2|0:0,0:0:0:0:
239,25,150202,1,2,0:0:0:0:
239,25,150371,2,0,L|230:81,1,55.0000016784668,6|0,3:2|0:0,0:0:0:0:
221,134,150709,1,2,3:2:0:0:
308,182,151046,6,0,P|322:240|301:282,1,99.9999999999999,6|2,3:2|3:2,0:0:0:0:
271,310,151552,2,0,L|211:301,1,50,8|2,0:0|0:0,0:0:0:0:
171,293,151890,1,0,3:0:0:0:
171,293,152059,1,2,3:2:0:0:
81,337,152396,2,0,L|73:221,1,99.9999999999999,2|2,3:2|3:2,0:0:0:0:
71,191,152903,1,8,0:0:0:0:
71,191,153071,1,10,0:0:0:0:
22,103,153409,2,0,P|52:102|81:86,1,50,2|8,3:2|0:0,0:0:0:0:
107,61,153747,6,0,B|144:47|144:47|228:66,1,99.9999999999999,2|0,3:2|3:0,0:0:0:0:
245,33,154253,1,8,0:0:0:0:
287,123,154590,2,0,L|343:112,2,50,0|2|8,3:0|0:0|0:0,0:0:0:0:
251,159,155097,1,6,3:2:0:0:
239,258,155434,1,6,3:2:0:0:
329,300,155772,1,6,3:2:0:0:
396,227,156109,1,6,3:2:0:0:
489,264,156447,6,0,P|500:325|481:363,1,99.9999999999999,6|0,3:2|3:0,0:0:0:0:
440,373,156953,1,8,0:0:0:0:
440,373,157122,1,2,0:0:0:0:
353,322,157460,2,0,L|302:327,1,50,2|8,3:2|0:0,0:0:0:0:
253,334,157797,2,0,B|233:301|233:301|252:229,1,99.9999999999999,2|2,3:2|3:2,0:0:0:0:
268,195,158304,1,8,0:0:0:0:
268,195,158472,2,0,P|260:131|229:104,1,99.9999999999999,10|0,0:0|3:0,0:0:0:0:
153,51,159147,6,0,L|23:62,1,99.9999999999999,2|0,3:2|3:0,0:0:0:0:
3,65,159654,1,10,0:0:0:0:
41,156,159991,1,2,3:2:0:0:
3,248,160329,1,8,0:0:0:0:
3,248,160498,2,0,B|20:287|20:287|2:346,1,99.9999999999999,6|10,3:2|0:0,0:0:0:0:
41,382,161004,1,8,0:0:0:0:
41,382,161173,1,2,3:2:0:0:
133,345,161510,2,0,L|188:355,1,50,2|8,3:2|0:0,0:0:0:0:
223,383,161848,6,0,P|278:369|304:332,1,99.9999999999999,6|0,3:2|3:0,0:0:0:0:
311,286,162354,1,8,0:0:0:0:
410,297,162692,1,0,3:0:0:0:
454,209,163029,1,8,0:0:0:0:
454,209,163198,2,0,L|438:98,1,99.9999999999999,2|2,3:2|3:2,0:0:0:0:
433,65,163704,1,8,0:0:0:0:
433,65,163873,1,10,0:0:0:0:
337,35,164211,2,0,B|337:34|292:35|281:24,1,50,2|8,3:2|0:0,0:0:0:0:
238,21,164548,6,0,B|220:63|220:63|236:127,1,99.9999999999999,2|2,3:2|3:2,0:0:0:0:
267,152,165055,2,0,L|335:137,2,50,8|2|0,0:0|0:0|3:0,0:0:0:0:
255,200,165561,1,2,3:2:0:0:
216,292,165898,2,0,P|164:278|106:306,1,99.9999999999999,6|0,3:2|3:0,0:0:0:0:
85,327,166405,1,8,0:0:0:0:
85,327,166574,1,8,0:0:0:0:
1,271,166911,2,0,L|10:202,1,50,8|8,0:0|0:0,0:0:0:0:
37,181,167249,6,0,L|22:55,1,99.9999999999999,6|8,3:2|0:0,0:0:0:0:
52,40,167755,1,10,0:0:0:0:
52,40,167924,2,0,P|95:13|170:40,1,99.9999999999999,4|8,3:2|0:0,0:0:0:0:
210,91,168599,2,0,L|322:79,1,99.9999999999999,6|0,3:2|3:0,0:0:0:0:
355,101,169105,1,8,0:0:0:0:
323,195,169443,2,0,P|320:224|324:244,1,50,0|2,3:0|3:2,0:0:0:0:
346,289,169780,1,8,0:0:0:0:
346,289,169949,6,0,P|394:296|432:331,1,99.9999999999999,2|0,3:2|3:0,0:0:0:0:
480,325,170455,1,10,0:0:0:0:
506,228,170793,2,0,L|495:162,1,50,2|0,3:2|3:0,0:0:0:0:
492,128,171131,1,10,0:0:0:0:
492,128,171299,6,0,P|442:114|417:76,1,99.9999999999999,6|0,3:2|3:0,0:0:0:0:
412,25,171806,1,0,3:0:0:0:
315,1,172143,1,0,3:0:0:0:
262,86,172481,1,0,3:0:0:0:
332,157,172818,2,0,L|337:206,1,50,14|10,3:2|3:2,0:0:0:0:
344,261,173156,1,10,3:2:0:0:
344,261,173325,1,14,3:2:0:0:
275,333,173662,1,0,3:0:0:0:
275,333,173831,6,0,B|238:322|238:322|215:338|215:338|177:328,1,99.9999999999999,10|2,0:0|3:2,0:0:0:0:
447,159,181595,6,0,L|451:97,2,50,12|2|10,0:0|3:2|3:2,0:0:0:0:
410,195,182101,2,0,B|363:178|368:221|312:201,1,99.9999999999999,14|2,3:2|3:2,0:0:0:0:
271,176,182607,1,0,3:0:0:0:
271,176,182776,2,0,L|146:191,1,99.9999999999999,14|2,3:2|3:2,0:0:0:0:
76,218,183451,2,0,P|73:169|32:124,1,99.9999999999999,14|8,3:2|0:0,0:0:0:0:
2,100,183958,2,0,L|11:8,1,50,8|10,0:0|0:0,0:0:0:0:
33,8,184295,2,0,P|63:20|110:20,1,50,8|2,3:2|3:2,0:0:0:0:
130,20,184633,1,10,3:2:0:0:
207,97,184970,6,0,L|329:86,1,110.000003356934,6|8,3:2|0:0,0:0:0:0:
363,57,185477,2,0,P|421:61|466:98,1,110.000003356934,2|2,0:0|0:0,0:0:0:0:
474,144,185983,1,8,0:0:0:0:
474,144,186152,2,0,B|455:185|455:185|474:254,1,110.000003356934,2|2,0:0|0:0,0:0:0:0:
490,304,186658,1,8,0:0:0:0:
490,304,186827,1,2,0:0:0:0:
389,349,187164,1,2,0:0:0:0:
389,349,187333,2,0,P|359:354|333:346,1,55.0000016784668,8|2,0:0|0:0,0:0:0:0:
291,313,187671,6,0,B|306:271|306:271|286:197,1,110.000003356934,2|8,3:2|0:0,0:0:0:0:
274,154,188177,1,2,0:0:0:0:
172,110,188515,2,0,L|103:124,1,55.0000016784668,2|8,0:0|0:0,0:0:0:0:
67,143,188852,2,0,P|42:195|66:252,1,110.000003356934,2|2,0:0|0:0,0:0:0:0:
92,284,189358,1,8,0:0:0:0:
92,284,189527,1,2,0:0:0:0:
154,374,189865,1,8,0:0:0:0:
154,374,190034,2,0,L|208:366,1,55.0000016784668,2|0,3:2|3:0,0:0:0:0:
244,324,190371,6,0,B|283:307|283:307|371:332,1,110.000003356934,6|8,3:2|0:0,0:0:0:0:
399,343,190877,1,2,0:0:0:0:
458,249,191215,2,0,L|515:257,2,55.0000016784668,2|8|2,0:0|0:0|0:0,0:0:0:0:
432,200,191721,2,0,P|424:169|430:133,1,55.0000016784668,2|0,3:2|0:0,0:0:0:0:
444,94,192059,1,8,0:0:0:0:
444,94,192228,2,0,L|333:104,1,110.000003356934,2|2,0:0|0:0,0:0:0:0:
255,181,192903,6,0,L|145:171,1,110.000003356934,14|2,3:2|3:2,0:0:0:0:
90,166,193409,1,0,3:0:0:0:
90,166,193578,2,0,P|46:133|51:72,1,110.000003356934,14|2,3:2|3:2,0:0:0:0:
74,36,194084,1,8,0:0:0:0:
74,36,194253,1,6,3:2:0:0:
186,55,194590,1,8,0:0:0:0:
186,55,194759,2,0,P|217:54|242:46,1,55.0000016784668,8|8,0:0|0:0,0:0:0:0:
282,12,195097,2,0,P|308:20|335:19,1,55.0000016784668,0|2,3:0|3:2,0:0:0:0:
379,52,195434,1,10,3:2:0:0:
479,7,195772,6,0,L|471:120,1,110.000003356934,6|8,3:2|0:0,0:0:0:0:
464,171,196278,1,2,0:0:0:0:
373,233,196616,2,0,L|380:295,2,55.0000016784668,2|8|2,0:0|0:0|0:0,0:0:0:0:
332,195,197122,2,0,P|301:191|277:198,1,55.0000016784668,2|0,3:2|3:0,0:0:0:0:
232,225,197460,1,8,0:0:0:0:
232,225,197629,1,2,0:0:0:0:
138,179,197966,1,2,0:0:0:0:
138,179,198135,2,0,P|110:174|80:180,1,55.0000016784668,8|2,0:0|0:0,0:0:0:0:
38,210,198473,6,0,B|20:258|20:258|40:322,1,110.000003356934,0|8,0:0|0:0,0:0:0:0:
63,362,198979,2,0,P|120:348|178:379,1,110.000003356934,2|2,0:0|0:0,0:0:0:0:
249,295,199654,1,2,0:0:0:0:
249,295,199823,2,0,L|310:304,1,55.0000016784668,0|2,3:0|0:0,0:0:0:0:
357,313,200160,1,8,0:0:0:0:
357,313,200329,1,2,0:0:0:0:
457,369,200667,1,10,3:2:0:0:
457,369,200836,2,0,P|459:344|471:316,1,55.0000016784668,2|10,3:2|3:2,0:0:0:0:
492,265,201173,6,0,B|510:226|510:226|481:144,1,110.000003356934,6|8,3:2|0:0,0:0:0:0:
462,113,201679,1,2,0:0:0:0:
370,173,202017,2,0,L|315:165,1,55.0000016784668,2|8,0:0|0:0,0:0:0:0:
269,196,202355,2,0,L|159:209,1,110.000003356934,2|2,3:2|3:2,0:0:0:0:
117,183,202861,1,8,0:0:0:0:
117,183,203030,1,2,0:0:0:0:
13,219,203367,2,0,P|20:189|8:153,1,55.0000016784668,10|8,0:0|0:0,0:0:0:0:
3,111,203705,6,0,P|19:48|91:31,1,110.000003356934,14|2,3:2|3:2,0:0:0:0:
161,58,204380,2,0,L|270:46,1,110.000003356934,14|2,3:2|3:2,0:0:0:0:
314,12,204886,1,8,0:0:0:0:
314,12,205055,2,0,P|349:54|421:64,1,110.000003356934,6|8,3:2|0:0,0:0:0:0:
455,57,205561,1,10,0:0:0:0:
455,57,205730,1,2,3:2:0:0:
505,154,206068,1,2,3:2:0:0:
505,154,206236,2,0,L|496:211,1,55.0000016784668,8|0,3:2|3:0,0:0:0:0:
487,263,206574,5,6,3:2:0:0:
380,289,206912,1,8,0:0:0:0:
380,289,207080,2,0,B|338:282|338:282|320:296|320:296|276:287,1,110.000003356934,2|2,0:0|0:0,0:0:0:0:
228,259,207587,1,8,0:0:0:0:
176,161,207924,2,0,P|150:157|119:164,1,55.0000016784668,0|2,3:0|0:0,0:0:0:0:
79,196,208262,1,8,0:0:0:0:
79,196,208430,1,2,0:0:0:0:
0,273,208769,2,0,L|8:328,1,55.0000016784668,2|8,0:0|0:0,0:0:0:0:
43,369,209106,6,0,P|90:337|163:342,1,110.000003356934,2|2,0:0|0:0,0:0:0:0:
194,351,209612,1,8,0:0:0:0:
194,351,209781,1,2,0:0:0:0:
299,382,210119,2,0,L|291:314,1,55.0000016784668,2|8,0:0|0:0,0:0:0:0:
320,280,210456,2,0,L|340:153,1,110.000003356934,2|2,0:0|0:0,0:0:0:0:
311,128,210963,1,8,0:0:0:0:
311,128,211131,1,2,0:0:0:0:
383,45,211468,1,10,3:2:0:0:
383,45,211637,2,0,P|413:43|451:58,1,55.0000016784668,2|10,3:2|3:2,0:0:0:0:
474,90,211975,6,0,B|455:135|455:135|476:199,1,110.000003356934,6|8,3:2|0:0,0:0:0:0:
493,244,212481,1,2,0:0:0:0:
411,317,212819,2,0,L|407:371,2,55.0000016784668,2|8|2,0:0|0:0|0:0,0:0:0:0:
369,280,213325,2,0,P|341:273|314:277,1,55.0000016784668,2|0,3:2|0:0,0:0:0:0:
271,309,213663,1,8,0:0:0:0:
271,309,213831,2,0,L|140:297,1,110.000003356934,2|2,0:0|0:0,0:0:0:0:
65,353,214506,6,0,P|62:291|39:251,1,110.000003356934,14|2,3:2|3:2,0:0:0:0:
4,206,215013,1,0,3:0:0:0:
4,206,215182,2,0,L|22:98,1,110.000003356934,14|2,3:2|3:2,0:0:0:0:
37,44,215688,1,8,0:0:0:0:
37,44,215857,2,0,B|80:25|80:25|180:58,1,110.000003356934,14|8,3:2|0:0,0:0:0:0:
194,70,216363,1,8,0:0:0:0:
194,70,216532,1,0,3:0:0:0:
288,13,216869,2,0,L|296:72,1,55.0000016784668,0|8,3:0|0:0,0:0:0:0:
327,106,217206,6,0,L|318:206,1,99.9999999999999,6|2,3:2|3:2,0:0:0:0:
284,243,217713,2,0,P|296:303|331:321,1,99.9999999999999,8|0,0:0|3:0,0:0:0:0:
376,322,218219,1,2,3:2:0:0:
467,362,218556,1,2,3:2:0:0:
505,270,218894,2,0,L|513:211,1,50,2|8,3:2|0:0,0:0:0:0:
478,182,219231,2,0,L|456:50,1,99.9999999999999,2|0,3:2|3:0,0:0:0:0:
452,33,219738,1,10,0:0:0:0:
353,16,220075,6,0,B|304:0|301:35|252:19,1,99.9999999999999,2|8,3:2|0:0,0:0:0:0:
208,3,220582,1,0,3:0:0:0:
208,3,220751,2,0,L|215:59,1,50,0|2,3:0|3:2,0:0:0:0:
170,142,221257,1,2,3:2:0:0:
224,225,221594,2,0,P|264:222|285:208,1,50,2|8,3:2|0:0,0:0:0:0:
314,190,221932,1,2,0:0:0:0:
400,139,222270,2,0,P|440:142|461:156,1,50,8|8,3:2|3:2,0:0:0:0:
484,180,222607,6,0,L|473:283,1,99.9999999999999,6|0,3:2|3:0,0:0:0:0:
465,329,223114,2,0,P|404:309|350:329,1,99.9999999999999,10|0,0:0|3:0,0:0:0:0:
338,355,223620,1,2,0:0:0:0:
242,383,223957,1,2,0:0:0:0:
215,287,224295,2,0,L|158:295,1,50,2|8,0:0|0:0,0:0:0:0:
116,303,224632,1,2,0:0:0:0:
25,345,224971,2,0,P|24:318|12:276,1,50,2|8,0:0|0:0,0:0:0:0:
2,248,225308,6,0,L|16:128,1,99.9999999999999,6|0,3:2|3:0,0:0:0:0:
5,48,225983,2,0,P|30:48|60:35,1,50,14|2,3:2|3:2,0:0:0:0:
97,13,226320,1,2,3:2:0:0:
97,13,226489,2,0,P|148:19|179:54,1,99.9999999999999,14|2,3:2|3:2,0:0:0:0:
191,102,226996,1,14,3:2:0:0:
272,159,227333,2,0,L|267:208,1,50,10|0,0:0|3:0,0:0:0:0:
232,245,227671,2,0,L|236:294,1,50,10|0,0:0|3:0,0:0:0:0:
268,333,228008,1,14,3:2:0:0:
256,192,228177,12,0,229190,0:0:0:0:
