osu file format v14

[General]
AudioFilename: audio.mp3
AudioLeadIn: 0
PreviewTime: 286373
Countdown: 0
SampleSet: Normal
StackLeniency: 0.7
Mode: 1
LetterboxInBreaks: 0
WidescreenStoryboard: 1

[Editor]
Bookmarks: 51135,112088,175580,226373,287326,325421,355897
DistanceSpacing: 0.9
BeatDivisor: 4
GridSize: 4
TimelineZoom: 2.2

[Metadata]
Title:Tsunagu Kizuna (TamolarM 2022 Remix) (Nightcore Mix)
TitleUnicode:ツナグキズナ (TamolarM 2022 Remix) (Nightcore Mix)
Artist:Team.Nekokan[Neko] feat. Amaoto Junca
ArtistUnicode:Team.ねこかん[猫] feat. 天乙准花
Creator:Rinze
Version:Sky of Connection
Source:ヨスガノソラ
Tags:roxy- kurokurokuro ler1211 yosuga no sora jcore j-core trance japanese electronic bootleg anime insert song speed sped up version ver. featuring hardcore hayakore tatsumi bootleg
BeatmapID:3624462
BeatmapSetID:1770558

[Difficulty]
HPDrainRate:5
CircleSize:5
OverallDifficulty:7
ApproachRate:5
SliderMultiplier:1.4
SliderTickRate:1

[Events]
//Background and Video events
0,0,"nice stockings.jpg",0,0
//Break Periods
2,20859,27078
2,112288,118507
2,173240,174310
2,196097,204856
//Storyboard Layer 0 (Background)
//Storyboard Layer 1 (Fail)
//Storyboard Layer 2 (Pass)
//Storyboard Layer 3 (Foreground)
//Storyboard Layer 4 (Overlay)
//Storyboard Sound Samples

[TimingPoints]
342,317.460317460317,4,1,0,70,1,0
342,-108.695652173913,4,1,0,70,0,0
9227,-108.695652173913,4,1,0,70,0,0
9386,-107.568633371185,4,1,0,71,0,0
9544,-106.453300145169,4,1,0,73,0,0
9703,-105.34953133311,4,1,0,74,0,0
9862,-104.257207028537,4,1,0,75,0,0
10021,-103.17620856824,4,1,0,76,0,0
10179,-102.106418519375,4,1,0,78,0,0
10338,-101.04772066671,4,1,0,79,0,0
10497,-100,4,1,0,80,0,0
17961,-100,4,1,0,60,0,0
18116,-100,4,1,0,60,0,0
18275,-99.1302918931595,4,1,0,60,0,0
18433,-98.2681477082301,4,1,0,60,0,0
18592,-97.4135016611696,4,1,0,60,0,0
18751,-96.5662885400652,4,1,0,60,0,0
18910,-95.7264437001573,4,1,0,60,0,0
19068,-94.8939030589069,4,1,0,60,0,0
19227,-94.0686030911063,4,1,0,60,0,0
19386,-93.2504808240313,4,1,0,60,0,0
19545,-92.439473832637,4,1,0,60,0,0
19703,-91.6355202347938,4,1,0,60,0,0
19862,-90.8385586865664,4,1,0,60,0,0
20021,-90.0485283775323,4,1,0,60,0,0
20179,-89.2653690261423,4,1,0,60,0,0
20338,-88.4890208751209,4,1,0,60,0,0
20497,-87.7194246869062,4,1,0,80,0,0
20656,-86.9565217391303,4,1,0,80,0,0
20818,-111.111111111111,4,1,0,60,0,0
22802,-125,4,1,0,60,0,0
23516,-142.857142857143,4,1,0,60,0,0
28119,-142.857142857143,4,1,0,70,0,0
29389,-133.333333333333,4,1,0,70,0,0
30421,-125,4,1,0,70,0,0
30815,-108.695652173913,4,1,0,70,0,0
30974,-109.649280858633,4,1,0,70,0,0
31132,-110.611276093901,4,1,0,70,0,0
31291,-111.581711282678,4,1,0,70,0,0
31450,-112.560660471915,4,1,0,70,0,0
31609,-113.548198358208,4,1,0,70,0,0
31767,-114.544400293492,4,1,0,70,0,0
31926,-115.549342290796,4,1,0,70,0,0
32085,-116.563101030039,4,1,0,70,0,0
32244,-117.585753863883,4,1,0,70,0,0
32402,-118.617378823634,4,1,0,70,0,0
32561,-119.658054625197,4,1,0,70,0,0
32720,-120.707860675082,4,1,0,70,0,0
32878,-121.766877076462,4,1,0,70,0,0
33037,-122.835184635288,4,1,0,70,0,0
33196,-123.912864866449,4,1,0,70,0,0
33355,-125,4,1,0,70,0,0
40973,-125,4,1,0,70,0,0
41132,-124.564931650649,4,1,0,70,0,0
41290,-124.131377577046,4,1,0,70,0,0
41449,-123.699332508685,4,1,0,70,0,0
41608,-123.268791193401,4,1,0,70,0,0
41767,-122.839748397313,4,1,0,70,0,0
41925,-122.412198904753,4,1,0,70,0,0
42084,-121.98613751821,4,1,0,70,0,0
42243,-121.561559058259,4,1,0,70,0,0
42402,-121.138458363507,4,1,0,70,0,0
42560,-120.716830290521,4,1,0,70,0,0
42719,-120.296669713774,4,1,0,70,0,0
42878,-119.877971525575,4,1,0,70,0,0
43036,-119.460730636013,4,1,0,70,0,0
43195,-119.044941972892,4,1,0,70,0,0
43354,-118.63060048167,4,1,0,70,0,0
43513,-118.217701125397,4,1,0,70,0,0
43671,-117.806238884655,4,1,0,70,0,0
43830,-117.396208757496,4,1,0,70,0,0
43989,-116.987605759382,4,1,0,70,0,0
44148,-116.580424923124,4,1,0,70,0,0
44306,-116.17466129882,4,1,0,70,0,0
44465,-115.770309953798,4,1,0,70,0,0
44624,-115.367365972554,4,1,0,70,0,0
44783,-114.965824456693,4,1,0,70,0,0
44941,-114.565680524867,4,1,0,70,0,0
45100,-114.166929312721,4,1,0,70,0,0
45259,-113.769565972828,4,1,0,70,0,0
45417,-113.373585674634,4,1,0,70,0,0
45576,-112.978983604398,4,1,0,70,0,0
45735,-112.585754965133,4,1,0,70,0,0
45894,-112.193894976547,4,1,0,70,0,0
46052,-111.803398874989,4,1,0,70,0,0
46211,-111.414261913386,4,1,0,70,0,0
46370,-111.026479361187,4,1,0,70,0,0
46529,-110.640046504307,4,1,0,70,0,0
46687,-110.254958645069,4,1,0,70,0,0
46846,-109.871211102145,4,1,0,70,0,0
47005,-109.488799210501,4,1,0,70,0,0
47163,-109.107718321342,4,1,0,70,0,0
47322,-108.727963802049,4,1,0,70,0,0
47481,-108.349531036131,4,1,0,70,0,0
47640,-107.972415423164,4,1,0,70,0,0
47798,-107.596612378735,4,1,0,70,0,0
47957,-107.222117334388,4,1,0,70,0,0
48116,-106.848925737567,4,1,0,70,0,0
48275,-106.477033051562,4,1,0,70,0,0
48433,-106.106434755453,4,1,0,70,0,0
48592,-105.737126344056,4,1,0,70,0,0
48751,-105.369103327867,4,1,0,70,0,0
48910,-105.002361233007,4,1,0,70,0,0
49068,-104.63689560117,4,1,0,70,0,0
49227,-104.272701989566,4,1,0,70,0,0
49386,-103.90977597087,4,1,0,70,0,0
49544,-103.548113133165,4,1,0,70,0,0
49703,-103.187709079891,4,1,0,70,0,0
49862,-102.828559429789,4,1,0,70,0,0
50021,-102.47065981685,4,1,0,70,0,0
50179,-102.114005890263,4,1,0,70,0,0
50338,-101.758593314356,4,1,0,70,0,0
50497,-101.404417768551,4,1,0,70,0,0
50656,-101.051474947307,4,1,0,70,0,0
50814,-100.699760560068,4,1,0,70,0,0
50895,-100.502512562814,4,1,0,70,0,0
50973,-100.349270331213,4,1,0,70,0,0
51132,-100,4,1,0,80,0,0
51291,-100.660676122253,4,1,0,80,0,0
51449,-101.325717173891,4,1,0,80,0,0
51608,-101.995151992961,4,1,0,80,0,0
51767,-102.669009608034,4,1,0,80,0,0
51926,-103.347319239468,4,1,0,80,0,0
52084,-104.030110300672,4,1,0,80,0,0
52243,-104.717412399382,4,1,0,80,0,0
52402,-105.409255338946,4,1,0,80,0,0
52561,-106.105669119615,4,1,0,80,0,0
52719,-106.806683939845,4,1,0,80,0,0
52878,-107.512330197606,4,1,0,80,0,0
53037,-108.2226384917,4,1,0,80,0,0
53195,-108.937639623087,4,1,0,80,0,0
53354,-109.657364596222,4,1,0,80,0,0
53513,-110.381844620402,4,1,0,80,0,0
53672,-111.111111111111,4,1,0,80,0,0
60338,-98.0392156862745,4,1,0,80,0,0
60364,-97.8338005940562,4,1,0,80,0,0
60391,-97.6288158945111,4,1,0,80,0,0
60417,-97.4242606858657,4,1,0,80,0,0
60444,-97.2201340682362,4,1,0,80,0,0
60470,-97.0164351436242,4,1,0,80,0,0
60497,-96.8131630159127,4,1,0,80,0,0
60523,-96.6103167908623,4,1,0,80,0,0
60550,-96.4078955761074,4,1,0,80,0,0
60576,-96.2058984811519,4,1,0,80,0,0
60603,-96.0043246173658,4,1,0,80,0,0
60629,-95.8031730979805,4,1,0,80,0,0
60655,-95.6024430380859,4,1,0,80,0,0
60682,-95.4021335546257,4,1,0,80,0,0
60708,-95.2022437663938,4,1,0,80,0,0
60735,-95.0027727940307,4,1,0,80,0,0
60761,-94.803719760019,4,1,0,80,0,0
60788,-94.6050837886801,4,1,0,80,0,0
60814,-94.4068640061703,4,1,0,80,0,0
60841,-94.2090595404764,4,1,0,80,0,0
60867,-94.0116695214127,4,1,0,80,0,0
60894,-93.8146930806165,4,1,0,80,0,0
60920,-93.6181293515445,4,1,0,80,0,0
60946,-93.4219774694692,4,1,0,80,0,0
60973,-93.2262365714747,4,1,0,80,0,0
60999,-93.0309057964532,4,1,0,80,0,0
61026,-92.8359842851013,4,1,0,80,0,0
61052,-92.6414711799157,4,1,0,80,0,0
61079,-92.4473656251899,4,1,0,80,0,0
61105,-92.2536667670105,4,1,0,80,0,0
61132,-92.060373753253,4,1,0,80,0,0
61158,-91.8674857335784,4,1,0,80,0,0
61185,-91.6750018594294,4,1,0,80,0,0
61211,-91.4829212840265,4,1,0,80,0,0
61237,-91.2912431623646,4,1,0,80,0,0
61264,-91.0999666512088,4,1,0,80,0,0
61287,-86.2068965517241,4,1,0,80,0,0
61366,-86.6076636130284,4,1,0,80,0,0
61446,-87.0102937994867,4,1,0,80,0,0
61525,-87.4147957725779,4,1,0,80,0,0
61604,-87.8211782340468,4,1,0,80,0,0
61684,-88.229449926092,4,1,0,80,0,0
61763,-88.6396196315535,4,1,0,80,0,0
61843,-89.0516961741019,4,1,0,80,0,0
61922,-89.4656884184281,4,1,0,80,0,0
62001,-89.8816052704343,4,1,0,80,0,0
62081,-90.299455677425,4,1,0,80,0,0
62160,-90.7192486282998,4,1,0,80,0,0
62239,-91.1409931537471,4,1,0,80,0,0
62319,-91.5646983264378,4,1,0,80,0,0
62398,-91.9903732612208,4,1,0,80,0,0
62477,-92.4180271153188,4,1,0,80,0,0
62557,-92.8476690885259,4,1,0,80,0,0
62636,-93.2793084234048,4,1,0,80,0,0
62716,-93.7129544054859,4,1,0,80,0,0
62795,-94.1486163634673,4,1,0,80,0,0
62874,-94.5863036694151,4,1,0,80,0,0
62954,-95.0260257389653,4,1,0,80,0,0
63033,-95.467792031526,4,1,0,80,0,0
63112,-95.9116120504815,4,1,0,80,0,0
63192,-96.357495343396,4,1,0,80,0,0
63271,-96.8054515022196,4,1,0,80,0,0
63350,-97.2554901634942,4,1,0,80,0,0
63430,-97.7076210085611,4,1,0,80,0,0
63509,-98.1618537637691,4,1,0,80,0,0
63589,-98.6181982006841,4,1,0,80,0,0
63668,-99.0766641362986,4,1,0,80,0,0
63747,-99.5372614332434,4,1,0,80,0,0
63827,-100,4,1,0,80,0,0
70497,-100,4,1,0,80,0,0
70656,-98.1289148404837,4,1,0,80,0,0
70814,-96.2928392777089,4,1,0,80,0,0
70973,-94.4911182523068,4,1,0,80,0,0
71132,-92.7231089616269,4,1,0,80,0,0
71291,-90.9881806304037,4,1,0,80,0,0
71450,-89.2857142857143,4,1,0,80,0,0
71529,-89.602482143978,4,1,0,80,0,0
71609,-89.9203738312532,4,1,0,80,0,0
71688,-90.2393933346606,4,1,0,80,0,0
71767,-90.5595446554661,4,1,0,80,0,0
71847,-90.8808318091316,4,1,0,80,0,0
71926,-91.2032588253649,4,1,0,80,0,0
72006,-91.5268297481705,4,1,0,80,0,0
72085,-91.8515486359,4,1,0,80,0,0
72164,-92.1774195613036,4,1,0,80,0,0
72244,-92.5044466115803,4,1,0,80,0,0
72323,-92.8326338884301,4,1,0,80,0,0
72402,-93.1619855081049,4,1,0,80,0,0
72482,-93.4925056014601,4,1,0,80,0,0
72561,-93.8241983140066,4,1,0,80,0,0
72640,-94.1570678059628,4,1,0,80,0,0
72720,-94.4911182523069,4,1,0,80,0,0
72799,-94.8263538428286,4,1,0,80,0,0
72879,-95.1627787821826,4,1,0,80,0,0
72958,-95.5003972899407,4,1,0,80,0,0
73037,-95.8392136006448,4,1,0,80,0,0
73117,-96.1792319638603,4,1,0,80,0,0
73196,-96.520456644229,4,1,0,80,0,0
73275,-96.8628919215231,4,1,0,80,0,0
73355,-97.2065420906983,4,1,0,80,0,0
73434,-97.551411461948,4,1,0,80,0,0
73513,-97.8975043607573,4,1,0,80,0,0
73593,-98.2448251279573,4,1,0,80,0,0
73672,-98.5933781197796,4,1,0,80,0,0
73752,-98.9431677079107,4,1,0,80,0,0
73831,-99.2941982795469,4,1,0,80,0,0
73910,-99.6464742374496,4,1,0,80,0,0
73990,-100,4,1,0,80,0,0
80262,-100,4,1,0,50,0,0
80338,-100,4,1,0,50,0,0
80417,-100.881870060451,4,1,0,50,0,0
80497,-101.771517068937,4,1,0,50,0,0
80576,-102.669009608034,4,1,0,50,0,0
80655,-103.574416865129,4,1,0,50,0,0
80735,-104.487808637749,4,1,0,50,0,0
80814,-105.409255338946,4,1,0,50,0,0
80894,-106.338828002724,4,1,0,50,0,0
80973,-107.276598289514,4,1,0,50,0,0
81052,-108.2226384917,4,1,0,50,0,0
81132,-109.177021539188,4,1,0,50,0,0
81211,-110.139821005034,4,1,0,50,0,0
81290,-111.111111111111,4,1,0,50,0,0
81532,-100,4,1,0,80,0,0
99151,-83.3333333333333,4,1,0,80,0,0
99310,-100,4,1,0,80,0,0
99786,-83.3333333333333,4,1,0,80,0,0
100421,-83.3333333333333,4,1,0,80,0,0
100656,-108.695652173913,4,1,0,80,0,0
100735,-108.130674453355,4,1,0,80,0,0
100815,-107.568633371185,4,1,0,80,0,0
100894,-107.009513663358,4,1,0,80,0,0
100973,-106.453300145169,4,1,0,80,0,0
101053,-105.899977710841,4,1,0,80,0,0
101132,-105.34953133311,4,1,0,80,0,0
101212,-104.801946062826,4,1,0,80,0,0
101291,-104.257207028537,4,1,0,80,0,0
101370,-103.715299436094,4,1,0,80,0,0
101450,-103.17620856824,4,1,0,80,0,0
101529,-102.63991978422,4,1,0,80,0,0
101608,-102.106418519375,4,1,0,80,0,0
101688,-101.575690284753,4,1,0,80,0,0
101767,-101.04772066671,4,1,0,80,0,0
101846,-100.522495326524,4,1,0,80,0,0
101926,-100,4,1,0,80,0,0
108275,-100,4,1,0,80,0,0
108301,-99.9007678304169,4,1,0,80,0,0
108328,-99.8016341310686,4,1,0,80,0,0
108354,-99.7025988042409,4,1,0,80,0,0
108381,-99.6036617523167,4,1,0,80,0,0
108407,-99.5048228777756,4,1,0,80,0,0
108434,-99.4060820831942,4,1,0,80,0,0
108460,-99.3074392712455,4,1,0,80,0,0
108487,-99.2088943446991,4,1,0,80,0,0
108513,-99.1104472064215,4,1,0,80,0,0
108540,-99.012097759375,4,1,0,80,0,0
108566,-98.9138459066186,4,1,0,80,0,0
108592,-98.8156915513074,4,1,0,80,0,0
108619,-98.7176345966925,4,1,0,80,0,0
108645,-98.619674946121,4,1,0,80,0,0
108672,-98.5218125030362,4,1,0,80,0,0
108698,-98.4240471709768,4,1,0,80,0,0
108725,-98.3263788535775,4,1,0,80,0,0
108751,-98.2288074545686,4,1,0,80,0,0
108778,-98.1313328777758,4,1,0,80,0,0
108804,-98.0339550271203,4,1,0,80,0,0
108831,-97.9366738066188,4,1,0,80,0,0
108857,-97.839489120383,4,1,0,80,0,0
108883,-97.7424008726197,4,1,0,80,0,0
108910,-97.6454089676312,4,1,0,80,0,0
108936,-97.5485133098143,4,1,0,80,0,0
108963,-97.4517138036609,4,1,0,80,0,0
108989,-97.3550103537576,4,1,0,80,0,0
109016,-97.2584028647857,4,1,0,80,0,0
109042,-97.1618912415211,4,1,0,80,0,0
109069,-97.0654753888341,4,1,0,80,0,0
109095,-96.9691552116896,4,1,0,80,0,0
109122,-96.8729306151466,4,1,0,80,0,0
109148,-96.7768015043585,4,1,0,80,0,0
109174,-96.6807677845725,4,1,0,80,0,0
109201,-96.5848293611303,4,1,0,80,0,0
109227,-96.4889861394671,4,1,0,80,0,0
109254,-96.3932380251121,4,1,0,80,0,0
109280,-96.2975849236884,4,1,0,80,0,0
109307,-96.2020267409125,4,1,0,80,0,0
109333,-96.1065633825945,4,1,0,80,0,0
109360,-96.0111947546382,4,1,0,80,0,0
109386,-95.9159207630405,4,1,0,80,0,0
109413,-95.8207413138917,4,1,0,80,0,0
109439,-95.7256563133753,4,1,0,80,0,0
109465,-95.6306656677679,4,1,0,80,0,0
109492,-95.535769283439,4,1,0,80,0,0
109518,-95.4409670668511,4,1,0,80,0,0
109545,-95.3462589245595,4,1,0,80,0,0
109571,-95.2516447632123,4,1,0,80,0,0
109598,-95.1571244895502,4,1,0,80,0,0
109624,-95.0626980104063,4,1,0,80,0,0
109651,-94.9683652327063,4,1,0,80,0,0
109677,-94.8741260634683,4,1,0,80,0,0
109704,-94.7799804098025,4,1,0,80,0,0
109730,-94.6859281789114,4,1,0,80,0,0
109756,-94.5919692780895,4,1,0,80,0,0
109783,-94.4981036147235,4,1,0,80,0,0
109809,-94.4043310962917,4,1,0,80,0,0
109836,-94.3106516303644,4,1,0,80,0,0
109862,-94.2170651246036,4,1,0,80,0,0
109889,-94.1235714867629,4,1,0,80,0,0
109915,-94.0301706246875,4,1,0,80,0,0
109942,-93.9368624463139,4,1,0,80,0,0
109968,-93.8436468596701,4,1,0,80,0,0
109995,-93.7505237728754,4,1,0,80,0,0
110021,-93.65749309414,4,1,0,80,0,0
110047,-93.5645547317655,4,1,0,80,0,0
110074,-93.4717085941444,4,1,0,80,0,0
110100,-93.37895458976,4,1,0,80,0,0
110127,-93.2862926271866,4,1,0,80,0,0
110153,-93.1937226150889,4,1,0,80,0,0
110180,-93.1012444622227,4,1,0,80,0,0
110206,-93.008858077434,4,1,0,80,0,0
110233,-92.9165633696592,4,1,0,80,0,0
110259,-92.8243602479255,4,1,0,80,0,0
110286,-92.7322486213498,4,1,0,80,0,0
110312,-92.6402283991396,4,1,0,80,0,0
110338,-92.5482994905924,4,1,0,80,0,0
110365,-92.4564618050956,4,1,0,80,0,0
110391,-92.3647152521266,4,1,0,80,0,0
110418,-92.2730597412527,4,1,0,80,0,0
110444,-92.1814951821307,4,1,0,80,0,0
110471,-92.0900214845073,4,1,0,80,0,0
110497,-91.9986385582186,4,1,0,80,0,0
110524,-91.9073463131904,4,1,0,80,0,0
110550,-91.8161446594375,4,1,0,80,0,0
110577,-91.7250335070644,4,1,0,80,0,0
110603,-91.6340127662645,4,1,0,80,0,0
110629,-91.5430823473205,4,1,0,80,0,0
110656,-91.4522421606039,4,1,0,80,0,0
110682,-91.3614921165756,4,1,0,80,0,0
110709,-91.2708321257848,4,1,0,80,0,0
110735,-91.1802620988698,4,1,0,80,0,0
110762,-91.0897819465575,4,1,0,80,0,0
110788,-90.9993915796634,4,1,0,80,0,0
110815,-90.9090909090915,4,1,0,80,0,0
111056,-93.0232558139535,4,1,0,70,0,0
111294,-95.2380952380952,4,1,0,60,0,0
111611,-97.5609756097561,4,1,0,60,0,0
111929,-100,4,1,0,70,0,0
112246,-117.647058823529,4,1,0,50,0,0
113992,-133.333333333333,4,1,0,50,0,0
119548,-133.333333333333,4,1,0,60,0,0
119704,-125,4,1,0,60,0,0
119783,-124.131377577046,4,1,0,61,0,0
119863,-123.268791193401,4,1,0,61,0,0
119942,-122.412198904753,4,1,0,62,0,0
120021,-121.561559058259,4,1,0,63,0,0
120101,-120.716830290521,4,1,0,63,0,0
120180,-119.877971525575,4,1,0,64,0,0
120260,-119.044941972892,4,1,0,64,0,0
120339,-118.217701125397,4,1,0,65,0,0
120418,-117.396208757496,4,1,0,66,0,0
120498,-116.580424923124,4,1,0,66,0,0
120577,-115.770309953798,4,1,0,67,0,0
120656,-114.965824456693,4,1,0,68,0,0
120736,-114.166929312721,4,1,0,68,0,0
120815,-113.373585674634,4,1,0,69,0,0
120894,-112.585754965133,4,1,0,69,0,0
120974,-111.803398874989,4,1,0,70,0,0
121053,-111.026479361187,4,1,0,71,0,0
121133,-110.254958645069,4,1,0,71,0,0
121212,-109.488799210501,4,1,0,72,0,0
121291,-108.727963802049,4,1,0,73,0,0
121371,-107.972415423164,4,1,0,73,0,0
121450,-107.222117334388,4,1,0,74,0,0
121529,-106.477033051562,4,1,0,74,0,0
121609,-105.737126344056,4,1,0,75,0,0
121688,-105.002361233007,4,1,0,76,0,0
121767,-104.272701989566,4,1,0,76,0,0
121847,-103.548113133165,4,1,0,77,0,0
121926,-102.828559429789,4,1,0,78,0,0
122006,-102.114005890263,4,1,0,78,0,0
122085,-101.404417768551,4,1,0,79,0,0
122164,-100.699760560068,4,1,0,79,0,0
122244,-99.9999999999998,4,1,0,80,0,0
132402,-100,4,1,0,80,0,0
132481,-100.349270331213,4,1,0,80,0,0
132561,-100.699760560069,4,1,0,80,0,0
132640,-101.051474947307,4,1,0,80,0,0
132719,-101.404417768551,4,1,0,80,0,0
132799,-101.758593314356,4,1,0,80,0,0
132878,-102.114005890263,4,1,0,80,0,0
132958,-102.470659816851,4,1,0,80,0,0
133037,-102.828559429789,4,1,0,80,0,0
133116,-103.187709079891,4,1,0,80,0,0
133196,-103.548113133165,4,1,0,80,0,0
133275,-103.90977597087,4,1,0,80,0,0
133354,-104.272701989566,4,1,0,80,0,0
133434,-104.63689560117,4,1,0,80,0,0
133513,-105.002361233007,4,1,0,80,0,0
133592,-105.369103327867,4,1,0,80,0,0
133672,-105.737126344056,4,1,0,80,0,0
133751,-106.106434755453,4,1,0,80,0,0
133831,-106.477033051562,4,1,0,80,0,0
133910,-106.848925737567,4,1,0,80,0,0
133989,-107.222117334388,4,1,0,80,0,0
134069,-107.596612378735,4,1,0,80,0,0
134148,-107.972415423165,4,1,0,80,0,0
134227,-108.349531036132,4,1,0,80,0,0
134307,-108.727963802049,4,1,0,80,0,0
134386,-109.107718321342,4,1,0,80,0,0
134465,-109.488799210502,4,1,0,80,0,0
134545,-109.871211102145,4,1,0,80,0,0
134624,-110.254958645069,4,1,0,80,0,0
134704,-110.640046504308,4,1,0,80,0,0
134783,-111.026479361187,4,1,0,80,0,0
134862,-111.414261913386,4,1,0,80,0,0
134942,-111.80339887499,4,1,0,80,0,0
135021,-112.193894976548,4,1,0,80,0,0
135100,-112.585754965133,4,1,0,80,0,0
135180,-112.978983604398,4,1,0,80,0,0
135259,-113.373585674634,4,1,0,80,0,0
135339,-113.769565972828,4,1,0,80,0,0
135418,-114.166929312721,4,1,0,80,0,0
135497,-114.565680524867,4,1,0,80,0,0
135577,-114.965824456693,4,1,0,80,0,0
135656,-115.367365972554,4,1,0,80,0,0
135735,-115.770309953798,4,1,0,80,0,0
135815,-116.17466129882,4,1,0,80,0,0
135894,-116.580424923124,4,1,0,80,0,0
135973,-116.987605759383,4,1,0,80,0,0
136053,-117.396208757497,4,1,0,80,0,0
136132,-117.806238884655,4,1,0,80,0,0
136212,-118.217701125397,4,1,0,80,0,0
136291,-118.63060048167,4,1,0,80,0,0
136370,-119.044941972893,4,1,0,80,0,0
136450,-119.460730636013,4,1,0,80,0,0
136529,-119.877971525575,4,1,0,80,0,0
136608,-120.296669713774,4,1,0,80,0,0
136688,-120.716830290522,4,1,0,80,0,0
136767,-121.138458363507,4,1,0,80,0,0
136846,-121.561559058259,4,1,0,80,0,0
136926,-121.98613751821,4,1,0,80,0,0
137005,-122.412198904754,4,1,0,80,0,0
137085,-122.839748397313,4,1,0,80,0,0
137164,-123.268791193402,4,1,0,80,0,0
137243,-123.699332508685,4,1,0,80,0,0
137323,-124.131377577046,4,1,0,80,0,0
137402,-124.564931650649,4,1,0,80,0,0
137481,-125,4,1,0,80,0,0
142561,-125,4,1,0,80,0,0
142640,-124.782276210731,4,1,0,80,0,0
142720,-124.564931650649,4,1,0,80,0,0
142799,-124.347965659216,4,1,0,80,0,0
142878,-124.131377577046,4,1,0,80,0,0
142958,-123.9151667459,4,1,0,80,0,0
143037,-123.699332508685,4,1,0,80,0,0
143117,-123.483874209454,4,1,0,80,0,0
143196,-123.268791193401,4,1,0,80,0,0
143275,-123.054082806863,4,1,0,80,0,0
143355,-122.839748397313,4,1,0,80,0,0
143434,-122.625787313361,4,1,0,80,0,0
143513,-122.412198904753,4,1,0,80,0,0
143593,-122.198982522367,4,1,0,80,0,0
143672,-121.98613751821,4,1,0,80,0,0
143751,-121.773663245419,4,1,0,80,0,0
143831,-121.561559058259,4,1,0,80,0,0
143910,-121.349824312118,4,1,0,80,0,0
143990,-121.138458363507,4,1,0,80,0,0
144069,-120.927460570058,4,1,0,80,0,0
144148,-120.716830290521,4,1,0,80,0,0
144228,-120.506566884766,4,1,0,80,0,0
144307,-120.296669713774,4,1,0,80,0,0
144386,-120.087138139641,4,1,0,80,0,0
144466,-119.877971525575,4,1,0,80,0,0
144545,-119.669169235891,4,1,0,80,0,0
144624,-119.460730636013,4,1,0,80,0,0
144704,-119.25265509247,4,1,0,80,0,0
144783,-119.044941972892,4,1,0,80,0,0
144863,-118.837590646015,4,1,0,80,0,0
144942,-118.63060048167,4,1,0,80,0,0
145021,-118.423970850789,4,1,0,80,0,0
145101,-118.217701125397,4,1,0,80,0,0
145180,-118.011790678615,4,1,0,80,0,0
145259,-117.806238884655,4,1,0,80,0,0
145339,-117.601045118819,4,1,0,80,0,0
145418,-117.396208757497,4,1,0,80,0,0
145498,-117.191729178164,4,1,0,80,0,0
145577,-116.987605759383,4,1,0,80,0,0
145656,-116.783837880795,4,1,0,80,0,0
145736,-116.580424923124,4,1,0,80,0,0
145815,-116.377366268173,4,1,0,80,0,0
145894,-116.17466129882,4,1,0,80,0,0
145974,-115.97230939902,4,1,0,80,0,0
146053,-115.770309953798,4,1,0,80,0,0
146132,-115.568662349254,4,1,0,80,0,0
146212,-115.367365972555,4,1,0,80,0,0
146291,-115.166420211934,4,1,0,80,0,0
146371,-114.965824456693,4,1,0,80,0,0
146450,-114.765578097195,4,1,0,80,0,0
146529,-114.565680524867,4,1,0,80,0,0
146609,-114.366131132195,4,1,0,80,0,0
146688,-114.166929312721,4,1,0,80,0,0
146767,-113.968074461047,4,1,0,80,0,0
146847,-113.769565972828,4,1,0,80,0,0
146926,-113.571403244771,4,1,0,80,0,0
147005,-113.373585674635,4,1,0,80,0,0
147085,-113.176112661226,4,1,0,80,0,0
147164,-112.978983604399,4,1,0,80,0,0
147244,-112.782197905053,4,1,0,80,0,0
147323,-112.585754965133,4,1,0,80,0,0
147402,-112.389654187623,4,1,0,80,0,0
147482,-112.193894976548,4,1,0,80,0,0
147561,-111.99847673697,4,1,0,80,0,0
147640,-111.80339887499,4,1,0,80,0,0
147720,-111.60866079774,4,1,0,80,0,0
147799,-111.414261913387,4,1,0,80,0,0
147878,-111.220201631127,4,1,0,80,0,0
147958,-111.026479361188,4,1,0,80,0,0
148037,-110.833094514822,4,1,0,80,0,0
148117,-110.640046504308,4,1,0,80,0,0
148196,-110.447334742949,4,1,0,80,0,0
148275,-110.25495864507,4,1,0,80,0,0
148355,-110.062917626014,4,1,0,80,0,0
148434,-109.871211102146,4,1,0,80,0,0
148513,-109.679838490843,4,1,0,80,0,0
148593,-109.488799210502,4,1,0,80,0,0
148672,-109.298092680529,4,1,0,80,0,0
148751,-109.107718321342,4,1,0,80,0,0
148831,-108.917675554371,4,1,0,80,0,0
148910,-108.72796380205,4,1,0,80,0,0
148990,-108.538582487821,4,1,0,80,0,0
149069,-108.349531036132,4,1,0,80,0,0
149148,-108.16080887243,4,1,0,80,0,0
149228,-107.972415423165,4,1,0,80,0,0
149307,-107.784350115785,4,1,0,80,0,0
149386,-107.596612378736,4,1,0,80,0,0
149466,-107.409201641459,4,1,0,80,0,0
149545,-107.222117334389,4,1,0,80,0,0
149624,-107.035358888952,4,1,0,80,0,0
149704,-106.848925737567,4,1,0,80,0,0
149783,-106.66281731364,4,1,0,80,0,0
149863,-106.477033051563,4,1,0,80,0,0
149942,-106.291572386713,4,1,0,80,0,0
150021,-106.106434755454,4,1,0,80,0,0
150101,-105.921619595127,4,1,0,80,0,0
150180,-105.737126344057,4,1,0,80,0,0
150259,-105.552954441544,4,1,0,80,0,0
150339,-105.369103327868,4,1,0,80,0,0
150418,-105.18557244428,4,1,0,80,0,0
150498,-105.002361233008,4,1,0,80,0,0
150577,-104.819469137249,4,1,0,80,0,0
150656,-104.636895601171,4,1,0,80,0,0
150736,-104.454640069909,4,1,0,80,0,0
150815,-104.272701989567,4,1,0,80,0,0
150894,-104.091080807211,4,1,0,80,0,0
150974,-103.909775970871,4,1,0,80,0,0
151053,-103.728786929539,4,1,0,80,0,0
151132,-103.548113133166,4,1,0,80,0,0
151212,-103.367754032662,4,1,0,80,0,0
151291,-103.187709079892,4,1,0,80,0,0
151371,-103.007977727676,4,1,0,80,0,0
151450,-102.82855942979,4,1,0,80,0,0
151529,-102.649453640956,4,1,0,80,0,0
151609,-102.470659816851,4,1,0,80,0,0
151688,-102.292177414097,4,1,0,80,0,0
151767,-102.114005890264,4,1,0,80,0,0
151847,-101.936144703864,4,1,0,80,0,0
151926,-101.758593314357,4,1,0,80,0,0
152005,-101.58135118214,4,1,0,80,0,0
152085,-101.404417768552,4,1,0,80,0,0
152164,-101.22779253587,4,1,0,80,0,0
152244,-101.051474947308,4,1,0,80,0,0
152323,-100.875464467014,4,1,0,80,0,0
152402,-100.699760560069,4,1,0,80,0,0
152482,-100.524362692488,4,1,0,80,0,0
152561,-100.349270331214,4,1,0,80,0,0
152640,-100.174482944118,4,1,0,80,0,0
152720,-100.000000000001,4,1,0,80,0,0
153834,-102.040816326531,4,1,0,80,0,0
155103,-104.166666666667,4,1,0,80,0,0
156373,-106.382978723404,4,1,0,80,0,0
157643,-108.695652173913,4,1,0,80,0,0
158913,-111.111111111111,4,1,0,80,0,0
162878,-111.111111111111,4,1,0,80,0,0
163195,-110.381844620402,4,1,0,80,0,0
163513,-109.657364596222,4,1,0,80,0,0
163830,-108.937639623087,4,1,0,80,0,0
164148,-108.2226384917,4,1,0,80,0,0
164465,-107.512330197606,4,1,0,80,0,0
164783,-106.806683939845,4,1,0,80,0,0
165100,-106.105669119615,4,1,0,80,0,0
165418,-105.409255338946,4,1,0,80,0,0
165735,-104.717412399382,4,1,0,80,0,0
166053,-104.030110300672,4,1,0,80,0,0
166370,-103.347319239468,4,1,0,80,0,0
166688,-102.669009608034,4,1,0,80,0,0
167005,-101.995151992961,4,1,0,80,0,0
167322,-101.325717173891,4,1,0,80,0,0
167640,-100.660676122253,4,1,0,80,0,0
167954,-100,4,1,0,80,0,0
167980,-99.9503716003182,4,1,0,80,0,0
168007,-99.9007678304169,4,1,0,80,0,0
168033,-99.8511886780728,4,1,0,80,0,0
168060,-99.8016341310686,4,1,0,80,0,0
168086,-99.752104177193,4,1,0,80,0,0
168113,-99.7025988042409,4,1,0,80,0,0
168139,-99.6531180000131,4,1,0,80,0,0
168166,-99.6036617523167,4,1,0,80,0,0
168192,-99.5542300489645,4,1,0,80,0,0
168219,-99.5048228777756,4,1,0,80,0,0
168245,-99.4554402265751,4,1,0,80,0,0
168271,-99.4060820831942,4,1,0,80,0,0
168298,-99.3567484354699,4,1,0,80,0,0
168324,-99.3074392712454,4,1,0,80,0,0
168351,-99.2581545783701,4,1,0,80,0,0
168377,-99.2088943446991,4,1,0,80,0,0
168404,-99.1596585580938,4,1,0,80,0,0
168430,-99.1104472064214,4,1,0,80,0,0
168457,-99.0612602775554,4,1,0,80,0,0
168483,-99.012097759375,4,1,0,80,0,0
168510,-98.9629596397656,4,1,0,80,0,0
168536,-98.9138459066186,4,1,0,80,0,0
168562,-98.8647565478314,4,1,0,80,0,0
168589,-98.8156915513073,4,1,0,80,0,0
168615,-98.7666509049559,4,1,0,80,0,0
168642,-98.7176345966924,4,1,0,80,0,0
168668,-98.6686426144383,4,1,0,80,0,0
168695,-98.619674946121,4,1,0,80,0,0
168721,-98.5707315796738,4,1,0,80,0,0
168748,-98.5218125030361,4,1,0,80,0,0
168774,-98.4729177041533,4,1,0,80,0,0
168801,-98.4240471709767,4,1,0,80,0,0
168827,-98.3752008914637,4,1,0,80,0,0
168853,-98.3263788535775,4,1,0,80,0,0
168880,-98.2775810452873,4,1,0,80,0,0
168906,-98.2288074545685,4,1,0,80,0,0
168933,-98.1800580694023,4,1,0,80,0,0
168959,-98.1313328777757,4,1,0,80,0,0
168986,-98.082631867682,4,1,0,80,0,0
169012,-98.0339550271203,4,1,0,80,0,0
169039,-97.9853023440955,4,1,0,80,0,0
169065,-97.9366738066187,4,1,0,80,0,0
169092,-97.8880694027069,4,1,0,80,0,0
169118,-97.8394891203829,4,1,0,80,0,0
169144,-97.7909329476755,4,1,0,80,0,0
169171,-97.7424008726197,4,1,0,80,0,0
169197,-97.693892883256,4,1,0,80,0,0
169224,-97.6454089676311,4,1,0,80,0,0
169250,-97.5969491137977,4,1,0,80,0,0
169277,-97.5485133098142,4,1,0,80,0,0
169303,-97.5001015437452,4,1,0,80,0,0
169330,-97.4517138036608,4,1,0,80,0,0
169356,-97.4033500776376,4,1,0,80,0,0
169383,-97.3550103537575,4,1,0,80,0,0
169409,-97.3066946201089,4,1,0,80,0,0
169435,-97.2584028647856,4,1,0,80,0,0
169462,-97.2101350758877,4,1,0,80,0,0
169488,-97.161891241521,4,1,0,80,0,0
169515,-97.1136713497972,4,1,0,80,0,0
169541,-97.065475388834,4,1,0,80,0,0
169568,-97.017303346755,4,1,0,80,0,0
169594,-96.9691552116895,4,1,0,80,0,0
169621,-96.921030971773,4,1,0,80,0,0
169647,-96.8729306151465,4,1,0,80,0,0
169674,-96.8248541299573,4,1,0,80,0,0
169700,-96.7768015043584,4,1,0,80,0,0
169726,-96.7287727265085,4,1,0,80,0,0
169753,-96.6807677845724,4,1,0,80,0,0
169779,-96.6327866667209,4,1,0,80,0,0
169806,-96.5848293611302,4,1,0,80,0,0
169832,-96.5368958559828,4,1,0,80,0,0
169859,-96.488986139467,4,1,0,80,0,0
169885,-96.4411001997767,4,1,0,80,0,0
169912,-96.393238025112,4,1,0,80,0,0
169938,-96.3453996036787,4,1,0,80,0,0
169965,-96.2975849236883,4,1,0,80,0,0
169991,-96.2497939733584,4,1,0,80,0,0
170017,-96.2020267409124,4,1,0,80,0,0
170044,-96.1542832145794,4,1,0,80,0,0
170070,-96.1065633825944,4,1,0,80,0,0
170097,-96.0588672331984,4,1,0,80,0,0
170123,-96.0111947546381,4,1,0,80,0,0
170150,-95.963545935166,4,1,0,80,0,0
170176,-95.9159207630404,4,1,0,80,0,0
170203,-95.8683192265256,4,1,0,80,0,0
170229,-95.8207413138916,4,1,0,80,0,0
170256,-95.7731870134142,4,1,0,80,0,0
170282,-95.7256563133752,4,1,0,80,0,0
170308,-95.6781492020619,4,1,0,80,0,0
170335,-95.6306656677677,4,1,0,80,0,0
170361,-95.5832056987917,4,1,0,80,0,0
170388,-95.5357692834388,4,1,0,80,0,0
170414,-95.4883564100197,4,1,0,80,0,0
170441,-95.4409670668509,4,1,0,80,0,0
170467,-95.3936012422548,4,1,0,80,0,0
170494,-95.3462589245594,4,1,0,80,0,0
170520,-95.2989401020986,4,1,0,80,0,0
170547,-95.2516447632122,4,1,0,80,0,0
170573,-95.2043728962456,4,1,0,80,0,0
170600,-95.1571244895501,4,1,0,80,0,0
170626,-95.1098995314827,4,1,0,80,0,0
170652,-95.0626980104062,4,1,0,80,0,0
170679,-95.0155199146892,4,1,0,80,0,0
170705,-94.9683652327062,4,1,0,80,0,0
170732,-94.9212339528372,4,1,0,80,0,0
170758,-94.8741260634682,4,1,0,80,0,0
170785,-94.8270415529907,4,1,0,80,0,0
170811,-94.7799804098023,4,1,0,80,0,0
170838,-94.7329426223062,4,1,0,80,0,0
170864,-94.6859281789112,4,1,0,80,0,0
170891,-94.6389370680321,4,1,0,80,0,0
170917,-94.5919692780894,4,1,0,80,0,0
170943,-94.5450247975091,4,1,0,80,0,0
170970,-94.4981036147233,4,1,0,80,0,0
170996,-94.4512057181697,4,1,0,80,0,0
171023,-94.4043310962915,4,1,0,80,0,0
171049,-94.3574797375381,4,1,0,80,0,0
171076,-94.3106516303642,4,1,0,80,0,0
171102,-94.2638467632306,4,1,0,80,0,0
171129,-94.2170651246035,4,1,0,80,0,0
171155,-94.1703067029549,4,1,0,80,0,0
171182,-94.1235714867628,4,1,0,80,0,0
171208,-94.0768594645105,4,1,0,80,0,0
171234,-94.0301706246873,4,1,0,80,0,0
171261,-93.9835049557882,4,1,0,80,0,0
171287,-93.9368624463137,4,1,0,80,0,0
171314,-93.8902430847703,4,1,0,80,0,0
171340,-93.84364685967,4,1,0,80,0,0
171367,-93.7970737595304,4,1,0,80,0,0
171393,-93.7505237728752,4,1,0,80,0,0
171420,-93.7039968882334,4,1,0,80,0,0
171446,-93.6574930941398,4,1,0,80,0,0
171473,-93.6110123791351,4,1,0,80,0,0
171499,-93.5645547317653,4,1,0,80,0,0
171525,-93.5181201405825,4,1,0,80,0,0
171552,-93.4717085941442,4,1,0,80,0,0
171578,-93.4253200810137,4,1,0,80,0,0
171605,-93.3789545897598,4,1,0,80,0,0
171631,-93.3326121089573,4,1,0,80,0,0
171658,-93.2862926271864,4,1,0,80,0,0
171684,-93.239996133033,4,1,0,80,0,0
171711,-93.1937226150887,4,1,0,80,0,0
171737,-93.147472061951,4,1,0,80,0,0
171764,-93.1012444622225,4,1,0,80,0,0
171790,-93.055039804512,4,1,0,80,0,0
171816,-93.0088580774338,4,1,0,80,0,0
171843,-92.9626992696076,4,1,0,80,0,0
171869,-92.916563369659,4,1,0,80,0,0
171896,-92.8704503662193,4,1,0,80,0,0
171922,-92.8243602479252,4,1,0,80,0,0
171949,-92.7782930034193,4,1,0,80,0,0
171975,-92.7322486213496,4,1,0,80,0,0
172002,-92.6862270903698,4,1,0,80,0,0
172028,-92.6402283991394,4,1,0,80,0,0
172055,-92.5942525363233,4,1,0,80,0,0
172081,-92.5482994905922,4,1,0,80,0,0
172107,-92.5023692506222,4,1,0,80,0,0
172134,-92.4564618050954,4,1,0,80,0,0
172160,-92.4105771426991,4,1,0,80,0,0
172187,-92.3647152521264,4,1,0,80,0,0
172213,-92.3188761220761,4,1,0,80,0,0
172240,-92.2730597412524,4,1,0,80,0,0
172266,-92.2272660983654,4,1,0,80,0,0
172293,-92.1814951821304,4,1,0,80,0,0
172319,-92.1357469812688,4,1,0,80,0,0
172346,-92.090021484507,4,1,0,80,0,0
172372,-92.0443186805776,4,1,0,80,0,0
172398,-91.9986385582184,4,1,0,80,0,0
172425,-91.9529811061729,4,1,0,80,0,0
172451,-91.9073463131902,4,1,0,80,0,0
172478,-91.8617341680249,4,1,0,80,0,0
172504,-91.8161446594373,4,1,0,80,0,0
172531,-91.7705777761933,4,1,0,80,0,0
172557,-91.7250335070642,4,1,0,80,0,0
172584,-91.679511840827,4,1,0,80,0,0
172610,-91.6340127662643,4,1,0,80,0,0
172637,-91.5885362721641,4,1,0,80,0,0
172663,-91.5430823473202,4,1,0,80,0,0
172689,-91.4976509805318,4,1,0,80,0,0
172716,-91.4522421606037,4,1,0,80,0,0
172742,-91.4068558763462,4,1,0,80,0,0
172769,-91.3614921165753,4,1,0,80,0,0
172795,-91.3161508701124,4,1,0,80,0,0
172822,-91.2708321257845,4,1,0,80,0,0
172848,-91.2255358724242,4,1,0,80,0,0
172875,-91.1802620988695,4,1,0,80,0,0
172901,-91.1350107939642,4,1,0,80,0,0
172928,-91.0897819465573,4,1,0,80,0,0
172954,-91.0445755455035,4,1,0,80,0,0
172980,-90.9993915796632,4,1,0,80,0,0
173007,-90.954230037902,4,1,0,80,0,0
173033,-90.9090909090912,4,1,0,80,0,0
174310,-111.111111111111,4,1,0,50,0,0
175500,-100,4,1,0,80,0,0
175580,-100,4,1,0,80,0,1
185421,-100,4,1,0,80,0,0
185738,-90.9090909090909,4,1,0,90,0,1
195897,-90.9090909090909,4,1,0,80,0,0
196056,-111.111111111111,4,1,0,50,0,0
198119,-125,4,1,0,50,0,0
199389,-142.857142857143,4,1,0,50,0,0
203199,-133.333333333333,4,1,0,50,0,0
204468,-125,4,1,0,50,0,0
205897,-117.647058823529,4,1,0,70,0,0
216135,-107.52688172043,4,1,0,80,0,0
226294,-100,4,1,0,80,0,0
233354,-100,4,1,0,80,0,0
233433,-99.717079263924,4,1,0,80,0,0
233513,-99.434958969277,4,1,0,80,0,0
233592,-99.1536368514442,4,1,0,80,0,0
233671,-98.873110652218,4,1,0,80,0,0
233751,-98.5933781197795,4,1,0,80,0,0
233830,-98.3144370086808,4,1,0,80,0,0
233910,-98.0362850798268,4,1,0,80,0,0
233989,-97.7589201004574,4,1,0,80,0,0
234068,-97.4823398441292,4,1,0,80,0,0
234148,-97.2065420906981,4,1,0,80,0,0
234227,-96.931524626301,4,1,0,80,0,0
234306,-96.6572852433386,4,1,0,80,0,0
234386,-96.3838217404571,4,1,0,80,0,0
234465,-96.1111319225308,4,1,0,80,0,0
234544,-95.8392136006446,4,1,0,80,0,0
234624,-95.5680645920761,4,1,0,80,0,0
234703,-95.2976827202786,4,1,0,80,0,0
234783,-95.0280658148631,4,1,0,80,0,0
234862,-94.7592117115808,4,1,0,80,0,0
234941,-94.4911182523066,4,1,0,80,0,0
235021,-94.2237832850207,4,1,0,80,0,0
235100,-93.9572046637921,4,1,0,80,0,0
235179,-93.6913802487608,4,1,0,80,0,0
235259,-93.4263079061213,4,1,0,80,0,0
235338,-93.1619855081046,4,1,0,80,0,0
235417,-92.8984109329621,4,1,0,80,0,0
235497,-92.6355820649476,4,1,0,80,0,0
235576,-92.3734967943011,4,1,0,80,0,0
235656,-92.1121530172315,4,1,0,80,0,0
235735,-91.8515486358997,4,1,0,80,0,0
235814,-91.5916815584018,4,1,0,80,0,0
235894,-91.3325496987524,4,1,0,80,0,0
235973,-91.0741509768677,4,1,0,80,0,0
236052,-90.8164833185489,4,1,0,80,0,0
236132,-90.5595446554658,4,1,0,80,0,0
236211,-90.3033329251394,4,1,0,80,0,0
236291,-90.0478460709265,4,1,0,80,0,0
236370,-89.793082042002,4,1,0,80,0,0
236449,-89.5390387933434,4,1,0,80,0,0
236529,-89.2857142857143,4,1,0,80,0,0
236608,-89.5913270918668,4,1,0,80,0,0
236688,-89.897985968917,4,1,0,80,0,0
236767,-90.2056944974225,4,1,0,80,0,0
236846,-90.514456270197,4,1,0,80,0,0
236926,-90.8242748923518,4,1,0,80,0,0
237005,-91.135153981338,4,1,0,80,0,0
237085,-91.4470971669887,4,1,0,80,0,0
237164,-91.7601080915614,4,1,0,80,0,0
237243,-92.0741904097807,4,1,0,80,0,0
237323,-92.3893477888807,4,1,0,80,0,0
237402,-92.705583908648,4,1,0,80,0,0
237481,-93.0229024614645,4,1,0,80,0,0
237561,-93.3413071523508,4,1,0,80,0,0
237640,-93.6608016990091,4,1,0,80,0,0
237719,-93.9813898318669,4,1,0,80,0,0
237799,-94.3030752941203,4,1,0,80,0,0
237878,-94.6258618417782,4,1,0,80,0,0
237958,-94.9497532437054,4,1,0,80,0,0
238037,-95.2747532816672,4,1,0,80,0,0
238116,-95.6008657503732,4,1,0,80,0,0
238196,-95.9280944575222,4,1,0,80,0,0
238275,-96.2564432238458,4,1,0,80,0,0
238354,-96.5859158831534,4,1,0,80,0,0
238434,-96.9165162823775,4,1,0,80,0,0
238513,-97.2482482816177,4,1,0,80,0,0
238592,-97.5811157541863,4,1,0,80,0,0
238672,-97.9151225866534,4,1,0,80,0,0
238751,-98.2502726788923,4,1,0,80,0,0
238831,-98.5865699441252,4,1,0,80,0,0
238910,-98.9240183089685,4,1,0,80,0,0
238989,-99.2626217134789,4,1,0,80,0,0
239069,-99.6023841111996,4,1,0,80,0,0
239148,-99.9433094692059,4,1,0,80,0,0
239227,-100.285401768152,4,1,0,80,0,0
239307,-100.628665002318,4,1,0,80,0,0
239386,-100.973103179654,4,1,0,80,0,0
239466,-101.318720321831,4,1,0,80,0,0
239545,-101.665520464285,4,1,0,80,0,0
239624,-102.013507656263,4,1,0,80,0,0
239704,-102.362685960874,4,1,0,80,0,0
239783,-102.713059455134,4,1,0,80,0,0
239862,-103.064632230015,4,1,0,80,0,0
239942,-103.417408390489,4,1,0,80,0,0
240021,-103.771392055581,4,1,0,80,0,0
240100,-104.126587358415,4,1,0,80,0,0
240180,-104.482998446261,4,1,0,80,0,0
240259,-104.840629480585,4,1,0,80,0,0
240339,-105.199484637098,4,1,0,80,0,0
240418,-105.559568105803,4,1,0,80,0,0
240497,-105.920884091043,4,1,0,80,0,0
240577,-106.283436811556,4,1,0,80,0,0
240656,-106.647230500517,4,1,0,80,0,0
240735,-107.012269405592,4,1,0,80,0,0
240815,-107.378557788985,4,1,0,80,0,0
240894,-107.74609992749,4,1,0,80,0,0
240973,-108.114900112539,4,1,0,80,0,0
241053,-108.484962650254,4,1,0,80,0,0
241132,-108.856291861496,4,1,0,80,0,0
241212,-109.228892081916,4,1,0,80,0,0
241291,-109.602767662003,4,1,0,80,0,0
241370,-109.977922967141,4,1,0,80,0,0
241450,-110.354362377652,4,1,0,80,0,0
241529,-110.732090288855,4,1,0,80,0,0
241608,-111.111111111111,4,1,0,80,0,0
245735,-111.111111111111,4,1,0,80,0,0
245814,-110.139821005034,4,1,0,80,0,0
245894,-109.177021539188,4,1,0,80,0,0
245973,-108.2226384917,4,1,0,80,0,0
246052,-107.276598289514,4,1,0,80,0,0
246132,-106.338828002724,4,1,0,80,0,0
246211,-105.409255338946,4,1,0,80,0,0
246291,-104.487808637749,4,1,0,80,0,0
246370,-103.574416865129,4,1,0,80,0,0
246449,-102.669009608034,4,1,0,80,0,0
246529,-101.771517068937,4,1,0,80,0,0
246608,-100.881870060451,4,1,0,80,0,0
246687,-100,4,1,0,80,0,0
255656,-91.4522421606034,4,1,0,60,0,0
255736,-91.9986385582181,4,1,0,60,0,0
255815,-92.5482994905919,4,1,0,60,0,0
255894,-93.1012444622223,4,1,0,60,0,0
255974,-93.6574930941396,4,1,0,60,0,0
256053,-94.2170651246033,4,1,0,60,0,0
256133,-94.7799804098022,4,1,0,60,0,0
256212,-95.3462589245592,4,1,0,60,0,0
256291,-95.9159207630402,4,1,0,60,0,0
256371,-96.4889861394669,4,1,0,60,0,0
256450,-97.0654753888339,4,1,0,60,0,0
256529,-97.6454089676311,4,1,0,60,0,0
256609,-98.2288074545685,4,1,0,60,0,0
256688,-98.8156915513073,4,1,0,60,0,0
256767,-99.4060820831941,4,1,0,80,0,0
256847,-100,4,1,0,80,0,0
273278,-90.9090909090909,4,1,0,80,0,0
273437,-100,4,1,0,80,0,0
274389,-90.9090909090909,4,1,0,80,0,0
274548,-100,4,1,0,80,0,0
275024,-90.9090909090909,4,1,0,80,0,0
275183,-100,4,1,0,80,0,0
275659,-90.9090909090909,4,1,0,80,0,0
275818,-100,4,1,0,80,0,0
276135,-90.9090909090909,4,1,0,80,0,0
276294,-100,4,1,0,80,0,0
277164,-90.9090909090909,4,1,0,80,0,0
277243,-91.3265335487521,4,1,0,80,0,0
277323,-91.7458930303448,4,1,0,79,0,0
277402,-92.1671781557561,4,1,0,79,0,0
277481,-92.5903977672903,4,1,0,79,0,0
277561,-93.0155607478541,4,1,0,78,0,0
277640,-93.4426760211438,4,1,0,78,0,0
277720,-93.8717525518318,4,1,0,78,0,0
277799,-94.3027993457553,4,1,0,78,0,0
277878,-94.735825450105,4,1,0,77,0,0
277958,-95.1708399536152,4,1,0,77,0,0
278037,-95.6078519867543,4,1,0,77,0,0
278116,-96.0468707219169,4,1,0,76,0,0
278196,-96.4879053736158,4,1,0,76,0,0
278275,-96.9309651986758,4,1,0,76,0,0
278354,-97.3760594964277,4,1,0,75,0,0
278434,-97.8231976089037,4,1,0,75,0,0
278513,-98.2723889210333,4,1,0,75,0,0
278593,-98.7236428608404,4,1,0,74,0,0
278672,-99.1769688996413,4,1,0,74,0,0
278751,-99.632376552243,4,1,0,74,0,0
278831,-100.089875377144,4,1,0,73,0,0
278910,-100.549474976732,4,1,0,73,0,0
278989,-101.011184997492,4,1,0,73,0,0
279069,-101.475015130199,4,1,0,73,0,0
279148,-101.940975110131,4,1,0,72,0,0
279227,-102.409074717266,4,1,0,72,0,0
279307,-102.879323776494,4,1,0,72,0,0
279386,-103.351732157816,4,1,0,71,0,0
279466,-103.826309776557,4,1,0,71,0,0
279545,-104.30306659357,4,1,0,71,0,0
279624,-104.78201261545,4,1,0,70,0,0
279704,-105.263157894737,4,1,0,70,0,0
282243,-105.263157894737,4,1,0,80,0,0
282322,-105.022309717833,4,1,0,80,0,0
282402,-104.78201261545,4,1,0,80,0,0
282481,-104.542265326697,4,1,0,80,0,0
282560,-104.30306659357,4,1,0,80,0,0
282640,-104.064415160942,4,1,0,80,0,0
282719,-103.826309776557,4,1,0,80,0,0
282799,-103.588749191025,4,1,0,80,0,0
282878,-103.351732157816,4,1,0,80,0,0
282957,-103.11525743325,4,1,0,80,0,0
283037,-102.879323776494,4,1,0,80,0,0
283116,-102.643929949553,4,1,0,80,0,0
283195,-102.409074717266,4,1,0,80,0,0
283275,-102.174756847297,4,1,0,80,0,0
283354,-101.94097511013,4,1,0,80,0,0
283433,-101.707728279063,4,1,0,80,0,0
283513,-101.475015130199,4,1,0,80,0,0
283592,-101.242834442442,4,1,0,80,0,0
283672,-101.011184997491,4,1,0,80,0,0
283751,-100.780065579832,4,1,0,80,0,0
283830,-100.549474976732,4,1,0,80,0,0
283910,-100.319411978232,4,1,0,80,0,0
283989,-100.089875377143,4,1,0,80,0,0
284068,-99.8608639690374,4,1,0,80,0,0
284148,-99.6323765522428,4,1,0,80,0,0
284227,-99.404411927837,4,1,0,80,0,0
284306,-99.176968899641,4,1,0,80,0,0
284386,-98.9500462742126,4,1,0,80,0,0
284465,-98.7236428608402,4,1,0,80,0,0
284545,-98.4977574715367,4,1,0,80,0,0
284624,-98.2723889210331,4,1,0,80,0,0
284703,-98.0475360267724,4,1,0,80,0,0
284783,-97.8231976089035,4,1,0,80,0,0
284862,-97.5993724902746,4,1,0,80,0,0
284941,-97.3760594964275,4,1,0,80,0,0
285021,-97.1532574555911,4,1,0,80,0,0
285100,-96.9309651986756,4,1,0,80,0,0
285180,-96.7091815592658,4,1,0,80,0,0
285259,-96.4879053736155,4,1,0,80,0,0
285338,-96.2671354806414,4,1,0,80,0,0
285418,-96.0468707219166,4,1,0,80,0,0
285497,-95.8271099416647,4,1,0,80,0,0
285576,-95.607851986754,4,1,0,80,0,0
285656,-95.389095706691,4,1,0,80,0,0
285735,-95.1708399536148,4,1,0,80,0,0
285814,-94.9530835822908,4,1,0,80,0,0
285894,-94.7358254501047,4,1,0,80,0,0
285973,-94.5190644170566,4,1,0,60,0,0
286053,-94.302799345755,4,1,0,60,0,0
286132,-94.0870291014108,4,1,0,60,0,0
286211,-93.8717525518315,4,1,0,60,0,0
286291,-93.6569685674149,4,1,0,60,0,0
286370,-93.4426760211434,4,1,0,60,0,0
286449,-93.2288737885784,4,1,0,60,0,0
286529,-93.0155607478537,4,1,0,60,0,0
286608,-92.8027357796703,4,1,0,60,0,0
286687,-92.5903977672899,4,1,0,60,0,0
286767,-92.3785455965295,4,1,0,60,0,0
286846,-92.1671781557557,4,1,0,60,0,0
286926,-91.9562943358782,4,1,0,60,0,0
286968,-91.9562943358782,4,1,0,100,0,0
287005,-91.7458930303444,4,1,0,100,0,0
287084,-91.5359731351338,4,1,0,100,0,0
287164,-91.3265335487517,4,1,0,90,0,0
287243,-91.1175731722239,4,1,0,90,0,0
287326,-90.9090909090905,4,1,0,90,0,1
297167,-90.9090909090905,4,1,0,90,0,0
297484,-90.9090909090905,4,1,0,90,0,1
307643,-90.9090909090905,4,1,0,90,0,0
307802,-102.040816326531,4,1,0,70,0,0
309865,-111.111111111111,4,1,0,70,0,0
311294,-100,4,1,0,80,0,0
312722,-90.9090909090905,4,1,0,90,0,1
324151,-90.9090909090905,4,1,0,90,0,0
324465,-98.0392156862745,4,1,0,90,0,0
324544,-97.4242606858657,4,1,0,90,0,0
324624,-96.8131630159126,4,1,0,90,0,0
324703,-96.2058984811519,4,1,0,90,0,0
324782,-95.6024430380858,4,1,0,90,0,0
324862,-95.0027727940306,4,1,0,90,0,0
324941,-94.4068640061701,4,1,0,90,0,0
325021,-93.8146930806163,4,1,0,90,0,0
325100,-93.2262365714745,4,1,0,90,0,0
325179,-92.6414711799154,4,1,0,90,0,0
325259,-92.0603737532528,4,1,0,90,0,0
325338,-91.4829212840263,4,1,0,90,0,0
325421,-90.9090909090905,4,1,0,90,0,1
345738,-90.9090909090905,4,1,0,90,0,0
345814,-91.2899445957116,4,1,0,80,0,0
345894,-91.672393827169,4,1,0,80,0,0
345973,-92.0564452878236,4,1,0,80,0,0
346052,-92.4421056900393,4,1,0,80,0,0
346132,-92.8293817743006,4,1,0,80,0,0
346211,-93.2182803093306,4,1,0,80,0,0
346291,-93.6088080922094,4,1,0,80,0,0
346370,-94.0009719484923,4,1,0,80,0,0
346449,-94.3947787323299,4,1,0,80,0,0
346529,-94.7902353265873,4,1,0,80,0,0
346608,-95.1873486429648,4,1,0,80,0,0
346687,-95.5861256221183,4,1,0,80,0,0
346767,-95.986573233781,4,1,0,80,0,0
346846,-96.3886984768848,4,1,0,80,0,0
346925,-96.7925083796832,4,1,0,80,0,0
347005,-97.1980099998735,4,1,0,80,0,0
347084,-97.6052104247206,4,1,0,80,0,0
347164,-98.0141167711807,4,1,0,80,0,0
347243,-98.4247361860256,4,1,0,80,0,0
347322,-98.8370758459678,4,1,0,80,0,0
347402,-99.251142957786,4,1,0,80,0,0
347481,-99.6669447584507,4,1,0,80,0,0
347560,-100.084488515251,4,1,0,80,0,0
347640,-100.503781525921,4,1,0,80,0,0
347719,-100.924831118769,4,1,0,80,0,0
347798,-101.347644652804,4,1,0,80,0,0
347878,-101.772229517864,4,1,0,80,0,0
347957,-102.198593134746,4,1,0,80,0,0
348037,-102.626742955337,4,1,0,80,0,0
348116,-103.056686462742,4,1,0,80,0,0
348195,-103.488431171414,4,1,0,80,0,0
348275,-103.921984627291,4,1,0,80,0,0
348354,-104.357354407919,4,1,0,80,0,0
348433,-104.794548122594,4,1,0,80,0,0
348513,-105.233573412487,4,1,0,80,0,0
348592,-105.674437950781,4,1,0,80,0,0
348672,-106.117149442807,4,1,0,80,0,0
348751,-106.561715626176,4,1,0,80,0,0
348830,-107.008144270913,4,1,0,80,0,0
348910,-107.456443179598,4,1,0,80,0,0
348989,-107.906620187495,4,1,0,80,0,0
349068,-108.358683162696,4,1,0,80,0,0
349148,-108.812640006254,4,1,0,80,0,0
349227,-109.268498652325,4,1,0,80,0,0
349306,-109.7262670683,4,1,0,80,0,0
349386,-110.185953254953,4,1,0,80,0,0
349465,-110.647565246574,4,1,0,80,0,0
349545,-111.111111111111,4,1,0,80,0,0
355341,-105.263157894737,4,1,0,80,0,0
355500,-103.896103896104,4,1,0,80,0,0
355818,-100,4,1,0,80,0,0
365976,-105.263157894737,4,1,0,80,0,0
374786,-105.263157894737,4,1,0,60,0,0
376056,-111.111111111111,4,1,0,80,0,0
383831,-111.111111111111,4,1,0,80,0,0
383990,-110.381844620402,4,1,0,80,0,0
384148,-109.657364596222,4,1,0,80,0,0
384307,-108.937639623087,4,1,0,80,0,0
384466,-108.2226384917,4,1,0,80,0,0
384625,-107.512330197606,4,1,0,80,0,0
384783,-106.806683939845,4,1,0,80,0,0
384942,-106.105669119615,4,1,0,60,0,0
385101,-105.409255338946,4,1,0,60,0,0
385260,-104.717412399382,4,1,0,60,0,0
385418,-104.030110300672,4,1,0,60,0,0
385577,-103.347319239468,4,1,0,60,0,0
385736,-102.669009608034,4,1,0,60,0,0
385894,-101.995151992961,4,1,0,60,0,0
386053,-101.325717173891,4,1,0,60,0,0
386212,-100.660676122253,4,1,0,60,0,0
386294,-100.660676122253,4,1,0,80,0,0
386371,-100,4,1,0,80,0,0

[HitObjects]
256,192,342,5,4,0:0:0:0:
256,192,659,1,8,0:0:0:0:
256,192,976,1,0,0:0:0:0:
256,192,1135,1,0,0:0:0:0:
256,192,1294,1,8,0:0:0:0:
256,192,1611,1,0,0:0:0:0:
256,192,1929,1,8,0:0:0:0:
256,192,2246,1,0,0:0:0:0:
256,192,2405,1,8,0:0:0:0:
256,192,2564,1,8,0:0:0:0:
256,192,2881,1,0,0:0:0:0:
256,192,3199,1,8,0:0:0:0:
256,192,3516,1,0,0:0:0:0:
256,192,3675,1,0,0:0:0:0:
256,192,3834,1,8,0:0:0:0:
256,192,4151,1,0,0:0:0:0:
256,192,4468,1,8,0:0:0:0:
256,192,4786,1,0,0:0:0:0:
256,192,4945,1,8,0:0:0:0:
256,192,5103,1,8,0:0:0:0:
256,192,5421,1,0,0:0:0:0:
256,192,5738,1,8,0:0:0:0:
256,192,6056,1,0,0:0:0:0:
256,192,6215,1,0,0:0:0:0:
256,192,6373,1,8,0:0:0:0:
256,192,6691,1,0,0:0:0:0:
256,192,7008,1,8,0:0:0:0:
256,192,7326,1,0,0:0:0:0:
256,192,7484,1,8,0:0:0:0:
256,192,7643,1,8,0:0:0:0:
256,192,7961,1,0,0:0:0:0:
256,192,8278,1,8,0:0:0:0:
256,192,8595,1,0,0:0:0:0:
256,192,8754,1,0,0:0:0:0:
256,192,8913,1,8,0:0:0:0:
256,192,9230,1,0,0:0:0:0:
256,192,9548,1,8,0:0:0:0:
256,192,10024,1,0,0:0:0:0:
256,192,10183,1,8,0:0:0:0:
256,192,10500,1,4,0:0:0:0:
256,192,10818,1,8,0:0:0:0:
256,192,10976,1,8,0:0:0:0:
256,192,11056,1,8,0:0:0:0:
256,192,11135,1,0,0:0:0:0:
256,192,11294,1,0,0:0:0:0:
256,192,11453,1,8,0:0:0:0:
256,192,11691,1,8,0:0:0:0:
256,192,11770,1,0,0:0:0:0:
256,192,11929,1,0,0:0:0:0:
256,192,12088,1,8,0:0:0:0:
256,192,12246,1,0,0:0:0:0:
256,192,12326,1,8,0:0:0:0:
256,192,12405,1,0,0:0:0:0:
256,192,12564,1,8,0:0:0:0:
256,192,12722,1,8,0:0:0:0:
256,192,13040,1,0,0:0:0:0:
256,192,13199,1,0,0:0:0:0:
256,192,13357,1,8,0:0:0:0:
256,192,13516,1,8,0:0:0:0:
256,192,13595,1,8,0:0:0:0:
256,192,13675,1,0,0:0:0:0:
256,192,13834,1,0,0:0:0:0:
256,192,13992,1,8,0:0:0:0:
256,192,14230,1,8,0:0:0:0:
256,192,14310,1,0,0:0:0:0:
256,192,14468,1,0,0:0:0:0:
256,192,14548,1,0,0:0:0:0:
256,192,14627,1,8,0:0:0:0:
256,192,14786,1,8,0:0:0:0:
256,192,14945,1,0,0:0:0:0:
256,192,15103,1,8,0:0:0:0:
256,192,15262,1,8,0:0:0:0:
256,192,15580,1,0,0:0:0:0:
256,192,15738,1,0,0:0:0:0:
256,192,15897,1,8,0:0:0:0:
256,192,16056,1,8,0:0:0:0:
256,192,16135,1,8,0:0:0:0:
256,192,16215,1,0,0:0:0:0:
256,192,16373,1,0,0:0:0:0:
256,192,16532,1,8,0:0:0:0:
256,192,16770,1,8,0:0:0:0:
256,192,16849,1,0,0:0:0:0:
256,192,17008,1,0,0:0:0:0:
256,192,17167,1,8,0:0:0:0:
256,192,17326,1,0,0:0:0:0:
256,192,17405,1,8,0:0:0:0:
256,192,17484,1,0,0:0:0:0:
256,192,17643,1,8,0:0:0:0:
256,192,17802,1,8,0:0:0:0:
256,192,18119,1,0,0:0:0:0:
256,192,18278,1,0,0:0:0:0:
256,192,18437,1,8,0:0:0:0:
256,192,18595,1,8,0:0:0:0:
256,192,18754,1,0,0:0:0:0:
256,192,18913,1,0,0:0:0:0:
256,192,19072,1,8,0:0:0:0:
256,192,19389,1,0,0:0:0:0:
256,192,19548,1,0,0:0:0:0:
256,192,19707,1,8,0:0:0:0:
256,192,19865,1,8,0:0:0:0:
256,192,20183,1,0,0:0:0:0:
256,192,20341,1,8,0:0:0:0:
256,192,20659,1,4,0:0:0:0:
256,192,28278,12,0,30341,0:0:0:0:
256,192,30500,5,8,0:0:0:0:
256,192,30659,1,8,0:0:0:0:
256,192,30818,1,4,0:0:0:0:
256,192,30976,1,8,0:0:0:0:
256,192,31294,1,8,0:0:0:0:
256,192,31611,1,0,0:0:0:0:
256,192,31929,1,0,0:0:0:0:
256,192,32246,1,8,0:0:0:0:
256,192,32564,1,8,0:0:0:0:
256,192,32881,1,0,0:0:0:0:
256,192,33199,1,0,0:0:0:0:
256,192,33516,1,8,0:0:0:0:
256,192,33834,1,0,0:0:0:0:
256,192,34151,1,8,0:0:0:0:
256,192,34468,1,0,0:0:0:0:
256,192,34786,1,8,0:0:0:0:
256,192,35103,1,8,0:0:0:0:
256,192,35421,1,0,0:0:0:0:
256,192,35738,1,0,0:0:0:0:
256,192,36056,1,8,0:0:0:0:
256,192,36373,1,0,0:0:0:0:
256,192,36691,1,8,0:0:0:0:
256,192,37008,1,0,0:0:0:0:
256,192,37326,1,8,0:0:0:0:
256,192,37643,1,8,0:0:0:0:
256,192,37961,1,0,0:0:0:0:
256,192,38278,1,0,0:0:0:0:
256,192,38595,1,8,0:0:0:0:
256,192,38913,1,0,0:0:0:0:
256,192,39230,1,8,0:0:0:0:
256,192,39548,1,0,0:0:0:0:
256,192,39865,1,8,0:0:0:0:
256,192,40183,1,8,0:0:0:0:
256,192,40500,1,8,0:0:0:0:
256,192,40659,1,4,0:0:0:0:
256,192,40976,1,4,0:0:0:0:
256,192,41135,1,8,0:0:0:0:
256,192,41453,1,8,0:0:0:0:
256,192,41770,1,0,0:0:0:0:
256,192,42088,1,0,0:0:0:0:
256,192,42405,1,8,0:0:0:0:
256,192,42722,1,0,0:0:0:0:
256,192,43040,1,8,0:0:0:0:
256,192,43357,1,8,0:0:0:0:
256,192,43516,1,4,0:0:0:0:
256,192,43675,1,8,0:0:0:0:
256,192,43992,1,8,0:0:0:0:
256,192,44310,1,0,0:0:0:0:
256,192,44627,1,0,0:0:0:0:
256,192,44945,1,8,0:0:0:0:
256,192,45262,1,8,0:0:0:0:
256,192,45580,1,0,0:0:0:0:
256,192,45897,1,8,0:0:0:0:
256,192,46056,1,4,0:0:0:0:
256,192,46215,1,8,0:0:0:0:
256,192,46532,1,8,0:0:0:0:
256,192,46849,1,8,0:0:0:0:
256,192,47167,1,8,0:0:0:0:
256,192,47326,1,4,0:0:0:0:
256,192,47484,1,8,0:0:0:0:
256,192,47802,1,8,0:0:0:0:
256,192,48119,1,8,0:0:0:0:
256,192,48437,1,8,0:0:0:0:
256,192,48595,1,4,0:0:0:0:
256,192,49230,1,4,0:0:0:0:
256,192,49865,1,4,0:0:0:0:
256,192,50183,1,4,0:0:0:0:
256,192,50500,1,8,0:0:0:0:
256,192,50659,1,0,0:0:0:0:
256,192,50818,1,8,0:0:0:0:
256,192,50897,1,8,0:0:0:0:
256,192,50976,1,8,0:0:0:0:
259,192,51135,5,4,0:0:0:0:
259,192,51453,1,8,0:0:0:0:
259,192,51929,1,0,0:0:0:0:
259,192,52088,1,8,0:0:0:0:
259,192,52405,1,0,0:0:0:0:
259,192,52722,1,8,0:0:0:0:
259,192,52881,1,0,0:0:0:0:
259,192,53199,1,0,0:0:0:0:
259,192,53357,1,8,0:0:0:0:
259,192,53675,1,0,0:0:0:0:
259,192,53992,1,8,0:0:0:0:
259,192,54468,1,0,0:0:0:0:
259,192,54627,1,8,0:0:0:0:
259,192,54945,1,0,0:0:0:0:
259,192,55262,1,8,0:0:0:0:
259,192,55421,1,0,0:0:0:0:
259,192,55738,1,0,0:0:0:0:
259,192,55897,1,8,0:0:0:0:
259,192,56056,1,8,0:0:0:0:
259,192,56215,1,0,0:0:0:0:
259,192,56532,1,8,0:0:0:0:
259,192,57008,1,0,0:0:0:0:
259,192,57167,1,8,0:0:0:0:
259,192,57484,1,0,0:0:0:0:
259,192,57802,1,8,0:0:0:0:
259,192,57961,1,0,0:0:0:0:
259,192,58278,1,0,0:0:0:0:
259,192,58437,1,8,0:0:0:0:
259,192,58754,1,0,0:0:0:0:
259,192,59072,1,8,0:0:0:0:
259,192,59389,1,0,0:0:0:0:
259,192,59548,1,0,0:0:0:0:
259,192,59707,1,8,0:0:0:0:
259,192,60024,1,0,0:0:0:0:
259,192,60341,1,8,0:0:0:0:
259,192,60421,1,8,0:0:0:0:
259,192,60500,1,8,0:0:0:0:
259,192,60659,1,0,0:0:0:0:
259,192,60818,1,8,0:0:0:0:
259,192,60976,1,0,0:0:0:0:
259,192,61029,1,0,0:0:0:0:
259,192,61082,1,0,0:0:0:0:
259,192,61135,1,8,0:0:0:0:
259,192,61294,5,4,0:0:0:0:
259,192,61532,1,8,0:0:0:0:
259,192,61611,1,0,0:0:0:0:
259,192,61770,1,8,0:0:0:0:
259,192,61849,1,8,0:0:0:0:
259,192,61929,1,0,0:0:0:0:
259,192,62088,1,8,0:0:0:0:
259,192,62246,1,0,0:0:0:0:
259,192,62326,1,0,0:0:0:0:
259,192,62405,1,8,0:0:0:0:
259,192,62564,1,0,0:0:0:0:
259,192,62722,1,8,0:0:0:0:
259,192,62802,1,8,0:0:0:0:
259,192,62881,1,0,0:0:0:0:
259,192,62961,1,0,0:0:0:0:
259,192,63040,1,8,0:0:0:0:
259,192,63199,1,0,0:0:0:0:
259,192,63357,1,8,0:0:0:0:
259,192,63437,1,0,0:0:0:0:
259,192,63516,1,0,0:0:0:0:
259,192,63595,1,0,0:0:0:0:
259,192,63675,1,8,0:0:0:0:
259,192,63834,1,0,0:0:0:0:
259,192,63992,1,8,0:0:0:0:
259,192,64072,1,8,0:0:0:0:
259,192,64151,1,0,0:0:0:0:
259,192,64310,1,8,0:0:0:0:
259,192,64468,1,0,0:0:0:0:
259,192,64627,1,8,0:0:0:0:
259,192,64707,1,8,0:0:0:0:
259,192,64786,1,0,0:0:0:0:
259,192,64865,1,0,0:0:0:0:
259,192,64945,1,8,0:0:0:0:
259,192,65103,1,0,0:0:0:0:
259,192,65183,1,0,0:0:0:0:
259,192,65262,1,8,0:0:0:0:
259,192,65421,1,0,0:0:0:0:
259,192,65580,1,8,0:0:0:0:
259,192,65738,1,0,0:0:0:0:
259,192,65818,1,0,0:0:0:0:
259,192,65897,1,8,0:0:0:0:
259,192,65976,1,8,0:0:0:0:
259,192,66056,1,0,0:0:0:0:
259,192,66215,1,8,0:0:0:0:
259,192,66373,5,0,0:0:0:0:
259,192,66611,1,8,0:0:0:0:
259,192,66691,1,0,0:0:0:0:
259,192,66849,1,8,0:0:0:0:
259,192,67008,1,0,0:0:0:0:
259,192,67167,1,8,0:0:0:0:
259,192,67246,1,8,0:0:0:0:
259,192,67326,1,0,0:0:0:0:
259,192,67405,1,0,0:0:0:0:
259,192,67484,1,8,0:0:0:0:
259,192,67643,1,0,0:0:0:0:
259,192,67802,1,8,0:0:0:0:
259,192,67881,1,8,0:0:0:0:
259,192,67961,1,0,0:0:0:0:
259,192,68119,1,8,0:0:0:0:
259,192,68278,1,0,0:0:0:0:
259,192,68437,1,8,0:0:0:0:
259,192,68516,1,0,0:0:0:0:
259,192,68595,1,0,0:0:0:0:
259,192,68675,1,0,0:0:0:0:
259,192,68754,1,8,0:0:0:0:
259,192,68834,1,8,0:0:0:0:
259,192,68913,1,0,0:0:0:0:
259,192,69072,1,8,0:0:0:0:
259,192,69151,1,8,0:0:0:0:
259,192,69230,1,0,0:0:0:0:
259,192,69389,1,8,0:0:0:0:
259,192,69548,1,0,0:0:0:0:
259,192,69707,1,8,0:0:0:0:
259,192,69786,1,8,0:0:0:0:
259,192,69865,1,0,0:0:0:0:
259,192,69945,1,0,0:0:0:0:
259,192,70024,1,8,0:0:0:0:
259,192,70183,1,0,0:0:0:0:
259,192,70341,1,8,0:0:0:0:
259,192,70421,1,8,0:0:0:0:
259,192,70500,1,0,0:0:0:0:
259,192,70659,1,8,0:0:0:0:
259,192,70818,1,0,0:0:0:0:
259,192,70976,1,0,0:0:0:0:
259,192,71135,1,8,0:0:0:0:
259,192,71453,5,4,0:0:0:0:
259,192,71691,1,8,0:0:0:0:
259,192,71770,1,0,0:0:0:0:
259,192,71929,1,8,0:0:0:0:
259,192,72008,1,0,0:0:0:0:
259,192,72088,1,0,0:0:0:0:
259,192,72246,1,8,0:0:0:0:
259,192,72326,1,8,0:0:0:0:
259,192,72405,1,0,0:0:0:0:
259,192,72564,1,8,0:0:0:0:
259,192,72722,1,0,0:0:0:0:
259,192,72881,1,8,0:0:0:0:
259,192,72961,1,8,0:0:0:0:
259,192,73040,1,0,0:0:0:0:
259,192,73119,1,0,0:0:0:0:
259,192,73199,1,8,0:0:0:0:
259,192,73357,1,0,0:0:0:0:
259,192,73516,1,8,0:0:0:0:
259,192,73595,1,0,0:0:0:0:
259,192,73675,1,0,0:0:0:0:
259,192,73754,1,0,0:0:0:0:
259,192,73834,1,8,0:0:0:0:
259,192,73992,1,0,0:0:0:0:
259,192,74151,1,8,0:0:0:0:
259,192,74230,1,8,0:0:0:0:
259,192,74310,1,0,0:0:0:0:
259,192,74468,1,8,0:0:0:0:
259,192,74627,1,0,0:0:0:0:
259,192,74707,1,0,0:0:0:0:
259,192,74786,1,8,0:0:0:0:
259,192,74865,1,8,0:0:0:0:
259,192,74945,1,0,0:0:0:0:
259,192,75103,1,8,0:0:0:0:
259,192,75262,1,0,0:0:0:0:
259,192,75421,1,8,0:0:0:0:
259,192,75500,1,8,0:0:0:0:
259,192,75580,1,0,0:0:0:0:
259,192,75738,1,8,0:0:0:0:
259,192,75897,1,0,0:0:0:0:
259,192,75976,1,0,0:0:0:0:
259,192,76056,1,8,0:0:0:0:
259,192,76215,1,0,0:0:0:0:
259,192,76373,1,8,0:0:0:0:
259,192,76532,5,0,0:0:0:0:
259,192,76770,1,8,0:0:0:0:
259,192,76849,1,0,0:0:0:0:
259,192,77008,1,8,0:0:0:0:
259,192,77167,1,0,0:0:0:0:
259,192,77326,1,8,0:0:0:0:
259,192,77405,1,8,0:0:0:0:
259,192,77484,1,0,0:0:0:0:
259,192,77564,1,0,0:0:0:0:
259,192,77643,1,8,0:0:0:0:
259,192,77802,1,0,0:0:0:0:
259,192,77961,1,8,0:0:0:0:
259,192,78040,1,0,0:0:0:0:
259,192,78119,1,8,0:0:0:0:
259,192,78199,1,8,0:0:0:0:
259,192,78278,1,0,0:0:0:0:
259,192,78437,1,8,0:0:0:0:
259,192,78595,1,0,0:0:0:0:
259,192,78675,1,0,0:0:0:0:
259,192,78754,1,8,0:0:0:0:
259,192,78834,1,0,0:0:0:0:
259,192,78913,1,8,0:0:0:0:
259,192,79072,1,0,0:0:0:0:
259,192,79310,1,8,0:0:0:0:
259,192,79389,1,0,0:0:0:0:
259,192,79548,1,8,0:0:0:0:
259,192,79707,1,0,0:0:0:0:
259,192,79865,1,8,0:0:0:0:
259,192,79945,1,8,0:0:0:0:
259,192,80024,1,0,0:0:0:0:
259,192,80103,1,0,0:0:0:0:
259,192,80183,1,8,0:0:0:0:
259,192,80341,1,0,0:0:0:0:
259,192,80500,1,8,0:0:0:0:
259,192,80580,1,8,0:0:0:0:
259,192,80659,1,0,0:0:0:0:
259,192,80818,1,8,0:0:0:0:
259,192,80897,1,0,0:0:0:0:
259,192,80976,1,0,0:0:0:0:
259,192,81135,1,0,0:0:0:0:
259,192,81294,1,8,0:0:0:0:
259,192,81611,1,4,0:0:0:0:
259,192,81849,1,8,0:0:0:0:
259,192,81929,1,0,0:0:0:0:
259,192,82088,1,8,0:0:0:0:
259,192,82246,1,0,0:0:0:0:
259,192,82326,1,0,0:0:0:0:
259,192,82405,1,8,0:0:0:0:
259,192,82484,1,8,0:0:0:0:
259,192,82564,1,0,0:0:0:0:
259,192,82722,1,8,0:0:0:0:
259,192,82881,1,0,0:0:0:0:
259,192,83040,1,8,0:0:0:0:
259,192,83119,1,8,0:0:0:0:
259,192,83199,1,0,0:0:0:0:
259,192,83278,1,0,0:0:0:0:
259,192,83357,1,8,0:0:0:0:
259,192,83516,1,0,0:0:0:0:
259,192,83595,1,0,0:0:0:0:
259,192,83675,1,8,0:0:0:0:
259,192,83834,1,0,0:0:0:0:
259,192,83992,1,8,0:0:0:0:
259,192,84151,1,0,0:0:0:0:
259,192,84310,1,8,0:0:0:0:
259,192,84389,1,8,0:0:0:0:
259,192,84468,1,0,0:0:0:0:
259,192,84627,1,8,0:0:0:0:
259,192,84786,1,0,0:0:0:0:
259,192,84865,1,8,0:0:0:0:
259,192,84945,1,0,0:0:0:0:
259,192,85024,1,0,0:0:0:0:
259,192,85103,1,8,0:0:0:0:
259,192,85183,1,8,0:0:0:0:
259,192,85262,1,0,0:0:0:0:
259,192,85421,1,8,0:0:0:0:
259,192,85580,1,0,0:0:0:0:
259,192,85659,1,0,0:0:0:0:
259,192,85738,1,8,0:0:0:0:
259,192,85897,1,0,0:0:0:0:
259,192,86056,1,8,0:0:0:0:
259,192,86215,1,0,0:0:0:0:
259,192,86294,1,8,0:0:0:0:
259,192,86373,1,0,0:0:0:0:
259,192,86532,1,8,0:0:0:0:
259,192,86611,1,8,0:0:0:0:
259,192,86691,1,0,0:0:0:0:
259,192,86929,1,8,0:0:0:0:
259,192,87008,1,0,0:0:0:0:
259,192,87167,1,8,0:0:0:0:
259,192,87326,1,0,0:0:0:0:
259,192,87405,1,0,0:0:0:0:
259,192,87484,1,8,0:0:0:0:
259,192,87564,1,8,0:0:0:0:
259,192,87643,1,0,0:0:0:0:
259,192,87802,1,8,0:0:0:0:
259,192,87961,1,0,0:0:0:0:
259,192,88119,1,8,0:0:0:0:
259,192,88199,1,8,0:0:0:0:
259,192,88278,1,0,0:0:0:0:
259,192,88437,1,8,0:0:0:0:
259,192,88595,1,0,0:0:0:0:
259,192,88675,1,8,0:0:0:0:
259,192,88754,1,0,0:0:0:0:
259,192,88834,1,0,0:0:0:0:
259,192,88913,1,8,0:0:0:0:
259,192,88992,1,0,0:0:0:0:
259,192,89072,1,8,0:0:0:0:
259,192,89230,1,0,0:0:0:0:
259,192,89468,1,8,0:0:0:0:
259,192,89548,1,0,0:0:0:0:
259,192,89707,1,8,0:0:0:0:
259,192,89865,1,0,0:0:0:0:
259,192,89945,1,0,0:0:0:0:
259,192,90024,1,8,0:0:0:0:
259,192,90103,1,8,0:0:0:0:
259,192,90183,1,0,0:0:0:0:
259,192,90341,1,8,0:0:0:0:
259,192,90421,1,8,0:0:0:0:
259,192,90500,1,0,0:0:0:0:
259,192,90659,1,8,0:0:0:0:
259,192,90818,1,0,0:0:0:0:
259,192,90976,1,8,0:0:0:0:
259,192,91056,1,8,0:0:0:0:
259,192,91135,1,0,0:0:0:0:
259,192,91215,1,0,0:0:0:0:
259,192,91294,1,8,0:0:0:0:
259,192,91453,1,0,0:0:0:0:
259,192,91770,1,4,0:0:0:0:
259,192,92008,1,8,0:0:0:0:
259,192,92088,1,0,0:0:0:0:
259,192,92246,1,8,0:0:0:0:
259,192,92405,1,0,0:0:0:0:
259,192,92484,1,0,0:0:0:0:
259,192,92564,1,8,0:0:0:0:
259,192,92643,1,8,0:0:0:0:
259,192,92722,1,0,0:0:0:0:
259,192,92881,1,8,0:0:0:0:
259,192,93040,1,0,0:0:0:0:
259,192,93199,1,8,0:0:0:0:
259,192,93278,1,8,0:0:0:0:
259,192,93357,1,0,0:0:0:0:
259,192,93516,1,8,0:0:0:0:
259,192,93675,1,0,0:0:0:0:
259,192,93754,1,8,0:0:0:0:
259,192,93834,1,0,0:0:0:0:
259,192,93913,1,0,0:0:0:0:
259,192,93992,1,8,0:0:0:0:
259,192,94072,1,0,0:0:0:0:
259,192,94151,1,8,0:0:0:0:
259,192,94310,1,0,0:0:0:0:
259,192,94548,1,8,0:0:0:0:
259,192,94627,1,0,0:0:0:0:
259,192,94786,1,8,0:0:0:0:
259,192,94945,1,0,0:0:0:0:
259,192,95024,1,0,0:0:0:0:
259,192,95103,1,8,0:0:0:0:
259,192,95183,1,0,0:0:0:0:
259,192,95262,1,8,0:0:0:0:
259,192,95341,1,8,0:0:0:0:
259,192,95421,1,0,0:0:0:0:
259,192,95580,1,8,0:0:0:0:
259,192,95738,1,0,0:0:0:0:
259,192,95818,1,0,0:0:0:0:
259,192,95897,1,8,0:0:0:0:
259,192,96056,1,0,0:0:0:0:
259,192,96215,1,8,0:0:0:0:
259,192,96373,1,0,0:0:0:0:
259,192,96453,1,8,0:0:0:0:
259,192,96532,1,0,0:0:0:0:
259,192,96691,1,8,0:0:0:0:
259,192,96770,1,8,0:0:0:0:
259,192,96849,1,0,0:0:0:0:
259,192,97088,1,8,0:0:0:0:
259,192,97167,1,0,0:0:0:0:
259,192,97326,1,8,0:0:0:0:
259,192,97484,1,0,0:0:0:0:
259,192,97564,1,0,0:0:0:0:
259,192,97643,1,8,0:0:0:0:
259,192,97722,1,8,0:0:0:0:
259,192,97802,1,0,0:0:0:0:
259,192,97961,1,8,0:0:0:0:
259,192,98119,1,4,0:0:0:0:
259,192,98278,1,8,0:0:0:0:
259,192,98357,1,8,0:0:0:0:
259,192,98437,1,0,0:0:0:0:
259,192,98516,1,0,0:0:0:0:
259,192,98595,1,8,0:0:0:0:
259,192,98754,1,0,0:0:0:0:
259,192,98913,1,8,0:0:0:0:
259,192,98992,1,8,0:0:0:0:
259,192,99072,1,8,0:0:0:0:
259,192,99230,1,4,0:0:0:0:
259,192,99865,1,4,0:0:0:0:
259,192,100500,5,4,0:0:0:0:
259,192,100818,1,8,0:0:0:0:
259,192,100897,1,0,0:0:0:0:
259,192,100976,1,0,0:0:0:0:
259,192,101135,1,8,0:0:0:0:
259,192,101294,1,0,0:0:0:0:
259,192,101453,1,8,0:0:0:0:
259,192,101532,1,0,0:0:0:0:
259,192,101611,1,0,0:0:0:0:
259,192,101691,1,0,0:0:0:0:
259,192,101770,1,8,0:0:0:0:
259,192,101929,1,4,0:0:0:0:
259,192,102167,1,8,0:0:0:0:
259,192,102246,1,0,0:0:0:0:
259,192,102405,1,8,0:0:0:0:
259,192,102564,1,0,0:0:0:0:
259,192,102643,1,0,0:0:0:0:
259,192,102722,1,8,0:0:0:0:
259,192,102802,1,8,0:0:0:0:
259,192,102881,1,0,0:0:0:0:
259,192,103040,1,8,0:0:0:0:
259,192,103119,1,0,0:0:0:0:
259,192,103199,1,0,0:0:0:0:
259,192,103357,1,8,0:0:0:0:
259,192,103437,1,8,0:0:0:0:
259,192,103516,1,0,0:0:0:0:
259,192,103675,1,8,0:0:0:0:
259,192,103834,1,0,0:0:0:0:
259,192,103913,1,8,0:0:0:0:
259,192,103992,1,0,0:0:0:0:
259,192,104072,1,0,0:0:0:0:
259,192,104151,1,8,0:0:0:0:
259,192,104310,1,8,0:0:0:0:
259,192,104468,1,0,0:0:0:0:
259,192,104707,1,8,0:0:0:0:
259,192,104786,1,0,0:0:0:0:
259,192,104945,1,8,0:0:0:0:
259,192,105103,1,0,0:0:0:0:
259,192,105183,1,0,0:0:0:0:
259,192,105262,1,8,0:0:0:0:
259,192,105341,1,0,0:0:0:0:
259,192,105421,1,8,0:0:0:0:
259,192,105580,1,0,0:0:0:0:
259,192,105738,1,8,0:0:0:0:
259,192,105897,1,0,0:0:0:0:
259,192,105976,1,0,0:0:0:0:
259,192,106056,1,8,0:0:0:0:
259,192,106135,1,8,0:0:0:0:
259,192,106215,1,0,0:0:0:0:
259,192,106373,1,8,0:0:0:0:
259,192,106532,1,0,0:0:0:0:
259,192,106611,1,8,0:0:0:0:
259,192,106691,1,0,0:0:0:0:
259,192,106770,1,0,0:0:0:0:
259,192,106849,1,8,0:0:0:0:
259,192,107008,1,0,0:0:0:0:
259,192,107167,1,8,0:0:0:0:
259,192,107246,1,8,0:0:0:0:
259,192,107326,1,0,0:0:0:0:
259,192,107484,1,8,0:0:0:0:
259,192,107643,1,0,0:0:0:0:
259,192,107722,1,0,0:0:0:0:
259,192,107802,1,8,0:0:0:0:
259,192,107881,1,0,0:0:0:0:
259,192,107961,1,8,0:0:0:0:
259,192,108119,1,0,0:0:0:0:
259,192,108199,1,0,0:0:0:0:
259,192,108278,1,8,0:0:0:0:
259,192,108437,1,8,0:0:0:0:
259,192,108595,1,0,0:0:0:0:
259,192,108754,1,8,0:0:0:0:
259,192,108834,1,8,0:0:0:0:
259,192,108913,1,0,0:0:0:0:
259,192,109072,1,8,0:0:0:0:
259,192,109230,1,0,0:0:0:0:
259,192,109310,1,0,0:0:0:0:
259,192,109389,1,8,0:0:0:0:
259,192,109548,1,0,0:0:0:0:
259,192,109627,1,0,0:0:0:0:
259,192,109707,1,8,0:0:0:0:
259,192,109786,1,0,0:0:0:0:
259,192,109865,1,8,0:0:0:0:
259,192,109945,1,8,0:0:0:0:
259,192,110024,1,0,0:0:0:0:
259,192,110103,1,8,0:0:0:0:
259,192,110183,1,0,0:0:0:0:
259,192,110262,1,0,0:0:0:0:
259,192,110341,1,0,0:0:0:0:
259,192,110421,1,0,0:0:0:0:
259,192,110500,1,8,0:0:0:0:
259,192,110580,1,8,0:0:0:0:
259,192,110659,1,8,0:0:0:0:
259,192,110738,1,8,0:0:0:0:
259,192,110818,1,0,0:0:0:0:
259,192,111135,1,0,0:0:0:0:
259,192,111453,1,8,0:0:0:0:
259,192,111770,1,8,0:0:0:0:
259,192,112088,1,4,0:0:0:0:
256,192,119707,5,0,0:0:0:0:
256,192,119945,1,0,0:0:0:0:
256,192,120183,1,0,0:0:0:0:
256,192,120421,1,8,0:0:0:0:
256,192,120659,1,0,0:0:0:0:
256,192,120818,1,0,0:0:0:0:
256,192,120976,1,8,0:0:0:0:
256,192,121215,1,8,0:0:0:0:
256,192,121453,1,8,0:0:0:0:
256,192,121691,1,0,0:0:0:0:
256,192,121929,1,8,0:0:0:0:
256,192,122088,1,8,0:0:0:0:
256,192,122246,1,4,0:0:0:0:
256,192,122564,1,8,0:0:0:0:
256,192,122722,1,0,0:0:0:0:
256,192,122802,1,8,0:0:0:0:
256,192,122881,1,0,0:0:0:0:
256,192,123040,1,8,0:0:0:0:
256,192,123199,1,0,0:0:0:0:
256,192,123357,1,0,0:0:0:0:
256,192,123516,1,8,0:0:0:0:
256,192,123675,1,0,0:0:0:0:
256,192,123754,1,8,0:0:0:0:
256,192,123913,1,8,0:0:0:0:
256,192,123992,1,0,0:0:0:0:
256,192,124151,1,8,0:0:0:0:
256,192,124310,1,0,0:0:0:0:
256,192,124468,1,8,0:0:0:0:
256,192,124627,1,8,0:0:0:0:
256,192,124786,1,0,0:0:0:0:
256,192,125024,1,0,0:0:0:0:
256,192,125103,1,8,0:0:0:0:
256,192,125262,1,0,0:0:0:0:
256,192,125421,1,8,0:0:0:0:
256,192,125500,1,8,0:0:0:0:
256,192,125659,1,0,0:0:0:0:
256,192,125738,1,8,0:0:0:0:
256,192,125897,1,8,0:0:0:0:
256,192,126056,1,0,0:0:0:0:
256,192,126373,1,0,0:0:0:0:
256,192,126532,1,0,0:0:0:0:
256,192,126691,1,8,0:0:0:0:
256,192,126770,1,8,0:0:0:0:
256,192,126849,1,0,0:0:0:0:
256,192,127008,1,8,0:0:0:0:
256,192,127167,1,0,0:0:0:0:
256,192,127326,1,8,0:0:0:0:
256,192,127643,1,0,0:0:0:0:
256,192,127802,1,0,0:0:0:0:
256,192,127961,1,8,0:0:0:0:
256,192,128040,1,0,0:0:0:0:
256,192,128199,1,0,0:0:0:0:
256,192,128278,1,8,0:0:0:0:
256,192,128437,1,0,0:0:0:0:
256,192,128595,1,8,0:0:0:0:
256,192,128675,1,8,0:0:0:0:
256,192,128754,1,8,0:0:0:0:
256,192,128913,1,0,0:0:0:0:
256,192,129072,1,0,0:0:0:0:
256,192,129230,1,8,0:0:0:0:
256,192,129548,1,0,0:0:0:0:
256,192,129707,1,0,0:0:0:0:
256,192,129786,1,0,0:0:0:0:
256,192,129865,1,8,0:0:0:0:
256,192,130024,1,0,0:0:0:0:
256,192,130103,1,8,0:0:0:0:
256,192,130262,1,8,0:0:0:0:
256,192,130341,1,0,0:0:0:0:
256,192,130500,1,8,0:0:0:0:
256,192,130659,1,8,0:0:0:0:
256,192,130818,1,0,0:0:0:0:
256,192,130976,1,0,0:0:0:0:
256,192,131135,1,8,0:0:0:0:
256,192,131373,1,8,0:0:0:0:
256,192,131611,1,8,0:0:0:0:
256,192,131849,1,0,0:0:0:0:
256,192,131929,1,0,0:0:0:0:
256,192,132088,1,8,0:0:0:0:
256,192,132246,1,8,0:0:0:0:
256,192,132405,1,4,0:0:0:0:
256,192,132643,1,0,0:0:0:0:
256,192,132881,1,8,0:0:0:0:
256,192,133119,1,0,0:0:0:0:
256,192,133357,1,8,0:0:0:0:
256,192,133595,1,8,0:0:0:0:
256,192,133834,1,0,0:0:0:0:
256,192,134072,1,8,0:0:0:0:
256,192,134310,1,0,0:0:0:0:
256,192,134468,1,8,0:0:0:0:
256,192,134786,1,0,0:0:0:0:
256,192,135024,1,8,0:0:0:0:
256,192,135262,1,0,0:0:0:0:
256,192,135500,1,0,0:0:0:0:
256,192,135738,1,8,0:0:0:0:
256,192,135976,1,8,0:0:0:0:
256,192,136215,1,0,0:0:0:0:
256,192,136453,1,8,0:0:0:0:
256,192,136691,1,0,0:0:0:0:
256,192,136849,1,8,0:0:0:0:
256,192,137008,1,8,0:0:0:0:
256,192,137167,1,0,0:0:0:0:
256,192,137326,1,0,0:0:0:0:
256,192,137484,1,8,0:0:0:0:
256,192,137722,1,0,0:0:0:0:
256,192,137961,1,8,0:0:0:0:
256,192,138199,1,8,0:0:0:0:
256,192,138437,1,0,0:0:0:0:
256,192,138675,1,8,0:0:0:0:
256,192,138913,1,0,0:0:0:0:
256,192,139151,1,0,0:0:0:0:
256,192,139389,1,8,0:0:0:0:
256,192,139548,1,0,0:0:0:0:
256,192,139865,1,8,0:0:0:0:
256,192,140103,1,0,0:0:0:0:
256,192,140341,1,8,0:0:0:0:
256,192,140580,1,8,0:0:0:0:
256,192,140818,1,0,0:0:0:0:
256,192,141056,1,8,0:0:0:0:
256,192,141294,1,0,0:0:0:0:
256,192,141532,1,0,0:0:0:0:
256,192,141770,1,8,0:0:0:0:
256,192,141929,1,0,0:0:0:0:
256,192,142088,1,8,0:0:0:0:
256,192,142246,1,8,0:0:0:0:
256,192,142405,1,8,0:0:0:0:
256,192,142564,1,4,0:0:0:0:
256,192,142802,1,0,0:0:0:0:
256,192,143040,1,8,0:0:0:0:
256,192,143278,1,0,0:0:0:0:
256,192,143516,1,8,0:0:0:0:
256,192,143754,1,8,0:0:0:0:
256,192,143992,1,0,0:0:0:0:
256,192,144230,1,8,0:0:0:0:
256,192,144468,1,0,0:0:0:0:
256,192,144627,1,8,0:0:0:0:
256,192,144945,1,0,0:0:0:0:
256,192,145183,1,8,0:0:0:0:
256,192,145421,1,0,0:0:0:0:
256,192,145659,1,0,0:0:0:0:
256,192,145897,1,8,0:0:0:0:
256,192,146135,1,8,0:0:0:0:
256,192,146373,1,0,0:0:0:0:
256,192,146611,1,8,0:0:0:0:
256,192,146849,1,0,0:0:0:0:
256,192,147008,1,8,0:0:0:0:
256,192,147167,1,8,0:0:0:0:
256,192,147326,1,0,0:0:0:0:
256,192,147484,1,0,0:0:0:0:
256,192,147643,1,8,0:0:0:0:
256,192,147881,1,0,0:0:0:0:
256,192,148119,1,8,0:0:0:0:
256,192,148357,1,8,0:0:0:0:
256,192,148595,1,0,0:0:0:0:
256,192,148834,1,8,0:0:0:0:
256,192,149072,1,0,0:0:0:0:
256,192,149310,1,0,0:0:0:0:
256,192,149548,1,8,0:0:0:0:
256,192,149707,1,0,0:0:0:0:
256,192,150024,1,8,0:0:0:0:
256,192,150262,1,0,0:0:0:0:
256,192,150500,1,8,0:0:0:0:
256,192,150738,1,8,0:0:0:0:
256,192,150976,1,0,0:0:0:0:
256,192,151215,1,8,0:0:0:0:
256,192,151453,1,0,0:0:0:0:
256,192,151691,1,0,0:0:0:0:
256,192,151929,1,8,0:0:0:0:
256,192,152167,1,0,0:0:0:0:
256,192,152405,1,8,0:0:0:0:
256,192,152564,1,8,0:0:0:0:
256,192,152722,1,4,0:0:0:0:
256,192,152881,12,4,162564,0:0:0:0:
256,192,162881,5,4,0:0:0:0:
256,192,163199,1,8,0:0:0:0:
256,192,163516,1,8,0:0:0:0:
256,192,163834,1,8,0:0:0:0:
256,192,164151,1,0,0:0:0:0:
256,192,164468,1,8,0:0:0:0:
256,192,164786,1,8,0:0:0:0:
256,192,165103,1,8,0:0:0:0:
256,192,165421,1,0,0:0:0:0:
256,192,165738,1,8,0:0:0:0:
256,192,166056,1,8,0:0:0:0:
256,192,166373,1,8,0:0:0:0:
256,192,166691,1,0,0:0:0:0:
256,192,167008,1,8,0:0:0:0:
256,192,167326,1,8,0:0:0:0:
256,192,167643,1,8,0:0:0:0:
256,192,167961,1,4,0:0:0:0:
256,192,168119,1,0,0:0:0:0:
256,192,168278,1,8,0:0:0:0:
256,192,168437,1,8,0:0:0:0:
256,192,168595,1,0,0:0:0:0:
256,192,168754,1,0,0:0:0:0:
256,192,168913,1,8,0:0:0:0:
256,192,169072,1,8,0:0:0:0:
256,192,169230,1,0,0:0:0:0:
256,192,169310,1,0,0:0:0:0:
256,192,169389,1,8,0:0:0:0:
256,192,169468,1,0,0:0:0:0:
256,192,169548,1,0,0:0:0:0:
256,192,169627,1,0,0:0:0:0:
256,192,169707,1,8,0:0:0:0:
256,192,169786,1,8,0:0:0:0:
256,192,169865,1,8,0:0:0:0:
256,192,169945,1,8,0:0:0:0:
256,192,170024,1,0,0:0:0:0:
256,192,170103,1,0,0:0:0:0:
256,192,170183,1,8,0:0:0:0:
256,192,170262,1,0,0:0:0:0:
256,192,170341,1,0,0:0:0:0:
256,192,170421,1,0,0:0:0:0:
256,192,170500,1,8,0:0:0:0:
256,192,170580,1,8,0:0:0:0:
256,192,170659,1,8,0:0:0:0:
256,192,170738,1,8,0:0:0:0:
256,192,170818,1,0,0:0:0:0:
256,192,170897,1,0,0:0:0:0:
256,192,170976,1,8,0:0:0:0:
256,192,171056,1,0,0:0:0:0:
256,192,171135,1,8,0:0:0:0:
256,192,171215,1,8,0:0:0:0:
256,192,171294,1,0,0:0:0:0:
256,192,171373,1,0,0:0:0:0:
256,192,171453,1,8,0:0:0:0:
256,192,171532,1,0,0:0:0:0:
256,192,171611,1,0,0:0:0:0:
256,192,171691,1,0,0:0:0:0:
256,192,171770,1,8,0:0:0:0:
256,192,171849,1,8,0:0:0:0:
256,192,171929,1,8,0:0:0:0:
256,192,172008,1,8,0:0:0:0:
256,192,172088,1,0,0:0:0:0:
256,192,172167,1,0,0:0:0:0:
256,192,172246,1,0,0:0:0:0:
256,192,172326,1,0,0:0:0:0:
256,192,172405,1,8,0:0:0:0:
256,192,172484,1,0,0:0:0:0:
256,192,172564,1,0,0:0:0:0:
256,192,172643,1,0,0:0:0:0:
256,192,172722,1,8,0:0:0:0:
256,192,172802,1,8,0:0:0:0:
256,192,172881,1,0,0:0:0:0:
256,192,172961,1,0,0:0:0:0:
256,192,173040,1,8,0:0:0:0:
252,194,175580,5,4,0:0:0:0:
252,194,175818,1,8,0:0:0:0:
252,194,175897,1,0,0:0:0:0:
252,194,176056,1,8,0:0:0:0:
252,194,176215,1,0,0:0:0:0:
252,194,176294,1,8,0:0:0:0:
252,194,176453,1,8,0:0:0:0:
252,194,176532,1,0,0:0:0:0:
252,194,176691,1,8,0:0:0:0:
252,194,176770,1,8,0:0:0:0:
252,194,176849,1,0,0:0:0:0:
252,194,177008,1,8,0:0:0:0:
252,194,177088,1,8,0:0:0:0:
252,194,177167,1,0,0:0:0:0:
252,194,177246,1,0,0:0:0:0:
252,194,177326,1,8,0:0:0:0:
252,194,177484,1,0,0:0:0:0:
252,194,177564,1,8,0:0:0:0:
252,194,177722,1,8,0:0:0:0:
252,194,177802,1,0,0:0:0:0:
252,194,177881,1,0,0:0:0:0:
252,194,177961,1,8,0:0:0:0:
252,194,178119,1,0,0:0:0:0:
252,194,178278,1,8,0:0:0:0:
252,194,178357,1,0,0:0:0:0:
252,194,178437,1,0,0:0:0:0:
252,194,178516,1,0,0:0:0:0:
252,194,178595,1,8,0:0:0:0:
252,194,178675,1,8,0:0:0:0:
252,194,178754,1,0,0:0:0:0:
252,194,178913,1,8,0:0:0:0:
252,194,178992,1,8,0:0:0:0:
252,194,179072,1,0,0:0:0:0:
252,194,179230,1,8,0:0:0:0:
252,194,179389,1,0,0:0:0:0:
252,194,179548,1,8,0:0:0:0:
252,194,179627,1,8,0:0:0:0:
252,194,179707,1,0,0:0:0:0:
252,194,179865,5,8,0:0:0:0:
252,194,180024,1,0,0:0:0:0:
252,194,180103,1,8,0:0:0:0:
252,194,180183,1,0,0:0:0:0:
252,194,180262,1,0,0:0:0:0:
252,194,180341,1,8,0:0:0:0:
252,194,180421,1,0,0:0:0:0:
252,194,180500,1,8,0:0:0:0:
252,194,180659,1,0,0:0:0:0:
252,194,180818,1,8,0:0:0:0:
252,194,180897,1,0,0:0:0:0:
252,194,180976,1,0,0:0:0:0:
252,194,181135,5,8,0:0:0:0:
252,194,181294,1,0,0:0:0:0:
252,194,181373,1,0,0:0:0:0:
252,194,181453,1,8,0:0:0:0:
252,194,181532,1,8,0:0:0:0:
252,194,181611,1,0,0:0:0:0:
252,194,181770,1,8,0:0:0:0:
252,194,181929,1,0,0:0:0:0:
252,194,182167,1,8,0:0:0:0:
252,194,182246,1,0,0:0:0:0:
252,194,182405,1,8,0:0:0:0:
252,194,182564,1,0,0:0:0:0:
252,194,182643,1,8,0:0:0:0:
252,194,182802,1,8,0:0:0:0:
252,194,182881,1,0,0:0:0:0:
252,194,182961,1,0,0:0:0:0:
252,194,183040,1,8,0:0:0:0:
252,194,183199,1,0,0:0:0:0:
252,194,183357,1,8,0:0:0:0:
252,194,183437,1,0,0:0:0:0:
252,194,183516,1,8,0:0:0:0:
252,194,183595,1,8,0:0:0:0:
252,194,183675,1,0,0:0:0:0:
252,194,183754,1,0,0:0:0:0:
252,194,183834,1,8,0:0:0:0:
252,194,183992,1,0,0:0:0:0:
252,194,184072,1,0,0:0:0:0:
252,194,184151,1,8,0:0:0:0:
252,194,184310,1,0,0:0:0:0:
252,194,184468,1,8,0:0:0:0:
252,194,184627,1,0,0:0:0:0:
252,194,184707,1,8,0:0:0:0:
252,194,184786,1,8,0:0:0:0:
252,194,184945,1,0,0:0:0:0:
252,194,185024,1,0,0:0:0:0:
252,194,185103,1,8,0:0:0:0:
252,194,185183,1,8,0:0:0:0:
252,194,185262,1,8,0:0:0:0:
252,194,185341,1,8,0:0:0:0:
252,194,185421,1,0,0:0:0:0:
252,194,185738,1,4,0:0:0:0:
252,194,185976,1,8,0:0:0:0:
252,194,186056,1,0,0:0:0:0:
252,194,186215,1,8,0:0:0:0:
252,194,186373,1,0,0:0:0:0:
252,194,186453,1,8,0:0:0:0:
252,194,186611,1,8,0:0:0:0:
252,194,186691,1,0,0:0:0:0:
252,194,186770,1,0,0:0:0:0:
252,194,186849,1,8,0:0:0:0:
252,194,186929,1,8,0:0:0:0:
252,194,187008,1,0,0:0:0:0:
252,194,187167,1,8,0:0:0:0:
252,194,187246,1,8,0:0:0:0:
252,194,187326,1,0,0:0:0:0:
252,194,187405,1,0,0:0:0:0:
252,194,187484,1,8,0:0:0:0:
252,194,187643,1,0,0:0:0:0:
252,194,187722,1,8,0:0:0:0:
252,194,187881,1,8,0:0:0:0:
252,194,187961,1,8,0:0:0:0:
252,194,188040,1,0,0:0:0:0:
252,194,188119,1,8,0:0:0:0:
252,194,188199,1,8,0:0:0:0:
252,194,188278,1,0,0:0:0:0:
252,194,188437,1,8,0:0:0:0:
252,194,188516,1,0,0:0:0:0:
252,194,188675,1,0,0:0:0:0:
252,194,188754,1,8,0:0:0:0:
252,194,188913,1,0,0:0:0:0:
252,194,189072,1,8,0:0:0:0:
252,194,189151,1,8,0:0:0:0:
252,194,189230,1,0,0:0:0:0:
252,194,189310,1,0,0:0:0:0:
252,194,189389,1,8,0:0:0:0:
252,194,189548,1,0,0:0:0:0:
252,194,189707,1,8,0:0:0:0:
252,194,189786,1,0,0:0:0:0:
252,194,189865,1,0,0:0:0:0:
252,194,189945,1,0,0:0:0:0:
252,194,190024,5,8,0:0:0:0:
252,194,190183,1,0,0:0:0:0:
252,194,190262,1,8,0:0:0:0:
252,194,190341,1,0,0:0:0:0:
252,194,190421,1,0,0:0:0:0:
252,194,190500,1,8,0:0:0:0:
252,194,190580,1,0,0:0:0:0:
252,194,190659,1,8,0:0:0:0:
252,194,190818,1,0,0:0:0:0:
252,194,190976,1,8,0:0:0:0:
252,194,191056,1,0,0:0:0:0:
252,194,191135,1,0,0:0:0:0:
252,194,191215,1,0,0:0:0:0:
252,194,191294,5,8,0:0:0:0:
252,194,191453,1,0,0:0:0:0:
252,194,191532,1,0,0:0:0:0:
252,194,191611,1,8,0:0:0:0:
252,194,191691,1,8,0:0:0:0:
252,194,191770,1,0,0:0:0:0:
252,194,191929,1,8,0:0:0:0:
252,194,192088,1,4,0:0:0:0:
256,192,192246,12,0,193199,0:0:0:0:
252,194,193357,5,4,0:0:0:0:
252,194,193516,1,8,0:0:0:0:
252,194,193595,1,8,0:0:0:0:
252,194,193675,1,0,0:0:0:0:
252,194,193834,1,8,0:0:0:0:
252,194,193992,1,4,0:0:0:0:
252,194,194151,1,8,0:0:0:0:
252,194,194230,1,8,0:0:0:0:
252,194,194310,1,0,0:0:0:0:
252,194,194389,1,0,0:0:0:0:
252,194,194468,1,8,0:0:0:0:
252,194,194627,1,4,0:0:0:0:
252,194,194945,1,0,0:0:0:0:
252,194,195103,1,8,0:0:0:0:
252,194,195262,1,8,0:0:0:0:
252,194,195421,1,0,0:0:0:0:
252,194,195580,1,8,0:0:0:0:
252,194,195659,1,8,0:0:0:0:
252,194,195738,1,0,0:0:0:0:
252,194,195818,1,8,0:0:0:0:
252,194,195897,1,0,0:0:0:0:
252,194,206056,5,0,0:0:0:0:
252,194,206294,1,8,0:0:0:0:
252,194,206532,1,8,0:0:0:0:
252,194,206770,1,8,0:0:0:0:
252,194,207008,1,0,0:0:0:0:
252,194,207167,1,0,0:0:0:0:
252,194,207326,1,8,0:0:0:0:
252,194,207564,1,8,0:0:0:0:
252,194,207802,1,8,0:0:0:0:
252,194,208040,1,0,0:0:0:0:
252,194,208278,1,8,0:0:0:0:
252,194,208437,1,8,0:0:0:0:
252,194,208595,1,0,0:0:0:0:
252,194,208834,1,0,0:0:0:0:
252,194,209072,1,0,0:0:0:0:
252,194,209310,1,8,0:0:0:0:
252,194,209548,1,0,0:0:0:0:
252,194,209707,1,0,0:0:0:0:
252,194,209865,5,8,0:0:0:0:
252,194,210103,1,8,0:0:0:0:
252,194,210341,1,8,0:0:0:0:
252,194,210659,1,0,0:0:0:0:
252,194,210818,1,8,0:0:0:0:
252,194,210976,1,8,0:0:0:0:
252,194,211135,1,0,0:0:0:0:
252,194,211373,1,0,0:0:0:0:
252,194,211611,1,8,0:0:0:0:
252,194,211849,1,0,0:0:0:0:
252,194,212088,1,8,0:0:0:0:
252,194,212246,1,8,0:0:0:0:
252,194,212405,1,0,0:0:0:0:
252,194,212643,1,8,0:0:0:0:
252,194,212881,1,0,0:0:0:0:
252,194,213119,1,8,0:0:0:0:
252,194,213357,1,0,0:0:0:0:
252,194,213516,1,0,0:0:0:0:
252,194,213675,5,8,0:0:0:0:
252,194,213913,1,0,0:0:0:0:
252,194,214151,1,8,0:0:0:0:
252,194,214389,1,0,0:0:0:0:
252,194,214627,1,8,0:0:0:0:
252,194,214786,1,8,0:0:0:0:
252,194,214945,1,0,0:0:0:0:
252,194,215183,1,8,0:0:0:0:
252,194,215421,1,0,0:0:0:0:
252,194,215659,1,0,0:0:0:0:
252,194,215897,1,8,0:0:0:0:
252,194,216215,5,4,0:0:0:0:
252,194,216453,5,8,0:0:0:0:
252,194,216532,1,0,0:0:0:0:
252,194,216691,1,8,0:0:0:0:
252,194,216849,1,0,0:0:0:0:
252,194,216929,1,8,0:0:0:0:
252,194,217088,1,8,0:0:0:0:
252,194,217167,1,0,0:0:0:0:
252,194,217326,1,8,0:0:0:0:
252,194,217484,1,0,0:0:0:0:
252,194,217722,1,8,0:0:0:0:
252,194,217802,1,0,0:0:0:0:
252,194,217961,1,8,0:0:0:0:
252,194,218119,1,0,0:0:0:0:
252,194,218199,1,8,0:0:0:0:
252,194,218357,1,8,0:0:0:0:
252,194,218437,1,0,0:0:0:0:
252,194,218516,1,0,0:0:0:0:
252,194,218595,1,8,0:0:0:0:
252,194,218754,5,0,0:0:0:0:
252,194,218992,5,8,0:0:0:0:
252,194,219072,1,0,0:0:0:0:
252,194,219230,1,8,0:0:0:0:
252,194,219389,1,0,0:0:0:0:
252,194,219468,1,8,0:0:0:0:
252,194,219627,1,8,0:0:0:0:
252,194,219707,1,0,0:0:0:0:
252,194,219865,1,8,0:0:0:0:
252,194,220024,1,0,0:0:0:0:
252,194,220183,1,8,0:0:0:0:
252,194,220262,1,8,0:0:0:0:
252,194,220341,1,0,0:0:0:0:
252,194,220500,1,8,0:0:0:0:
252,194,220659,1,0,0:0:0:0:
252,194,220738,1,8,0:0:0:0:
252,194,220897,1,8,0:0:0:0:
252,194,220976,1,0,0:0:0:0:
252,194,221135,1,8,0:0:0:0:
252,194,221294,5,0,0:0:0:0:
252,194,221532,5,8,0:0:0:0:
252,194,221611,1,0,0:0:0:0:
252,194,221770,1,8,0:0:0:0:
252,194,221929,1,0,0:0:0:0:
252,194,222008,1,8,0:0:0:0:
252,194,222167,1,8,0:0:0:0:
252,194,222246,1,0,0:0:0:0:
252,194,222405,1,8,0:0:0:0:
252,194,222564,1,0,0:0:0:0:
252,194,222802,1,8,0:0:0:0:
252,194,222881,1,0,0:0:0:0:
252,194,223040,1,8,0:0:0:0:
252,194,223199,1,0,0:0:0:0:
252,194,223278,1,8,0:0:0:0:
252,194,223437,1,8,0:0:0:0:
252,194,223516,1,0,0:0:0:0:
252,194,223595,1,0,0:0:0:0:
252,194,223675,1,8,0:0:0:0:
252,194,223834,5,0,0:0:0:0:
252,194,224072,5,8,0:0:0:0:
252,194,224151,1,0,0:0:0:0:
252,194,224310,1,8,0:0:0:0:
252,194,224468,1,0,0:0:0:0:
252,194,224548,1,8,0:0:0:0:
252,194,224707,1,8,0:0:0:0:
252,194,224786,1,0,0:0:0:0:
252,194,224945,1,8,0:0:0:0:
252,194,225103,1,0,0:0:0:0:
252,194,225262,1,8,0:0:0:0:
252,194,225341,1,8,0:0:0:0:
252,194,225421,1,0,0:0:0:0:
252,194,225500,1,0,0:0:0:0:
252,194,225580,1,8,0:0:0:0:
252,194,225738,1,0,0:0:0:0:
252,194,225818,1,8,0:0:0:0:
252,194,225976,1,8,0:0:0:0:
252,194,226056,1,0,0:0:0:0:
252,194,226215,1,8,0:0:0:0:
256,192,226373,5,4,0:0:0:0:
256,192,226611,1,0,0:0:0:0:
256,192,226691,1,8,0:0:0:0:
256,192,226849,1,8,0:0:0:0:
256,192,226929,1,8,0:0:0:0:
256,192,227008,1,0,0:0:0:0:
256,192,227167,1,8,0:0:0:0:
256,192,227326,1,0,0:0:0:0:
256,192,227405,1,8,0:0:0:0:
256,192,227564,1,8,0:0:0:0:
256,192,227643,1,0,0:0:0:0:
256,192,227802,1,8,0:0:0:0:
256,192,227881,1,8,0:0:0:0:
256,192,227961,1,0,0:0:0:0:
256,192,228119,1,8,0:0:0:0:
256,192,228278,1,0,0:0:0:0:
256,192,228357,1,8,0:0:0:0:
256,192,228516,1,8,0:0:0:0:
256,192,228595,1,0,0:0:0:0:
256,192,228675,1,0,0:0:0:0:
256,192,228754,1,8,0:0:0:0:
256,192,228913,1,0,0:0:0:0:
256,192,229072,1,8,0:0:0:0:
256,192,229151,1,0,0:0:0:0:
256,192,229230,1,8,0:0:0:0:
256,192,229389,1,0,0:0:0:0:
256,192,229468,1,0,0:0:0:0:
256,192,229548,1,8,0:0:0:0:
256,192,229707,1,8,0:0:0:0:
256,192,229865,1,0,0:0:0:0:
256,192,229945,1,8,0:0:0:0:
256,192,230103,1,8,0:0:0:0:
256,192,230183,1,0,0:0:0:0:
256,192,230341,1,0,0:0:0:0:
256,192,230500,1,8,0:0:0:0:
256,192,230580,1,8,0:0:0:0:
256,192,230659,1,0,0:0:0:0:
256,192,230738,1,0,0:0:0:0:
256,192,230818,1,8,0:0:0:0:
256,192,230897,1,0,0:0:0:0:
256,192,231056,1,0,0:0:0:0:
256,192,231135,1,8,0:0:0:0:
256,192,231294,1,8,0:0:0:0:
256,192,231453,1,0,0:0:0:0:
256,192,231691,1,8,0:0:0:0:
256,192,231770,1,0,0:0:0:0:
256,192,231929,1,0,0:0:0:0:
256,192,232008,1,0,0:0:0:0:
256,192,232088,1,8,0:0:0:0:
256,192,232246,1,0,0:0:0:0:
256,192,232405,1,8,0:0:0:0:
256,192,232484,1,0,0:0:0:0:
256,192,232643,1,0,0:0:0:0:
256,192,232722,1,8,0:0:0:0:
256,192,232802,1,8,0:0:0:0:
256,192,232961,1,0,0:0:0:0:
256,192,233040,1,8,0:0:0:0:
256,192,233199,1,0,0:0:0:0:
256,192,233357,1,8,0:0:0:0:
256,192,233437,1,8,0:0:0:0:
256,192,233516,1,8,0:0:0:0:
256,192,233675,1,0,0:0:0:0:
256,192,233754,1,0,0:0:0:0:
256,192,233834,1,8,0:0:0:0:
256,192,233913,1,0,0:0:0:0:
256,192,233992,1,8,0:0:0:0:
256,192,234151,1,0,0:0:0:0:
256,192,234230,1,0,0:0:0:0:
256,192,234310,1,8,0:0:0:0:
256,192,234468,1,8,0:0:0:0:
256,192,234627,1,0,0:0:0:0:
256,192,234786,1,8,0:0:0:0:
256,192,234865,1,8,0:0:0:0:
256,192,234945,1,0,0:0:0:0:
256,192,235024,1,8,0:0:0:0:
256,192,235183,1,8,0:0:0:0:
256,192,235262,1,0,0:0:0:0:
256,192,235341,1,8,0:0:0:0:
256,192,235421,1,8,0:0:0:0:
256,192,235580,1,0,0:0:0:0:
256,192,235659,1,8,0:0:0:0:
256,192,235738,1,0,0:0:0:0:
256,192,235897,1,8,0:0:0:0:
256,192,235976,1,8,0:0:0:0:
256,192,236056,1,0,0:0:0:0:
256,192,236135,1,0,0:0:0:0:
256,192,236215,1,8,0:0:0:0:
256,192,236294,1,8,0:0:0:0:
256,192,236373,1,8,0:0:0:0:
256,192,236532,1,4,0:0:0:0:
256,192,236770,1,0,0:0:0:0:
256,192,236849,1,8,0:0:0:0:
256,192,237008,1,0,0:0:0:0:
256,192,237167,1,8,0:0:0:0:
256,192,237326,1,0,0:0:0:0:
256,192,237405,1,0,0:0:0:0:
256,192,237484,1,8,0:0:0:0:
256,192,237643,1,0,0:0:0:0:
256,192,237802,1,8,0:0:0:0:
256,192,238040,1,0,0:0:0:0:
256,192,238119,1,8,0:0:0:0:
256,192,238199,1,8,0:0:0:0:
256,192,238278,1,0,0:0:0:0:
256,192,238437,1,8,0:0:0:0:
256,192,238675,1,0,0:0:0:0:
256,192,238754,1,8,0:0:0:0:
256,192,238913,1,0,0:0:0:0:
256,192,239072,1,8,0:0:0:0:
256,192,239151,1,8,0:0:0:0:
256,192,239230,1,0,0:0:0:0:
256,192,239310,1,0,0:0:0:0:
256,192,239389,1,8,0:0:0:0:
256,192,239548,1,0,0:0:0:0:
256,192,239707,1,8,0:0:0:0:
256,192,239945,1,0,0:0:0:0:
256,192,240024,1,8,0:0:0:0:
256,192,240183,1,0,0:0:0:0:
256,192,240341,1,8,0:0:0:0:
256,192,240580,1,0,0:0:0:0:
256,192,240659,1,8,0:0:0:0:
256,192,240818,1,0,0:0:0:0:
256,192,240976,1,8,0:0:0:0:
256,192,241056,1,8,0:0:0:0:
256,192,241215,1,0,0:0:0:0:
256,192,241294,1,8,0:0:0:0:
256,192,241453,1,0,0:0:0:0:
256,192,241532,1,8,0:0:0:0:
256,192,241611,1,0,0:0:0:0:
256,192,241849,1,0,0:0:0:0:
256,192,241929,1,8,0:0:0:0:
256,192,242088,1,0,0:0:0:0:
256,192,242246,1,8,0:0:0:0:
256,192,242405,1,0,0:0:0:0:
256,192,242484,1,0,0:0:0:0:
256,192,242564,1,8,0:0:0:0:
256,192,242722,1,0,0:0:0:0:
256,192,242881,1,8,0:0:0:0:
256,192,242961,1,0,0:0:0:0:
256,192,243119,1,0,0:0:0:0:
256,192,243199,1,8,0:0:0:0:
256,192,243278,1,8,0:0:0:0:
256,192,243357,1,0,0:0:0:0:
256,192,243516,1,8,0:0:0:0:
256,192,243675,1,0,0:0:0:0:
256,192,243754,1,0,0:0:0:0:
256,192,243834,1,8,0:0:0:0:
256,192,243992,1,0,0:0:0:0:
256,192,244151,1,8,0:0:0:0:
256,192,244389,1,0,0:0:0:0:
256,192,244468,1,8,0:0:0:0:
256,192,244627,1,0,0:0:0:0:
256,192,244786,1,8,0:0:0:0:
256,192,244865,1,8,0:0:0:0:
256,192,245024,1,0,0:0:0:0:
256,192,245103,1,8,0:0:0:0:
256,192,245262,1,0,0:0:0:0:
256,192,245421,1,8,0:0:0:0:
256,192,245659,1,0,0:0:0:0:
256,192,245738,1,8,0:0:0:0:
256,192,245897,1,0,0:0:0:0:
256,192,246056,1,8,0:0:0:0:
256,192,246215,1,0,0:0:0:0:
256,192,246294,1,0,0:0:0:0:
256,192,246373,1,8,0:0:0:0:
256,192,246532,1,8,0:0:0:0:
256,192,246691,1,4,0:0:0:0:
256,192,247008,1,0,0:0:0:0:
256,192,247167,1,0,0:0:0:0:
256,192,247326,1,8,0:0:0:0:
256,192,247484,1,0,0:0:0:0:
256,192,247564,1,0,0:0:0:0:
256,192,247643,1,8,0:0:0:0:
256,192,247802,1,0,0:0:0:0:
256,192,247961,1,8,0:0:0:0:
256,192,248040,1,8,0:0:0:0:
256,192,248199,1,0,0:0:0:0:
256,192,248278,1,8,0:0:0:0:
256,192,248437,1,0,0:0:0:0:
256,192,248595,1,8,0:0:0:0:
256,192,248675,1,8,0:0:0:0:
256,192,248754,1,0,0:0:0:0:
256,192,248834,1,0,0:0:0:0:
256,192,248913,1,8,0:0:0:0:
256,192,249072,1,8,0:0:0:0:
256,192,249230,1,0,0:0:0:0:
256,192,249389,1,0,0:0:0:0:
256,192,249468,1,0,0:0:0:0:
256,192,249548,1,8,0:0:0:0:
256,192,249707,1,0,0:0:0:0:
256,192,249865,1,8,0:0:0:0:
256,192,249945,1,0,0:0:0:0:
256,192,250103,1,0,0:0:0:0:
256,192,250183,1,8,0:0:0:0:
256,192,250341,1,8,0:0:0:0:
256,192,250421,1,8,0:0:0:0:
256,192,250500,1,0,0:0:0:0:
256,192,250659,1,8,0:0:0:0:
256,192,250738,1,0,0:0:0:0:
256,192,250818,1,8,0:0:0:0:
256,192,250976,1,0,0:0:0:0:
256,192,251135,1,8,0:0:0:0:
256,192,251294,1,8,0:0:0:0:
256,192,251373,1,8,0:0:0:0:
256,192,251453,1,0,0:0:0:0:
256,192,251611,1,0,0:0:0:0:
256,192,251691,1,0,0:0:0:0:
256,192,251770,1,8,0:0:0:0:
256,192,251849,1,0,0:0:0:0:
256,192,252008,1,0,0:0:0:0:
256,192,252088,1,8,0:0:0:0:
256,192,252246,1,8,0:0:0:0:
256,192,252405,1,0,0:0:0:0:
256,192,252484,1,8,0:0:0:0:
256,192,252564,1,0,0:0:0:0:
256,192,252643,1,0,0:0:0:0:
256,192,252722,1,8,0:0:0:0:
256,192,252881,1,0,0:0:0:0:
256,192,253040,1,8,0:0:0:0:
256,192,253119,1,0,0:0:0:0:
256,192,253199,1,8,0:0:0:0:
256,192,253278,1,8,0:0:0:0:
256,192,253357,1,0,0:0:0:0:
256,192,253516,1,0,0:0:0:0:
256,192,253675,1,8,0:0:0:0:
256,192,253754,1,0,0:0:0:0:
256,192,253913,1,0,0:0:0:0:
256,192,253992,1,8,0:0:0:0:
256,192,254151,1,0,0:0:0:0:
256,192,254310,1,8,0:0:0:0:
256,192,254548,1,0,0:0:0:0:
256,192,254627,1,8,0:0:0:0:
256,192,254786,1,8,0:0:0:0:
256,192,254865,1,8,0:0:0:0:
256,192,254945,1,0,0:0:0:0:
256,192,255103,1,0,0:0:0:0:
256,192,255262,1,8,0:0:0:0:
256,192,255421,1,0,0:0:0:0:
256,192,255500,1,8,0:0:0:0:
256,192,255738,1,0,0:0:0:0:
256,192,255818,1,0,0:0:0:0:
256,192,255897,1,8,0:0:0:0:
256,192,256056,1,8,0:0:0:0:
256,192,256215,1,0,0:0:0:0:
256,192,256294,1,0,0:0:0:0:
256,192,256373,1,0,0:0:0:0:
256,192,256453,1,0,0:0:0:0:
256,192,256532,1,8,0:0:0:0:
256,192,256691,1,8,0:0:0:0:
256,192,256849,5,4,0:0:0:0:
256,192,257088,1,0,0:0:0:0:
256,192,257167,1,8,0:0:0:0:
256,192,257326,1,0,0:0:0:0:
256,192,257405,1,0,0:0:0:0:
256,192,257484,1,8,0:0:0:0:
256,192,257643,1,0,0:0:0:0:
256,192,257802,1,8,0:0:0:0:
256,192,257881,1,8,0:0:0:0:
256,192,257961,1,8,0:0:0:0:
256,192,258119,1,0,0:0:0:0:
256,192,258199,1,8,0:0:0:0:
256,192,258357,1,8,0:0:0:0:
256,192,258437,1,0,0:0:0:0:
256,192,258595,1,0,0:0:0:0:
256,192,258754,1,8,0:0:0:0:
256,192,258834,1,8,0:0:0:0:
256,192,258913,1,0,0:0:0:0:
256,192,258992,1,0,0:0:0:0:
256,192,259072,1,8,0:0:0:0:
256,192,259230,1,0,0:0:0:0:
256,192,259310,1,0,0:0:0:0:
256,192,259389,1,8,0:0:0:0:
256,192,259468,1,0,0:0:0:0:
256,192,259627,1,0,0:0:0:0:
256,192,259707,1,8,0:0:0:0:
256,192,259865,1,8,0:0:0:0:
256,192,259945,1,8,0:0:0:0:
256,192,260024,1,0,0:0:0:0:
256,192,260183,1,8,0:0:0:0:
256,192,260341,1,0,0:0:0:0:
256,192,260421,1,0,0:0:0:0:
256,192,260500,1,8,0:0:0:0:
256,192,260659,1,0,0:0:0:0:
256,192,260738,1,8,0:0:0:0:
256,192,260897,1,8,0:0:0:0:
256,192,260976,1,0,0:0:0:0:
256,192,261056,1,0,0:0:0:0:
256,192,261135,1,8,0:0:0:0:
256,192,261294,1,0,0:0:0:0:
256,192,261373,1,8,0:0:0:0:
256,192,261453,1,0,0:0:0:0:
256,192,261611,1,8,0:0:0:0:
256,192,261770,1,8,0:0:0:0:
256,192,261929,1,0,0:0:0:0:
256,192,262008,1,0,0:0:0:0:
256,192,262088,1,8,0:0:0:0:
256,192,262246,1,0,0:0:0:0:
256,192,262405,1,8,0:0:0:0:
256,192,262484,1,0,0:0:0:0:
256,192,262564,1,8,0:0:0:0:
256,192,262643,1,8,0:0:0:0:
256,192,262722,1,0,0:0:0:0:
256,192,262881,1,8,0:0:0:0:
256,192,263040,1,0,0:0:0:0:
256,192,263119,1,0,0:0:0:0:
256,192,263199,1,8,0:0:0:0:
256,192,263278,1,0,0:0:0:0:
256,192,263437,1,0,0:0:0:0:
256,192,263516,1,8,0:0:0:0:
256,192,263675,1,0,0:0:0:0:
256,192,263834,1,8,0:0:0:0:
256,192,263913,1,8,0:0:0:0:
256,192,263992,1,0,0:0:0:0:
256,192,264072,1,8,0:0:0:0:
256,192,264151,1,0,0:0:0:0:
256,192,264310,1,0,0:0:0:0:
256,192,264468,1,8,0:0:0:0:
256,192,264548,1,0,0:0:0:0:
256,192,264707,1,0,0:0:0:0:
256,192,264786,1,8,0:0:0:0:
256,192,264865,1,8,0:0:0:0:
256,192,264945,1,0,0:0:0:0:
256,192,265024,1,0,0:0:0:0:
256,192,265103,1,8,0:0:0:0:
256,192,265262,1,0,0:0:0:0:
256,192,265421,1,8,0:0:0:0:
256,192,265500,1,0,0:0:0:0:
256,192,265580,1,8,0:0:0:0:
256,192,265659,1,8,0:0:0:0:
256,192,265738,1,0,0:0:0:0:
256,192,265897,1,0,0:0:0:0:
256,192,265976,1,0,0:0:0:0:
256,192,266056,1,8,0:0:0:0:
256,192,266215,1,0,0:0:0:0:
256,192,266373,1,8,0:0:0:0:
256,192,266453,1,8,0:0:0:0:
256,192,266532,1,0,0:0:0:0:
256,192,266611,1,0,0:0:0:0:
256,192,266691,1,8,0:0:0:0:
256,192,266770,1,0,0:0:0:0:
256,192,266849,1,8,0:0:0:0:
256,192,267008,1,4,0:0:0:0:
256,192,267246,1,0,0:0:0:0:
256,192,267326,1,8,0:0:0:0:
256,192,267484,1,0,0:0:0:0:
256,192,267564,1,0,0:0:0:0:
256,192,267643,1,8,0:0:0:0:
256,192,267802,1,0,0:0:0:0:
256,192,267961,1,8,0:0:0:0:
256,192,268040,1,8,0:0:0:0:
256,192,268119,1,0,0:0:0:0:
256,192,268278,1,8,0:0:0:0:
256,192,268357,1,0,0:0:0:0:
256,192,268516,1,0,0:0:0:0:
256,192,268595,1,8,0:0:0:0:
256,192,268754,1,0,0:0:0:0:
256,192,268913,1,8,0:0:0:0:
256,192,268992,1,8,0:0:0:0:
256,192,269072,1,0,0:0:0:0:
256,192,269151,1,8,0:0:0:0:
256,192,269230,1,0,0:0:0:0:
256,192,269389,1,8,0:0:0:0:
256,192,269548,1,0,0:0:0:0:
256,192,269627,1,8,0:0:0:0:
256,192,269786,1,8,0:0:0:0:
256,192,269865,1,0,0:0:0:0:
256,192,270024,1,8,0:0:0:0:
256,192,270103,1,8,0:0:0:0:
256,192,270183,1,0,0:0:0:0:
256,192,270341,1,0,0:0:0:0:
256,192,270421,1,0,0:0:0:0:
256,192,270500,1,8,0:0:0:0:
256,192,270580,1,0,0:0:0:0:
256,192,270659,1,8,0:0:0:0:
256,192,270818,1,0,0:0:0:0:
256,192,270897,1,8,0:0:0:0:
256,192,271056,1,8,0:0:0:0:
256,192,271135,1,0,0:0:0:0:
256,192,271215,1,0,0:0:0:0:
256,192,271294,1,8,0:0:0:0:
256,192,271373,1,8,0:0:0:0:
256,192,271453,1,0,0:0:0:0:
256,192,271611,1,8,0:0:0:0:
256,192,271770,1,0,0:0:0:0:
256,192,271849,1,8,0:0:0:0:
256,192,271929,1,0,0:0:0:0:
256,192,272088,1,8,0:0:0:0:
256,192,272167,1,8,0:0:0:0:
256,192,272326,1,0,0:0:0:0:
256,192,272405,1,8,0:0:0:0:
256,192,272564,1,0,0:0:0:0:
256,192,272722,1,8,0:0:0:0:
256,192,272802,1,8,0:0:0:0:
256,192,272881,1,0,0:0:0:0:
256,192,272961,1,0,0:0:0:0:
256,192,273040,1,8,0:0:0:0:
256,192,273199,1,0,0:0:0:0:
256,192,273357,1,12,0:0:0:0:
256,192,273595,1,0,0:0:0:0:
256,192,273675,1,8,0:0:0:0:
256,192,273834,1,8,0:0:0:0:
256,192,273992,1,0,0:0:0:0:
256,192,274151,1,8,0:0:0:0:
256,192,274230,1,8,0:0:0:0:
256,192,274310,1,0,0:0:0:0:
256,192,274468,1,12,0:0:0:0:
256,192,274786,1,0,0:0:0:0:
256,192,274865,1,0,0:0:0:0:
256,192,274945,1,8,0:0:0:0:
256,192,275103,1,4,0:0:0:0:
256,192,275421,1,0,0:0:0:0:
256,192,275500,1,8,0:0:0:0:
256,192,275580,1,8,0:0:0:0:
256,192,275738,1,4,0:0:0:0:
256,192,276056,1,0,0:0:0:0:
256,192,276215,1,12,0:0:0:0:
256,192,276532,1,8,0:0:0:0:
256,192,276691,1,0,0:0:0:0:
256,192,276770,1,0,0:0:0:0:
256,192,276849,1,8,0:0:0:0:
256,192,276929,1,0,0:0:0:0:
256,192,277008,1,8,0:0:0:0:
256,192,277167,1,4,0:0:0:0:
256,192,277405,1,0,0:0:0:0:
256,192,277484,1,8,0:0:0:0:
256,192,277643,1,0,0:0:0:0:
256,192,277802,1,8,0:0:0:0:
256,192,277961,1,0,0:0:0:0:
256,192,278040,1,0,0:0:0:0:
256,192,278119,1,8,0:0:0:0:
256,192,278278,1,8,0:0:0:0:
256,192,278437,1,0,0:0:0:0:
256,192,278516,1,0,0:0:0:0:
256,192,278675,1,8,0:0:0:0:
256,192,278754,1,0,0:0:0:0:
256,192,278913,1,8,0:0:0:0:
256,192,279072,1,0,0:0:0:0:
256,192,279230,1,8,0:0:0:0:
256,192,279389,1,0,0:0:0:0:
256,192,279548,1,0,0:0:0:0:
256,192,279707,1,8,0:0:0:0:
256,192,279865,1,0,0:0:0:0:
256,192,279945,1,0,0:0:0:0:
256,192,280024,1,8,0:0:0:0:
256,192,280183,1,0,0:0:0:0:
256,192,280341,1,8,0:0:0:0:
256,192,280500,1,8,0:0:0:0:
256,192,280659,1,0,0:0:0:0:
256,192,280818,1,0,0:0:0:0:
256,192,280976,1,8,0:0:0:0:
256,192,281294,1,0,0:0:0:0:
256,192,281453,1,8,0:0:0:0:
256,192,281611,1,0,0:0:0:0:
256,192,281770,1,0,0:0:0:0:
256,192,281929,1,8,0:0:0:0:
256,192,282088,1,0,0:0:0:0:
256,192,282246,1,8,0:0:0:0:
256,192,282326,1,0,0:0:0:0:
256,192,282484,1,0,0:0:0:0:
256,192,282564,1,8,0:0:0:0:
256,192,282722,1,0,0:0:0:0:
256,192,282881,1,8,0:0:0:0:
256,192,283199,1,8,0:0:0:0:
256,192,283357,1,8,0:0:0:0:
256,192,283516,1,0,0:0:0:0:
256,192,283595,1,8,0:0:0:0:
256,192,283754,1,8,0:0:0:0:
256,192,283834,1,0,0:0:0:0:
256,192,283992,1,8,0:0:0:0:
256,192,284151,1,0,0:0:0:0:
256,192,284230,1,0,0:0:0:0:
256,192,284389,1,8,0:0:0:0:
256,192,284468,1,0,0:0:0:0:
256,192,284627,1,0,0:0:0:0:
256,192,284786,1,8,0:0:0:0:
256,192,285024,1,0,0:0:0:0:
256,192,285103,1,8,0:0:0:0:
256,192,285262,1,0,0:0:0:0:
256,192,285421,1,8,0:0:0:0:
256,192,285580,1,0,0:0:0:0:
256,192,285659,1,0,0:0:0:0:
256,192,285738,1,8,0:0:0:0:
256,192,285897,1,8,0:0:0:0:
256,192,286056,1,0,0:0:0:0:
256,192,286135,5,0,0:0:0:0:
256,192,286215,1,8,0:0:0:0:
256,192,286294,1,8,0:0:0:0:
256,192,286373,1,0,0:0:0:0:
256,192,286453,1,8,0:0:0:0:
256,192,286532,1,0,0:0:0:0:
256,192,286611,1,0,0:0:0:0:
256,192,286691,1,8,0:0:0:0:
256,192,286770,1,0,0:0:0:0:
256,192,286849,1,0,0:0:0:0:
256,192,286929,1,0,0:0:0:0:
256,192,287008,1,8,0:0:0:0:
252,194,287326,5,4,0:0:0:0:
252,194,287564,1,8,0:0:0:0:
252,194,287643,1,0,0:0:0:0:
252,194,287802,1,8,0:0:0:0:
252,194,287961,1,0,0:0:0:0:
252,194,288040,1,8,0:0:0:0:
252,194,288199,1,8,0:0:0:0:
252,194,288278,1,0,0:0:0:0:
252,194,288357,1,0,0:0:0:0:
252,194,288437,1,8,0:0:0:0:
252,194,288595,1,0,0:0:0:0:
252,194,288675,1,8,0:0:0:0:
252,194,288754,1,0,0:0:0:0:
252,194,288834,1,0,0:0:0:0:
252,194,288913,1,8,0:0:0:0:
252,194,288992,1,0,0:0:0:0:
252,194,289072,1,8,0:0:0:0:
252,194,289230,1,0,0:0:0:0:
252,194,289310,1,8,0:0:0:0:
252,194,289468,1,8,0:0:0:0:
252,194,289548,1,0,0:0:0:0:
252,194,289627,1,0,0:0:0:0:
252,194,289707,1,8,0:0:0:0:
252,194,289786,1,8,0:0:0:0:
252,194,289865,1,0,0:0:0:0:
252,194,290024,1,8,0:0:0:0:
252,194,290103,1,0,0:0:0:0:
252,194,290183,1,0,0:0:0:0:
252,194,290262,1,0,0:0:0:0:
252,194,290341,1,8,0:0:0:0:
252,194,290500,1,0,0:0:0:0:
252,194,290659,1,8,0:0:0:0:
252,194,290738,1,0,0:0:0:0:
252,194,290818,1,8,0:0:0:0:
252,194,290897,1,8,0:0:0:0:
252,194,290976,1,0,0:0:0:0:
252,194,291056,1,8,0:0:0:0:
252,194,291135,1,0,0:0:0:0:
252,194,291294,1,8,0:0:0:0:
252,194,291373,1,8,0:0:0:0:
252,194,291453,1,0,0:0:0:0:
252,194,291611,5,8,0:0:0:0:
252,194,291770,1,0,0:0:0:0:
252,194,291849,1,8,0:0:0:0:
252,194,291929,1,0,0:0:0:0:
252,194,292008,1,0,0:0:0:0:
252,194,292088,1,8,0:0:0:0:
252,194,292167,1,0,0:0:0:0:
252,194,292246,1,8,0:0:0:0:
252,194,292326,1,8,0:0:0:0:
252,194,292405,1,0,0:0:0:0:
252,194,292564,1,8,0:0:0:0:
252,194,292643,1,0,0:0:0:0:
252,194,292722,1,0,0:0:0:0:
252,194,292881,5,8,0:0:0:0:
252,194,293040,1,0,0:0:0:0:
252,194,293119,1,0,0:0:0:0:
252,194,293199,1,8,0:0:0:0:
252,194,293278,1,8,0:0:0:0:
252,194,293357,1,0,0:0:0:0:
252,194,293516,1,8,0:0:0:0:
252,194,293675,1,0,0:0:0:0:
252,194,293834,1,8,0:0:0:0:
252,194,293913,1,8,0:0:0:0:
252,194,293992,1,0,0:0:0:0:
252,194,294072,1,0,0:0:0:0:
252,194,294151,1,8,0:0:0:0:
252,194,294310,1,0,0:0:0:0:
252,194,294389,1,8,0:0:0:0:
252,194,294548,1,8,0:0:0:0:
252,194,294627,1,0,0:0:0:0:
252,194,294707,1,0,0:0:0:0:
252,194,294786,1,8,0:0:0:0:
252,194,294865,1,8,0:0:0:0:
252,194,294945,1,0,0:0:0:0:
252,194,295103,1,8,0:0:0:0:
252,194,295183,1,0,0:0:0:0:
252,194,295262,1,8,0:0:0:0:
252,194,295341,1,8,0:0:0:0:
252,194,295421,1,0,0:0:0:0:
252,194,295580,1,8,0:0:0:0:
252,194,295738,1,0,0:0:0:0:
252,194,295818,1,0,0:0:0:0:
252,194,295897,1,8,0:0:0:0:
252,194,295976,1,8,0:0:0:0:
252,194,296056,1,0,0:0:0:0:
252,194,296215,1,8,0:0:0:0:
252,194,296373,1,0,0:0:0:0:
252,194,296453,1,8,0:0:0:0:
252,194,296532,1,8,0:0:0:0:
252,194,296691,1,0,0:0:0:0:
252,194,296770,1,8,0:0:0:0:
252,194,296849,1,0,0:0:0:0:
252,194,296929,1,0,0:0:0:0:
252,194,297008,1,8,0:0:0:0:
252,194,297088,1,8,0:0:0:0:
252,194,297167,1,0,0:0:0:0:
252,194,297484,1,4,0:0:0:0:
252,194,297722,1,8,0:0:0:0:
252,194,297802,1,0,0:0:0:0:
252,194,297961,1,8,0:0:0:0:
252,194,298119,1,0,0:0:0:0:
252,194,298199,1,8,0:0:0:0:
252,194,298357,1,8,0:0:0:0:
252,194,298437,1,0,0:0:0:0:
252,194,298516,1,0,0:0:0:0:
252,194,298595,1,8,0:0:0:0:
252,194,298675,1,8,0:0:0:0:
252,194,298754,1,0,0:0:0:0:
252,194,298913,1,8,0:0:0:0:
252,194,298992,1,8,0:0:0:0:
252,194,299072,1,0,0:0:0:0:
252,194,299151,1,0,0:0:0:0:
252,194,299230,1,8,0:0:0:0:
252,194,299389,1,0,0:0:0:0:
252,194,299468,1,8,0:0:0:0:
252,194,299627,1,8,0:0:0:0:
252,194,299707,1,8,0:0:0:0:
252,194,299786,1,0,0:0:0:0:
252,194,299865,1,8,0:0:0:0:
252,194,299945,1,8,0:0:0:0:
252,194,300024,1,0,0:0:0:0:
252,194,300183,1,8,0:0:0:0:
252,194,300262,1,0,0:0:0:0:
252,194,300421,1,0,0:0:0:0:
252,194,300500,1,8,0:0:0:0:
252,194,300580,1,8,0:0:0:0:
252,194,300659,1,0,0:0:0:0:
252,194,300818,1,8,0:0:0:0:
252,194,300897,1,8,0:0:0:0:
252,194,300976,1,0,0:0:0:0:
252,194,301056,1,0,0:0:0:0:
252,194,301135,1,8,0:0:0:0:
252,194,301294,1,0,0:0:0:0:
252,194,301453,1,8,0:0:0:0:
252,194,301532,1,8,0:0:0:0:
252,194,301611,1,0,0:0:0:0:
252,194,301770,5,8,0:0:0:0:
252,194,301929,1,0,0:0:0:0:
252,194,302008,1,8,0:0:0:0:
252,194,302088,1,0,0:0:0:0:
252,194,302167,1,0,0:0:0:0:
252,194,302246,1,8,0:0:0:0:
252,194,302326,1,0,0:0:0:0:
252,194,302405,1,8,0:0:0:0:
252,194,302484,1,8,0:0:0:0:
252,194,302564,1,0,0:0:0:0:
252,194,302722,1,8,0:0:0:0:
252,194,302802,1,0,0:0:0:0:
252,194,302881,1,0,0:0:0:0:
252,194,302961,1,0,0:0:0:0:
252,194,303040,5,8,0:0:0:0:
252,194,303199,1,0,0:0:0:0:
252,194,303278,1,0,0:0:0:0:
252,194,303357,1,8,0:0:0:0:
252,194,303437,1,8,0:0:0:0:
252,194,303516,1,0,0:0:0:0:
252,194,303675,1,8,0:0:0:0:
252,194,303834,1,4,0:0:0:0:
256,192,303992,12,0,304945,0:0:0:0:
252,194,305103,5,4,0:0:0:0:
252,194,305262,1,8,0:0:0:0:
252,194,305341,1,8,0:0:0:0:
252,194,305421,1,0,0:0:0:0:
252,194,305580,1,8,0:0:0:0:
252,194,305738,1,4,0:0:0:0:
252,194,305897,1,8,0:0:0:0:
252,194,305976,1,8,0:0:0:0:
252,194,306056,1,0,0:0:0:0:
252,194,306135,1,0,0:0:0:0:
252,194,306215,1,8,0:0:0:0:
252,194,306373,1,4,0:0:0:0:
252,194,306691,1,0,0:0:0:0:
252,194,306849,1,8,0:0:0:0:
252,194,307008,1,8,0:0:0:0:
252,194,307167,1,0,0:0:0:0:
252,194,307326,1,8,0:0:0:0:
252,194,307405,1,8,0:0:0:0:
252,194,307484,1,0,0:0:0:0:
252,194,307564,1,8,0:0:0:0:
252,194,307643,1,0,0:0:0:0:
252,194,308913,1,8,0:0:0:0:
252,194,310183,1,0,0:0:0:0:
252,194,311453,1,4,0:0:0:0:
252,194,311770,1,4,0:0:0:0:
252,194,312088,1,4,0:0:0:0:
252,194,312405,1,4,0:0:0:0:
252,194,312722,5,4,0:0:0:0:
252,194,312961,1,8,0:0:0:0:
252,194,313040,1,0,0:0:0:0:
252,194,313199,1,8,0:0:0:0:
252,194,313357,1,0,0:0:0:0:
252,194,313437,1,8,0:0:0:0:
252,194,313595,1,8,0:0:0:0:
252,194,313675,1,0,0:0:0:0:
252,194,313754,1,0,0:0:0:0:
252,194,313834,1,8,0:0:0:0:
252,194,313913,1,8,0:0:0:0:
252,194,313992,1,0,0:0:0:0:
252,194,314151,1,8,0:0:0:0:
252,194,314230,1,8,0:0:0:0:
252,194,314310,1,0,0:0:0:0:
252,194,314389,1,0,0:0:0:0:
252,194,314468,1,8,0:0:0:0:
252,194,314627,1,0,0:0:0:0:
252,194,314707,1,8,0:0:0:0:
252,194,314865,1,8,0:0:0:0:
252,194,314945,1,8,0:0:0:0:
252,194,315024,1,0,0:0:0:0:
252,194,315103,1,8,0:0:0:0:
252,194,315183,1,8,0:0:0:0:
252,194,315262,1,0,0:0:0:0:
252,194,315421,1,8,0:0:0:0:
252,194,315500,1,0,0:0:0:0:
252,194,315580,1,0,0:0:0:0:
252,194,315659,1,0,0:0:0:0:
252,194,315738,1,8,0:0:0:0:
252,194,315897,1,0,0:0:0:0:
252,194,316056,1,8,0:0:0:0:
252,194,316135,1,8,0:0:0:0:
252,194,316215,1,0,0:0:0:0:
252,194,316294,1,0,0:0:0:0:
252,194,316373,1,8,0:0:0:0:
252,194,316532,1,0,0:0:0:0:
252,194,316691,1,8,0:0:0:0:
252,194,316770,1,8,0:0:0:0:
252,194,316849,1,0,0:0:0:0:
252,194,317008,5,8,0:0:0:0:
252,194,317167,1,0,0:0:0:0:
252,194,317246,1,8,0:0:0:0:
252,194,317326,1,0,0:0:0:0:
252,194,317405,1,0,0:0:0:0:
252,194,317484,1,8,0:0:0:0:
252,194,317564,1,0,0:0:0:0:
252,194,317643,1,8,0:0:0:0:
252,194,317722,1,8,0:0:0:0:
252,194,317802,1,0,0:0:0:0:
252,194,317961,1,8,0:0:0:0:
252,194,318040,1,0,0:0:0:0:
252,194,318119,1,0,0:0:0:0:
252,194,318278,5,8,0:0:0:0:
252,194,318437,1,0,0:0:0:0:
252,194,318516,1,8,0:0:0:0:
252,194,318595,1,0,0:0:0:0:
252,194,318675,1,0,0:0:0:0:
252,194,318754,1,8,0:0:0:0:
252,194,318834,1,0,0:0:0:0:
252,194,318913,1,8,0:0:0:0:
252,194,318992,1,8,0:0:0:0:
252,194,319072,1,0,0:0:0:0:
252,194,319230,1,8,0:0:0:0:
252,194,319310,1,8,0:0:0:0:
252,194,319389,1,0,0:0:0:0:
252,194,319468,1,0,0:0:0:0:
252,194,319548,1,8,0:0:0:0:
252,194,319707,1,0,0:0:0:0:
252,194,319786,1,8,0:0:0:0:
252,194,319945,1,8,0:0:0:0:
252,194,320024,1,0,0:0:0:0:
252,194,320103,1,0,0:0:0:0:
252,194,320183,1,8,0:0:0:0:
252,194,320262,1,8,0:0:0:0:
252,194,320341,1,0,0:0:0:0:
252,194,320500,1,8,0:0:0:0:
252,194,320580,1,0,0:0:0:0:
252,194,320659,1,8,0:0:0:0:
252,194,320738,1,8,0:0:0:0:
252,194,320818,1,0,0:0:0:0:
252,194,320897,1,0,0:0:0:0:
252,194,320976,1,8,0:0:0:0:
252,194,321135,1,0,0:0:0:0:
252,194,321215,1,0,0:0:0:0:
252,194,321294,1,8,0:0:0:0:
252,194,321373,1,8,0:0:0:0:
252,194,321453,1,0,0:0:0:0:
252,194,321611,1,8,0:0:0:0:
252,194,321770,1,0,0:0:0:0:
252,194,321849,1,8,0:0:0:0:
252,194,321929,1,8,0:0:0:0:
252,194,322088,1,0,0:0:0:0:
252,194,322167,1,0,0:0:0:0:
252,194,322246,1,8,0:0:0:0:
252,194,322326,1,0,0:0:0:0:
252,194,322405,1,8,0:0:0:0:
252,194,322484,1,8,0:0:0:0:
252,194,322564,1,0,0:0:0:0:
252,194,322722,1,8,0:0:0:0:
252,194,322881,1,4,0:0:0:0:
252,194,323040,1,8,0:0:0:0:
252,194,323119,1,8,0:0:0:0:
252,194,323199,1,0,0:0:0:0:
252,194,323357,1,8,0:0:0:0:
252,194,323516,1,4,0:0:0:0:
252,194,323675,1,8,0:0:0:0:
252,194,323754,1,8,0:0:0:0:
252,194,323834,1,0,0:0:0:0:
252,194,323913,1,0,0:0:0:0:
252,194,323992,1,8,0:0:0:0:
252,194,324151,1,4,0:0:0:0:
252,194,324468,1,8,0:0:0:0:
252,194,324627,1,0,0:0:0:0:
252,194,324786,1,8,0:0:0:0:
252,194,324865,1,0,0:0:0:0:
252,194,324945,1,0,0:0:0:0:
252,194,325024,1,0,0:0:0:0:
252,194,325103,1,8,0:0:0:0:
252,194,325183,1,8,0:0:0:0:
252,194,325262,1,0,0:0:0:0:
252,194,325341,1,0,0:0:0:0:
256,192,325421,1,8,0:0:0:0:
256,192,325500,1,0,0:0:0:0:
256,192,325580,1,8,0:0:0:0:
256,192,325659,1,8,0:0:0:0:
256,192,325738,1,8,0:0:0:0:
256,192,325818,1,8,0:0:0:0:
256,192,325897,1,0,0:0:0:0:
256,192,325976,1,0,0:0:0:0:
256,192,326056,1,8,0:0:0:0:
256,192,326135,1,0,0:0:0:0:
256,192,326215,1,0,0:0:0:0:
256,192,326294,1,0,0:0:0:0:
256,192,326373,1,8,0:0:0:0:
256,192,326453,1,8,0:0:0:0:
256,192,326532,1,0,0:0:0:0:
256,192,326611,1,0,0:0:0:0:
256,192,326691,1,8,0:0:0:0:
256,192,326770,1,0,0:0:0:0:
256,192,326849,1,8,0:0:0:0:
256,192,326929,1,8,0:0:0:0:
256,192,327008,1,0,0:0:0:0:
256,192,327088,1,8,0:0:0:0:
256,192,327167,1,0,0:0:0:0:
256,192,327246,1,0,0:0:0:0:
256,192,327326,1,8,0:0:0:0:
256,192,327405,1,8,0:0:0:0:
256,192,327484,1,8,0:0:0:0:
256,192,327564,1,8,0:0:0:0:
256,192,327643,1,0,0:0:0:0:
256,192,327722,1,0,0:0:0:0:
256,192,327802,1,8,0:0:0:0:
256,192,327881,1,0,0:0:0:0:
256,192,327961,1,8,0:0:0:0:
256,192,328040,1,8,0:0:0:0:
256,192,328119,1,0,0:0:0:0:
256,192,328199,1,8,0:0:0:0:
256,192,328278,1,0,0:0:0:0:
256,192,328357,1,0,0:0:0:0:
256,192,328437,1,8,0:0:0:0:
256,192,328516,1,0,0:0:0:0:
256,192,328595,1,8,0:0:0:0:
256,192,328675,1,0,0:0:0:0:
256,192,328754,1,0,0:0:0:0:
256,192,328834,1,8,0:0:0:0:
256,192,328913,1,0,0:0:0:0:
256,192,328992,1,0,0:0:0:0:
256,192,329072,1,8,0:0:0:0:
256,192,329151,1,0,0:0:0:0:
256,192,329230,1,8,0:0:0:0:
256,192,329310,1,8,0:0:0:0:
256,192,329389,1,8,0:0:0:0:
256,192,329468,1,8,0:0:0:0:
256,192,329548,1,0,0:0:0:0:
256,192,329627,1,0,0:0:0:0:
256,192,329707,1,0,0:0:0:0:
256,192,329786,1,0,0:0:0:0:
256,192,329865,1,8,0:0:0:0:
256,192,329945,1,8,0:0:0:0:
256,192,330024,1,0,0:0:0:0:
256,192,330103,1,0,0:0:0:0:
256,192,330183,1,8,0:0:0:0:
256,192,330262,1,0,0:0:0:0:
256,192,330341,1,0,0:0:0:0:
256,192,330421,1,0,0:0:0:0:
256,192,330500,1,8,0:0:0:0:
256,192,330580,1,8,0:0:0:0:
256,192,330659,1,0,0:0:0:0:
256,192,330738,1,0,0:0:0:0:
256,192,330818,1,0,0:0:0:0:
256,192,330897,1,0,0:0:0:0:
256,192,330976,1,8,0:0:0:0:
256,192,331056,1,0,0:0:0:0:
256,192,331135,1,8,0:0:0:0:
256,192,331215,1,8,0:0:0:0:
256,192,331294,1,0,0:0:0:0:
256,192,331373,1,8,0:0:0:0:
256,192,331453,1,0,0:0:0:0:
256,192,331532,1,0,0:0:0:0:
256,192,331611,1,8,0:0:0:0:
256,192,331691,1,0,0:0:0:0:
256,192,331770,1,8,0:0:0:0:
256,192,331849,1,8,0:0:0:0:
256,192,331929,1,0,0:0:0:0:
256,192,332008,1,0,0:0:0:0:
256,192,332088,1,0,0:0:0:0:
256,192,332167,1,0,0:0:0:0:
256,192,332246,1,8,0:0:0:0:
256,192,332326,1,0,0:0:0:0:
256,192,332405,1,8,0:0:0:0:
256,192,332484,1,8,0:0:0:0:
256,192,332564,1,0,0:0:0:0:
256,192,332643,1,0,0:0:0:0:
256,192,332722,1,8,0:0:0:0:
256,192,332802,1,0,0:0:0:0:
256,192,332881,1,0,0:0:0:0:
256,192,332961,1,0,0:0:0:0:
256,192,333040,1,8,0:0:0:0:
256,192,333119,1,8,0:0:0:0:
256,192,333199,1,8,0:0:0:0:
256,192,333278,1,8,0:0:0:0:
256,192,333357,1,0,0:0:0:0:
256,192,333437,1,0,0:0:0:0:
256,192,333516,1,0,0:0:0:0:
256,192,333595,5,0,0:0:0:0:
256,192,333675,1,8,0:0:0:0:
256,192,333754,1,0,0:0:0:0:
256,192,333834,1,0,0:0:0:0:
256,192,333913,1,0,0:0:0:0:
256,192,333992,1,8,0:0:0:0:
256,192,334072,1,8,0:0:0:0:
256,192,334151,1,0,0:0:0:0:
256,192,334230,1,0,0:0:0:0:
256,192,334310,1,8,0:0:0:0:
256,192,334389,1,8,0:0:0:0:
256,192,334468,1,8,0:0:0:0:
256,192,334548,1,8,0:0:0:0:
256,192,334627,1,0,0:0:0:0:
256,192,334786,1,0,0:0:0:0:
256,192,334945,1,8,0:0:0:0:
256,192,335024,1,0,0:0:0:0:
256,192,335103,1,0,0:0:0:0:
256,192,335183,1,0,0:0:0:0:
256,192,335262,1,8,0:0:0:0:
256,192,335341,1,8,0:0:0:0:
256,192,335421,1,0,0:0:0:0:
256,192,335500,1,0,0:0:0:0:
256,192,335580,1,8,0:0:0:0:
256,192,335659,1,0,0:0:0:0:
256,192,335738,1,8,0:0:0:0:
256,192,335818,1,8,0:0:0:0:
256,192,335897,1,0,0:0:0:0:
256,192,335976,1,0,0:0:0:0:
256,192,336056,1,8,0:0:0:0:
256,192,336135,1,0,0:0:0:0:
256,192,336215,1,0,0:0:0:0:
256,192,336294,1,0,0:0:0:0:
256,192,336373,1,8,0:0:0:0:
256,192,336453,1,8,0:0:0:0:
256,192,336532,1,0,0:0:0:0:
256,192,336611,1,8,0:0:0:0:
256,192,336691,1,0,0:0:0:0:
256,192,336770,1,0,0:0:0:0:
256,192,336849,1,8,0:0:0:0:
256,192,336929,1,0,0:0:0:0:
256,192,337008,1,0,0:0:0:0:
256,192,337088,1,8,0:0:0:0:
256,192,337167,1,0,0:0:0:0:
256,192,337246,1,0,0:0:0:0:
256,192,337326,1,8,0:0:0:0:
256,192,337405,1,0,0:0:0:0:
256,192,337484,1,0,0:0:0:0:
256,192,337564,1,0,0:0:0:0:
256,192,337643,1,8,0:0:0:0:
256,192,337722,1,8,0:0:0:0:
256,192,337802,1,8,0:0:0:0:
256,192,337881,1,8,0:0:0:0:
256,192,337961,1,0,0:0:0:0:
256,192,338040,1,0,0:0:0:0:
256,192,338119,1,8,0:0:0:0:
256,192,338199,1,8,0:0:0:0:
256,192,338278,1,0,0:0:0:0:
256,192,338357,1,8,0:0:0:0:
256,192,338437,1,0,0:0:0:0:
256,192,338516,1,0,0:0:0:0:
256,192,338595,1,8,0:0:0:0:
256,192,338675,1,0,0:0:0:0:
256,192,338754,1,8,0:0:0:0:
256,192,338834,1,0,0:0:0:0:
256,192,338913,1,0,0:0:0:0:
256,192,338992,1,8,0:0:0:0:
256,192,339072,1,0,0:0:0:0:
256,192,339151,1,0,0:0:0:0:
256,192,339230,1,8,0:0:0:0:
256,192,339389,1,4,0:0:0:0:
256,192,339548,1,8,0:0:0:0:
256,192,339627,1,8,0:0:0:0:
256,192,339707,1,0,0:0:0:0:
256,192,339865,1,8,0:0:0:0:
256,192,340024,1,4,0:0:0:0:
256,192,340262,1,4,0:0:0:0:
256,192,340500,1,4,0:0:0:0:
256,192,340659,1,12,0:0:0:0:
256,192,340818,1,0,0:0:0:0:
256,192,340897,1,8,0:0:0:0:
256,192,340976,1,0,0:0:0:0:
256,192,341056,1,0,0:0:0:0:
256,192,341135,1,8,0:0:0:0:
256,192,341294,1,0,0:0:0:0:
256,192,341373,1,8,0:0:0:0:
256,192,341532,1,8,0:0:0:0:
256,192,341611,1,0,0:0:0:0:
256,192,341691,1,0,0:0:0:0:
256,192,341770,1,8,0:0:0:0:
256,192,341929,1,4,0:0:0:0:
256,192,342167,1,0,0:0:0:0:
256,192,342246,1,8,0:0:0:0:
256,192,342405,1,0,0:0:0:0:
256,192,342564,1,8,0:0:0:0:
256,192,342643,1,8,0:0:0:0:
256,192,342802,1,0,0:0:0:0:
256,192,342881,1,8,0:0:0:0:
256,192,343040,1,8,0:0:0:0:
256,192,343199,1,4,0:0:0:0:
256,192,343437,1,8,0:0:0:0:
256,192,343516,1,8,0:0:0:0:
256,192,343675,1,8,0:0:0:0:
256,192,343834,1,4,0:0:0:0:
256,192,344072,1,8,0:0:0:0:
256,192,344151,1,8,0:0:0:0:
256,192,344310,1,8,0:0:0:0:
256,192,344468,1,4,0:0:0:0:
256,192,344786,1,4,0:0:0:0:
256,192,344945,1,0,0:0:0:0:
256,192,345103,1,8,0:0:0:0:
256,192,345262,1,0,0:0:0:0:
256,192,345341,1,0,0:0:0:0:
256,192,345421,1,8,0:0:0:0:
256,192,345500,1,8,0:0:0:0:
256,192,345580,1,8,0:0:0:0:
256,192,345738,1,4,0:0:0:0:
256,192,345976,1,8,0:0:0:0:
256,192,346056,1,0,0:0:0:0:
256,192,346215,1,8,0:0:0:0:
256,192,346373,1,0,0:0:0:0:
256,192,346691,1,8,0:0:0:0:
256,192,346849,1,8,0:0:0:0:
256,192,347008,1,0,0:0:0:0:
256,192,347246,1,8,0:0:0:0:
256,192,347326,1,0,0:0:0:0:
256,192,347484,1,0,0:0:0:0:
256,192,347643,1,8,0:0:0:0:
256,192,347961,1,0,0:0:0:0:
256,192,348119,1,8,0:0:0:0:
256,192,348278,1,0,0:0:0:0:
256,192,348516,1,8,0:0:0:0:
256,192,348595,1,0,0:0:0:0:
256,192,348754,1,8,0:0:0:0:
256,192,348913,1,0,0:0:0:0:
256,192,349151,1,8,0:0:0:0:
256,192,349230,1,0,0:0:0:0:
256,192,349468,1,8,0:0:0:0:
256,192,349548,1,0,0:0:0:0:
256,192,349786,1,8,0:0:0:0:
256,192,349865,1,0,0:0:0:0:
256,192,350024,1,8,0:0:0:0:
256,192,350183,1,0,0:0:0:0:
256,192,350500,1,8,0:0:0:0:
256,192,350659,1,8,0:0:0:0:
256,192,350818,1,0,0:0:0:0:
256,192,351056,1,0,0:0:0:0:
256,192,351135,1,8,0:0:0:0:
256,192,351294,1,8,0:0:0:0:
256,192,351453,1,0,0:0:0:0:
256,192,351691,1,0,0:0:0:0:
256,192,351770,1,8,0:0:0:0:
256,192,352008,1,8,0:0:0:0:
256,192,352088,1,0,0:0:0:0:
256,192,352326,1,0,0:0:0:0:
256,192,352405,1,8,0:0:0:0:
256,192,352564,1,8,0:0:0:0:
256,192,352722,1,0,0:0:0:0:
256,192,352881,1,8,0:0:0:0:
256,192,353040,1,8,0:0:0:0:
256,192,353278,1,8,0:0:0:0:
256,192,353357,1,0,0:0:0:0:
256,192,353595,1,0,0:0:0:0:
256,192,353675,1,8,0:0:0:0:
256,192,353834,1,8,0:0:0:0:
256,192,353992,1,0,0:0:0:0:
256,192,354230,1,0,0:0:0:0:
256,192,354310,1,8,0:0:0:0:
256,192,354548,1,8,0:0:0:0:
256,192,354627,1,0,0:0:0:0:
256,192,354945,5,8,0:0:0:0:
256,192,355421,1,0,0:0:0:0:
256,192,355580,1,8,0:0:0:0:
252,194,355897,5,4,0:0:0:0:
252,194,356056,1,8,0:0:0:0:
252,194,356135,1,8,0:0:0:0:
252,194,356215,1,0,0:0:0:0:
252,194,356373,1,8,0:0:0:0:
252,194,356532,1,0,0:0:0:0:
252,194,356611,1,0,0:0:0:0:
252,194,356691,1,8,0:0:0:0:
252,194,356770,1,8,0:0:0:0:
252,194,356849,1,0,0:0:0:0:
252,194,357008,1,8,0:0:0:0:
252,194,357167,1,0,0:0:0:0:
252,194,357326,1,0,0:0:0:0:
252,194,357405,1,0,0:0:0:0:
252,194,357484,1,8,0:0:0:0:
252,194,357643,1,0,0:0:0:0:
252,194,357802,1,8,0:0:0:0:
252,194,357881,1,8,0:0:0:0:
252,194,357961,1,0,0:0:0:0:
252,194,358040,1,8,0:0:0:0:
252,194,358119,1,0,0:0:0:0:
252,194,358278,1,8,0:0:0:0:
252,194,358437,5,0,0:0:0:0:
252,194,358595,1,8,0:0:0:0:
252,194,358675,1,8,0:0:0:0:
252,194,358754,1,0,0:0:0:0:
252,194,358913,1,8,0:0:0:0:
252,194,359072,1,0,0:0:0:0:
252,194,359151,1,0,0:0:0:0:
252,194,359230,1,8,0:0:0:0:
252,194,359310,1,8,0:0:0:0:
252,194,359389,1,0,0:0:0:0:
252,194,359548,1,8,0:0:0:0:
252,194,359707,1,0,0:0:0:0:
252,194,359865,1,0,0:0:0:0:
252,194,359945,1,0,0:0:0:0:
252,194,360024,1,8,0:0:0:0:
252,194,360183,1,0,0:0:0:0:
252,194,360341,1,8,0:0:0:0:
252,194,360421,1,0,0:0:0:0:
252,194,360500,1,8,0:0:0:0:
252,194,360580,1,8,0:0:0:0:
252,194,360659,1,0,0:0:0:0:
252,194,360818,1,8,0:0:0:0:
252,194,360976,5,0,0:0:0:0:
252,194,361135,1,8,0:0:0:0:
252,194,361215,1,8,0:0:0:0:
252,194,361294,1,0,0:0:0:0:
252,194,361453,1,8,0:0:0:0:
252,194,361611,1,0,0:0:0:0:
252,194,361691,1,0,0:0:0:0:
252,194,361770,1,8,0:0:0:0:
252,194,361849,1,8,0:0:0:0:
252,194,361929,1,0,0:0:0:0:
252,194,362088,1,8,0:0:0:0:
252,194,362246,1,0,0:0:0:0:
252,194,362405,1,0,0:0:0:0:
252,194,362484,1,0,0:0:0:0:
252,194,362564,1,8,0:0:0:0:
252,194,362722,1,0,0:0:0:0:
252,194,362881,1,8,0:0:0:0:
252,194,362961,1,8,0:0:0:0:
252,194,363040,1,0,0:0:0:0:
252,194,363119,1,8,0:0:0:0:
252,194,363199,1,0,0:0:0:0:
252,194,363357,1,8,0:0:0:0:
252,194,363516,5,0,0:0:0:0:
252,194,363675,1,0,0:0:0:0:
252,194,363754,1,0,0:0:0:0:
252,194,363834,1,8,0:0:0:0:
252,194,363992,1,0,0:0:0:0:
252,194,364151,1,8,0:0:0:0:
252,194,364230,1,0,0:0:0:0:
252,194,364310,1,8,0:0:0:0:
252,194,364389,1,8,0:0:0:0:
252,194,364468,1,0,0:0:0:0:
252,194,364548,1,0,0:0:0:0:
252,194,364627,1,8,0:0:0:0:
252,194,364786,1,4,0:0:0:0:
256,192,364945,12,0,365897,0:0:0:0:
252,194,366056,5,4,0:0:0:0:
252,194,366373,1,8,0:0:0:0:
252,194,366691,1,0,0:0:0:0:
252,194,366849,1,0,0:0:0:0:
252,194,367008,1,8,0:0:0:0:
252,194,367326,1,0,0:0:0:0:
252,194,367643,1,8,0:0:0:0:
252,194,367802,1,8,0:0:0:0:
252,194,367961,1,0,0:0:0:0:
252,194,368119,1,0,0:0:0:0:
252,194,368278,1,8,0:0:0:0:
252,194,368595,1,0,0:0:0:0:
252,194,368913,1,8,0:0:0:0:
252,194,369230,1,0,0:0:0:0:
252,194,369389,1,0,0:0:0:0:
252,194,369548,1,8,0:0:0:0:
252,194,369865,1,0,0:0:0:0:
252,194,370183,1,8,0:0:0:0:
252,194,370341,1,0,0:0:0:0:
252,194,370500,1,0,0:0:0:0:
252,194,370659,1,0,0:0:0:0:
252,194,370818,1,8,0:0:0:0:
252,194,371135,5,0,0:0:0:0:
252,194,371453,1,8,0:0:0:0:
252,194,371770,1,0,0:0:0:0:
252,194,371929,1,0,0:0:0:0:
252,194,372088,1,8,0:0:0:0:
252,194,372405,1,0,0:0:0:0:
252,194,372722,1,8,0:0:0:0:
252,194,372881,1,8,0:0:0:0:
252,194,373040,1,0,0:0:0:0:
252,194,373199,1,0,0:0:0:0:
252,194,373357,1,8,0:0:0:0:
252,194,373675,1,0,0:0:0:0:
252,194,373992,1,8,0:0:0:0:
252,194,374310,1,0,0:0:0:0:
252,194,374468,1,0,0:0:0:0:
252,194,374627,1,8,0:0:0:0:
252,194,374945,1,0,0:0:0:0:
252,194,375262,5,8,0:0:0:0:
252,194,375738,1,0,0:0:0:0:
252,194,375897,1,8,0:0:0:0:
252,194,376215,5,4,0:0:0:0:
252,194,376532,1,8,0:0:0:0:
252,194,376849,1,0,0:0:0:0:
252,194,377167,1,8,0:0:0:0:
252,194,377484,1,0,0:0:0:0:
252,194,377643,1,0,0:0:0:0:
252,194,377802,1,8,0:0:0:0:
252,194,378119,1,0,0:0:0:0:
252,194,378278,1,8,0:0:0:0:
252,194,378437,1,8,0:0:0:0:
252,194,378754,1,0,0:0:0:0:
252,194,379072,1,8,0:0:0:0:
252,194,379389,1,0,0:0:0:0:
252,194,379707,1,8,0:0:0:0:
252,194,380024,1,0,0:0:0:0:
252,194,380183,1,0,0:0:0:0:
252,194,380341,1,8,0:0:0:0:
252,194,380659,1,0,0:0:0:0:
252,194,380818,1,8,0:0:0:0:
252,194,380976,1,8,0:0:0:0:
252,194,381294,1,0,0:0:0:0:
252,194,381611,1,8,0:0:0:0:
252,194,381929,1,0,0:0:0:0:
252,194,382246,1,8,0:0:0:0:
252,194,382564,1,0,0:0:0:0:
252,194,382722,1,0,0:0:0:0:
252,194,382881,1,8,0:0:0:0:
252,194,383199,1,0,0:0:0:0:
252,194,383357,1,8,0:0:0:0:
252,194,383516,1,8,0:0:0:0:
252,194,383834,1,0,0:0:0:0:
252,194,384151,1,8,0:0:0:0:
252,194,384468,1,0,0:0:0:0:
252,194,384786,1,8,0:0:0:0:
252,194,385103,1,0,0:0:0:0:
252,194,385262,1,0,0:0:0:0:
252,194,385421,1,8,0:0:0:0:
252,194,385897,1,0,0:0:0:0:
252,194,386056,1,8,0:0:0:0:
252,194,386215,1,8,0:0:0:0:
252,194,386373,1,4,0:0:0:0:
