osu file format v14

[General]
AudioFilename: audio.mp3
AudioLeadIn: 0
PreviewTime: 15307
Countdown: 0
SampleSet: Normal
StackLeniency: 0.7
Mode: 3
LetterboxInBreaks: 0
SpecialStyle: 0
WidescreenStoryboard: 0

[Editor]
Bookmarks: 30038,44770,59501
DistanceSpacing: 1.3
BeatDivisor: 6
GridSize: 4
TimelineZoom: 2

[Metadata]
Title:200% no Jumon
TitleUnicode:200% no Jumon
Artist:Team le TAO
ArtistUnicode:Team le TAO
Creator:Wh1teh
Version:!!
Source:Tottoko Hamtarou
Tags:Finnish Finland Suomi
BeatmapID:1676025
BeatmapSetID:798103

[Difficulty]
HPDrainRate:8.5
CircleSize:4
OverallDifficulty:8.5
ApproachRate:5
SliderMultiplier:1.4
SliderTickRate:1

[Events]
//Background and Video events
0,0,"BG.jpg",0,0
//Break Periods
//Storyboard Layer 0 (Background)
//Storyboard Layer 1 (Fail)
//Storyboard Layer 2 (Pass)
//Storyboard Layer 3 (Foreground)
//Storyboard Sound Samples

[TimingPoints]
576,460.355267175572,4,1,0,100,1,0

[HitObjects]
64,192,576,5,0,0:0:0:0:
448,192,576,1,0,0:0:0:0:
320,192,576,1,0,0:0:0:0:
192,192,652,1,0,0:0:0:0:
320,192,729,1,0,0:0:0:0:
448,192,806,1,0,0:0:0:0:
64,192,806,1,0,0:0:0:0:
320,192,882,1,0,0:0:0:0:
192,192,959,1,0,0:0:0:0:
320,192,1036,1,0,0:0:0:0:
448,192,1036,1,0,0:0:0:0:
64,192,1151,1,0,0:0:0:0:
448,192,1151,1,0,0:0:0:0:
192,192,1266,1,0,0:0:0:0:
64,192,1266,1,0,0:0:0:0:
192,192,1381,1,0,0:0:0:0:
320,192,1381,1,0,0:0:0:0:
320,192,1496,1,0,0:0:0:0:
448,192,1496,1,0,0:0:0:0:
64,192,1573,1,0,0:0:0:0:
192,192,1650,1,0,0:0:0:0:
448,192,1726,1,0,0:0:0:0:
320,192,1726,1,0,0:0:0:0:
64,192,1803,1,0,0:0:0:0:
320,192,1880,1,0,0:0:0:0:
448,192,1957,1,0,0:0:0:0:
192,192,1957,1,0,0:0:0:0:
320,192,2033,1,0,0:0:0:0:
192,192,2110,1,0,0:0:0:0:
448,192,2187,1,0,0:0:0:0:
64,192,2187,1,0,0:0:0:0:
320,192,2263,1,0,0:0:0:0:
192,192,2340,1,0,0:0:0:0:
320,192,2417,1,0,0:0:0:0:
448,192,2417,1,0,0:0:0:0:
64,192,2494,1,0,0:0:0:0:
192,192,2570,1,0,0:0:0:0:
320,192,2647,1,0,0:0:0:0:
448,192,2647,1,0,0:0:0:0:
64,192,2724,1,0,0:0:0:0:
448,192,2801,1,0,0:0:0:0:
192,192,2877,1,0,0:0:0:0:
320,192,2877,1,0,0:0:0:0:
192,192,2992,1,0,0:0:0:0:
64,192,2992,1,0,0:0:0:0:
448,192,3050,1,0,0:0:0:0:
320,192,3107,1,0,0:0:0:0:
192,192,3184,1,0,0:0:0:0:
64,192,3261,1,0,0:0:0:0:
448,192,3338,1,0,0:0:0:0:
320,192,3338,1,0,0:0:0:0:
192,192,3414,1,0,0:0:0:0:
320,192,3491,1,0,0:0:0:0:
448,192,3568,1,0,0:0:0:0:
64,192,3568,1,0,0:0:0:0:
192,192,3645,1,0,0:0:0:0:
320,192,3721,1,0,0:0:0:0:
448,192,3798,1,0,0:0:0:0:
64,192,3798,1,0,0:0:0:0:
320,192,3875,1,0,0:0:0:0:
192,192,3951,1,0,0:0:0:0:
64,192,4028,1,0,0:0:0:0:
64,192,4143,1,0,0:0:0:0:
448,192,4258,1,0,0:0:0:0:
320,192,4258,1,0,0:0:0:0:
192,192,4258,1,0,0:0:0:0:
64,192,4335,1,0,0:0:0:0:
448,192,4412,1,0,0:0:0:0:
192,192,4489,1,0,0:0:0:0:
320,192,4489,1,0,0:0:0:0:
448,192,4565,1,0,0:0:0:0:
64,192,4642,1,0,0:0:0:0:
320,192,4719,1,0,0:0:0:0:
448,192,4719,1,0,0:0:0:0:
320,192,4834,1,0,0:0:0:0:
192,192,4834,1,0,0:0:0:0:
192,192,4949,1,0,0:0:0:0:
64,192,4949,1,0,0:0:0:0:
320,192,5026,1,0,0:0:0:0:
448,192,5102,1,0,0:0:0:0:
320,192,5179,1,0,0:0:0:0:
64,192,5179,1,0,0:0:0:0:
192,192,5256,1,0,0:0:0:0:
448,192,5333,1,0,0:0:0:0:
192,192,5409,1,0,0:0:0:0:
64,192,5409,1,0,0:0:0:0:
320,192,5524,1,0,0:0:0:0:
64,192,5524,1,0,0:0:0:0:
320,192,5639,1,0,0:0:0:0:
448,192,5639,1,0,0:0:0:0:
192,192,5716,1,0,0:0:0:0:
64,192,5793,1,0,0:0:0:0:
320,192,5870,1,0,0:0:0:0:
448,192,5870,1,0,0:0:0:0:
192,192,5946,1,0,0:0:0:0:
320,192,6023,1,0,0:0:0:0:
448,192,6100,1,0,0:0:0:0:
64,192,6100,1,0,0:0:0:0:
192,192,6215,1,0,0:0:0:0:
448,192,6215,1,0,0:0:0:0:
64,192,6330,1,0,0:0:0:0:
320,192,6330,1,0,0:0:0:0:
448,192,6407,1,0,0:0:0:0:
192,192,6483,1,0,0:0:0:0:
64,192,6560,1,0,0:0:0:0:
320,192,6560,1,0,0:0:0:0:
448,192,6637,1,0,0:0:0:0:
320,192,6714,1,0,0:0:0:0:
192,192,6790,1,0,0:0:0:0:
64,192,6790,1,0,0:0:0:0:
448,192,6867,1,0,0:0:0:0:
192,192,6944,1,0,0:0:0:0:
320,192,7020,1,0,0:0:0:0:
64,192,7020,1,0,0:0:0:0:
192,192,7097,1,0,0:0:0:0:
320,192,7174,1,0,0:0:0:0:
448,192,7251,1,0,0:0:0:0:
64,192,7251,1,0,0:0:0:0:
320,192,7327,1,0,0:0:0:0:
192,192,7404,1,0,0:0:0:0:
64,192,7481,1,0,0:0:0:0:
448,192,7481,1,0,0:0:0:0:
320,192,7558,1,0,0:0:0:0:
64,192,7634,1,0,0:0:0:0:
320,192,7711,5,0,0:0:0:0:
448,192,7711,1,0,0:0:0:0:
448,192,7826,1,0,0:0:0:0:
320,192,7941,5,0,0:0:0:0:
192,192,7941,1,0,0:0:0:0:
64,192,7941,1,0,0:0:0:0:
448,192,8018,1,0,0:0:0:0:
64,192,8095,1,0,0:0:0:0:
448,192,8171,5,0,0:0:0:0:
192,192,8171,1,0,0:0:0:0:
320,192,8286,1,0,0:0:0:0:
448,192,8286,1,0,0:0:0:0:
192,192,8402,1,0,0:0:0:0:
64,192,8402,1,0,0:0:0:0:
320,192,8478,1,0,0:0:0:0:
448,192,8555,1,0,0:0:0:0:
192,192,8632,1,0,0:0:0:0:
64,192,8632,1,0,0:0:0:0:
320,192,8708,1,0,0:0:0:0:
448,192,8785,1,0,0:0:0:0:
192,192,8862,5,0,0:0:0:0:
320,192,8862,1,0,0:0:0:0:
192,192,8977,1,0,0:0:0:0:
64,192,8977,1,0,0:0:0:0:
320,192,9092,1,0,0:0:0:0:
192,192,9092,1,0,0:0:0:0:
192,192,9207,1,0,0:0:0:0:
64,192,9207,1,0,0:0:0:0:
320,192,9322,1,0,0:0:0:0:
448,192,9322,1,0,0:0:0:0:
192,192,9437,1,0,0:0:0:0:
320,192,9437,1,0,0:0:0:0:
320,192,9552,1,0,0:0:0:0:
448,192,9552,1,0,0:0:0:0:
320,192,9668,1,0,0:0:0:0:
192,192,9668,1,0,0:0:0:0:
448,192,9783,1,0,0:0:0:0:
64,192,9783,1,0,0:0:0:0:
192,192,9859,1,0,0:0:0:0:
320,192,9936,1,0,0:0:0:0:
192,192,10013,1,0,0:0:0:0:
64,192,10013,1,0,0:0:0:0:
448,192,10128,1,0,0:0:0:0:
64,192,10128,1,0,0:0:0:0:
320,192,10243,1,0,0:0:0:0:
448,192,10243,1,0,0:0:0:0:
192,192,10320,1,0,0:0:0:0:
64,192,10396,1,0,0:0:0:0:
320,192,10473,1,0,0:0:0:0:
448,192,10473,1,0,0:0:0:0:
192,192,10550,1,0,0:0:0:0:
64,192,10627,1,0,0:0:0:0:
320,192,10703,1,0,0:0:0:0:
448,192,10703,1,0,0:0:0:0:
192,192,10780,1,0,0:0:0:0:
320,192,10857,1,0,0:0:0:0:
448,192,10933,1,0,0:0:0:0:
64,192,10933,1,0,0:0:0:0:
320,192,11010,1,0,0:0:0:0:
192,192,11087,1,0,0:0:0:0:
448,192,11164,1,0,0:0:0:0:
64,192,11164,1,0,0:0:0:0:
192,192,11240,1,0,0:0:0:0:
448,192,11317,1,0,0:0:0:0:
192,192,11394,1,0,0:0:0:0:
64,192,11394,1,0,0:0:0:0:
320,192,11509,1,0,0:0:0:0:
192,192,11624,5,0,0:0:0:0:
320,192,11624,1,0,0:0:0:0:
64,192,11624,1,0,0:0:0:0:
448,192,11624,1,0,0:0:0:0:
192,192,11739,1,0,0:0:0:0:
320,192,11739,1,0,0:0:0:0:
448,192,11739,1,0,0:0:0:0:
64,192,11739,1,0,0:0:0:0:
192,192,11969,1,0,0:0:0:0:
320,192,11969,1,0,0:0:0:0:
448,192,11969,1,0,0:0:0:0:
64,192,11969,1,0,0:0:0:0:
64,192,12084,1,0,0:0:0:0:
192,192,12084,1,0,0:0:0:0:
320,192,12084,1,0,0:0:0:0:
448,192,12084,1,0,0:0:0:0:
64,192,12545,1,0,0:0:0:0:
192,192,12545,1,0,0:0:0:0:
320,192,12545,1,0,0:0:0:0:
448,192,12545,1,0,0:0:0:0:
448,192,12698,1,0,0:0:0:0:
320,192,12698,1,0,0:0:0:0:
192,192,12698,1,0,0:0:0:0:
64,192,12698,1,0,0:0:0:0:
64,192,12852,1,0,0:0:0:0:
192,192,12852,1,0,0:0:0:0:
320,192,12852,1,0,0:0:0:0:
448,192,12852,1,0,0:0:0:0:
448,192,13005,1,0,0:0:0:0:
320,192,13005,1,0,0:0:0:0:
192,192,13005,1,0,0:0:0:0:
64,192,13005,1,0,0:0:0:0:
448,192,13465,1,0,0:0:0:0:
320,192,13465,1,0,0:0:0:0:
192,192,13465,1,0,0:0:0:0:
64,192,13465,1,0,0:0:0:0:
64,192,13581,1,0,0:0:0:0:
192,192,13581,1,0,0:0:0:0:
320,192,13581,1,0,0:0:0:0:
448,192,13581,1,0,0:0:0:0:
448,192,13811,1,0,0:0:0:0:
320,192,13811,1,0,0:0:0:0:
192,192,13811,1,0,0:0:0:0:
64,192,13811,1,0,0:0:0:0:
448,192,13926,1,0,0:0:0:0:
320,192,13926,1,0,0:0:0:0:
192,192,13926,1,0,0:0:0:0:
64,192,13926,1,0,0:0:0:0:
448,192,14041,1,0,0:0:0:0:
320,192,14041,1,0,0:0:0:0:
64,192,14041,1,0,0:0:0:0:
192,192,14041,1,0,0:0:0:0:
448,192,14271,1,0,0:0:0:0:
320,192,14271,1,0,0:0:0:0:
192,192,14271,1,0,0:0:0:0:
64,192,14271,1,0,0:0:0:0:
320,192,14386,1,0,0:0:0:0:
448,192,14386,1,0,0:0:0:0:
192,192,14386,1,0,0:0:0:0:
64,192,14386,1,0,0:0:0:0:
320,192,14540,1,0,0:0:0:0:
448,192,14540,1,0,0:0:0:0:
320,192,14693,1,0,0:0:0:0:
448,192,14693,1,0,0:0:0:0:
64,192,14847,1,0,0:0:0:0:
192,192,14885,1,0,0:0:0:0:
320,192,14923,1,0,0:0:0:0:
448,192,14962,1,0,0:0:0:0:
64,192,15000,1,0,0:0:0:0:
192,192,15038,1,0,0:0:0:0:
320,192,15077,1,0,0:0:0:0:
448,192,15115,1,0,0:0:0:0:
64,192,15153,1,0,0:0:0:0:
192,192,15192,1,0,0:0:0:0:
320,192,15230,1,0,0:0:0:0:
448,192,15269,1,0,0:0:0:0:
192,192,15307,1,0,0:0:0:0:
64,192,15307,1,0,0:0:0:0:
320,192,15364,1,0,0:0:0:0:
448,192,15422,1,0,0:0:0:0:
192,192,15480,1,0,0:0:0:0:
320,192,15537,1,0,0:0:0:0:
64,192,15595,1,0,0:0:0:0:
448,192,15652,1,0,0:0:0:0:
320,192,15710,1,0,0:0:0:0:
192,192,15767,1,0,0:0:0:0:
64,192,15767,1,0,0:0:0:0:
448,192,15825,1,0,0:0:0:0:
320,192,15882,1,0,0:0:0:0:
192,192,15940,1,0,0:0:0:0:
64,192,15997,1,0,0:0:0:0:
320,192,16055,1,0,0:0:0:0:
192,192,16112,1,0,0:0:0:0:
448,192,16170,1,0,0:0:0:0:
64,192,16228,1,0,0:0:0:0:
320,192,16228,1,0,0:0:0:0:
192,192,16285,1,0,0:0:0:0:
448,192,16343,1,0,0:0:0:0:
320,192,16400,1,0,0:0:0:0:
64,192,16458,1,0,0:0:0:0:
448,192,16515,1,0,0:0:0:0:
192,192,16573,1,0,0:0:0:0:
64,192,16630,1,0,0:0:0:0:
448,192,16688,1,0,0:0:0:0:
320,192,16688,1,0,0:0:0:0:
192,192,16745,1,0,0:0:0:0:
64,192,16803,1,0,0:0:0:0:
320,192,16861,1,0,0:0:0:0:
192,192,16918,1,0,0:0:0:0:
448,192,16976,1,0,0:0:0:0:
320,192,17033,1,0,0:0:0:0:
64,192,17091,1,0,0:0:0:0:
448,192,17148,1,0,0:0:0:0:
192,192,17148,1,0,0:0:0:0:
320,192,17206,1,0,0:0:0:0:
64,192,17263,1,0,0:0:0:0:
192,192,17321,1,0,0:0:0:0:
448,192,17378,1,0,0:0:0:0:
64,192,17436,1,0,0:0:0:0:
320,192,17494,1,0,0:0:0:0:
448,192,17551,1,0,0:0:0:0:
192,192,17609,1,0,0:0:0:0:
64,192,17609,1,0,0:0:0:0:
192,192,17724,1,0,0:0:0:0:
320,192,17724,1,0,0:0:0:0:
448,192,17839,1,0,0:0:0:0:
64,192,17839,128,0,18011:0:0:0:0:
320,192,18069,128,0,18242:0:0:0:0:
192,192,18069,1,0,0:0:0:0:
448,192,18299,128,0,18357:0:0:0:0:
320,192,18299,1,0,0:0:0:0:
448,192,18414,128,0,18644:0:0:0:0:
320,192,18414,1,0,0:0:0:0:
192,192,18529,1,0,0:0:0:0:
64,192,18529,1,0,0:0:0:0:
64,192,18644,1,0,0:0:0:0:
320,192,18760,1,0,0:0:0:0:
448,192,18875,1,0,0:0:0:0:
192,192,18990,1,0,0:0:0:0:
64,192,18990,1,0,0:0:0:0:
320,192,19047,1,0,0:0:0:0:
448,192,19105,1,0,0:0:0:0:
192,192,19162,1,0,0:0:0:0:
320,192,19220,1,0,0:0:0:0:
64,192,19277,1,0,0:0:0:0:
448,192,19335,1,0,0:0:0:0:
320,192,19393,1,0,0:0:0:0:
192,192,19450,1,0,0:0:0:0:
64,192,19450,1,0,0:0:0:0:
448,192,19508,1,0,0:0:0:0:
320,192,19565,1,0,0:0:0:0:
192,192,19623,1,0,0:0:0:0:
64,192,19680,1,0,0:0:0:0:
320,192,19738,1,0,0:0:0:0:
192,192,19795,1,0,0:0:0:0:
448,192,19853,1,0,0:0:0:0:
64,192,19910,1,0,0:0:0:0:
320,192,19910,1,0,0:0:0:0:
192,192,19968,1,0,0:0:0:0:
448,192,20026,1,0,0:0:0:0:
320,192,20083,1,0,0:0:0:0:
64,192,20141,1,0,0:0:0:0:
448,192,20198,1,0,0:0:0:0:
192,192,20256,1,0,0:0:0:0:
320,192,20313,1,0,0:0:0:0:
448,192,20371,1,0,0:0:0:0:
64,192,20371,1,0,0:0:0:0:
192,192,20428,1,0,0:0:0:0:
320,192,20486,1,0,0:0:0:0:
448,192,20543,1,0,0:0:0:0:
192,192,20601,1,0,0:0:0:0:
64,192,20658,1,0,0:0:0:0:
320,192,20716,1,0,0:0:0:0:
192,192,20774,1,0,0:0:0:0:
448,192,20831,1,0,0:0:0:0:
64,192,20831,1,0,0:0:0:0:
320,192,20889,1,0,0:0:0:0:
192,192,20946,1,0,0:0:0:0:
64,192,21004,1,0,0:0:0:0:
448,192,21061,1,0,0:0:0:0:
320,192,21119,1,0,0:0:0:0:
192,192,21176,1,0,0:0:0:0:
64,192,21234,1,0,0:0:0:0:
448,192,21291,1,0,0:0:0:0:
320,192,21291,1,0,0:0:0:0:
192,192,21349,1,0,0:0:0:0:
64,192,21407,1,0,0:0:0:0:
320,192,21464,1,0,0:0:0:0:
192,192,21522,1,0,0:0:0:0:
448,192,21579,1,0,0:0:0:0:
320,192,21637,1,0,0:0:0:0:
64,192,21694,1,0,0:0:0:0:
192,192,21752,1,0,0:0:0:0:
448,192,21752,1,0,0:0:0:0:
320,192,21809,1,0,0:0:0:0:
64,192,21867,1,0,0:0:0:0:
192,192,21924,1,0,0:0:0:0:
448,192,21982,1,0,0:0:0:0:
64,192,22040,1,0,0:0:0:0:
320,192,22097,1,0,0:0:0:0:
448,192,22155,1,0,0:0:0:0:
64,192,22212,1,0,0:0:0:0:
192,192,22212,1,0,0:0:0:0:
192,192,22327,1,0,0:0:0:0:
320,192,22327,1,0,0:0:0:0:
448,192,22442,1,0,0:0:0:0:
448,192,22557,1,0,0:0:0:0:
192,192,22673,1,0,0:0:0:0:
64,192,22673,1,0,0:0:0:0:
320,192,22730,1,0,0:0:0:0:
448,192,22788,1,0,0:0:0:0:
192,192,22845,1,0,0:0:0:0:
320,192,22903,1,0,0:0:0:0:
64,192,22960,1,0,0:0:0:0:
448,192,23018,1,0,0:0:0:0:
320,192,23075,1,0,0:0:0:0:
192,192,23133,1,0,0:0:0:0:
64,192,23133,1,0,0:0:0:0:
448,192,23190,1,0,0:0:0:0:
320,192,23248,1,0,0:0:0:0:
192,192,23306,1,0,0:0:0:0:
64,192,23363,1,0,0:0:0:0:
320,192,23421,1,0,0:0:0:0:
192,192,23478,1,0,0:0:0:0:
448,192,23536,1,0,0:0:0:0:
64,192,23593,1,0,0:0:0:0:
320,192,23593,1,0,0:0:0:0:
192,192,23651,1,0,0:0:0:0:
448,192,23708,1,0,0:0:0:0:
320,192,23766,1,0,0:0:0:0:
64,192,23823,1,0,0:0:0:0:
448,192,23881,1,0,0:0:0:0:
192,192,23939,1,0,0:0:0:0:
64,192,23996,1,0,0:0:0:0:
448,192,24054,1,0,0:0:0:0:
320,192,24054,1,0,0:0:0:0:
192,192,24111,1,0,0:0:0:0:
64,192,24169,1,0,0:0:0:0:
320,192,24226,1,0,0:0:0:0:
192,192,24284,1,0,0:0:0:0:
448,192,24341,1,0,0:0:0:0:
320,192,24399,1,0,0:0:0:0:
64,192,24456,1,0,0:0:0:0:
448,192,24514,1,0,0:0:0:0:
192,192,24514,1,0,0:0:0:0:
320,192,24572,1,0,0:0:0:0:
64,192,24629,1,0,0:0:0:0:
192,192,24687,1,0,0:0:0:0:
448,192,24744,1,0,0:0:0:0:
64,192,24802,1,0,0:0:0:0:
320,192,24859,1,0,0:0:0:0:
448,192,24917,1,0,0:0:0:0:
192,192,24974,1,0,0:0:0:0:
64,192,24974,1,0,0:0:0:0:
192,192,25089,1,0,0:0:0:0:
320,192,25089,1,0,0:0:0:0:
448,192,25205,1,0,0:0:0:0:
64,192,25205,128,0,25377:0:0:0:0:
320,192,25435,128,0,25607:0:0:0:0:
192,192,25435,1,0,0:0:0:0:
448,192,25665,128,0,25722:0:0:0:0:
320,192,25665,1,0,0:0:0:0:
448,192,25780,128,0,26010:0:0:0:0:
320,192,25780,1,0,0:0:0:0:
192,192,25895,1,0,0:0:0:0:
64,192,25895,1,0,0:0:0:0:
64,192,26010,1,0,0:0:0:0:
448,192,26125,1,0,0:0:0:0:
448,192,26240,1,0,0:0:0:0:
192,192,26355,1,0,0:0:0:0:
64,192,26355,1,0,0:0:0:0:
320,192,26413,1,0,0:0:0:0:
448,192,26470,1,0,0:0:0:0:
192,192,26528,1,0,0:0:0:0:
320,192,26586,1,0,0:0:0:0:
64,192,26643,1,0,0:0:0:0:
448,192,26701,1,0,0:0:0:0:
320,192,26758,1,0,0:0:0:0:
192,192,26816,1,0,0:0:0:0:
64,192,26816,1,0,0:0:0:0:
448,192,26873,1,0,0:0:0:0:
320,192,26931,1,0,0:0:0:0:
192,192,26988,1,0,0:0:0:0:
64,192,27046,1,0,0:0:0:0:
320,192,27103,1,0,0:0:0:0:
192,192,27161,1,0,0:0:0:0:
448,192,27219,1,0,0:0:0:0:
64,192,27276,1,0,0:0:0:0:
320,192,27276,1,0,0:0:0:0:
192,192,27334,1,0,0:0:0:0:
448,192,27391,1,0,0:0:0:0:
320,192,27449,1,0,0:0:0:0:
64,192,27506,1,0,0:0:0:0:
448,192,27564,1,0,0:0:0:0:
192,192,27621,1,0,0:0:0:0:
320,192,27679,1,0,0:0:0:0:
448,192,27736,1,0,0:0:0:0:
64,192,27736,1,0,0:0:0:0:
192,192,27794,1,0,0:0:0:0:
320,192,27852,1,0,0:0:0:0:
448,192,27909,1,0,0:0:0:0:
192,192,27967,1,0,0:0:0:0:
64,192,28024,1,0,0:0:0:0:
320,192,28082,1,0,0:0:0:0:
192,192,28139,1,0,0:0:0:0:
448,192,28197,1,0,0:0:0:0:
64,192,28197,1,0,0:0:0:0:
320,192,28254,1,0,0:0:0:0:
192,192,28312,1,0,0:0:0:0:
64,192,28369,1,0,0:0:0:0:
448,192,28427,1,0,0:0:0:0:
320,192,28485,1,0,0:0:0:0:
192,192,28542,1,0,0:0:0:0:
64,192,28600,1,0,0:0:0:0:
448,192,28657,1,0,0:0:0:0:
320,192,28657,1,0,0:0:0:0:
192,192,28715,1,0,0:0:0:0:
320,192,28772,1,0,0:0:0:0:
448,192,28830,1,0,0:0:0:0:
64,192,28887,1,0,0:0:0:0:
320,192,28945,1,0,0:0:0:0:
192,192,29002,1,0,0:0:0:0:
64,192,29060,1,0,0:0:0:0:
320,192,29118,1,0,0:0:0:0:
448,192,29118,1,0,0:0:0:0:
192,192,29175,1,0,0:0:0:0:
64,192,29233,1,0,0:0:0:0:
320,192,29290,1,0,0:0:0:0:
192,192,29348,1,0,0:0:0:0:
64,192,29348,1,0,0:0:0:0:
448,192,29405,1,0,0:0:0:0:
320,192,29463,1,0,0:0:0:0:
192,192,29520,1,0,0:0:0:0:
64,192,29578,1,0,0:0:0:0:
448,192,29578,1,0,0:0:0:0:
320,192,29693,1,0,0:0:0:0:
448,192,29693,1,0,0:0:0:0:
192,192,29808,1,0,0:0:0:0:
320,192,29808,1,0,0:0:0:0:
64,192,29923,1,0,0:0:0:0:
192,192,29923,1,0,0:0:0:0:
448,192,30038,1,0,0:0:0:0:
320,192,30038,1,0,0:0:0:0:
64,192,30038,1,0,0:0:0:0:
192,192,30115,1,0,0:0:0:0:
320,192,30192,1,0,0:0:0:0:
448,192,30268,1,0,0:0:0:0:
64,192,30268,1,0,0:0:0:0:
192,192,30345,1,0,0:0:0:0:
320,192,30384,1,0,0:0:0:0:
64,192,30422,1,0,0:0:0:0:
448,192,30499,1,0,0:0:0:0:
320,192,30499,1,0,0:0:0:0:
192,192,30575,1,0,0:0:0:0:
64,192,30652,1,0,0:0:0:0:
320,192,30729,1,0,0:0:0:0:
192,192,30805,1,0,0:0:0:0:
64,192,30882,1,0,0:0:0:0:
320,192,30959,1,0,0:0:0:0:
448,192,30959,1,0,0:0:0:0:
448,192,31189,1,0,0:0:0:0:
64,192,31189,1,0,0:0:0:0:
192,192,31266,1,0,0:0:0:0:
448,192,31419,1,0,0:0:0:0:
320,192,31419,1,0,0:0:0:0:
192,192,31477,1,0,0:0:0:0:
448,192,31534,1,0,0:0:0:0:
64,192,31592,1,0,0:0:0:0:
448,192,31649,1,0,0:0:0:0:
64,192,31880,1,0,0:0:0:0:
448,192,31880,1,0,0:0:0:0:
192,192,31956,1,0,0:0:0:0:
320,192,32033,1,0,0:0:0:0:
448,192,32110,1,0,0:0:0:0:
64,192,32110,1,0,0:0:0:0:
320,192,32187,1,0,0:0:0:0:
192,192,32263,1,0,0:0:0:0:
64,192,32340,1,0,0:0:0:0:
448,192,32340,1,0,0:0:0:0:
320,192,32398,1,0,0:0:0:0:
192,192,32455,1,0,0:0:0:0:
320,192,32570,1,0,0:0:0:0:
448,192,32570,1,0,0:0:0:0:
64,192,32628,1,0,0:0:0:0:
448,192,32685,1,0,0:0:0:0:
64,192,32743,1,0,0:0:0:0:
448,192,32800,1,0,0:0:0:0:
64,192,32858,1,0,0:0:0:0:
448,192,32915,1,0,0:0:0:0:
64,192,32973,1,0,0:0:0:0:
448,192,33031,1,0,0:0:0:0:
192,192,33261,1,0,0:0:0:0:
64,192,33261,1,0,0:0:0:0:
320,192,33376,1,0,0:0:0:0:
448,192,33491,1,0,0:0:0:0:
64,192,33721,1,0,0:0:0:0:
192,192,33721,1,0,0:0:0:0:
320,192,33798,1,0,0:0:0:0:
448,192,33875,1,0,0:0:0:0:
320,192,33951,1,0,0:0:0:0:
64,192,33951,1,0,0:0:0:0:
192,192,34028,1,0,0:0:0:0:
64,192,34105,1,0,0:0:0:0:
320,192,34181,1,0,0:0:0:0:
448,192,34181,1,0,0:0:0:0:
192,192,34258,1,0,0:0:0:0:
64,192,34335,1,0,0:0:0:0:
320,192,34335,1,0,0:0:0:0:
192,192,34412,1,0,0:0:0:0:
448,192,34412,1,0,0:0:0:0:
320,192,34488,1,0,0:0:0:0:
448,192,34565,1,0,0:0:0:0:
192,192,34642,1,0,0:0:0:0:
64,192,34642,1,0,0:0:0:0:
320,192,34719,1,0,0:0:0:0:
64,192,34795,1,0,0:0:0:0:
320,192,34872,1,0,0:0:0:0:
192,192,34949,1,0,0:0:0:0:
448,192,35025,1,0,0:0:0:0:
320,192,35025,1,0,0:0:0:0:
64,192,35102,1,0,0:0:0:0:
448,192,35179,1,0,0:0:0:0:
192,192,35217,1,0,0:0:0:0:
320,192,35332,1,0,0:0:0:0:
448,192,35332,1,0,0:0:0:0:
192,192,35409,1,0,0:0:0:0:
320,192,35563,1,0,0:0:0:0:
448,192,35563,1,0,0:0:0:0:
64,192,35620,1,0,0:0:0:0:
320,192,35678,1,0,0:0:0:0:
64,192,35735,1,0,0:0:0:0:
320,192,35793,1,0,0:0:0:0:
64,192,35850,1,0,0:0:0:0:
320,192,35908,1,0,0:0:0:0:
64,192,35965,1,0,0:0:0:0:
320,192,36023,1,0,0:0:0:0:
64,192,36080,1,0,0:0:0:0:
320,192,36138,1,0,0:0:0:0:
64,192,36195,1,0,0:0:0:0:
448,192,36253,1,0,0:0:0:0:
320,192,36483,1,0,0:0:0:0:
448,192,36483,1,0,0:0:0:0:
320,192,36598,1,0,0:0:0:0:
192,192,36713,1,0,0:0:0:0:
64,192,36713,1,0,0:0:0:0:
192,192,36828,1,0,0:0:0:0:
64,192,36828,1,0,0:0:0:0:
320,192,36944,1,0,0:0:0:0:
448,192,36944,1,0,0:0:0:0:
320,192,37059,1,0,0:0:0:0:
448,192,37059,1,0,0:0:0:0:
192,192,37174,1,0,0:0:0:0:
64,192,37174,1,0,0:0:0:0:
192,192,37289,1,0,0:0:0:0:
64,192,37289,1,0,0:0:0:0:
448,192,37404,1,0,0:0:0:0:
320,192,37404,1,0,0:0:0:0:
64,192,37404,1,0,0:0:0:0:
192,192,37481,1,0,0:0:0:0:
320,192,37557,1,0,0:0:0:0:
64,192,37634,1,0,0:0:0:0:
448,192,37634,1,0,0:0:0:0:
192,192,37711,1,0,0:0:0:0:
320,192,37788,1,0,0:0:0:0:
64,192,37864,1,0,0:0:0:0:
448,192,37864,1,0,0:0:0:0:
320,192,37941,1,0,0:0:0:0:
192,192,38018,1,0,0:0:0:0:
448,192,38094,1,0,0:0:0:0:
320,192,38171,1,0,0:0:0:0:
192,192,38248,1,0,0:0:0:0:
320,192,38325,1,0,0:0:0:0:
448,192,38325,1,0,0:0:0:0:
64,192,38555,1,0,0:0:0:0:
192,192,38785,5,0,0:0:0:0:
64,192,38785,1,0,0:0:0:0:
320,192,38862,1,0,0:0:0:0:
192,192,38938,1,0,0:0:0:0:
448,192,39015,1,0,0:0:0:0:
320,192,39015,1,0,0:0:0:0:
64,192,39092,1,0,0:0:0:0:
448,192,39169,1,0,0:0:0:0:
64,192,39245,1,0,0:0:0:0:
192,192,39245,1,0,0:0:0:0:
320,192,39322,1,0,0:0:0:0:
448,192,39399,1,0,0:0:0:0:
64,192,39476,1,0,0:0:0:0:
448,192,39552,1,0,0:0:0:0:
192,192,39552,1,0,0:0:0:0:
320,192,39629,1,0,0:0:0:0:
192,192,39706,1,0,0:0:0:0:
64,192,39782,1,0,0:0:0:0:
448,192,39936,5,0,0:0:0:0:
320,192,39936,1,0,0:0:0:0:
192,192,39993,1,0,0:0:0:0:
448,192,40051,1,0,0:0:0:0:
192,192,40109,1,0,0:0:0:0:
448,192,40166,1,0,0:0:0:0:
192,192,40224,1,0,0:0:0:0:
448,192,40281,1,0,0:0:0:0:
192,192,40339,1,0,0:0:0:0:
448,192,40396,1,0,0:0:0:0:
192,192,40626,1,0,0:0:0:0:
64,192,40626,1,0,0:0:0:0:
320,192,40741,1,0,0:0:0:0:
448,192,40857,1,0,0:0:0:0:
64,192,41087,1,0,0:0:0:0:
192,192,41087,1,0,0:0:0:0:
320,192,41163,1,0,0:0:0:0:
64,192,41240,1,0,0:0:0:0:
320,192,41317,1,0,0:0:0:0:
448,192,41317,1,0,0:0:0:0:
192,192,41394,1,0,0:0:0:0:
448,192,41470,1,0,0:0:0:0:
320,192,41547,1,0,0:0:0:0:
64,192,41547,1,0,0:0:0:0:
192,192,41624,1,0,0:0:0:0:
320,192,41701,1,0,0:0:0:0:
448,192,41777,1,0,0:0:0:0:
64,192,41777,1,0,0:0:0:0:
192,192,41854,1,0,0:0:0:0:
448,192,41931,1,0,0:0:0:0:
192,192,42007,1,0,0:0:0:0:
448,192,42238,1,0,0:0:0:0:
192,192,42238,1,0,0:0:0:0:
64,192,42314,1,0,0:0:0:0:
448,192,42391,1,0,0:0:0:0:
192,192,42468,1,0,0:0:0:0:
320,192,42468,1,0,0:0:0:0:
64,192,42545,1,0,0:0:0:0:
320,192,42621,1,0,0:0:0:0:
192,192,42698,1,0,0:0:0:0:
64,192,42775,1,0,0:0:0:0:
320,192,42928,1,0,0:0:0:0:
448,192,42928,1,0,0:0:0:0:
64,192,42986,1,0,0:0:0:0:
320,192,43043,1,0,0:0:0:0:
64,192,43101,1,0,0:0:0:0:
320,192,43158,1,0,0:0:0:0:
64,192,43216,1,0,0:0:0:0:
320,192,43273,1,0,0:0:0:0:
448,192,43331,1,0,0:0:0:0:
192,192,43389,1,0,0:0:0:0:
64,192,43389,1,0,0:0:0:0:
192,192,43504,1,0,0:0:0:0:
320,192,43504,1,0,0:0:0:0:
320,192,43619,5,0,0:0:0:0:
448,192,43619,1,0,0:0:0:0:
320,192,43849,1,0,0:0:0:0:
448,192,43849,1,0,0:0:0:0:
320,192,43964,1,0,0:0:0:0:
192,192,43964,1,0,0:0:0:0:
448,192,44079,1,0,0:0:0:0:
64,192,44079,1,0,0:0:0:0:
192,192,44079,1,0,0:0:0:0:
64,192,44309,1,0,0:0:0:0:
192,192,44309,1,0,0:0:0:0:
448,192,44309,1,0,0:0:0:0:
320,192,44424,1,0,0:0:0:0:
192,192,44424,1,0,0:0:0:0:
64,192,44539,1,0,0:0:0:0:
320,192,44539,1,0,0:0:0:0:
448,192,44539,1,0,0:0:0:0:
192,192,44770,5,0,0:0:0:0:
64,192,44770,1,0,0:0:0:0:
320,192,44827,1,0,0:0:0:0:
448,192,44885,1,0,0:0:0:0:
192,192,44942,1,0,0:0:0:0:
320,192,45000,1,0,0:0:0:0:
64,192,45057,1,0,0:0:0:0:
448,192,45115,1,0,0:0:0:0:
320,192,45172,1,0,0:0:0:0:
192,192,45230,1,0,0:0:0:0:
64,192,45230,1,0,0:0:0:0:
448,192,45288,1,0,0:0:0:0:
320,192,45345,1,0,0:0:0:0:
192,192,45403,1,0,0:0:0:0:
64,192,45460,1,0,0:0:0:0:
320,192,45518,1,0,0:0:0:0:
192,192,45575,1,0,0:0:0:0:
448,192,45633,1,0,0:0:0:0:
64,192,45690,1,0,0:0:0:0:
320,192,45690,1,0,0:0:0:0:
192,192,45748,1,0,0:0:0:0:
448,192,45805,1,0,0:0:0:0:
320,192,45863,1,0,0:0:0:0:
64,192,45920,1,0,0:0:0:0:
192,192,45920,1,0,0:0:0:0:
448,192,45978,1,0,0:0:0:0:
320,192,46036,1,0,0:0:0:0:
192,192,46093,1,0,0:0:0:0:
448,192,46151,1,0,0:0:0:0:
64,192,46151,1,0,0:0:0:0:
320,192,46208,1,0,0:0:0:0:
192,192,46266,1,0,0:0:0:0:
64,192,46323,1,0,0:0:0:0:
448,192,46381,1,0,0:0:0:0:
320,192,46438,1,0,0:0:0:0:
192,192,46496,1,0,0:0:0:0:
448,192,46553,1,0,0:0:0:0:
320,192,46611,1,0,0:0:0:0:
64,192,46611,1,0,0:0:0:0:
192,192,46669,1,0,0:0:0:0:
448,192,46726,1,0,0:0:0:0:
320,192,46784,1,0,0:0:0:0:
64,192,46841,1,0,0:0:0:0:
448,192,46899,1,0,0:0:0:0:
192,192,46956,1,0,0:0:0:0:
64,192,47014,1,0,0:0:0:0:
320,192,47071,1,0,0:0:0:0:
448,192,47071,1,0,0:0:0:0:
320,192,47186,1,0,0:0:0:0:
64,192,47302,128,0,47474:0:0:0:0:
320,192,47302,1,0,0:0:0:0:
192,192,47532,1,0,0:0:0:0:
320,192,47532,128,0,47704:0:0:0:0:
448,192,47762,1,0,0:0:0:0:
192,192,47762,128,0,47819:0:0:0:0:
448,192,47877,128,0,48107:0:0:0:0:
320,192,47877,1,0,0:0:0:0:
192,192,47992,1,0,0:0:0:0:
64,192,47992,1,0,0:0:0:0:
64,192,48107,1,0,0:0:0:0:
64,192,48222,1,0,0:0:0:0:
448,192,48337,1,0,0:0:0:0:
192,192,48452,1,0,0:0:0:0:
64,192,48452,1,0,0:0:0:0:
320,192,48510,1,0,0:0:0:0:
448,192,48568,1,0,0:0:0:0:
192,192,48625,1,0,0:0:0:0:
320,192,48683,1,0,0:0:0:0:
64,192,48740,1,0,0:0:0:0:
448,192,48798,1,0,0:0:0:0:
320,192,48855,1,0,0:0:0:0:
192,192,48913,1,0,0:0:0:0:
64,192,48913,1,0,0:0:0:0:
448,192,48970,1,0,0:0:0:0:
320,192,49028,1,0,0:0:0:0:
192,192,49085,1,0,0:0:0:0:
64,192,49143,1,0,0:0:0:0:
320,192,49201,1,0,0:0:0:0:
192,192,49258,1,0,0:0:0:0:
448,192,49316,1,0,0:0:0:0:
64,192,49373,1,0,0:0:0:0:
320,192,49373,1,0,0:0:0:0:
192,192,49431,1,0,0:0:0:0:
448,192,49488,1,0,0:0:0:0:
320,192,49546,1,0,0:0:0:0:
64,192,49603,1,0,0:0:0:0:
448,192,49661,1,0,0:0:0:0:
192,192,49718,1,0,0:0:0:0:
320,192,49776,1,0,0:0:0:0:
448,192,49834,1,0,0:0:0:0:
64,192,49834,1,0,0:0:0:0:
192,192,49891,1,0,0:0:0:0:
320,192,49949,1,0,0:0:0:0:
448,192,50006,1,0,0:0:0:0:
192,192,50064,1,0,0:0:0:0:
64,192,50121,1,0,0:0:0:0:
320,192,50179,1,0,0:0:0:0:
192,192,50236,1,0,0:0:0:0:
448,192,50294,1,0,0:0:0:0:
64,192,50294,1,0,0:0:0:0:
320,192,50351,1,0,0:0:0:0:
192,192,50409,1,0,0:0:0:0:
64,192,50467,1,0,0:0:0:0:
448,192,50524,1,0,0:0:0:0:
192,192,50582,1,0,0:0:0:0:
320,192,50639,1,0,0:0:0:0:
64,192,50697,1,0,0:0:0:0:
448,192,50754,1,0,0:0:0:0:
192,192,50754,1,0,0:0:0:0:
320,192,50812,1,0,0:0:0:0:
64,192,50869,1,0,0:0:0:0:
192,192,50927,1,0,0:0:0:0:
448,192,50984,1,0,0:0:0:0:
64,192,51042,1,0,0:0:0:0:
320,192,51099,1,0,0:0:0:0:
448,192,51157,1,0,0:0:0:0:
192,192,51215,1,0,0:0:0:0:
64,192,51215,1,0,0:0:0:0:
320,192,51272,1,0,0:0:0:0:
64,192,51330,1,0,0:0:0:0:
448,192,51330,1,0,0:0:0:0:
192,192,51387,1,0,0:0:0:0:
448,192,51445,1,0,0:0:0:0:
320,192,51445,1,0,0:0:0:0:
64,192,51521,1,0,0:0:0:0:
192,192,51598,1,0,0:0:0:0:
320,192,51675,1,0,0:0:0:0:
448,192,51675,1,0,0:0:0:0:
448,192,51790,1,0,0:0:0:0:
64,192,51790,1,0,0:0:0:0:
192,192,51905,1,0,0:0:0:0:
64,192,51905,1,0,0:0:0:0:
448,192,52020,1,0,0:0:0:0:
192,192,52135,1,0,0:0:0:0:
64,192,52135,1,0,0:0:0:0:
320,192,52193,1,0,0:0:0:0:
448,192,52250,1,0,0:0:0:0:
192,192,52308,1,0,0:0:0:0:
320,192,52365,1,0,0:0:0:0:
64,192,52423,1,0,0:0:0:0:
448,192,52481,1,0,0:0:0:0:
320,192,52538,1,0,0:0:0:0:
192,192,52596,1,0,0:0:0:0:
64,192,52596,1,0,0:0:0:0:
448,192,52653,1,0,0:0:0:0:
320,192,52711,1,0,0:0:0:0:
192,192,52768,1,0,0:0:0:0:
64,192,52826,1,0,0:0:0:0:
320,192,52883,1,0,0:0:0:0:
192,192,52941,1,0,0:0:0:0:
448,192,52998,1,0,0:0:0:0:
64,192,53056,1,0,0:0:0:0:
320,192,53056,1,0,0:0:0:0:
192,192,53114,1,0,0:0:0:0:
448,192,53171,1,0,0:0:0:0:
320,192,53229,1,0,0:0:0:0:
64,192,53286,1,0,0:0:0:0:
448,192,53344,1,0,0:0:0:0:
192,192,53401,1,0,0:0:0:0:
64,192,53459,1,0,0:0:0:0:
448,192,53516,1,0,0:0:0:0:
320,192,53516,1,0,0:0:0:0:
192,192,53574,1,0,0:0:0:0:
64,192,53631,1,0,0:0:0:0:
320,192,53689,1,0,0:0:0:0:
192,192,53747,1,0,0:0:0:0:
448,192,53804,1,0,0:0:0:0:
320,192,53862,1,0,0:0:0:0:
64,192,53919,1,0,0:0:0:0:
448,192,53977,1,0,0:0:0:0:
192,192,53977,1,0,0:0:0:0:
320,192,54034,1,0,0:0:0:0:
64,192,54092,1,0,0:0:0:0:
192,192,54149,1,0,0:0:0:0:
448,192,54207,1,0,0:0:0:0:
320,192,54264,1,0,0:0:0:0:
192,192,54322,1,0,0:0:0:0:
64,192,54380,1,0,0:0:0:0:
448,192,54437,1,0,0:0:0:0:
320,192,54437,1,0,0:0:0:0:
320,192,54552,1,0,0:0:0:0:
64,192,54667,1,0,0:0:0:0:
320,192,54667,1,0,0:0:0:0:
64,192,54782,1,0,0:0:0:0:
192,192,54782,1,0,0:0:0:0:
192,192,54897,1,0,0:0:0:0:
320,192,54897,128,0,55070:0:0:0:0:
448,192,55128,1,0,0:0:0:0:
192,192,55128,128,0,55185:0:0:0:0:
448,192,55243,128,0,55473:0:0:0:0:
320,192,55243,1,0,0:0:0:0:
192,192,55358,1,0,0:0:0:0:
64,192,55358,1,0,0:0:0:0:
64,192,55473,1,0,0:0:0:0:
320,192,55588,1,0,0:0:0:0:
192,192,55818,1,0,0:0:0:0:
64,192,55818,1,0,0:0:0:0:
320,192,55876,1,0,0:0:0:0:
448,192,55933,1,0,0:0:0:0:
192,192,55991,1,0,0:0:0:0:
320,192,56048,1,0,0:0:0:0:
64,192,56106,1,0,0:0:0:0:
448,192,56163,1,0,0:0:0:0:
320,192,56221,1,0,0:0:0:0:
192,192,56278,1,0,0:0:0:0:
64,192,56278,1,0,0:0:0:0:
448,192,56336,1,0,0:0:0:0:
320,192,56394,1,0,0:0:0:0:
192,192,56451,1,0,0:0:0:0:
64,192,56509,1,0,0:0:0:0:
320,192,56566,1,0,0:0:0:0:
192,192,56624,1,0,0:0:0:0:
448,192,56681,1,0,0:0:0:0:
64,192,56739,1,0,0:0:0:0:
320,192,56739,1,0,0:0:0:0:
192,192,56796,1,0,0:0:0:0:
448,192,56854,1,0,0:0:0:0:
320,192,56911,1,0,0:0:0:0:
64,192,56969,1,0,0:0:0:0:
448,192,57027,1,0,0:0:0:0:
192,192,57084,1,0,0:0:0:0:
320,192,57142,1,0,0:0:0:0:
448,192,57199,1,0,0:0:0:0:
64,192,57199,1,0,0:0:0:0:
192,192,57257,1,0,0:0:0:0:
320,192,57314,1,0,0:0:0:0:
448,192,57372,1,0,0:0:0:0:
192,192,57429,1,0,0:0:0:0:
64,192,57487,1,0,0:0:0:0:
320,192,57544,1,0,0:0:0:0:
192,192,57602,1,0,0:0:0:0:
448,192,57660,1,0,0:0:0:0:
64,192,57660,1,0,0:0:0:0:
320,192,57717,1,0,0:0:0:0:
192,192,57775,1,0,0:0:0:0:
64,192,57832,1,0,0:0:0:0:
448,192,57890,1,0,0:0:0:0:
192,192,57947,1,0,0:0:0:0:
320,192,58005,1,0,0:0:0:0:
64,192,58062,1,0,0:0:0:0:
448,192,58120,1,0,0:0:0:0:
192,192,58120,1,0,0:0:0:0:
320,192,58177,1,0,0:0:0:0:
64,192,58235,1,0,0:0:0:0:
192,192,58293,1,0,0:0:0:0:
448,192,58350,5,0,0:0:0:0:
64,192,58408,1,0,0:0:0:0:
320,192,58465,1,0,0:0:0:0:
192,192,58523,1,0,0:0:0:0:
64,192,58580,1,0,0:0:0:0:
448,192,58580,1,0,0:0:0:0:
320,192,58638,1,0,0:0:0:0:
192,192,58695,1,0,0:0:0:0:
64,192,58753,1,0,0:0:0:0:
448,192,58810,1,0,0:0:0:0:
320,192,58810,1,0,0:0:0:0:
192,192,58868,1,0,0:0:0:0:
320,192,58926,1,0,0:0:0:0:
448,192,58983,1,0,0:0:0:0:
64,192,59041,1,0,0:0:0:0:
192,192,59079,1,0,0:0:0:0:
320,192,59117,1,0,0:0:0:0:
448,192,59156,1,0,0:0:0:0:
64,192,59194,1,0,0:0:0:0:
192,192,59232,1,0,0:0:0:0:
320,192,59271,1,0,0:0:0:0:
448,192,59309,1,0,0:0:0:0:
64,192,59348,1,0,0:0:0:0:
192,192,59386,1,0,0:0:0:0:
320,192,59424,1,0,0:0:0:0:
448,192,59463,1,0,0:0:0:0:
64,192,59501,1,0,0:0:0:0:
192,192,59501,1,0,0:0:0:0:
320,192,59578,1,0,0:0:0:0:
448,192,59654,1,0,0:0:0:0:
64,192,59731,1,0,0:0:0:0:
192,192,59731,1,0,0:0:0:0:
320,192,59808,1,0,0:0:0:0:
192,192,59885,1,0,0:0:0:0:
320,192,59961,1,0,0:0:0:0:
448,192,59961,1,0,0:0:0:0:
64,192,60076,1,0,0:0:0:0:
448,192,60076,1,0,0:0:0:0:
192,192,60192,1,0,0:0:0:0:
64,192,60192,1,0,0:0:0:0:
192,192,60307,1,0,0:0:0:0:
320,192,60307,1,0,0:0:0:0:
320,192,60422,1,0,0:0:0:0:
448,192,60422,1,0,0:0:0:0:
64,192,60498,1,0,0:0:0:0:
192,192,60575,1,0,0:0:0:0:
448,192,60652,1,0,0:0:0:0:
320,192,60652,1,0,0:0:0:0:
64,192,60729,1,0,0:0:0:0:
320,192,60805,1,0,0:0:0:0:
448,192,60882,1,0,0:0:0:0:
192,192,60882,1,0,0:0:0:0:
320,192,60959,1,0,0:0:0:0:
192,192,61035,1,0,0:0:0:0:
448,192,61112,1,0,0:0:0:0:
64,192,61112,1,0,0:0:0:0:
320,192,61189,1,0,0:0:0:0:
192,192,61266,1,0,0:0:0:0:
320,192,61342,1,0,0:0:0:0:
448,192,61342,1,0,0:0:0:0:
64,192,61419,1,0,0:0:0:0:
192,192,61496,1,0,0:0:0:0:
320,192,61573,1,0,0:0:0:0:
448,192,61573,1,0,0:0:0:0:
64,192,61649,1,0,0:0:0:0:
448,192,61726,1,0,0:0:0:0:
192,192,61803,1,0,0:0:0:0:
320,192,61803,1,0,0:0:0:0:
192,192,61918,1,0,0:0:0:0:
64,192,61918,1,0,0:0:0:0:
448,192,61975,1,0,0:0:0:0:
320,192,62033,1,0,0:0:0:0:
192,192,62110,1,0,0:0:0:0:
64,192,62186,1,0,0:0:0:0:
448,192,62263,1,0,0:0:0:0:
320,192,62263,1,0,0:0:0:0:
192,192,62340,1,0,0:0:0:0:
320,192,62417,1,0,0:0:0:0:
448,192,62493,1,0,0:0:0:0:
64,192,62493,1,0,0:0:0:0:
192,192,62570,1,0,0:0:0:0:
320,192,62647,1,0,0:0:0:0:
448,192,62723,1,0,0:0:0:0:
64,192,62723,1,0,0:0:0:0:
320,192,62800,1,0,0:0:0:0:
192,192,62877,1,0,0:0:0:0:
64,192,62954,1,0,0:0:0:0:
64,192,63069,1,0,0:0:0:0:
448,192,63184,1,0,0:0:0:0:
320,192,63184,1,0,0:0:0:0:
192,192,63184,1,0,0:0:0:0:
64,192,63261,1,0,0:0:0:0:
448,192,63337,1,0,0:0:0:0:
192,192,63414,1,0,0:0:0:0:
320,192,63414,1,0,0:0:0:0:
448,192,63491,1,0,0:0:0:0:
64,192,63567,1,0,0:0:0:0:
320,192,63644,1,0,0:0:0:0:
448,192,63644,1,0,0:0:0:0:
320,192,63759,1,0,0:0:0:0:
192,192,63759,1,0,0:0:0:0:
192,192,63874,1,0,0:0:0:0:
64,192,63874,1,0,0:0:0:0:
320,192,63951,1,0,0:0:0:0:
448,192,64028,1,0,0:0:0:0:
320,192,64105,1,0,0:0:0:0:
64,192,64105,1,0,0:0:0:0:
192,192,64181,1,0,0:0:0:0:
448,192,64258,1,0,0:0:0:0:
192,192,64335,1,0,0:0:0:0:
64,192,64335,1,0,0:0:0:0:
320,192,64450,1,0,0:0:0:0:
64,192,64450,1,0,0:0:0:0:
320,192,64565,1,0,0:0:0:0:
448,192,64565,1,0,0:0:0:0:
192,192,64642,1,0,0:0:0:0:
64,192,64718,1,0,0:0:0:0:
320,192,64795,1,0,0:0:0:0:
448,192,64795,1,0,0:0:0:0:
192,192,64872,1,0,0:0:0:0:
320,192,64949,1,0,0:0:0:0:
448,192,65025,1,0,0:0:0:0:
64,192,65025,1,0,0:0:0:0:
192,192,65140,1,0,0:0:0:0:
448,192,65140,1,0,0:0:0:0:
64,192,65255,1,0,0:0:0:0:
320,192,65255,1,0,0:0:0:0:
448,192,65332,1,0,0:0:0:0:
192,192,65409,1,0,0:0:0:0:
64,192,65486,1,0,0:0:0:0:
320,192,65486,1,0,0:0:0:0:
448,192,65562,1,0,0:0:0:0:
320,192,65639,1,0,0:0:0:0:
192,192,65716,1,0,0:0:0:0:
64,192,65716,1,0,0:0:0:0:
448,192,65792,1,0,0:0:0:0:
192,192,65869,1,0,0:0:0:0:
320,192,65946,1,0,0:0:0:0:
64,192,65946,1,0,0:0:0:0:
192,192,66023,1,0,0:0:0:0:
320,192,66099,1,0,0:0:0:0:
448,192,66176,1,0,0:0:0:0:
64,192,66176,1,0,0:0:0:0:
320,192,66253,1,0,0:0:0:0:
192,192,66330,1,0,0:0:0:0:
64,192,66406,1,0,0:0:0:0:
448,192,66406,1,0,0:0:0:0:
320,192,66483,1,0,0:0:0:0:
64,192,66560,1,0,0:0:0:0:
320,192,66636,5,0,0:0:0:0:
448,192,66636,1,0,0:0:0:0:
320,192,66752,1,0,0:0:0:0:
448,192,66752,1,0,0:0:0:0:
64,192,66867,1,0,0:0:0:0:
448,192,66867,1,0,0:0:0:0:
320,192,66867,1,0,0:0:0:0:
192,192,66867,1,0,0:0:0:0:
192,192,67097,1,0,0:0:0:0:
64,192,67097,1,0,0:0:0:0:
192,192,67212,1,0,0:0:0:0:
64,192,67212,1,0,0:0:0:0:
192,192,67327,1,0,0:0:0:0:
64,192,67327,1,0,0:0:0:0:
320,192,67327,1,0,0:0:0:0:
320,192,67557,1,0,0:0:0:0:
192,192,67557,1,0,0:0:0:0:
192,192,67672,1,0,0:0:0:0:
64,192,67787,1,0,0:0:0:0:
320,192,67787,1,0,0:0:0:0:
448,192,67787,1,0,0:0:0:0:
320,192,68018,1,0,0:0:0:0:
192,192,68018,1,0,0:0:0:0:
320,192,68133,1,0,0:0:0:0:
192,192,68248,1,0,0:0:0:0:
64,192,68248,1,0,0:0:0:0:
448,192,68248,1,0,0:0:0:0:
320,192,68363,1,0,0:0:0:0:
192,192,68478,1,0,0:0:0:0:
64,192,68593,1,0,0:0:0:0:
64,192,68708,1,0,0:0:0:0:
192,192,68708,1,0,0:0:0:0:
320,192,68708,1,0,0:0:0:0:
448,192,68708,1,0,0:0:0:0:
320,192,68823,1,0,0:0:0:0:
448,192,68823,1,0,0:0:0:0:
64,192,68938,1,0,0:0:0:0:
192,192,68938,1,0,0:0:0:0:
320,192,68938,1,0,0:0:0:0:
448,192,68938,1,0,0:0:0:0:
192,192,69053,1,0,0:0:0:0:
64,192,69053,1,0,0:0:0:0:
64,192,69168,1,0,0:0:0:0:
192,192,69168,1,0,0:0:0:0:
448,192,69168,1,0,0:0:0:0:
320,192,69168,1,0,0:0:0:0:
320,192,69284,1,0,0:0:0:0:
448,192,69284,1,0,0:0:0:0:
448,192,69399,1,0,0:0:0:0:
320,192,69399,1,0,0:0:0:0:
192,192,69399,1,0,0:0:0:0:
64,192,69399,1,0,0:0:0:0:
192,192,69514,1,0,0:0:0:0:
64,192,69514,1,0,0:0:0:0:
320,192,69514,1,0,0:0:0:0:
448,192,69514,1,0,0:0:0:0:
64,192,69629,1,0,0:0:0:0:
192,192,69629,1,0,0:0:0:0:
320,192,69629,1,0,0:0:0:0:
448,192,69629,1,0,0:0:0:0:
