osu file format v14

[General]
AudioFilename: audio.mp3
AudioLeadIn: 0
PreviewTime: 98175
Countdown: 1
SampleSet: None
StackLeniency: 0.3
Mode: 0
LetterboxInBreaks: 0
WidescreenStoryboard: 0

[Editor]
Bookmarks: 975,20175,22575,27375,28725,39375,47775,48975,65775,70575,72975,77775,78975,87225,89775,98175,99375,116175,125775,144375,144975,159375,161775,178575
DistanceSpacing: 1
BeatDivisor: 4
GridSize: 16
TimelineZoom: 1

[Metadata]
Title:Does This Guy Really Want To Help
TitleUnicode:Does This Guy Really Want To Help
Artist:Team Nekokan
ArtistUnicode:Team Nekokan
Creator:Nitronic Techno
Version:Are you Ready!
Source:Megaman
Tags:Megaman Team Nekokan Rock Five Night at Freddy Are you Ready for Freddy
BeatmapID:1737786
BeatmapSetID:829453

[Difficulty]
HPDrainRate:6
CircleSize:5
OverallDifficulty:7
ApproachRate:9.5
SliderMultiplier:2
SliderTickRate:1

[Events]
//Background and Video events
0,0,"megaman_x___fanart_2016_by_sano_br-da63mzy.jpg",0,0
//Break Periods
2,65825,68625
//Storyboard Layer 0 (Background)
//Storyboard Layer 1 (Fail)
//Storyboard Layer 2 (Pass)
//Storyboard Layer 3 (Foreground)
//Storyboard Sound Samples

[TimingPoints]
375,300,4,1,0,60,1,0
975,-83.3333333333333,4,1,0,70,0,0
15375,-83.3333333333333,4,1,0,70,0,0
17625,-111.111111111111,4,1,0,60,0,0
19725,-111.111111111111,4,2,0,60,0,0
20175,-166.666666666667,4,2,0,45,0,0
22575,-90.9090909090909,4,1,0,50,0,0
27375,-133.333333333333,4,1,0,50,0,0
28875,-90.9090909090909,4,1,0,50,0,0
33375,-125,4,1,0,50,0,0
34575,-90.9090909090909,4,1,0,50,0,0
36825,-76.9230769230769,4,1,0,50,0,0
39075,-100,4,1,0,50,0,0
39375,-80,4,1,0,50,0,0
44175,-90.9090909090909,4,1,0,50,0,0
48975,-90.9090909090909,4,1,0,75,0,1
49425,-71.4285714285714,4,1,0,75,0,1
53775,-100,4,1,0,75,0,1
55275,-83.3333333333333,4,1,0,75,0,1
56175,-71.4285714285714,4,1,0,75,0,1
57675,-125,4,1,0,75,0,0
58575,-71.4285714285714,4,1,0,75,0,1
63375,-66.6666666666667,4,1,0,75,0,1
63825,-71.4285714285714,4,1,0,75,0,1
65625,-100,4,1,0,75,0,0
70575,-166.666666666667,4,2,0,50,0,0
71775,-105.263157894737,4,2,0,50,0,0
72975,-86.9565217391306,4,1,0,50,0,0
77775,-133.333333333333,4,1,0,50,0,0
78825,-86.9565217391303,4,1,0,50,0,0
80175,-76.9230769230769,4,1,0,50,0,0
84075,-125,4,1,0,50,0,0
84975,-86.9565217391304,4,1,0,50,0,0
87225,-71.4285714285714,4,1,0,50,0,0
87675,-90.9090909090909,4,1,0,50,0,0
89775,-80,4,1,0,50,0,0
94575,-90.9090909090909,4,1,0,50,0,0
99375,-90.9090909090909,4,1,0,75,0,1
99825,-71.4285714285714,4,1,0,75,0,1
104175,-100,4,1,0,75,0,1
105675,-83.3333333333333,4,1,0,75,0,1
106575,-71.4285714285714,4,1,0,75,0,1
108075,-125,4,1,0,75,0,0
108975,-71.4285714285714,4,1,0,75,0,1
113775,-66.6666666666667,4,1,0,75,0,1
114225,-71.4285714285714,4,1,0,75,0,1
116025,-200,4,2,0,40,0,0
120825,-133.333333333333,4,1,0,50,0,0
125775,-100,4,1,0,55,0,0
137775,-76.9230769230769,4,1,0,65,0,0
139575,-66.6666666666667,4,1,0,65,0,0
142575,-100,4,1,0,65,0,0
144975,-90.9090909090909,4,1,0,75,0,1
145425,-71.4285714285714,4,1,0,75,0,1
149775,-100,4,1,0,75,0,1
151275,-83.3333333333333,4,1,0,75,0,1
152175,-71.4285714285714,4,1,0,75,0,1
153675,-125,4,1,0,75,0,0
154575,-71.4285714285714,4,1,0,75,0,1
159375,-66.6666666666667,4,1,0,75,0,1
159825,-71.4285714285714,4,1,0,75,0,1
160575,-125,4,1,0,75,0,0
161775,-90.9090909090909,4,1,0,75,0,1
162225,-71.4285714285714,4,1,0,75,0,1
166575,-100,4,1,0,75,0,1
168075,-83.3333333333333,4,1,0,75,0,1
168975,-71.4285714285714,4,1,0,75,0,1
170475,-125,4,1,0,75,0,0
171375,-71.4285714285714,4,1,0,75,0,1
176175,-83.3333333333333,4,1,0,70,0,1
176625,-100,4,1,0,70,0,1
178425,-76.9230769230769,4,1,0,70,0,0

[HitObjects]
96,64,375,5,0,0:0:0:0:
81,111,450,1,0,0:0:0:0:
85,160,525,1,0,0:0:0:0:
117,198,600,1,0,0:0:0:0:
168,178,675,5,0,0:0:0:0:
222,173,750,1,0,0:0:0:0:
272,195,825,1,0,0:0:0:0:
307,237,900,1,0,0:0:0:0:
337,281,975,6,0,P|387:339|474:234,1,239.999992675782
288,192,1425,1,0,0:0:0:0:
224,336,1575,2,0,P|163:354|93:324,1,119.999996337891
256,256,1875,2,0,P|317:238|387:268,1,119.999996337891
112,208,2175,6,0,P|162:161|161:109,1,119.999996337891
30,49,2475,2,0,P|45:115|91:140,1,119.999996337891
214,47,2775,2,0,P|148:27|103:54,1,119.999996337891
288,96,3075,1,0,0:0:0:0:
368,192,3225,1,0,0:0:0:0:
128,288,3375,6,0,L|80:176,1,119.999996337891
192,96,3675,2,0,B|219:159|208:224|208:224|254:258|320:227,2,239.999992675782
320,144,4425,1,0,0:0:0:0:
444,277,4575,6,0,P|413:336|348:360,1,119.999996337891
352,192,4875,2,0,P|405:153|481:157,1,119.999996337891
256,288,5175,2,0,P|224:227|245:140,1,119.999996337891
384,64,5475,1,0,0:0:0:0:
448,192,5625,1,0,0:0:0:0:
288,176,5775,6,0,L|160:176,1,119.999996337891
48,304,6075,2,0,L|176:304,1,119.999996337891
288,176,6375,1,0,0:0:0:0:
121,80,6525,1,0,0:0:0:0:
229,220,6675,1,0,0:0:0:0:
180,35,6825,1,0,0:0:0:0:
156,211,6975,1,0,0:0:0:0:
252,44,7125,1,0,0:0:0:0:
112,152,7275,1,0,0:0:0:0:
297,103,7425,1,0,0:0:0:0:
121,80,7575,6,0,B|73:138|96:210|96:210|106:268|66:321,2,239.999992675782
288,144,8325,2,0,P|233:186|171:186,1,119.999996337891
304,64,8625,2,0,P|362:38|415:172,1,239.999992675781
283,199,9075,1,0,0:0:0:0:
365,111,9225,1,0,0:0:0:0:
416,256,9375,6,0,P|382:312|303:328,1,119.999996337891
313,151,9675,2,0,P|306:209|336:260,1,119.999996337891
484,221,9975,2,0,P|436:185|377:186,1,119.999996337891
338,202,10200,1,0,0:0:0:0:
307,231,10275,1,0,0:0:0:0:
416,352,10425,1,0,0:0:0:0:
453,332,10500,1,0,0:0:0:0:
478,298,10575,6,0,P|498:236|385:114,1,239.999992675781
320,240,11025,1,0,0:0:0:0:
208,128,11175,2,0,P|255:74|310:65,1,119.999996337891
208,224,11475,2,0,P|162:263|92:258,1,119.999996337891
96,64,11775,6,0,P|165:41|216:64,1,119.999996337891
73,145,12075,2,0,P|26:110|12:53,1,119.999996337891
153,116,12374,2,0,P|146:174|104:215,1,119.999996337891
48,336,12675,1,0,0:0:0:0:
176,288,12825,1,0,0:0:0:0:
304,352,12975,6,0,L|381:253,1,119.999996337891
256,128,13275,2,0,B|209:198|223:254|223:254|189:295|103:276,2,239.999992675781
64,192,14025,1,0,0:0:0:0:
240,288,14175,6,0,P|299:249|328:191,1,119.999996337891
217,98,14475,2,0,P|217:157|245:210,1,119.999996337891
401,169,14774,2,0,P|349:140|289:137,1,119.999996337891
400,320,15075,1,0,0:0:0:0:
496,192,15225,1,0,0:0:0:0:
320,192,15375,6,0,P|252:217|182:203,1,119.999996337891
288,96,15675,1,0,0:0:0:0:
352,288,15825,1,0,0:0:0:0:
139,307,15975,2,0,P|169:241|228:201,1,119.999996337891
400,144,16275,1,0,0:0:0:0:
444,174,16350,1,0,0:0:0:0:
469,221,16425,1,0,0:0:0:0:
459,274,16500,1,0,0:0:0:0:
416,307,16575,5,0,0:0:0:0:
224,272,16725,1,0,0:0:0:0:
352,80,17025,1,0,0:0:0:0:
196,291,17325,1,0,0:0:0:0:
61,326,17475,1,0,0:0:0:0:
97,192,17625,1,0,0:0:0:0:
432,96,17925,6,0,P|452:170|443:206,2,89.9999972534181
256,192,18375,1,0,0:0:0:0:
128,192,18525,1,0,0:0:0:0:
192,80,18675,1,0,0:0:0:0:
192,249,18825,1,0,0:0:0:0:
290,81,19125,1,0,0:0:0:0:
98,81,19425,1,0,0:0:0:0:
192,249,19725,1,0,0:0:0:0:
229,263,19800,1,0,0:0:0:0:
267,275,19875,2,0,P|333:278|371:260,1,89.9999972534181
416,192,20175,6,0,P|430:145|408:67,1,119.999996337891
256,32,20775,2,0,L|256:160,1,119.999996337891
208,208,21225,1,0,0:0:0:0:
141,260,21375,2,0,P|98:265|71:256,1,59.9999981689454
176,204,21675,2,0,P|200:233|208:262,1,59.9999981689454
110,200,21975,2,0,P|118:162|138:134,1,59.9999981689454
150,127,22200,1,0,0:0:0:0:
175,118,22275,1,0,0:0:0:0:
320,48,22575,6,0,P|350:111|349:163,1,110.000003356934
260,224,22875,2,0,P|265:154|292:109,1,110.000003356934
368,288,23325,1,0,0:0:0:0:
240,320,23475,2,0,P|185:294|155:227,1,110.000003356934
275,208,23775,1,0,0:0:0:0:
400,160,23925,2,0,L|512:128,2,110.000003356934
176,112,24375,6,0,P|171:52|205:9,1,110.000003356934
256,128,24675,2,0,P|230:181|179:204,1,110.000003356934
276,63,24975,2,0,B|335:47|394:69|394:69|450:82|506:63,1,220.000006713867
368,176,25425,2,0,P|307:215|192:144,1,220.000006713867
320,112,25875,1,0,0:0:0:0:
384,256,26025,1,0,0:0:0:0:
208,224,26175,2,0,P|136:191|91:197,1,110.000003356934
192,304,26475,2,0,P|253:284|288:235,1,110.000003356934
144,112,26775,5,0,0:0:0:0:
200,208,26925,1,0,0:0:0:0:
256,112,27075,2,0,P|275:50|229:4,1,110.000003356934
128,48,27375,5,0,0:0:0:0:
444,153,27675,1,0,0:0:0:0:
444,153,27825,1,0,0:0:0:0:
195,374,28125,1,0,0:0:0:0:
128,48,28425,2,0,P|196:57|256:112,1,150.000005722046
288,224,28875,6,0,P|250:279|200:300,1,110.000003356934
267,148,29175,2,0,P|322:149|369:176,1,110.000003356934
212,203,29475,2,0,P|186:156|186:101,1,110.000003356934
214,60,29700,1,0,0:0:0:0:
258,38,29775,6,0,P|321:55|494:17,1,220.000006713867
512,112,30225,1,0,0:0:0:0:
480,192,30375,2,0,P|437:226|362:234,1,110.000003356934
281,120,30675,2,0,P|355:137|389:166,1,110.000003356934
256,256,30975,2,0,P|223:200|221:125,1,110.000003356934
400,240,31275,2,0,P|413:307|396:361,1,110.000003356934
288,224,31575,2,0,P|344:171|403:158,1,110.000003356934
283,332,31875,2,0,P|226:344|151:324,1,110.000003356934
96,256,32175,5,0,0:0:0:0:
176,176,32325,1,0,0:0:0:0:
256,256,32475,1,0,0:0:0:0:
176,336,32625,1,0,0:0:0:0:
336,48,32925,5,0,0:0:0:0:
256,128,33075,1,0,0:0:0:0:
336,208,33225,1,0,0:0:0:0:
416,128,33375,2,0,P|448:165|459:223,1,80
416,320,33675,6,0,L|256:320,1,160
208,272,34125,1,0,0:0:0:0:
272,224,34275,2,0,L|352:224,1,80
320,64,34575,6,0,P|255:98|208:240,1,220.000006713867
469,240,35025,2,0,P|423:180|284:166,1,220.000006713867
303,314,35475,2,0,P|350:272|368:224,1,110.000003356934
256,192,35775,1,0,0:0:0:0:
192,96,35925,1,0,0:0:0:0:
176,112,36000,1,0,0:0:0:0:
160,128,36075,1,0,0:0:0:0:
371,184,36225,1,0,0:0:0:0:
365,162,36300,1,0,0:0:0:0:
359,140,36375,1,0,0:0:0:0:
204,295,36525,1,0,0:0:0:0:
226,301,36600,1,0,0:0:0:0:
248,307,36675,1,0,0:0:0:0:
80,208,36825,6,0,P|80:290|207:236,1,259.999988098145
256,80,37275,1,0,0:0:0:0:
256,304,37425,1,0,0:0:0:0:
335,112,37575,1,0,0:0:0:0:
176,271,37725,1,0,0:0:0:0:
368,191,37875,1,0,0:0:0:0:
144,192,38025,1,0,0:0:0:0:
335,271,38175,1,0,0:0:0:0:
176,112,38325,1,0,0:0:0:0:
256,320,38475,5,0,0:0:0:0:
256,64,38625,1,0,0:0:0:0:
256,176,38775,1,0,0:0:0:0:
256,192,38850,1,0,0:0:0:0:
256,208,38925,1,0,0:0:0:0:
256,368,39075,2,0,L|256:256,1,100
96,96,39375,6,0,P|156:54|218:72,1,125
315,41,39675,2,0,P|321:113|274:158,1,125
263,247,39975,2,0,P|196:216|181:153,1,125
271,79,40275,2,0,P|337:109|352:172,1,125
240,199,40575,2,0,P|180:240|118:223,1,125
153,122,40875,2,0,P|146:49|193:4,1,125
336,128,41175,1,0,0:0:0:0:
320,112,41250,1,0,0:0:0:0:
304,96,41325,1,0,0:0:0:0:
319,243,41475,1,0,0:0:0:0:
180,184,41625,1,0,0:0:0:0:
304,96,41775,6,0,P|358:146|365:340,1,250
97,270,42225,2,0,P|146:217|324:237,1,250
256,384,42675,2,0,P|212:332|200:270,1,125
210,234,42900,1,0,0:0:0:0:
231,196,42975,2,0,B|286:170|348:195|348:195|379:205|379:178|379:178|361:141|383:73,1,250
224,48,43425,1,0,0:0:0:0:
208,80,43500,1,0,0:0:0:0:
192,112,43575,2,0,L|128:224,2,125
352,272,44175,6,0,P|389:226|403:163,1,110.000003356934
304,64,44475,1,0,0:0:0:0:
176,64,44625,2,0,P|197:130|326:195,1,220.000006713867
256,48,45075,1,0,0:0:0:0:
112,144,45225,1,0,0:0:0:0:
89,188,45300,1,0,0:0:0:0:
78,236,45375,1,0,0:0:0:0:
89,284,45450,1,0,0:0:0:0:
121,320,45525,1,0,0:0:0:0:
167,338,45600,1,0,0:0:0:0:
215,328,45675,1,0,0:0:0:0:
263,319,45750,1,0,0:0:0:0:
310,331,45825,1,0,0:0:0:0:
354,352,45900,1,0,0:0:0:0:
400,369,45975,1,0,0:0:0:0:
448,240,46125,5,0,0:0:0:0:
181,286,46275,2,0,P|166:209|277:110,1,220.000006713867
256,272,46725,1,0,0:0:0:0:
199,136,46875,1,0,0:0:0:0:
312,248,47025,1,0,0:0:0:0:
176,192,47175,1,0,0:0:0:0:
226,191,47250,1,0,0:0:0:0:
275,191,47325,1,0,0:0:0:0:
324,191,47400,1,0,0:0:0:0:
373,193,47475,1,0,0:0:0:0:
256,80,47625,1,0,0:0:0:0:
256,16,47775,5,0,0:0:0:0:
432,192,48075,1,0,0:0:0:0:
256,368,48375,1,0,0:0:0:0:
192,256,48525,1,0,0:0:0:0:
320,256,48675,1,0,0:0:0:0:
256,368,48825,1,0,0:0:0:0:
192,256,48975,5,0,0:0:0:0:
224,128,49125,1,0,0:0:0:0:
96,96,49275,1,0,0:0:0:0:
64,224,49425,2,0,P|92:290|284:295,1,279.999991455078
176,192,49875,1,0,0:0:0:0:
400,48,50175,6,0,P|412:135|380:187,1,139.999995727539
215,171,50475,2,0,P|266:123|334:115,1,139.999995727539
402,273,50776,2,0,P|336:254|294:198,1,139.999995727539
480,144,51075,2,0,B|509:306|509:306|408:361,2,279.999991455078
224,96,51825,2,0,P|223:175|405:255,1,279.999991455078
336,80,52275,2,0,P|262:33|210:38,1,139.999995727539
48,192,52575,6,0,P|45:278|84:322,1,139.999995727539
253,222,52875,2,0,P|183:197|125:223,1,139.999995727539
120,378,53175,2,0,P|181:330|195:267,1,139.999995727539
96,80,53475,1,0,0:0:0:0:
83,141,53550,1,0,0:0:0:0:
91,203,53625,1,0,0:0:0:0:
124,256,53700,1,0,0:0:0:0:
180,283,53775,6,0,P|243:299|389:254,1,200
224,64,54225,2,0,P|208:128|272:240,1,200
384,128,54675,2,0,P|320:112|256:144,1,100
48,128,54975,1,0,0:0:0:0:
144,176,55125,1,0,0:0:0:0:
320,224,55275,6,0,P|293:292|223:328,1,119.999996337891
256,192,55575,2,0,P|309:141|369:134,1,119.999996337891
464,256,55875,1,0,0:0:0:0:
304,336,56025,1,0,0:0:0:0:
252,353,56100,1,0,0:0:0:0:
200,337,56175,6,0,P|127:319|53:335,1,139.999995727539
312,47,56475,2,0,P|385:65|459:49,1,139.999995727539
160,112,56775,2,0,P|174:187|151:254,1,139.999995727539
352,272,57075,2,0,P|338:197|361:130,1,139.999995727539
383,103,57300,1,0,0:0:0:0:
424,81,57375,5,0,0:0:0:0:
464,256,57525,1,0,0:0:0:0:
433,292,57600,1,0,0:0:0:0:
400,320,57675,1,0,0:0:0:0:
128,336,57975,1,0,0:0:0:0:
112,64,58275,1,0,0:0:0:0:
384,48,58575,6,0,P|411:126|282:277,1,279.999991455078
304,128,59025,1,0,0:0:0:0:
480,128,59175,2,0,P|483:210|344:347,2,279.999991455078
288,64,59925,2,0,P|266:150|284:214,1,139.999995727539
192,320,60225,2,0,P|206:231|193:172,2,139.999995727539
80,48,60675,6,0,P|63:125|77:197,1,139.999995727539
112,304,60975,2,0,B|147:228|144:128|144:128|202:119|254:142,1,279.999991455078
349,52,61425,2,0,B|314:128|317:228|317:228|259:237|207:214,1,279.999991455078
432,128,61875,2,0,P|449:220|420:278,1,139.999995727539
320,336,62175,5,0,0:0:0:0:
320,336,62325,1,0,0:0:0:0:
192,336,62475,1,0,0:0:0:0:
192,336,62625,1,0,0:0:0:0:
192,208,62775,1,0,0:0:0:0:
192,208,62925,1,0,0:0:0:0:
320,208,63075,1,0,0:0:0:0:
320,208,63225,1,0,0:0:0:0:
64,320,63375,6,0,B|32:256|32:256|32:16,1,300.000011444092
144,48,63825,2,0,B|152:147|112:224|112:224|219:275,1,279.999991455078
352,224,64275,1,0,0:0:0:0:
371,194,64350,1,0,0:0:0:0:
377,159,64425,1,0,0:0:0:0:
374,124,64500,1,0,0:0:0:0:
359,92,64575,2,0,P|287:52|211:62,1,139.999995727539
176,256,65025,1,0,0:0:0:0:
400,208,65325,1,0,0:0:0:0:
424,165,65400,1,0,0:0:0:0:
421,116,65475,1,0,0:0:0:0:
398,72,65550,1,0,0:0:0:0:
354,48,65625,1,0,0:0:0:0:
256,32,69225,5,0,0:0:0:0:
256,112,69525,1,0,0:0:0:0:
256,192,69825,1,0,0:0:0:0:
80,304,70125,1,0,0:0:0:0:
96,288,70200,1,0,0:0:0:0:
98,266,70275,1,0,0:0:0:0:
400,208,70575,6,0,P|401:271|343:325,1,119.999996337891
288,192,71175,2,0,P|304:143|359:92,1,119.999996337891
432,144,71625,1,0,0:0:0:0:
448,240,71775,6,0,B|443:270|443:270|448:330,2,63.3333316421509
496,192,72075,2,0,B|503:156|503:156|498:113,2,63.3333316421509
416,176,72375,1,0,0:0:0:0:
400,160,72675,1,0,0:0:0:0:
384,144,72975,6,0,P|302:174|244:164,1,115.000002193451
208,48,73275,2,0,P|275:60|320:98,1,115.000002193451
144,144,73575,2,0,P|103:102|97:41,1,115.000002193451
192,240,73875,2,0,P|160:304|103:340,2,115.000002193451
320,240,74325,2,0,P|352:304|409:340,2,115.000002193451
448,128,74775,6,0,P|450:60|384:26,1,115.000002193451
384,160,75075,2,0,P|430:212|492:210,1,115.000002193451
336,64,75375,2,0,B|267:51|212:74|212:74|122:91|74:64,1,230.000004386902
176,176,75825,2,0,P|253:222|372:158,1,230.000004386902
256,96,76275,1,0,0:0:0:0:
112,160,76425,1,0,0:0:0:0:
256,240,76575,2,0,P|327:252|378:227,1,115.000002193451
325,80,76875,2,0,P|287:123|292:192,1,115.000002193451
448,80,77175,1,0,0:0:0:0:
224,32,77325,5,0,0:0:0:0:
304,144,77475,1,0,0:0:0:0:
384,32,77625,1,0,0:0:0:0:
464,144,77775,5,0,0:0:0:0:
220,370,78075,1,0,0:0:0:0:
220,370,78225,1,0,0:0:0:0:
146,46,78525,1,0,0:0:0:0:
272,173,78825,2,0,P|178:219|54:173,1,230.000004386902
48,144,79200,1,0,0:0:0:0:
59,105,79275,5,0,0:0:0:0:
320,48,79425,1,0,0:0:0:0:
112,57,79575,5,0,0:0:0:0:
302,117,79725,1,0,0:0:0:0:
166,28,79875,5,0,0:0:0:0:
267,139,80025,1,0,0:0:0:0:
236,21,80175,6,0,B|240:89|169:132|169:132|154:282,1,259.999988098145
256,176,80625,1,0,0:0:0:0:
96,80,80775,2,0,P|40:137|47:216,1,129.999994049073
144,320,81075,2,0,P|170:248|161:180,1,129.999994049073
272,64,81375,2,0,P|359:40|416:56,1,129.999994049073
336,160,81675,2,0,P|265:171|200:152,1,129.999994049073
112,352,81975,6,0,P|61:272|76:217,1,129.999994049073
192,64,82275,2,0,P|212:157|199:204,1,129.999994049073
432,288,82575,1,0,0:0:0:0:
423,210,82725,2,0,P|364:260|467:356,2,259.999988098145
496,144,83475,2,0,P|452:95|381:79,1,129.999994049073
224,128,83775,2,0,P|298:149|357:138,1,129.999994049073
160,32,84075,6,0,L|160:112,1,80
96,192,84375,2,0,L|96:96,1,80
176,208,84675,2,0,L|176:288,1,80
32,352,84975,6,0,P|37:269|155:167,1,230.000004386902
352,304,85425,2,0,P|263:320|134:256,1,230.000004386902
265,160,85875,1,0,0:0:0:0:
352,304,86025,1,0,0:0:0:0:
192,256,86175,6,0,L|64:224,1,115.000002193451
320,208,86475,2,0,L|448:176,1,115.000002193451
192,80,86775,1,0,0:0:0:0:
166,110,86850,1,0,0:0:0:0:
154,148,86925,1,0,0:0:0:0:
152,188,87000,1,0,0:0:0:0:
160,227,87075,1,0,0:0:0:0:
336,320,87225,6,0,P|415:330|398:172,1,279.999991455078
323,124,87675,1,0,0:0:0:0:
188,259,87825,1,0,0:0:0:0:
352,192,87975,1,0,0:0:0:0:
160,192,88125,1,0,0:0:0:0:
323,259,88275,1,0,0:0:0:0:
188,124,88425,1,0,0:0:0:0:
256,288,88575,1,0,0:0:0:0:
255,96,88725,1,0,0:0:0:0:
188,259,88875,1,0,0:0:0:0:
323,124,89025,1,0,0:0:0:0:
160,192,89175,1,0,0:0:0:0:
192,192,89250,1,0,0:0:0:0:
224,192,89325,1,0,0:0:0:0:
416,192,89475,2,0,L|288:192,1,110.000003356934
154,343,89775,6,0,P|97:295|99:231,1,125
44,145,90075,2,0,P|111:120|167:154,1,125
256,142,90375,2,0,P|243:214|186:245,1,125
92,178,90675,2,0,P|103:106|160:75,1,125
216,177,90975,2,0,P|271:224|270:288,1,125
164,281,91275,2,0,P|95:306|39:272,1,125
160,144,91575,1,0,0:0:0:0:
183,120,91650,1,0,0:0:0:0:
208,96,91725,1,0,0:0:0:0:
352,144,91875,1,0,0:0:0:0:
240,224,92025,1,0,0:0:0:0:
64,96,92175,6,0,B|128:53|208:49|208:49|246:64|312:57,1,250
416,224,92625,2,0,B|350:194|291:209|291:209|225:200|200:128,1,250
48,224,93075,1,0,0:0:0:0:
176,288,93225,1,0,0:0:0:0:
208,304,93300,1,0,0:0:0:0:
240,304,93375,2,0,P|367:308|459:204,1,250
310,211,93825,1,0,0:0:0:0:
176,192,93975,2,0,P|239:124|410:103,1,250
112,272,94575,6,0,P|52:235|34:191,1,110.000003356934
174,219,94875,2,0,P|197:275|170:335,1,110.000003356934
106,188,95175,2,0,P|154:153|229:154,1,110.000003356934
320,240,95475,1,0,0:0:0:0:
367,254,95550,1,0,0:0:0:0:
416,249,95625,1,0,0:0:0:0:
457,221,95700,1,0,0:0:0:0:
475,175,95775,1,0,0:0:0:0:
466,126,95850,1,0,0:0:0:0:
428,93,95925,1,0,0:0:0:0:
379,84,96000,1,0,0:0:0:0:
331,97,96075,1,0,0:0:0:0:
283,112,96150,1,0,0:0:0:0:
233,114,96225,1,0,0:0:0:0:
186,96,96300,1,0,0:0:0:0:
145,67,96375,1,0,0:0:0:0:
128,256,96525,5,0,0:0:0:0:
367,127,96675,2,0,P|358:213|255:287,1,220.000006713867
256,97,97125,1,0,0:0:0:0:
188,259,97275,1,0,0:0:0:0:
323,124,97425,1,0,0:0:0:0:
161,192,97575,1,0,0:0:0:0:
350,191,97725,1,0,0:0:0:0:
320,192,97800,1,0,0:0:0:0:
288,192,97875,1,0,0:0:0:0:
117,112,98175,5,0,0:0:0:0:
394,112,98475,1,0,0:0:0:0:
256,352,98775,1,0,0:0:0:0:
176,224,98925,1,0,0:0:0:0:
336,224,99075,1,0,0:0:0:0:
256,352,99225,1,0,0:0:0:0:
117,112,99375,6,0,L|0:112,2,110.000003356934
240,64,99825,2,0,P|328:74|348:251,1,279.999991455078
256,176,100275,1,0,0:0:0:0:
68,330,100575,6,0,P|55:243|87:191,1,139.999995727539
252,206,100875,2,0,P|201:254|133:262,1,139.999995727539
66,104,101176,2,0,P|132:123|173:179,1,139.999995727539
256,304,101475,2,0,B|359:315|359:315|351:254|351:254|483:267,1,279.999991455078
336,192,101925,1,0,0:0:0:0:
176,192,102075,1,0,0:0:0:0:
46,118,102225,2,0,B|161:130|161:130|153:69|153:69|256:80,1,279.999991455078
416,128,102675,2,0,P|329:155|259:153,1,139.999995727539
140,57,102975,6,0,P|64:97|45:153,1,139.999995727539
216,249,103275,2,0,P|202:175|151:138,1,139.999995727539
14,212,103575,2,0,P|86:240|147:221,1,139.999995727539
432,128,103875,1,0,0:0:0:0:
374,101,103950,1,0,0:0:0:0:
311,96,104025,1,0,0:0:0:0:
249,108,104100,1,0,0:0:0:0:
206,156,104175,6,0,P|171:229|219:351,1,200
417,312,104625,2,0,P|378:268|233:257,1,200
320,336,105075,1,0,0:0:0:0:
368,160,105225,1,0,0:0:0:0:
176,192,105375,2,0,P|168:246|184:297,1,100
288,144,105675,6,0,P|242:94|156:74,1,119.999996337891
256,224,105975,2,0,P|329:257|392:239,1,119.999996337891
432,96,106275,1,0,0:0:0:0:
288,48,106425,1,0,0:0:0:0:
256,48,106500,1,0,0:0:0:0:
224,48,106575,6,0,P|144:42|54:76,1,139.999995727539
288,336,106875,2,0,P|368:342|458:308,1,139.999995727539
171,147,107175,2,0,P|165:227|198:317,1,139.999995727539
340,237,107475,2,0,P|347:167|331:100,1,139.999995727539
303,78,107700,1,0,0:0:0:0:
270,65,107775,1,0,0:0:0:0:
240,192,107925,1,0,0:0:0:0:
144,112,108075,5,0,0:0:0:0:
336,80,108375,1,0,0:0:0:0:
368,272,108675,1,0,0:0:0:0:
176,304,108975,6,0,P|104:263|148:84,1,279.999991455078
256,192,109425,1,0,0:0:0:0:
336,304,109575,2,0,P|408:263|364:84,2,279.999991455078
256,192,110325,1,0,0:0:0:0:
128,112,110475,2,0,P|49:117|20:178,1,139.999995727539
176,192,110775,2,0,P|224:128|241:60,1,139.999995727539
64,224,111075,2,0,L|160:336,1,139.999995727539
352,336,111375,6,0,B|384:262|362:197|362:197|486:107,1,279.999991455078
320,64,111825,2,0,B|251:113|190:52|190:52|202:191,1,279.999991455078
339,318,112275,2,0,P|402:295|423:230,1,139.999995727539
336,128,112575,5,0,0:0:0:0:
336,128,112725,1,0,0:0:0:0:
245,218,112875,1,0,0:0:0:0:
245,218,113025,1,0,0:0:0:0:
336,309,113175,1,0,0:0:0:0:
336,309,113325,1,0,0:0:0:0:
426,218,113475,1,0,0:0:0:0:
426,218,113625,1,0,0:0:0:0:
352,64,113775,6,0,B|274:89|274:89|203:59|30:108,1,300.000011444092
80,208,114225,2,0,B|144:241|213:201|213:201|296:172|379:205,1,279.999991455078
249,87,114675,1,0,0:0:0:0:
219,68,114750,1,0,0:0:0:0:
184,62,114825,1,0,0:0:0:0:
149,65,114900,1,0,0:0:0:0:
117,80,114975,2,0,P|77:152|87:228,1,139.999995727539
281,263,115425,1,0,0:0:0:0:
233,39,115725,1,0,0:0:0:0:
190,15,115800,1,0,0:0:0:0:
141,18,115875,1,0,0:0:0:0:
97,41,115950,1,0,0:0:0:0:
73,85,116025,1,0,0:0:0:0:
80,160,116325,6,0,L|80:224,2,50
112,160,116775,1,0,0:0:0:0:
144,160,116925,1,0,0:0:0:0:
320,304,117225,2,0,L|320:240,1,50
256,272,117525,2,0,L|256:208,1,50
192,224,117825,2,0,L|192:160,1,50
128,208,118125,2,0,L|128:272,1,50
64,304,118425,1,0,0:0:0:0:
160,208,118575,5,0,0:0:0:0:
224,256,118725,1,0,0:0:0:0:
288,304,118875,2,0,L|352:304,1,50
416,224,119175,2,0,L|352:224,1,50
272,176,119625,1,0,0:0:0:0:
208,144,119775,5,0,0:0:0:0:
128,224,119925,1,0,0:0:0:0:
128,208,120000,1,0,0:0:0:0:
128,192,120075,1,0,0:0:0:0:
48,160,120225,2,0,L|48:224,1,50
128,256,120525,2,0,L|128:192,1,50
256,64,120825,5,0,0:0:0:0:
368,112,120975,1,0,0:0:0:0:
376,148,121050,1,0,0:0:0:0:
373,185,121125,1,0,0:0:0:0:
361,220,121200,1,0,0:0:0:0:
337,249,121275,2,0,L|253:249,1,75.0000028610231
160,192,121575,2,0,L|240:192,1,75.0000028610231
144,80,122025,6,0,L|144:160,1,75.0000028610231
80,224,122325,2,0,L|80:144,1,75.0000028610231
144,224,122625,1,0,0:0:0:0:
144,256,122700,1,0,0:0:0:0:
144,288,122775,1,0,0:0:0:0:
256,336,122925,1,0,0:0:0:0:
368,288,123075,2,0,L|368:208,1,75.0000028610231
288,112,123375,2,0,L|288:272,2,150.000005722046
192,112,124125,5,0,0:0:0:0:
192,192,124275,1,0,0:0:0:0:
112,192,124425,1,0,0:0:0:0:
112,272,124575,2,0,L|272:272,2,150.000005722046
400,112,125325,6,0,L|240:112,1,150.000005722046
64,96,125925,2,0,P|118:45|157:44,1,100
106,152,126225,2,0,P|47:168|3:146,1,100
162,108,126525,2,0,P|184:158|161:223,2,100
96,224,126975,6,0,L|64:320,1,100
211,219,127275,2,0,L|179:331,1,100
288,368,127575,2,0,L|331:241,1,100
408,350,127875,2,0,L|449:233,1,100
336,160,128175,2,0,P|269:135|234:152,1,100
406,179,128475,6,0,P|399:119|353:80,1,100
245,143,128775,2,0,P|305:162|345:153,1,100
361,24,129075,2,0,P|320:48|303:106,1,100
176,224,129375,2,0,P|149:175|150:118,1,100
304,128,129675,2,0,P|258:160|212:168,1,100
116,68,129975,2,0,P|171:69|220:98,1,100
48,128,130275,1,0,0:0:0:0:
336,272,130575,6,0,P|368:208|352:80,2,200
256,240,131325,1,0,0:0:0:0:
160,320,131475,2,0,P|185:272|177:221,1,100
48,112,131775,6,0,P|96:160|147:159,1,100
169,21,132075,2,0,P|121:69|122:120,1,100
262,139,132375,2,0,P|214:91|163:92,1,100
145,234,132675,2,0,P|193:186|192:135,1,100
64,112,132975,5,0,0:0:0:0:
0,240,133125,1,0,0:0:0:0:
145,234,133275,2,0,L|256:224,1,100
416,256,133575,2,0,P|431:312|409:361,1,100
352,240,133875,2,0,P|365:187|406:152,1,100
320,160,134175,2,0,L|209:170,1,100
49,138,134475,2,0,P|34:82|56:33,1,100
113,154,134775,5,0,0:0:0:0:
399,230,134925,1,0,0:0:0:0:
113,154,135225,6,0,P|156:97|316:122,1,250
366,160,135675,2,0,P|319:186|266:162,1,100
416,96,135975,2,0,L|464:192,1,100
320,240,136275,2,0,L|464:240,1,100
277,173,136575,2,0,P|229:205|229:269,1,100
222,360,136875,2,0,P|270:328|270:264,1,100
176,304,137175,2,0,L|64:304,1,100
32,144,137475,2,0,B|63:187|63:187|32:256,1,100
144,144,137775,6,0,L|225:22,1,129.999994049073
212,170,138075,2,0,L|334:251,1,129.999994049073
180,230,138375,1,0,0:0:0:0:
108,338,138525,1,0,0:0:0:0:
110,207,138675,1,0,0:0:0:0:
32,144,138825,2,0,L|128:32,1,129.999994049073
110,207,139125,2,0,L|14:319,1,129.999994049073
402,207,139575,6,0,P|350:138|264:120,1,150.000005722046
48,272,140025,2,0,P|127:300|319:205,1,300.000011444092
160,160,140475,1,0,0:0:0:0:
288,80,140625,1,0,0:0:0:0:
448,160,140775,6,0,L|384:304,1,150.000005722046
128,144,141225,2,0,P|208:106|410:194,1,300.000011444092
256,240,141675,1,0,0:0:0:0:
112,304,141825,1,0,0:0:0:0:
32,144,141975,6,0,P|110:104|182:121,1,150.000005722046
165,299,142275,2,0,P|112:231|109:167,1,150.000005722046
320,192,142575,5,0,0:0:0:0:
320,192,142725,1,0,0:0:0:0:
192,197,142875,1,0,0:0:0:0:
192,197,142950,1,0,0:0:0:0:
192,197,143025,1,0,0:0:0:0:
256,256,143175,5,0,0:0:0:0:
256,256,143325,1,0,0:0:0:0:
256,128,143475,1,0,0:0:0:0:
272,80,143550,1,0,0:0:0:0:
313,52,143625,1,0,0:0:0:0:
362,45,143700,1,0,0:0:0:0:
407,65,143775,1,0,0:0:0:0:
438,104,143850,1,0,0:0:0:0:
441,153,143925,1,0,0:0:0:0:
418,197,144000,1,0,0:0:0:0:
377,226,144075,5,0,0:0:0:0:
80,64,144375,5,0,0:0:0:0:
432,66,144675,1,0,0:0:0:0:
256,352,144975,5,0,0:0:0:0:
176,224,145125,1,0,0:0:0:0:
336,224,145275,1,0,0:0:0:0:
256,352,145425,2,0,P|183:356|80:192,1,279.999991455078
256,192,145875,1,0,0:0:0:0:
172,38,146175,6,0,P|109:67|80:129,1,139.999995727539
194,241,146475,2,0,P|200:172|162:116,1,139.999995727539
6,164,146775,2,0,P|61:204|130:198,1,139.999995727539
240,192,147075,2,0,B|304:112|304:112|400:112|400:112|464:32,2,279.999991455078
362,339,147825,2,0,P|401:258|278:109,1,279.999991455078
176,240,148275,2,0,P|260:262|316:235,1,139.999995727539
432,64,148575,6,0,P|348:42|292:69,1,139.999995727539
302,225,148875,2,0,P|363:163|367:101,1,139.999995727539
222,41,149175,2,0,P|244:124|296:159,1,139.999995727539
464,288,149475,1,0,0:0:0:0:
484,228,149550,1,0,0:0:0:0:
468,166,149625,1,0,0:0:0:0:
421,123,149700,1,0,0:0:0:0:
357,115,149775,6,0,P|298:115|180:195,1,200
224,352,150225,2,0,P|286:292|274:169,1,200
112,240,150675,2,0,P|179:263|232:256,1,100
112,160,150975,1,0,0:0:0:0:
48,272,151125,1,0,0:0:0:0:
144,336,151275,6,0,P|217:350|268:326,1,119.999996337891
160,176,151575,2,0,P|152:239|194:289,1,119.999996337891
240,128,151875,1,0,0:0:0:0:
80,80,152025,1,0,0:0:0:0:
56,135,152100,1,0,0:0:0:0:
50,197,152175,6,0,P|69:272|119:325,1,139.999995727539
462,187,152475,2,0,P|443:112|393:59,1,139.999995727539
165,209,152775,2,0,P|184:134|234:81,1,139.999995727539
347,175,153075,2,0,P|328:250|278:303,1,139.999995727539
263,311,153300,1,0,0:0:0:0:
235,318,153375,1,0,0:0:0:0:
48,336,153525,1,0,0:0:0:0:
67,313,153600,1,0,0:0:0:0:
96,304,153675,5,0,0:0:0:0:
144,32,153975,1,0,0:0:0:0:
416,80,154275,1,0,0:0:0:0:
353,336,154575,6,0,P|266:336|93:213,1,279.999991455078
288,192,155025,1,0,0:0:0:0:
432,320,155175,2,0,P|345:340|146:283,2,279.999991455078
480,192,155925,2,0,P|490:107|475:51,1,139.999995727539
368,208,156225,2,0,P|372:280|413:353,2,139.999995727539
252,55,156675,6,0,P|241:123|256:192,1,139.999995727539
176,336,156975,2,0,B|106:326|58:343|58:343|87:293|87:207|57:185,2,279.999991455078
192,176,157725,1,0,0:0:0:0:
89,57,157875,2,0,P|59:126|64:199,1,139.999995727539
192,176,158175,5,0,0:0:0:0:
192,176,158325,1,0,0:0:0:0:
320,48,158475,1,0,0:0:0:0:
320,48,158625,1,0,0:0:0:0:
320,176,158775,1,0,0:0:0:0:
320,176,158925,1,0,0:0:0:0:
192,48,159075,1,0,0:0:0:0:
192,48,159225,1,0,0:0:0:0:
352,32,159375,6,0,B|388:115|388:115|388:352,1,300.000011444092
256,304,159825,2,0,P|314:227|260:58,1,279.999991455078
32,176,160275,1,0,0:0:0:0:
67,154,160350,1,0,0:0:0:0:
93,122,160425,1,0,0:0:0:0:
105,81,160500,1,0,0:0:0:0:
107,41,160575,5,0,0:0:0:0:
407,43,160875,1,0,0:0:0:0:
405,343,161175,1,0,0:0:0:0:
105,341,161475,1,0,0:0:0:0:
107,41,161775,6,0,L|217:41,2,110.000003356934
32,144,162225,2,0,P|94:211|298:188,1,279.999991455078
352,112,162675,1,0,0:0:0:0:
317,323,162975,6,0,P|381:299|416:240,1,139.999995727539
306,122,163275,2,0,P|294:189|329:249,1,139.999995727539
494,215,163575,2,0,P|441:171|372:171,1,139.999995727539
267,82,163875,2,0,P|356:37|515:106,1,279.999991455078
384,160,164325,1,0,0:0:0:0:
224,224,164475,1,0,0:0:0:0:
90,283,164626,2,0,P|208:349|335:303,1,279.999991455078
208,160,165075,2,0,P|179:228|230:294,1,139.999995727539
288,160,165375,6,0,P|317:92|266:26,1,139.999995727539
181,99,165675,2,0,P|225:158|308:146,1,139.999995727539
287,38,165975,2,0,P|213:46|181:124,1,139.999995727539
352,112,166275,1,0,0:0:0:0:
393,138,166350,1,0,0:0:0:0:
416,181,166425,1,0,0:0:0:0:
411,229,166500,1,0,0:0:0:0:
390,268,166575,6,0,P|334:315|188:320,1,200
96,192,167025,2,0,P|159:176|311:222,1,200
186,351,167475,1,0,0:0:0:0:
96,192,167625,1,0,0:0:0:0:
288,205,167775,2,0,P|366:191|399:208,1,100
272,288,168075,6,0,P|203:306|139:291,1,119.999996337891
96,160,168375,2,0,P|174:202|207:249,1,119.999996337891
32,256,168675,1,0,0:0:0:0:
64,112,168825,1,0,0:0:0:0:
96,96,168900,1,0,0:0:0:0:
128,80,168975,6,0,P|206:73|288:93,1,139.999995727539
384,304,169275,2,0,P|306:311|224:291,1,139.999995727539
186,117,169575,2,0,P|179:202|203:261,1,139.999995727539
326,267,169875,2,0,P|333:182|309:123,1,139.999995727539
289,107,170100,1,0,0:0:0:0:
256,93,170175,1,0,0:0:0:0:
128,272,170325,1,0,0:0:0:0:
153,295,170400,1,0,0:0:0:0:
187,306,170475,5,0,0:0:0:0:
142,123,170775,1,0,0:0:0:0:
325,78,171075,1,0,0:0:0:0:
370,261,171375,6,0,P|423:185|343:27,1,279.999991455078
272,144,171825,1,0,0:0:0:0:
416,320,171975,2,0,P|480:234|456:43,2,279.999991455078
256,256,172725,1,0,0:0:0:0:
400,192,172875,2,0,P|402:114|321:103,1,139.999995727539
336,256,173175,2,0,P|414:291|471:272,1,139.999995727539
304,160,173475,2,0,L|180:53,1,139.999995727539
64,144,173775,6,0,B|34:214|94:229|94:229|119:304|248:266,1,279.999991455078
176,128,174225,2,0,B|207:46|207:46|241:98|411:69,1,279.999991455078
480,160,174675,2,0,P|444:226|368:234,1,139.999995727539
256,144,174975,5,0,0:0:0:0:
256,144,175125,1,0,0:0:0:0:
256,325,175275,1,0,0:0:0:0:
256,325,175425,1,0,0:0:0:0:
165,234,175575,1,0,0:0:0:0:
165,234,175725,1,0,0:0:0:0:
346,234,175875,1,0,0:0:0:0:
346,234,176025,1,0,0:0:0:0:
384,112,176175,6,0,P|323:52|157:70,1,239.999992675781
32,128,176625,2,0,P|70:176|230:163,1,200
336,176,177075,1,0,0:0:0:0:
377,204,177150,1,0,0:0:0:0:
393,251,177225,1,0,0:0:0:0:
384,300,177300,1,0,0:0:0:0:
344,330,177375,5,0,0:0:0:0:
128,288,177525,1,0,0:0:0:0:
448,64,177825,5,0,0:0:0:0:
96,48,178125,5,0,0:0:0:0:
160,160,178275,1,0,0:0:0:0:
32,160,178425,1,0,0:0:0:0:
256,192,178500,12,0,180975,0:0:0:0:
