osu file format v14

[General]
AudioFilename: audio.mp3
AudioLeadIn: 0
PreviewTime: 195172
Countdown: 0
SampleSet: Normal
StackLeniency: 0.7
Mode: 1
LetterboxInBreaks: 0
WidescreenStoryboard: 0

[Editor]
Bookmarks: 1110,7110,13110,25110,37110,52110,64110,77610,89610,101610,113610,128610,140610,154110,166110,178110,196110,208110,221610,233610,245610
DistanceSpacing: 0.9
BeatDivisor: 4
GridSize: 32
TimelineZoom: 2.700005

[Metadata]
Title:Hana wa Odore ya Irohaniho
TitleUnicode:花ハ踊レヤいろはにほ
Artist:Team "Hanayamata"
ArtistUnicode:チーム"ハナヤマタ"
Creator:realy0_
Version:Roger's Oni
Source:ハナヤマタ
Tags:opening madhouse Naru Sekiya Reina Ueda Yaya Sasame Kaya Okuno Hana N. Fontainestand Minami Tanaka Tami Nishimikado Yuka Ootsubo Machi Tokiwa Manami Numakura Roger ][ -GH- ][ ][_-GH-_][ japanese j-pop anime op
BeatmapID:2148817
BeatmapSetID:1026550

[Difficulty]
HPDrainRate:5
CircleSize:2
OverallDifficulty:5
ApproachRate:0
SliderMultiplier:1.4
SliderTickRate:1

[Events]
//Background and Video events
0,0,"Hana.N..Fontainestand.full.1771132.jpg",0,100
//Break Periods
//Storyboard Layer 0 (Background)
//Storyboard Layer 1 (Fail)
//Storyboard Layer 2 (Pass)
//Storyboard Layer 3 (Foreground)
//Storyboard Layer 4 (Overlay)
//Storyboard Sound Samples

[TimingPoints]
-390,375,4,1,0,60,1,0
1108,-142.857142857143,4,1,0,60,0,0
7108,-125,4,1,0,70,0,0
7483,-121.951219512195,4,1,0,70,0,0
7858,-119.047619047619,4,1,0,70,0,0
8045,-117.647058823529,4,1,0,70,0,0
8233,-116.279069767442,4,1,0,70,0,0
8608,-113.636363636364,4,1,0,73,0,0
8795,-112.359550561798,4,1,0,73,0,0
8983,-111.111111111111,4,1,0,73,0,0
9170,-109.89010989011,4,1,0,73,0,0
9358,-108.695652173913,4,1,0,76,0,0
9733,-106.382978723404,4,1,0,76,0,0
9920,-105.263157894737,4,1,0,76,0,0
10108,-104.166666666667,4,1,0,80,0,0
10483,-102.040816326531,4,1,0,80,0,0
10670,-101.010101010101,4,1,0,80,0,0
10858,-100,4,1,0,80,0,0
11045,-99.009900990099,4,1,0,80,0,0
11233,-98.0392156862745,4,1,0,80,0,0
11420,-97.0873786407767,4,1,0,80,0,0
11608,-96.1538461538461,4,1,0,80,0,0
11795,-95.2380952380952,4,1,0,80,0,0
11983,-94.3396226415094,4,1,0,80,0,0
12358,-98.0392156862745,4,1,0,80,0,0
12545,-101.010101010101,4,1,0,80,0,0
12639,-102.564102564103,4,1,0,80,0,0
12733,-104.166666666667,4,1,0,80,0,0
12826,-105.820105820106,4,1,0,80,0,0
12920,-107.52688172043,4,1,0,80,0,0
13108,-111.111111111111,4,1,0,70,0,0
25108,-100,4,1,0,80,0,0
37389,-103.896103896104,4,1,0,80,0,0
37670,-108.108108108108,4,1,0,80,0,0
37858,-111.111111111111,4,1,0,80,0,0
42358,-104.166666666667,4,1,0,80,0,0
43108,-98.0392156862745,4,1,0,80,0,0
51076,-98.0392156862745,4,1,0,40,0,0
52110,-93.4579439252336,4,1,0,90,0,1
54733,-78.7401574803149,4,1,0,90,0,1
55108,-93.4579439252336,4,1,0,90,0,1
57545,-78.7401574803149,4,1,0,90,0,1
58108,-93.4579439252336,4,1,0,90,0,1
63360,-93.4579439252336,4,1,0,90,0,0
64110,-93.4579439252336,4,1,0,90,0,1
66733,-78.7401574803149,4,1,0,90,0,1
67108,-93.4579439252336,4,1,0,90,0,1
69545,-78.7401574803149,4,1,0,90,0,1
70108,-93.4579439252336,4,1,0,90,0,1
76110,-93.4579439252336,4,1,0,90,0,0
76201,-100,4,1,0,40,0,0
77514,-100,4,1,0,70,0,0
77608,-125,4,1,0,70,0,0
89608,-125,4,1,0,60,0,0
89983,-111.111111111111,4,1,0,70,0,0
101608,-100,4,1,0,80,0,0
113608,-100,4,1,0,80,0,0
113889,-103.896103896104,4,1,0,80,0,0
114170,-108.108108108108,4,1,0,80,0,0
114358,-111.111111111111,4,1,0,80,0,0
118858,-104.166666666667,4,1,0,80,0,0
119608,-98.0392156862745,4,1,0,80,0,0
127576,-98.0392156862745,4,1,0,40,0,0
128610,-93.4579439252336,4,1,0,90,0,1
131233,-78.7401574803149,4,1,0,90,0,1
131608,-93.4579439252336,4,1,0,90,0,1
134045,-78.7401574803149,4,1,0,90,0,1
134608,-93.4579439252336,4,1,0,90,0,1
139860,-93.4579439252336,4,1,0,90,0,0
140610,-93.4579439252336,4,1,0,90,0,1
143233,-78.7401574803149,4,1,0,90,0,1
143608,-93.4579439252336,4,1,0,90,0,1
146045,-78.7401574803149,4,1,0,90,0,1
146608,-93.4579439252336,4,1,0,90,0,1
152610,-93.4579439252336,4,1,0,90,0,0
152701,-100,4,1,0,40,0,0
153639,-100,4,1,0,70,0,0
154108,-100,4,1,0,80,0,0
166108,-100,4,1,0,85,0,0
183545,-100,4,1,0,80,0,0
183639,-99.6710854181202,4,1,0,80,0,0
183733,-99.3443274389032,4,1,0,80,0,0
183826,-99.009900990099,4,1,0,80,0,0
183920,-98.6874568242376,4,1,0,80,0,0
184014,-98.3671060397403,4,1,0,80,0,0
184108,-98.0392156862745,4,1,0,80,0,0
190483,-97.5609756097561,4,1,0,80,0,0
190670,-97.323600973236,4,1,0,80,0,0
190764,-97.2053462940462,4,1,0,80,0,0
190858,-97.0873786407767,4,1,0,80,0,0
191045,-96.8523002421307,4,1,0,80,0,0
191233,-96.6183574879227,4,1,0,80,0,0
191420,-96.3855421686747,4,1,0,80,0,0
191514,-96.2695547533093,4,1,0,80,0,0
191608,-96.1538461538461,4,1,0,80,0,0
191983,-95.6937799043062,4,1,0,80,0,0
192170,-95.4653937947494,4,1,0,80,0,0
192264,-95.3516090584029,4,1,0,80,0,0
192358,-95.2380952380952,4,1,0,80,0,0
192545,-95.0118764845606,4,1,0,80,0,0
192639,-94.8991696322657,4,1,0,80,0,0
192733,-94.7867298578199,4,1,0,80,0,0
192826,-94.6745562130178,4,1,0,80,0,0
192920,-94.5626477541371,4,1,0,80,0,0
193014,-94.4510035419126,4,1,0,80,0,0
193108,-94.3396226415094,4,1,0,80,0,0
193295,-94.1176470588235,4,1,0,80,0,0
193389,-93.8967136150235,4,1,0,80,0,0
193483,-93.7866354044549,4,1,0,80,0,0
193670,-93.6768149882904,4,1,0,80,0,0
193858,-93.4579439252336,4,1,0,80,0,0
193951,-93.2400932400932,4,1,0,80,0,0
194045,-93.1315483119907,4,1,0,80,0,0
194139,-93.0232558139535,4,1,0,80,0,0
194233,-92.9152148664344,4,1,0,80,0,0
194326,-92.8074245939675,4,1,0,80,0,0
194420,-92.6998841251448,4,1,0,80,0,0
194514,-92.5925925925926,4,1,0,80,0,0
194608,-92.485549132948,4,1,0,80,0,0
194701,-100,4,1,0,80,0,0
196108,-133.333333333333,4,1,0,60,0,0
202108,-125,4,1,0,70,0,0
202483,-121.951219512195,4,1,0,70,0,0
202670,-120.481927710843,4,1,0,70,0,0
202764,-119.760479041916,4,1,0,70,0,0
202858,-119.047619047619,4,1,0,70,0,0
203045,-117.647058823529,4,1,0,70,0,0
203420,-114.942528735632,4,1,0,70,0,0
203608,-113.636363636364,4,1,0,73,0,0
203983,-111.111111111111,4,1,0,73,0,0
204170,-109.89010989011,4,1,0,73,0,0
204264,-109.289617486339,4,1,0,73,0,0
204358,-108.695652173913,4,1,0,76,0,0
204545,-106.382978723404,4,1,0,76,0,0
204733,-104.166666666667,4,1,0,76,0,0
204920,-102.040816326531,4,1,0,76,0,0
205108,-100,4,1,0,80,0,0
205483,-98.0392156862745,4,1,0,80,0,0
205670,-97.0873786407767,4,1,0,80,0,0
205764,-96.6183574879227,4,1,0,80,0,0
205858,-96.1538461538461,4,1,0,80,0,0
206045,-94.3396226415094,4,1,0,80,0,0
206233,-93.4579439252336,4,1,0,80,0,0
206420,-92.5925925925926,4,1,0,80,0,0
206514,-91.743119266055,4,1,0,80,0,0
206608,-91.324200913242,4,1,0,80,0,0
206983,-89.2857142857143,4,1,0,80,0,0
208110,-89.2857142857143,4,1,0,90,0,1
210733,-75.7575757575758,4,1,0,90,0,1
211108,-89.2857142857143,4,1,0,90,0,1
213545,-75.7575757575758,4,1,0,90,0,1
214108,-89.2857142857143,4,1,0,90,0,1
220110,-89.2857142857143,4,1,0,90,0,0
220201,-100,4,1,0,40,0,0
221514,-100,4,1,0,70,0,0
221608,-125,4,1,0,60,0,0
233608,-117.647058823529,4,1,0,70,0,0

[HitObjects]
256,192,1110,5,8,0:0:0:0:
256,192,1672,1,0,0:0:0:0:
256,192,1860,1,8,0:0:0:0:
256,192,2422,1,0,0:0:0:0:
256,192,2610,1,8,0:0:0:0:
256,192,2985,1,8,0:0:0:0:
256,192,3172,1,8,0:0:0:0:
256,192,3360,1,0,0:0:0:0:
256,192,4110,1,8,0:0:0:0:
256,192,4485,1,0,0:0:0:0:
256,192,4672,1,0,0:0:0:0:
256,192,4860,1,8,0:0:0:0:
256,192,5422,1,0,0:0:0:0:
256,192,5610,1,8,0:0:0:0:
256,192,5985,1,8,0:0:0:0:
256,192,6172,1,0,0:0:0:0:
256,192,6360,1,0,0:0:0:0:
256,192,7110,1,12,0:0:0:0:
256,192,7485,1,0,0:0:0:0:
256,192,7860,1,0,0:0:0:0:
256,192,8047,1,0,0:0:0:0:
256,192,8235,1,0,0:0:0:0:
256,192,8610,1,8,0:0:0:0:
256,192,8797,1,8,0:0:0:0:
256,192,8985,1,0,0:0:0:0:
256,192,9172,1,0,0:0:0:0:
256,192,9360,1,8,0:0:0:0:
256,192,9735,1,8,0:0:0:0:
256,192,9922,1,0,0:0:0:0:
256,192,10110,1,12,0:0:0:0:
256,192,10485,1,8,0:0:0:0:
256,192,10672,1,0,0:0:0:0:
256,192,10860,1,8,0:0:0:0:
256,192,11047,1,0,0:0:0:0:
256,192,11235,1,8,0:0:0:0:
256,192,11422,1,8,0:0:0:0:
256,192,11610,1,0,0:0:0:0:
256,192,11797,1,0,0:0:0:0:
256,192,11985,1,12,0:0:0:0:
256,192,12360,1,0,0:0:0:0:
256,192,12547,1,8,0:0:0:0:
256,192,12641,1,8,0:0:0:0:
256,192,12735,1,8,0:0:0:0:
256,192,12828,1,8,0:0:0:0:
256,192,12922,1,8,0:0:0:0:
256,192,13110,1,4,0:0:0:0:
256,192,13672,1,0,0:0:0:0:
256,192,13860,1,8,0:0:0:0:
256,192,14235,1,0,0:0:0:0:
256,192,14422,1,0,0:0:0:0:
256,192,14610,1,8,0:0:0:0:
256,192,15172,1,8,0:0:0:0:
256,192,15360,1,0,0:0:0:0:
256,192,15735,1,0,0:0:0:0:
256,192,15922,1,0,0:0:0:0:
256,192,16016,1,0,0:0:0:0:
256,192,16110,1,8,0:0:0:0:
256,192,16485,1,0,0:0:0:0:
256,192,16672,1,8,0:0:0:0:
256,192,17047,1,8,0:0:0:0:
256,192,17235,1,0,0:0:0:0:
256,192,17422,1,0,0:0:0:0:
256,192,17610,1,8,0:0:0:0:
256,192,17985,1,0,0:0:0:0:
256,192,18172,1,0,0:0:0:0:
256,192,18360,1,8,0:0:0:0:
256,192,18547,1,0,0:0:0:0:
256,192,18641,1,0,0:0:0:0:
256,192,18735,1,0,0:0:0:0:
256,192,19110,1,8,0:0:0:0:
256,192,19672,1,0,0:0:0:0:
256,192,19860,1,8,0:0:0:0:
256,192,20235,1,0,0:0:0:0:
256,192,20422,1,0,0:0:0:0:
256,192,20610,1,8,0:0:0:0:
256,192,21172,1,8,0:0:0:0:
256,192,21360,1,0,0:0:0:0:
256,192,21735,1,8,0:0:0:0:
256,192,21922,1,8,0:0:0:0:
256,192,22016,1,8,0:0:0:0:
256,192,22110,1,0,0:0:0:0:
256,192,22485,1,8,0:0:0:0:
256,192,22672,1,0,0:0:0:0:
256,192,23047,1,0,0:0:0:0:
256,192,23235,1,8,0:0:0:0:
256,192,23422,1,8,0:0:0:0:
256,192,23610,1,0,0:0:0:0:
256,192,23985,1,0,0:0:0:0:
256,192,24360,1,8,0:0:0:0:
256,192,24547,1,0,0:0:0:0:
256,192,24735,1,12,0:0:0:0:
256,192,25110,1,4,0:0:0:0:
256,192,25485,1,8,0:0:0:0:
256,192,25860,1,0,0:0:0:0:
256,192,26047,1,0,0:0:0:0:
256,192,26235,1,8,0:0:0:0:
256,192,26422,1,8,0:0:0:0:
256,192,26516,1,8,0:0:0:0:
256,192,26610,1,0,0:0:0:0:
256,192,26985,1,8,0:0:0:0:
256,192,27360,1,0,0:0:0:0:
256,192,27547,1,0,0:0:0:0:
256,192,27641,1,0,0:0:0:0:
256,192,27735,1,8,0:0:0:0:
256,192,27922,1,0,0:0:0:0:
256,192,28110,1,8,0:0:0:0:
256,192,28485,1,8,0:0:0:0:
256,192,28672,1,0,0:0:0:0:
256,192,29047,1,0,0:0:0:0:
256,192,29235,1,8,0:0:0:0:
256,192,29422,1,8,0:0:0:0:
256,192,29516,1,8,0:0:0:0:
256,192,29610,1,0,0:0:0:0:
256,192,29985,1,8,0:0:0:0:
256,192,30360,1,8,0:0:0:0:
256,192,30547,1,0,0:0:0:0:
256,192,30735,1,8,0:0:0:0:
256,192,30922,1,8,0:0:0:0:
256,192,31110,1,4,0:0:0:0:
256,192,31485,1,8,0:0:0:0:
256,192,31672,1,8,0:0:0:0:
256,192,31766,1,8,0:0:0:0:
256,192,31860,1,8,0:0:0:0:
256,192,32047,1,0,0:0:0:0:
256,192,32235,1,8,0:0:0:0:
256,192,32610,1,0,0:0:0:0:
256,192,32985,1,8,0:0:0:0:
256,192,33172,1,0,0:0:0:0:
256,192,33266,1,0,0:0:0:0:
256,192,33360,1,0,0:0:0:0:
256,192,33547,1,0,0:0:0:0:
256,192,33735,1,8,0:0:0:0:
256,192,33922,1,0,0:0:0:0:
256,192,34110,1,8,0:0:0:0:
256,192,34485,1,8,0:0:0:0:
256,192,34672,1,8,0:0:0:0:
256,192,34766,1,8,0:0:0:0:
256,192,34860,1,8,0:0:0:0:
256,192,35047,1,0,0:0:0:0:
256,192,35235,1,8,0:0:0:0:
256,192,35610,1,0,0:0:0:0:
256,192,35797,1,0,0:0:0:0:
256,192,35891,1,0,0:0:0:0:
256,192,35985,1,8,0:0:0:0:
256,192,36172,1,8,0:0:0:0:
256,192,36360,1,0,0:0:0:0:
256,192,36547,1,8,0:0:0:0:
256,192,36641,1,8,0:0:0:0:
256,192,36735,1,0,0:0:0:0:
256,192,36828,1,0,0:0:0:0:
256,192,36922,1,0,0:0:0:0:
256,192,37110,1,12,0:0:0:0:
256,192,37391,1,0,0:0:0:0:
256,192,37672,1,0,0:0:0:0:
256,192,37860,1,8,0:0:0:0:
256,192,38235,1,0,0:0:0:0:
256,192,38610,1,8,0:0:0:0:
256,192,38985,1,0,0:0:0:0:
256,192,39172,1,0,0:0:0:0:
256,192,39360,1,8,0:0:0:0:
256,192,39735,1,0,0:0:0:0:
256,192,40110,1,8,0:0:0:0:
256,192,40391,1,0,0:0:0:0:
256,192,40672,1,0,0:0:0:0:
256,192,40860,1,8,0:0:0:0:
256,192,41235,1,0,0:0:0:0:
256,192,41610,1,8,0:0:0:0:
256,192,41985,1,0,0:0:0:0:
256,192,42360,1,12,0:0:0:0:
256,192,42547,1,0,0:0:0:0:
256,192,42735,1,12,0:0:0:0:
256,192,43110,1,4,0:0:0:0:
256,192,43297,1,0,0:0:0:0:
256,192,43485,1,8,0:0:0:0:
256,192,43672,1,8,0:0:0:0:
256,192,43766,1,0,0:0:0:0:
256,192,43860,1,8,0:0:0:0:
256,192,44047,1,0,0:0:0:0:
256,192,44235,1,8,0:0:0:0:
256,192,44422,1,8,0:0:0:0:
256,192,44516,1,8,0:0:0:0:
256,192,44610,1,0,0:0:0:0:
256,192,44985,1,8,0:0:0:0:
256,192,45172,1,0,0:0:0:0:
256,192,45360,1,8,0:0:0:0:
256,192,45453,1,8,0:0:0:0:
256,192,45547,1,0,0:0:0:0:
256,192,45641,1,0,0:0:0:0:
256,192,45735,1,8,0:0:0:0:
256,192,45922,1,8,0:0:0:0:
256,192,46110,1,4,0:0:0:0:
256,192,46485,1,8,0:0:0:0:
256,192,46672,1,0,0:0:0:0:
256,192,46766,1,0,0:0:0:0:
256,192,46860,1,8,0:0:0:0:
256,192,47047,1,0,0:0:0:0:
256,192,47235,1,8,0:0:0:0:
256,192,47422,1,8,0:0:0:0:
256,192,47516,1,8,0:0:0:0:
256,192,47610,1,0,0:0:0:0:
256,192,47985,1,8,0:0:0:0:
256,192,48172,1,0,0:0:0:0:
256,192,48266,1,0,0:0:0:0:
256,192,48360,1,8,0:0:0:0:
256,192,48547,1,8,0:0:0:0:
256,192,48641,1,8,0:0:0:0:
256,192,48735,1,0,0:0:0:0:
256,192,48922,1,0,0:0:0:0:
256,192,49110,1,12,0:0:0:0:
256,192,49297,1,0,0:0:0:0:
256,192,49391,1,0,0:0:0:0:
256,192,49485,1,8,0:0:0:0:
256,192,49672,1,0,0:0:0:0:
256,192,49860,1,12,0:0:0:0:
256,192,50047,1,0,0:0:0:0:
256,192,50141,1,0,0:0:0:0:
256,192,50235,1,8,0:0:0:0:
256,192,50422,1,0,0:0:0:0:
256,192,50610,1,12,0:0:0:0:
128,96,50985,2,0,L|448:96,1,285.600001743164
256,192,52110,1,12,0:0:0:0:
256,192,52485,1,8,0:0:0:0:
256,192,52672,1,0,0:0:0:0:
256,192,52860,1,12,0:0:0:0:
256,192,53235,1,8,0:0:0:0:
256,192,53422,1,0,0:0:0:0:
256,192,53610,1,8,0:0:0:0:
256,192,53797,1,0,0:0:0:0:
256,192,53891,1,0,0:0:0:0:
256,192,53985,1,8,0:0:0:0:
256,192,54172,1,8,0:0:0:0:
256,192,54266,1,8,0:0:0:0:
256,192,54360,1,0,0:0:0:0:
256,192,54735,1,12,0:0:0:0:
256,192,55110,1,8,0:0:0:0:
256,192,55297,1,0,0:0:0:0:
256,192,55485,1,8,0:0:0:0:
256,192,55672,1,8,0:0:0:0:
256,192,55766,1,8,0:0:0:0:
256,192,55860,1,0,0:0:0:0:
256,192,56047,1,0,0:0:0:0:
256,192,56235,1,8,0:0:0:0:
256,192,56422,1,8,0:0:0:0:
256,192,56516,1,0,0:0:0:0:
256,192,56610,1,8,0:0:0:0:
256,192,56797,1,0,0:0:0:0:
256,192,56985,1,8,0:0:0:0:
256,192,57078,1,8,0:0:0:0:
256,192,57172,1,8,0:0:0:0:
256,192,57360,1,0,0:0:0:0:
256,192,57547,1,12,0:0:0:0:
256,192,57735,1,12,0:0:0:0:
256,192,58110,1,4,0:0:0:0:
256,192,58297,1,0,0:0:0:0:
256,192,58485,1,8,0:0:0:0:
256,192,58672,1,0,0:0:0:0:
256,192,58766,1,0,0:0:0:0:
256,192,58860,1,8,0:0:0:0:
256,192,58953,1,0,0:0:0:0:
256,192,59047,1,8,0:0:0:0:
256,192,59235,1,8,0:0:0:0:
256,192,59422,1,0,0:0:0:0:
256,192,59797,1,0,0:0:0:0:
256,192,59985,1,8,0:0:0:0:
256,192,60172,1,0,0:0:0:0:
256,192,60266,1,8,0:0:0:0:
256,192,60360,1,0,0:0:0:0:
256,192,60547,1,0,0:0:0:0:
256,192,60735,1,8,0:0:0:0:
256,192,60828,1,8,0:0:0:0:
256,192,60922,1,8,0:0:0:0:
256,192,61110,1,0,0:0:0:0:
256,192,61485,1,8,0:0:0:0:
256,192,61672,1,8,0:0:0:0:
256,192,61766,1,0,0:0:0:0:
256,192,61860,1,8,0:0:0:0:
256,192,62047,1,0,0:0:0:0:
256,192,62235,1,8,0:0:0:0:
256,192,62422,1,8,0:0:0:0:
256,192,62516,1,8,0:0:0:0:
256,192,62610,1,0,0:0:0:0:
256,192,62985,1,8,0:0:0:0:
256,192,63172,1,0,0:0:0:0:
256,192,63266,1,0,0:0:0:0:
256,192,63360,1,8,0:0:0:0:
256,192,63547,1,8,0:0:0:0:
256,192,63641,1,0,0:0:0:0:
256,192,63735,1,8,0:0:0:0:
256,192,63828,1,8,0:0:0:0:
256,192,63922,1,0,0:0:0:0:
256,192,64110,1,12,0:0:0:0:
256,192,64485,1,8,0:0:0:0:
256,192,64672,1,0,0:0:0:0:
256,192,64860,1,12,0:0:0:0:
256,192,65235,1,8,0:0:0:0:
256,192,65422,1,0,0:0:0:0:
256,192,65610,1,8,0:0:0:0:
256,192,65797,1,8,0:0:0:0:
256,192,65891,1,0,0:0:0:0:
256,192,65985,1,8,0:0:0:0:
256,192,66172,1,8,0:0:0:0:
256,192,66266,1,8,0:0:0:0:
256,192,66360,1,0,0:0:0:0:
256,192,66735,1,12,0:0:0:0:
256,192,67110,1,0,0:0:0:0:
256,192,67297,1,0,0:0:0:0:
256,192,67485,1,8,0:0:0:0:
256,192,67578,1,0,0:0:0:0:
256,192,67672,1,8,0:0:0:0:
256,192,67860,1,0,0:0:0:0:
256,192,68047,1,8,0:0:0:0:
256,192,68141,1,8,0:0:0:0:
256,192,68235,1,0,0:0:0:0:
256,192,68422,1,0,0:0:0:0:
256,192,68610,1,8,0:0:0:0:
256,192,68797,1,0,0:0:0:0:
256,192,68891,1,0,0:0:0:0:
256,192,68985,1,8,0:0:0:0:
256,192,69172,1,8,0:0:0:0:
256,192,69360,1,0,0:0:0:0:
256,192,69547,1,12,0:0:0:0:
256,192,69735,1,12,0:0:0:0:
256,192,70110,1,4,0:0:0:0:
256,192,70485,1,8,0:0:0:0:
256,192,70672,1,0,0:0:0:0:
256,192,70860,1,8,0:0:0:0:
256,192,71047,1,0,0:0:0:0:
256,192,71141,1,0,0:0:0:0:
256,192,71235,1,8,0:0:0:0:
256,192,71422,1,0,0:0:0:0:
256,192,71516,1,0,0:0:0:0:
256,192,71610,1,8,0:0:0:0:
256,192,71797,1,0,0:0:0:0:
256,192,72172,1,0,0:0:0:0:
256,192,72360,1,8,0:0:0:0:
256,192,72453,1,8,0:0:0:0:
256,192,72547,1,0,0:0:0:0:
256,192,72641,1,0,0:0:0:0:
256,192,72735,1,8,0:0:0:0:
256,192,72922,1,0,0:0:0:0:
256,192,73110,1,12,0:0:0:0:
256,192,73485,1,8,0:0:0:0:
256,192,73672,1,0,0:0:0:0:
256,192,73766,1,0,0:0:0:0:
256,192,73860,1,0,0:0:0:0:
256,192,74047,1,8,0:0:0:0:
256,192,74235,1,0,0:0:0:0:
256,192,74422,1,0,0:0:0:0:
256,192,74516,1,0,0:0:0:0:
256,192,74610,1,8,0:0:0:0:
256,192,74985,1,8,0:0:0:0:
256,192,75172,1,0,0:0:0:0:
256,192,75360,1,8,0:0:0:0:
256,192,75547,1,0,0:0:0:0:
256,192,75641,1,0,0:0:0:0:
256,192,75735,1,8,0:0:0:0:
256,192,75828,1,8,0:0:0:0:
256,192,75922,1,0,0:0:0:0:
256,192,76016,1,0,0:0:0:0:
256,192,76110,1,8,0:0:0:0:
256,192,77610,1,4,0:0:0:0:
256,192,77985,1,8,0:0:0:0:
256,192,78360,1,0,0:0:0:0:
256,192,78547,1,0,0:0:0:0:
256,192,78922,1,8,0:0:0:0:
256,192,79297,1,0,0:0:0:0:
256,192,79485,1,8,0:0:0:0:
256,192,79860,1,0,0:0:0:0:
256,192,80047,1,0,0:0:0:0:
256,192,80235,1,8,0:0:0:0:
256,192,80422,1,8,0:0:0:0:
256,192,80610,1,0,0:0:0:0:
256,192,80985,1,8,0:0:0:0:
256,192,81360,1,0,0:0:0:0:
256,192,81547,1,0,0:0:0:0:
256,192,81922,1,8,0:0:0:0:
256,192,82297,1,0,0:0:0:0:
256,192,82485,1,8,0:0:0:0:
256,192,82672,1,8,0:0:0:0:
256,192,82860,1,0,0:0:0:0:
256,192,83235,1,0,0:0:0:0:
256,192,83422,1,8,0:0:0:0:
256,192,83610,1,4,0:0:0:0:
256,192,83985,1,8,0:0:0:0:
256,192,84360,1,0,0:0:0:0:
256,192,84547,1,0,0:0:0:0:
256,192,84922,1,8,0:0:0:0:
256,192,85297,1,0,0:0:0:0:
256,192,85485,1,8,0:0:0:0:
256,192,85860,1,8,0:0:0:0:
256,192,86047,1,0,0:0:0:0:
256,192,86235,1,8,0:0:0:0:
256,192,86422,1,8,0:0:0:0:
256,192,86610,1,0,0:0:0:0:
256,192,86985,1,8,0:0:0:0:
256,192,87360,1,0,0:0:0:0:
256,192,87547,1,0,0:0:0:0:
256,192,87922,1,8,0:0:0:0:
256,192,88297,1,0,0:0:0:0:
256,192,88485,1,8,0:0:0:0:
256,192,88860,1,0,0:0:0:0:
256,192,89047,1,8,0:0:0:0:
256,192,89235,1,8,0:0:0:0:
256,192,89422,1,8,0:0:0:0:
256,192,89610,1,0,0:0:0:0:
256,192,89985,1,12,0:0:0:0:
256,192,90360,1,0,0:0:0:0:
256,192,90547,1,0,0:0:0:0:
256,192,90922,1,8,0:0:0:0:
256,192,91110,1,0,0:0:0:0:
256,192,91485,1,8,0:0:0:0:
256,192,91672,1,0,0:0:0:0:
256,192,91860,1,8,0:0:0:0:
256,192,92235,1,8,0:0:0:0:
256,192,92422,1,0,0:0:0:0:
256,192,92516,1,0,0:0:0:0:
256,192,92610,1,8,0:0:0:0:
256,192,92985,1,0,0:0:0:0:
256,192,93172,1,8,0:0:0:0:
256,192,93547,1,8,0:0:0:0:
256,192,93735,1,0,0:0:0:0:
256,192,93922,1,8,0:0:0:0:
256,192,94110,1,0,0:0:0:0:
256,192,94297,1,0,0:0:0:0:
256,192,94485,1,8,0:0:0:0:
256,192,94860,1,0,0:0:0:0:
256,192,95047,1,0,0:0:0:0:
256,192,95235,1,8,0:0:0:0:
256,192,95422,1,8,0:0:0:0:
256,192,95516,1,8,0:0:0:0:
256,192,95610,1,0,0:0:0:0:
256,192,95985,1,12,0:0:0:0:
256,192,96360,1,0,0:0:0:0:
256,192,96547,1,0,0:0:0:0:
256,192,96922,1,8,0:0:0:0:
256,192,97110,1,0,0:0:0:0:
256,192,97485,1,8,0:0:0:0:
256,192,97672,1,8,0:0:0:0:
256,192,97860,1,0,0:0:0:0:
256,192,98235,1,8,0:0:0:0:
256,192,98422,1,8,0:0:0:0:
256,192,98516,1,8,0:0:0:0:
256,192,98610,1,0,0:0:0:0:
256,192,98985,1,8,0:0:0:0:
256,192,99172,1,0,0:0:0:0:
256,192,99547,1,0,0:0:0:0:
256,192,99735,1,8,0:0:0:0:
256,192,99922,1,8,0:0:0:0:
256,192,100110,1,0,0:0:0:0:
256,192,100297,1,0,0:0:0:0:
256,192,100485,1,8,0:0:0:0:
256,192,100860,1,0,0:0:0:0:
256,192,101047,1,0,0:0:0:0:
256,192,101235,1,12,0:0:0:0:
256,192,101610,1,4,0:0:0:0:
256,192,101985,1,8,0:0:0:0:
256,192,102360,1,0,0:0:0:0:
256,192,102547,1,0,0:0:0:0:
256,192,102735,1,8,0:0:0:0:
256,192,102922,1,8,0:0:0:0:
256,192,103016,1,8,0:0:0:0:
256,192,103110,1,0,0:0:0:0:
256,192,103485,1,8,0:0:0:0:
256,192,103860,1,0,0:0:0:0:
256,192,104047,1,8,0:0:0:0:
256,192,104141,1,0,0:0:0:0:
256,192,104235,1,8,0:0:0:0:
256,192,104422,1,0,0:0:0:0:
256,192,104610,1,8,0:0:0:0:
256,192,104985,1,8,0:0:0:0:
256,192,105172,1,0,0:0:0:0:
256,192,105547,1,0,0:0:0:0:
256,192,105735,1,8,0:0:0:0:
256,192,105922,1,0,0:0:0:0:
256,192,106016,1,8,0:0:0:0:
256,192,106110,1,0,0:0:0:0:
256,192,106485,1,8,0:0:0:0:
256,192,106860,1,0,0:0:0:0:
256,192,107047,1,0,0:0:0:0:
256,192,107235,1,8,0:0:0:0:
256,192,107422,1,8,0:0:0:0:
256,192,107610,1,4,0:0:0:0:
256,192,107985,1,8,0:0:0:0:
256,192,108172,1,8,0:0:0:0:
256,192,108266,1,8,0:0:0:0:
256,192,108360,1,0,0:0:0:0:
256,192,108547,1,0,0:0:0:0:
256,192,108735,1,8,0:0:0:0:
256,192,109110,1,0,0:0:0:0:
256,192,109485,1,8,0:0:0:0:
256,192,109672,1,0,0:0:0:0:
256,192,109766,1,0,0:0:0:0:
256,192,109860,1,8,0:0:0:0:
256,192,110047,1,0,0:0:0:0:
256,192,110235,1,8,0:0:0:0:
256,192,110422,1,8,0:0:0:0:
256,192,110610,1,0,0:0:0:0:
256,192,110985,1,8,0:0:0:0:
256,192,111172,1,8,0:0:0:0:
256,192,111266,1,8,0:0:0:0:
256,192,111360,1,0,0:0:0:0:
256,192,111547,1,0,0:0:0:0:
256,192,111735,1,8,0:0:0:0:
256,192,112110,1,0,0:0:0:0:
256,192,112297,1,8,0:0:0:0:
256,192,112391,1,8,0:0:0:0:
256,192,112485,1,8,0:0:0:0:
256,192,112672,1,0,0:0:0:0:
256,192,112860,1,8,0:0:0:0:
256,192,112953,1,8,0:0:0:0:
256,192,113047,1,0,0:0:0:0:
256,192,113141,1,0,0:0:0:0:
256,192,113235,1,8,0:0:0:0:
256,192,113328,1,0,0:0:0:0:
256,192,113422,1,8,0:0:0:0:
256,192,113610,1,12,0:0:0:0:
256,192,113891,1,0,0:0:0:0:
256,192,114172,1,0,0:0:0:0:
256,192,114360,1,8,0:0:0:0:
256,192,114735,1,0,0:0:0:0:
256,192,115110,1,8,0:0:0:0:
256,192,115485,1,0,0:0:0:0:
256,192,115672,1,0,0:0:0:0:
256,192,115766,1,0,0:0:0:0:
256,192,115860,1,8,0:0:0:0:
256,192,116235,1,0,0:0:0:0:
256,192,116610,1,8,0:0:0:0:
256,192,116891,1,0,0:0:0:0:
256,192,117172,1,0,0:0:0:0:
256,192,117360,1,8,0:0:0:0:
256,192,117735,1,0,0:0:0:0:
256,192,118110,1,8,0:0:0:0:
256,192,118297,1,0,0:0:0:0:
256,192,118391,1,0,0:0:0:0:
256,192,118485,1,8,0:0:0:0:
256,192,118672,1,0,0:0:0:0:
256,192,118860,1,12,0:0:0:0:
256,192,119047,1,0,0:0:0:0:
256,192,119235,1,12,0:0:0:0:
256,192,119610,1,4,0:0:0:0:
256,192,119797,1,0,0:0:0:0:
256,192,119985,1,8,0:0:0:0:
256,192,120172,1,8,0:0:0:0:
256,192,120266,1,8,0:0:0:0:
256,192,120360,1,0,0:0:0:0:
256,192,120547,1,0,0:0:0:0:
256,192,120735,1,8,0:0:0:0:
256,192,120922,1,0,0:0:0:0:
256,192,121016,1,0,0:0:0:0:
256,192,121110,1,8,0:0:0:0:
256,192,121485,1,8,0:0:0:0:
256,192,121672,1,0,0:0:0:0:
256,192,121860,1,8,0:0:0:0:
256,192,121953,1,8,0:0:0:0:
256,192,122047,1,0,0:0:0:0:
256,192,122141,1,0,0:0:0:0:
256,192,122235,1,8,0:0:0:0:
256,192,122422,1,8,0:0:0:0:
256,192,122610,1,4,0:0:0:0:
256,192,122985,1,8,0:0:0:0:
256,192,123172,1,0,0:0:0:0:
256,192,123266,1,0,0:0:0:0:
256,192,123360,1,8,0:0:0:0:
256,192,123547,1,0,0:0:0:0:
256,192,123735,1,8,0:0:0:0:
256,192,123922,1,8,0:0:0:0:
256,192,124016,1,8,0:0:0:0:
256,192,124110,1,0,0:0:0:0:
256,192,124485,1,8,0:0:0:0:
256,192,124672,1,8,0:0:0:0:
256,192,124766,1,8,0:0:0:0:
256,192,124860,1,0,0:0:0:0:
256,192,125047,1,0,0:0:0:0:
256,192,125141,1,0,0:0:0:0:
256,192,125235,1,8,0:0:0:0:
256,192,125422,1,0,0:0:0:0:
256,192,125610,1,12,0:0:0:0:
256,192,125797,1,0,0:0:0:0:
256,192,125891,1,0,0:0:0:0:
256,192,125985,1,8,0:0:0:0:
256,192,126172,1,0,0:0:0:0:
256,192,126360,1,12,0:0:0:0:
256,192,126547,1,0,0:0:0:0:
256,192,126641,1,0,0:0:0:0:
256,192,126735,1,8,0:0:0:0:
256,192,126828,1,8,0:0:0:0:
256,192,126922,1,0,0:0:0:0:
256,192,127110,1,12,0:0:0:0:
128,96,127485,2,0,L|448:96,1,285.600001743164
256,192,128610,1,12,0:0:0:0:
256,192,128985,1,8,0:0:0:0:
256,192,129172,1,0,0:0:0:0:
256,192,129360,1,12,0:0:0:0:
256,192,129735,1,8,0:0:0:0:
256,192,129922,1,0,0:0:0:0:
256,192,130110,1,8,0:0:0:0:
256,192,130297,1,8,0:0:0:0:
256,192,130391,1,0,0:0:0:0:
256,192,130485,1,8,0:0:0:0:
256,192,130672,1,8,0:0:0:0:
256,192,130766,1,8,0:0:0:0:
256,192,130860,1,0,0:0:0:0:
256,192,131235,1,12,0:0:0:0:
256,192,131610,1,0,0:0:0:0:
256,192,131797,1,0,0:0:0:0:
256,192,131985,1,8,0:0:0:0:
256,192,132172,1,8,0:0:0:0:
256,192,132266,1,8,0:0:0:0:
256,192,132360,1,0,0:0:0:0:
256,192,132547,1,0,0:0:0:0:
256,192,132735,1,8,0:0:0:0:
256,192,132922,1,0,0:0:0:0:
256,192,133016,1,0,0:0:0:0:
256,192,133110,1,8,0:0:0:0:
256,192,133297,1,0,0:0:0:0:
256,192,133485,1,8,0:0:0:0:
256,192,133578,1,0,0:0:0:0:
256,192,133672,1,8,0:0:0:0:
256,192,133766,1,8,0:0:0:0:
256,192,133860,1,0,0:0:0:0:
256,192,134047,1,12,0:0:0:0:
256,192,134235,1,12,0:0:0:0:
256,192,134610,1,4,0:0:0:0:
256,192,134797,1,0,0:0:0:0:
256,192,134985,1,8,0:0:0:0:
256,192,135172,1,0,0:0:0:0:
256,192,135266,1,8,0:0:0:0:
256,192,135360,1,0,0:0:0:0:
256,192,135453,1,0,0:0:0:0:
256,192,135547,1,8,0:0:0:0:
256,192,135735,1,8,0:0:0:0:
256,192,135922,1,0,0:0:0:0:
256,192,136297,1,0,0:0:0:0:
256,192,136485,1,8,0:0:0:0:
256,192,136672,1,8,0:0:0:0:
256,192,136766,1,8,0:0:0:0:
256,192,136860,1,0,0:0:0:0:
256,192,137047,1,0,0:0:0:0:
256,192,137235,1,8,0:0:0:0:
256,192,137328,1,8,0:0:0:0:
256,192,137422,1,8,0:0:0:0:
256,192,137516,1,8,0:0:0:0:
256,192,137610,1,0,0:0:0:0:
256,192,137985,1,8,0:0:0:0:
256,192,138172,1,0,0:0:0:0:
256,192,138266,1,0,0:0:0:0:
256,192,138360,1,8,0:0:0:0:
256,192,138547,1,0,0:0:0:0:
256,192,138735,1,8,0:0:0:0:
256,192,138922,1,8,0:0:0:0:
256,192,139016,1,8,0:0:0:0:
256,192,139110,1,0,0:0:0:0:
256,192,139485,1,8,0:0:0:0:
256,192,139672,1,8,0:0:0:0:
256,192,139766,1,0,0:0:0:0:
256,192,139860,1,8,0:0:0:0:
256,192,140047,1,0,0:0:0:0:
256,192,140141,1,0,0:0:0:0:
256,192,140235,1,8,0:0:0:0:
256,192,140328,1,8,0:0:0:0:
256,192,140422,1,0,0:0:0:0:
256,192,140610,1,12,0:0:0:0:
256,192,140985,1,8,0:0:0:0:
256,192,141172,1,0,0:0:0:0:
256,192,141360,1,12,0:0:0:0:
256,192,141735,1,8,0:0:0:0:
256,192,141922,1,0,0:0:0:0:
256,192,142110,1,8,0:0:0:0:
256,192,142297,1,8,0:0:0:0:
256,192,142391,1,8,0:0:0:0:
256,192,142485,1,8,0:0:0:0:
256,192,142672,1,8,0:0:0:0:
256,192,142766,1,8,0:0:0:0:
256,192,142860,1,0,0:0:0:0:
256,192,143235,1,12,0:0:0:0:
256,192,143610,1,8,0:0:0:0:
256,192,143797,1,0,0:0:0:0:
256,192,143985,1,8,0:0:0:0:
256,192,144078,1,8,0:0:0:0:
256,192,144172,1,0,0:0:0:0:
256,192,144360,1,8,0:0:0:0:
256,192,144547,1,8,0:0:0:0:
256,192,144641,1,0,0:0:0:0:
256,192,144735,1,8,0:0:0:0:
256,192,144922,1,0,0:0:0:0:
256,192,145110,1,8,0:0:0:0:
256,192,145203,1,8,0:0:0:0:
256,192,145297,1,0,0:0:0:0:
256,192,145391,1,0,0:0:0:0:
256,192,145485,1,8,0:0:0:0:
256,192,145672,1,8,0:0:0:0:
256,192,145860,1,0,0:0:0:0:
256,192,146047,1,12,0:0:0:0:
256,192,146235,1,12,0:0:0:0:
256,192,146610,1,0,0:0:0:0:
256,192,146985,1,8,0:0:0:0:
256,192,147172,1,0,0:0:0:0:
256,192,147360,1,8,0:0:0:0:
256,192,147547,1,0,0:0:0:0:
256,192,147641,1,0,0:0:0:0:
256,192,147735,1,8,0:0:0:0:
256,192,147922,1,0,0:0:0:0:
256,192,148016,1,0,0:0:0:0:
256,192,148110,1,8,0:0:0:0:
256,192,148297,1,0,0:0:0:0:
256,192,148672,1,0,0:0:0:0:
256,192,148860,1,8,0:0:0:0:
256,192,148953,1,0,0:0:0:0:
256,192,149047,1,8,0:0:0:0:
256,192,149141,1,8,0:0:0:0:
256,192,149235,1,0,0:0:0:0:
256,192,149422,1,0,0:0:0:0:
256,192,149516,1,0,0:0:0:0:
256,192,149610,1,8,0:0:0:0:
256,192,149985,1,8,0:0:0:0:
256,192,150172,1,8,0:0:0:0:
256,192,150266,1,8,0:0:0:0:
256,192,150360,1,0,0:0:0:0:
256,192,150547,1,8,0:0:0:0:
256,192,150735,1,0,0:0:0:0:
256,192,150828,1,0,0:0:0:0:
256,192,150922,1,8,0:0:0:0:
256,192,151016,1,0,0:0:0:0:
256,192,151110,1,8,0:0:0:0:
256,192,151485,1,8,0:0:0:0:
256,192,151672,1,0,0:0:0:0:
256,192,151860,1,8,0:0:0:0:
256,192,152047,1,8,0:0:0:0:
256,192,152141,1,0,0:0:0:0:
256,192,152235,1,8,0:0:0:0:
256,192,152328,1,8,0:0:0:0:
256,192,152422,1,0,0:0:0:0:
256,192,152516,1,0,0:0:0:0:
256,192,152610,1,8,0:0:0:0:
256,192,153735,1,0,0:0:0:0:
256,192,154110,1,12,0:0:0:0:
256,192,154485,1,8,0:0:0:0:
256,192,154860,1,8,0:0:0:0:
256,192,155047,1,0,0:0:0:0:
256,192,155235,1,8,0:0:0:0:
256,192,155422,1,0,0:0:0:0:
256,192,155516,1,0,0:0:0:0:
256,192,155610,1,8,0:0:0:0:
256,192,155985,1,8,0:0:0:0:
256,192,156172,1,0,0:0:0:0:
256,192,156266,1,0,0:0:0:0:
256,192,156360,1,0,0:0:0:0:
256,192,156547,1,0,0:0:0:0:
256,192,156735,1,8,0:0:0:0:
256,192,156922,1,0,0:0:0:0:
256,192,157016,1,0,0:0:0:0:
256,192,157110,1,8,0:0:0:0:
256,192,157485,1,8,0:0:0:0:
256,192,157672,1,8,0:0:0:0:
256,192,157766,1,8,0:0:0:0:
256,192,157860,1,8,0:0:0:0:
256,192,158047,1,0,0:0:0:0:
256,192,158235,1,8,0:0:0:0:
256,192,158422,1,0,0:0:0:0:
256,192,158797,1,0,0:0:0:0:
256,192,158985,1,8,0:0:0:0:
256,192,159172,1,8,0:0:0:0:
256,192,159266,1,0,0:0:0:0:
256,192,159360,1,8,0:0:0:0:
256,192,159547,1,0,0:0:0:0:
256,192,159641,1,0,0:0:0:0:
256,192,159735,1,8,0:0:0:0:
256,192,159922,1,0,0:0:0:0:
256,192,160110,1,12,0:0:0:0:
256,192,160485,1,8,0:0:0:0:
256,192,160860,1,8,0:0:0:0:
256,192,161047,1,0,0:0:0:0:
256,192,161235,1,8,0:0:0:0:
256,192,161422,1,0,0:0:0:0:
256,192,161516,1,0,0:0:0:0:
256,192,161610,1,8,0:0:0:0:
256,192,161985,1,8,0:0:0:0:
256,192,162172,1,0,0:0:0:0:
256,192,162266,1,0,0:0:0:0:
256,192,162360,1,0,0:0:0:0:
256,192,162547,1,0,0:0:0:0:
256,192,162735,1,8,0:0:0:0:
256,192,162922,1,0,0:0:0:0:
256,192,163016,1,0,0:0:0:0:
256,192,163110,1,8,0:0:0:0:
256,192,163485,1,8,0:0:0:0:
256,192,163672,1,0,0:0:0:0:
256,192,163860,1,8,0:0:0:0:
256,192,164047,1,0,0:0:0:0:
256,192,164235,1,8,0:0:0:0:
256,192,164422,1,0,0:0:0:0:
256,192,164516,1,8,0:0:0:0:
256,192,164610,1,8,0:0:0:0:
256,192,164985,1,8,0:0:0:0:
256,192,165172,1,0,0:0:0:0:
256,192,165266,1,0,0:0:0:0:
256,192,165360,1,8,0:0:0:0:
256,192,165547,1,8,0:0:0:0:
256,192,165641,1,0,0:0:0:0:
256,192,165735,1,8,0:0:0:0:
256,192,165922,1,0,0:0:0:0:
256,192,166110,1,12,0:0:0:0:
256,192,166485,1,0,0:0:0:0:
256,192,166672,1,0,0:0:0:0:
256,192,166860,1,8,0:0:0:0:
256,192,167235,1,8,0:0:0:0:
256,192,167422,1,0,0:0:0:0:
256,192,167610,1,8,0:0:0:0:
256,192,167703,1,0,0:0:0:0:
256,192,167797,1,8,0:0:0:0:
256,192,167985,1,0,0:0:0:0:
256,192,168172,1,0,0:0:0:0:
256,192,168266,1,0,0:0:0:0:
256,192,168360,1,8,0:0:0:0:
256,192,168735,1,8,0:0:0:0:
256,192,168922,1,0,0:0:0:0:
256,192,169016,1,0,0:0:0:0:
256,192,169110,1,8,0:0:0:0:
256,192,169485,1,0,0:0:0:0:
256,192,169672,1,0,0:0:0:0:
256,192,169860,1,8,0:0:0:0:
256,192,170235,1,8,0:0:0:0:
256,192,170422,1,0,0:0:0:0:
256,192,170610,1,8,0:0:0:0:
256,192,170703,1,8,0:0:0:0:
256,192,170797,1,8,0:0:0:0:
256,192,170985,1,0,0:0:0:0:
256,192,171172,1,0,0:0:0:0:
256,192,171266,1,0,0:0:0:0:
256,192,171360,1,8,0:0:0:0:
256,192,171735,1,8,0:0:0:0:
256,192,171922,1,8,0:0:0:0:
256,192,172016,1,0,0:0:0:0:
256,192,172110,1,8,0:0:0:0:
256,192,172485,1,8,0:0:0:0:
256,192,172672,1,0,0:0:0:0:
256,192,173047,1,8,0:0:0:0:
256,192,173235,1,0,0:0:0:0:
256,192,173422,1,0,0:0:0:0:
256,192,173610,1,8,0:0:0:0:
256,192,173985,1,8,0:0:0:0:
256,192,174172,1,0,0:0:0:0:
256,192,174266,1,0,0:0:0:0:
256,192,174360,1,8,0:0:0:0:
256,192,174547,1,8,0:0:0:0:
256,192,174641,1,8,0:0:0:0:
256,192,174735,1,0,0:0:0:0:
256,192,174922,1,0,0:0:0:0:
256,192,175110,1,8,0:0:0:0:
256,192,175485,1,0,0:0:0:0:
256,192,175672,1,8,0:0:0:0:
256,192,176047,1,0,0:0:0:0:
256,192,176235,1,8,0:0:0:0:
256,192,176422,1,8,0:0:0:0:
256,192,176610,1,0,0:0:0:0:
256,192,176797,1,0,0:0:0:0:
256,192,177172,1,8,0:0:0:0:
256,192,177360,1,0,0:0:0:0:
256,192,177547,1,0,0:0:0:0:
256,192,177641,1,0,0:0:0:0:
256,192,177735,1,8,0:0:0:0:
256,192,177922,1,0,0:0:0:0:
256,192,178110,1,12,0:0:0:0:
256,192,178485,1,0,0:0:0:0:
256,192,178672,1,0,0:0:0:0:
256,192,178860,1,8,0:0:0:0:
256,192,179235,1,8,0:0:0:0:
256,192,179422,1,0,0:0:0:0:
256,192,179610,1,8,0:0:0:0:
256,192,179703,1,0,0:0:0:0:
256,192,179797,1,8,0:0:0:0:
256,192,179985,1,0,0:0:0:0:
256,192,180172,1,0,0:0:0:0:
256,192,180266,1,0,0:0:0:0:
256,192,180360,1,8,0:0:0:0:
256,192,180735,1,8,0:0:0:0:
256,192,180922,1,0,0:0:0:0:
256,192,181016,1,0,0:0:0:0:
256,192,181110,1,8,0:0:0:0:
256,192,181485,1,0,0:0:0:0:
256,192,181672,1,0,0:0:0:0:
256,192,181860,1,8,0:0:0:0:
256,192,182235,1,8,0:0:0:0:
256,192,182422,1,0,0:0:0:0:
256,192,182610,1,8,0:0:0:0:
256,192,182797,1,8,0:0:0:0:
256,192,182891,1,0,0:0:0:0:
256,192,182985,1,8,0:0:0:0:
256,192,183172,1,0,0:0:0:0:
256,192,183266,1,0,0:0:0:0:
256,192,183360,1,8,0:0:0:0:
256,192,183547,1,0,0:0:0:0:
256,192,183641,1,0,0:0:0:0:
256,192,183735,1,8,0:0:0:0:
256,192,183828,1,0,0:0:0:0:
256,192,183922,1,8,0:0:0:0:
256,192,184016,1,8,0:0:0:0:
256,192,184110,1,0,0:0:0:0:
256,192,184485,1,8,0:0:0:0:
256,192,184672,1,8,0:0:0:0:
256,192,184766,1,0,0:0:0:0:
256,192,184860,1,8,0:0:0:0:
256,192,185047,1,0,0:0:0:0:
256,192,185235,1,8,0:0:0:0:
256,192,185422,1,8,0:0:0:0:
256,192,185516,1,8,0:0:0:0:
256,192,185610,1,0,0:0:0:0:
256,192,185985,1,8,0:0:0:0:
256,192,186172,1,0,0:0:0:0:
256,192,186360,1,8,0:0:0:0:
256,192,186453,1,8,0:0:0:0:
256,192,186547,1,0,0:0:0:0:
256,192,186641,1,0,0:0:0:0:
256,192,186735,1,8,0:0:0:0:
256,192,186922,1,8,0:0:0:0:
256,192,187110,1,4,0:0:0:0:
256,192,187485,1,8,0:0:0:0:
256,192,187672,1,0,0:0:0:0:
256,192,187766,1,0,0:0:0:0:
256,192,187860,1,8,0:0:0:0:
256,192,188047,1,0,0:0:0:0:
256,192,188235,1,8,0:0:0:0:
256,192,188422,1,8,0:0:0:0:
256,192,188516,1,8,0:0:0:0:
256,192,188610,1,0,0:0:0:0:
256,192,188985,1,8,0:0:0:0:
256,192,189172,1,0,0:0:0:0:
256,192,189266,1,0,0:0:0:0:
256,192,189360,1,8,0:0:0:0:
256,192,189547,1,0,0:0:0:0:
256,192,189641,1,0,0:0:0:0:
256,192,189735,1,8,0:0:0:0:
256,192,189828,1,8,0:0:0:0:
256,192,189922,1,0,0:0:0:0:
256,192,190110,1,12,0:0:0:0:
256,192,190485,1,8,0:0:0:0:
256,192,190672,1,8,0:0:0:0:
256,192,190766,1,8,0:0:0:0:
256,192,190860,1,0,0:0:0:0:
256,192,191047,1,0,0:0:0:0:
256,192,191235,1,8,0:0:0:0:
256,192,191422,1,0,0:0:0:0:
256,192,191516,1,0,0:0:0:0:
256,192,191610,1,8,0:0:0:0:
256,192,191985,1,8,0:0:0:0:
256,192,192172,1,0,0:0:0:0:
256,192,192266,1,0,0:0:0:0:
256,192,192360,1,8,0:0:0:0:
256,192,192547,1,8,0:0:0:0:
256,192,192641,1,0,0:0:0:0:
256,192,192735,1,8,0:0:0:0:
256,192,192828,1,8,0:0:0:0:
256,192,192922,1,0,0:0:0:0:
256,192,193016,1,0,0:0:0:0:
256,192,193110,1,8,0:0:0:0:
256,192,193297,1,0,0:0:0:0:
256,192,193391,1,0,0:0:0:0:
256,192,193485,1,8,0:0:0:0:
256,192,193672,1,0,0:0:0:0:
256,192,193860,1,8,0:0:0:0:
256,192,193953,1,0,0:0:0:0:
256,192,194047,1,8,0:0:0:0:
256,192,194141,1,8,0:0:0:0:
256,192,194235,1,0,0:0:0:0:
256,192,194328,1,8,0:0:0:0:
256,192,194422,1,0,0:0:0:0:
256,192,194516,1,0,0:0:0:0:
256,192,194610,1,8,0:0:0:0:
256,192,196110,1,8,0:0:0:0:
256,192,196485,1,0,0:0:0:0:
256,192,196672,1,0,0:0:0:0:
256,192,197047,1,8,0:0:0:0:
256,192,197422,1,0,0:0:0:0:
256,192,197610,1,8,0:0:0:0:
256,192,197985,1,0,0:0:0:0:
256,192,198172,1,8,0:0:0:0:
256,192,198547,1,0,0:0:0:0:
256,192,198735,1,8,0:0:0:0:
256,192,198922,1,0,0:0:0:0:
256,192,199016,1,0,0:0:0:0:
256,192,199110,1,8,0:0:0:0:
256,192,199485,1,0,0:0:0:0:
256,192,199672,1,0,0:0:0:0:
256,192,200047,1,8,0:0:0:0:
256,192,200422,1,0,0:0:0:0:
256,192,200610,1,8,0:0:0:0:
256,192,200985,1,8,0:0:0:0:
256,192,201172,1,0,0:0:0:0:
256,192,201360,1,8,0:0:0:0:
256,192,201547,1,0,0:0:0:0:
256,192,201641,1,0,0:0:0:0:
256,192,201735,1,8,0:0:0:0:
256,192,202110,1,4,0:0:0:0:
256,192,202485,1,8,0:0:0:0:
256,192,202672,1,0,0:0:0:0:
256,192,202766,1,0,0:0:0:0:
256,192,202860,1,8,0:0:0:0:
256,192,203047,1,8,0:0:0:0:
256,192,203422,1,8,0:0:0:0:
256,192,203610,1,0,0:0:0:0:
256,192,203985,1,8,0:0:0:0:
256,192,204172,1,0,0:0:0:0:
256,192,204266,1,8,0:0:0:0:
256,192,204360,1,0,0:0:0:0:
256,192,204547,1,0,0:0:0:0:
256,192,204735,1,8,0:0:0:0:
256,192,204922,1,8,0:0:0:0:
256,192,205110,1,4,0:0:0:0:
256,192,205485,1,8,0:0:0:0:
256,192,205672,1,8,0:0:0:0:
256,192,205766,1,0,0:0:0:0:
256,192,205860,1,8,0:0:0:0:
256,192,206047,1,0,0:0:0:0:
256,192,206235,1,8,0:0:0:0:
256,192,206422,1,8,0:0:0:0:
256,192,206516,1,8,0:0:0:0:
256,192,206610,1,0,0:0:0:0:
256,192,206985,1,12,0:0:0:0:
256,192,207172,1,0,0:0:0:0:
256,192,207266,1,0,0:0:0:0:
256,192,207360,1,8,0:0:0:0:
256,192,207547,1,8,0:0:0:0:
256,192,207641,1,0,0:0:0:0:
256,192,207735,1,8,0:0:0:0:
256,192,207828,1,8,0:0:0:0:
256,192,207922,1,0,0:0:0:0:
256,192,208110,1,12,0:0:0:0:
256,192,208485,1,8,0:0:0:0:
256,192,208672,1,0,0:0:0:0:
256,192,208860,1,12,0:0:0:0:
256,192,209235,1,8,0:0:0:0:
256,192,209422,1,0,0:0:0:0:
256,192,209610,1,8,0:0:0:0:
256,192,209797,1,8,0:0:0:0:
256,192,209891,1,0,0:0:0:0:
256,192,209985,1,8,0:0:0:0:
256,192,210172,1,8,0:0:0:0:
256,192,210266,1,8,0:0:0:0:
256,192,210360,1,0,0:0:0:0:
256,192,210735,1,12,0:0:0:0:
256,192,211110,1,0,0:0:0:0:
256,192,211297,1,0,0:0:0:0:
256,192,211485,1,8,0:0:0:0:
256,192,211578,1,8,0:0:0:0:
256,192,211672,1,0,0:0:0:0:
256,192,211766,1,0,0:0:0:0:
256,192,211860,1,8,0:0:0:0:
256,192,212047,1,8,0:0:0:0:
256,192,212141,1,8,0:0:0:0:
256,192,212235,1,0,0:0:0:0:
256,192,212422,1,0,0:0:0:0:
256,192,212610,1,8,0:0:0:0:
256,192,212797,1,0,0:0:0:0:
256,192,212891,1,0,0:0:0:0:
256,192,212985,1,8,0:0:0:0:
256,192,213078,1,0,0:0:0:0:
256,192,213172,1,8,0:0:0:0:
256,192,213360,1,0,0:0:0:0:
256,192,213547,1,12,0:0:0:0:
256,192,213735,1,12,0:0:0:0:
256,192,214110,1,4,0:0:0:0:
256,192,214485,1,8,0:0:0:0:
256,192,214672,1,0,0:0:0:0:
256,192,214860,1,8,0:0:0:0:
256,192,214953,1,8,0:0:0:0:
256,192,215047,1,0,0:0:0:0:
256,192,215141,1,0,0:0:0:0:
256,192,215235,1,8,0:0:0:0:
256,192,215422,1,0,0:0:0:0:
256,192,215516,1,0,0:0:0:0:
256,192,215610,1,8,0:0:0:0:
256,192,215797,1,0,0:0:0:0:
256,192,216172,1,0,0:0:0:0:
256,192,216360,1,8,0:0:0:0:
256,192,216453,1,8,0:0:0:0:
256,192,216547,1,0,0:0:0:0:
256,192,216641,1,0,0:0:0:0:
256,192,216735,1,8,0:0:0:0:
256,192,216922,1,0,0:0:0:0:
256,192,217110,1,12,0:0:0:0:
256,192,217485,1,8,0:0:0:0:
256,192,217672,1,0,0:0:0:0:
256,192,217766,1,0,0:0:0:0:
256,192,217860,1,0,0:0:0:0:
256,192,218047,1,8,0:0:0:0:
256,192,218235,1,0,0:0:0:0:
256,192,218422,1,0,0:0:0:0:
256,192,218516,1,0,0:0:0:0:
256,192,218610,1,8,0:0:0:0:
256,192,218985,1,8,0:0:0:0:
256,192,219172,1,0,0:0:0:0:
256,192,219266,1,0,0:0:0:0:
256,192,219360,1,8,0:0:0:0:
256,192,219547,1,8,0:0:0:0:
256,192,219641,1,8,0:0:0:0:
256,192,219735,1,0,0:0:0:0:
256,192,219828,1,8,0:0:0:0:
256,192,219922,1,0,0:0:0:0:
256,192,220016,1,0,0:0:0:0:
256,192,220110,1,8,0:0:0:0:
256,192,221610,1,4,0:0:0:0:
256,192,221985,1,0,0:0:0:0:
256,192,222172,1,8,0:0:0:0:
256,192,222360,1,0,0:0:0:0:
256,192,222735,1,8,0:0:0:0:
256,192,223110,1,0,0:0:0:0:
256,192,223297,1,8,0:0:0:0:
256,192,223672,1,0,0:0:0:0:
256,192,223860,1,8,0:0:0:0:
256,192,224235,1,8,0:0:0:0:
256,192,224422,1,8,0:0:0:0:
256,192,224516,1,8,0:0:0:0:
256,192,224610,1,0,0:0:0:0:
256,192,224797,1,0,0:0:0:0:
256,192,224985,1,8,0:0:0:0:
256,192,225360,1,0,0:0:0:0:
256,192,225547,1,8,0:0:0:0:
256,192,225735,1,0,0:0:0:0:
256,192,226110,1,8,0:0:0:0:
256,192,226297,1,0,0:0:0:0:
256,192,226485,1,8,0:0:0:0:
256,192,226672,1,8,0:0:0:0:
256,192,226860,1,0,0:0:0:0:
256,192,227235,1,0,0:0:0:0:
256,192,227422,1,8,0:0:0:0:
256,192,227610,1,4,0:0:0:0:
256,192,227985,1,0,0:0:0:0:
256,192,228172,1,0,0:0:0:0:
256,192,228360,1,8,0:0:0:0:
256,192,228735,1,0,0:0:0:0:
256,192,228922,1,8,0:0:0:0:
256,192,229297,1,0,0:0:0:0:
256,192,229485,1,8,0:0:0:0:
256,192,229860,1,0,0:0:0:0:
256,192,230235,1,8,0:0:0:0:
256,192,230422,1,0,0:0:0:0:
256,192,230516,1,0,0:0:0:0:
256,192,230610,1,8,0:0:0:0:
256,192,230985,1,8,0:0:0:0:
256,192,231172,1,8,0:0:0:0:
256,192,231360,1,0,0:0:0:0:
256,192,231547,1,0,0:0:0:0:
256,192,231735,1,8,0:0:0:0:
256,192,232110,1,0,0:0:0:0:
256,192,232297,1,8,0:0:0:0:
256,192,232485,1,0,0:0:0:0:
256,192,232672,1,0,0:0:0:0:
256,192,232860,1,8,0:0:0:0:
256,192,233047,1,0,0:0:0:0:
256,192,233141,1,0,0:0:0:0:
256,192,233235,1,8,0:0:0:0:
256,192,233422,1,8,0:0:0:0:
256,192,233610,1,4,0:0:0:0:
256,192,233985,1,8,0:0:0:0:
256,192,234360,1,0,0:0:0:0:
256,192,234547,1,0,0:0:0:0:
256,192,234922,1,8,0:0:0:0:
256,192,235297,1,0,0:0:0:0:
256,192,235485,1,8,0:0:0:0:
256,192,235860,1,0,0:0:0:0:
256,192,236047,1,0,0:0:0:0:
256,192,236235,1,8,0:0:0:0:
256,192,236422,1,8,0:0:0:0:
256,192,236610,1,0,0:0:0:0:
256,192,236985,1,8,0:0:0:0:
256,192,237172,1,8,0:0:0:0:
256,192,237360,1,0,0:0:0:0:
256,192,237547,1,0,0:0:0:0:
256,192,237922,1,8,0:0:0:0:
256,192,238297,1,0,0:0:0:0:
256,192,238485,1,0,0:0:0:0:
256,192,238672,1,8,0:0:0:0:
256,192,238860,1,0,0:0:0:0:
256,192,239235,1,8,0:0:0:0:
256,192,239422,1,8,0:0:0:0:
256,192,239610,1,4,0:0:0:0:
256,192,239985,1,8,0:0:0:0:
256,192,240360,1,0,0:0:0:0:
256,192,240547,1,0,0:0:0:0:
256,192,240922,1,8,0:0:0:0:
256,192,241297,1,0,0:0:0:0:
256,192,241485,1,8,0:0:0:0:
256,192,241860,1,8,0:0:0:0:
256,192,242047,1,0,0:0:0:0:
256,192,242235,1,8,0:0:0:0:
256,192,242422,1,8,0:0:0:0:
256,192,242610,1,0,0:0:0:0:
256,192,242985,1,8,0:0:0:0:
256,192,243360,1,0,0:0:0:0:
256,192,243547,1,0,0:0:0:0:
256,192,243922,1,8,0:0:0:0:
256,192,244297,1,0,0:0:0:0:
256,192,244485,1,8,0:0:0:0:
256,192,244860,1,8,0:0:0:0:
256,192,245047,1,0,0:0:0:0:
256,192,245235,1,12,0:0:0:0:
256,192,245422,1,12,0:0:0:0:
