osu file format v14

[General]
AudioFilename: audio.mp3
AudioLeadIn: 0
PreviewTime: 195172
Countdown: 0
SampleSet: Normal
StackLeniency: 0.7
Mode: 1
LetterboxInBreaks: 0
WidescreenStoryboard: 1

[Editor]
Bookmarks: 1110,7110,13110,25110,37110,52110,64110,77610,89610,101610,113610,128610,140610,154110,166110,178110,196110,208110,221610,233610,245610
DistanceSpacing: 0.9
BeatDivisor: 4
GridSize: 32
TimelineZoom: 3.100004

[Metadata]
Title:Hana wa Odore ya Irohaniho
TitleUnicode:花ハ踊レヤいろはにほ
Artist:Team "Hanayamata"
ArtistUnicode:チーム"ハナヤマタ"
Creator:realy0_
Version:Inner Oni
Source:ハナヤマタ
Tags:opening madhouse Naru Sekiya Reina Ueda Yaya Sasame Kaya Okuno Hana N. Fontainestand Minami Tanaka Tami Nishimikado Yuka Ootsubo Machi Tokiwa Manami Numakura Roger ][ -GH- ][ ][_-GH-_][ japanese j-pop anime op
BeatmapID:2152822
BeatmapSetID:1026550

[Difficulty]
HPDrainRate:5
CircleSize:2
OverallDifficulty:6
ApproachRate:0
SliderMultiplier:1.4
SliderTickRate:1

[Events]
//Background and Video events
0,0,"Hana.N..Fontainestand.full.1771132.jpg",0,100
//Break Periods
//Storyboard Layer 0 (Background)
//Storyboard Layer 1 (Fail)
//Storyboard Layer 2 (Pass)
//Storyboard Layer 3 (Foreground)
//Storyboard Layer 4 (Overlay)
//Storyboard Sound Samples

[TimingPoints]
-390,375,4,1,0,60,1,0
858,-113.636363636364,4,1,0,60,0,0
920,-116.279069767442,4,1,0,60,0,0
983,-119.047619047619,4,1,0,60,0,0
1045,-121.951219512195,4,1,0,60,0,0
1108,-125,4,1,0,60,0,0
7108,-105.263157894737,4,1,0,70,0,0
7483,-111.111111111111,4,1,0,70,0,0
7670,-109.591683306337,4,1,0,70,0,0
7858,-108.113133907847,4,1,0,70,0,0
8045,-106.674062735016,4,1,0,70,0,0
8233,-105.272798666825,4,1,0,70,0,0
8420,-103.907763156801,4,1,0,70,0,0
8514,-103.238488134284,4,1,0,70,0,0
8608,-102.577779601383,4,1,0,73,0,0
8795,-101.281412430065,4,1,0,73,0,0
8983,-100.017302993418,4,1,0,73,0,0
9170,-98.7844572534957,4,1,0,73,0,0
9264,-98.1793619126911,4,1,0,73,0,0
9358,-97.5816343557612,4,1,0,76,0,0
9545,-96.4076578530786,4,1,0,76,0,0
9733,-95.2616838455237,4,1,0,76,0,0
9920,-94.142633621347,4,1,0,76,0,0
10108,-86.9565217391304,4,1,0,80,0,0
10483,-90.9377776444024,4,1,0,80,0,0
10670,-89.9173839076657,4,1,0,80,0,0
10858,-88.9197143898774,4,1,0,80,0,0
11045,-87.9439410142399,4,1,0,80,0,0
11233,-86.9892750922739,4,1,0,80,0,0
11420,-86.0551871915459,4,1,0,80,0,0
11514,-85.5956257211431,4,1,0,80,0,0
11608,-85.1409465800159,4,1,0,80,0,0
11795,-84.2458563675546,4,1,0,80,0,0
11983,-80,4,1,0,80,0,0
12358,-83.3333333333333,4,1,0,80,0,0
12545,-88.8278542832347,4,1,0,80,0,0
12639,-91.8560432090827,4,1,0,80,0,0
12733,-95.0980746443807,4,1,0,80,0,0
12826,-98.5772347705566,4,1,0,80,0,0
12920,-102.320631932223,4,1,0,80,0,0
13014,-106.359670114847,4,1,0,80,0,0
13108,-95.2380952380952,4,1,0,70,0,0
13295,-100,4,1,0,80,0,0
24358,-100,4,1,0,80,0,0
24545,-98.7780171498393,4,1,0,80,0,0
24733,-97.5855386038632,4,1,0,80,0,0
24920,-96.4215085530699,4,1,0,80,0,0
25108,-90.9090909090909,4,1,0,80,0,0
25295,-95.2380952380952,4,1,0,80,0,0
31014,-93.0232558139535,4,1,0,80,0,0
31108,-90.9090909090909,4,1,0,80,0,0
31295,-100,4,1,0,80,0,0
31389,-99.5340809669935,4,1,0,80,0,0
31483,-99.379672086834,4,1,0,80,0,0
31670,-99.0723852568402,4,1,0,80,0,0
31858,-98.7669928611218,4,1,0,80,0,0
31951,-98.6150502345066,4,1,0,80,0,0
32045,-98.4634774346326,4,1,0,80,0,0
32139,-98.3124665123161,4,1,0,80,0,0
32233,-98.1618217263523,4,1,0,80,0,0
32420,-97.8620086960181,4,1,0,80,0,0
32608,-97.5641166983913,4,1,0,80,0,0
32889,-97.1204750356675,4,1,0,80,0,0
32983,-96.9735524030531,4,1,0,80,0,0
33170,-96.6809432192821,4,1,0,80,0,0
33358,-96.3900945683218,4,1,0,80,0,0
33451,-96.2452791690568,4,1,0,80,0,0
33545,-96.1009906090112,4,1,0,80,0,0
33639,-95.9570419514592,4,1,0,80,0,0
33733,-95.8136156896712,4,1,0,80,0,0
33920,-95.5279543452801,4,1,0,80,0,0
34014,-95.3857159890306,4,1,0,80,0,0
34108,-95.2439912946992,4,1,0,80,0,0
34389,-94.8212429927101,4,1,0,80,0,0
34483,-94.6810998535284,4,1,0,80,0,0
34670,-94.4021417957931,4,1,0,80,0,0
34858,-94.1248226923653,4,1,0,80,0,0
34951,-93.9868174089902,4,1,0,80,0,0
35045,-93.8491281415996,4,1,0,80,0,0
35139,-93.711929528629,4,1,0,80,0,0
35233,-93.5750439100893,4,1,0,80,0,0
35420,-93.3025559302172,4,1,0,80,0,0
35514,-93.1669495836369,4,1,0,80,0,0
35608,-93.0317368467079,4,1,0,80,0,0
35795,-92.7623993180109,4,1,0,80,0,0
35889,-92.628271630554,4,1,0,80,0,0
35983,-92.4946168133015,4,1,0,80,0,0
36170,-92.2283759044145,4,1,0,80,0,0
36358,-86.9565217391304,4,1,0,80,0,0
36451,-88.8685083776343,4,1,0,80,0,0
36545,-90.8665488430417,4,1,0,80,0,0
36639,-92.9564136671956,4,1,0,80,0,0
36733,-95.1446722313614,4,1,0,80,0,0
36826,-97.4384408290452,4,1,0,80,0,0
36920,-99.8456386426584,4,1,0,80,0,0
37014,-102.374683150356,4,1,0,80,0,0
37108,-95.2380952380952,4,1,0,80,0,0
37295,-100,4,1,0,80,0,0
42264,-97.5609756097561,4,1,0,80,0,0
42358,-95.2380952380952,4,1,0,80,0,0
42545,-101.010101010101,4,1,0,80,0,0
42733,-90.9090909090909,4,1,0,80,0,0
43108,-86.9565217391304,4,1,0,80,0,0
43389,-95.2380952380952,4,1,0,80,0,0
43483,-95.0158486435537,4,1,0,80,0,0
43670,-94.574542235572,4,1,0,80,0,0
43858,-94.1373162204244,4,1,0,80,0,0
43951,-93.9201716109376,4,1,0,80,0,0
44045,-93.7040264620171,4,1,0,80,0,0
44139,-93.4889612908956,4,1,0,80,0,0
44233,-93.2747940725734,4,1,0,80,0,0
44420,-92.8494761432556,4,1,0,80,0,0
44514,-92.638225496263,4,1,0,80,0,0
44608,-92.427933939907,4,1,0,80,0,0
44889,-91.8028332190388,4,1,0,80,0,0
44983,-91.596396964129,4,1,0,80,0,0
45170,-91.1861309542264,4,1,0,80,0,0
45264,-90.9824558530379,4,1,0,80,0,0
45358,-90.7796061799125,4,1,0,80,0,0
45451,-90.5776590204026,4,1,0,80,0,0
45545,-90.3766900441038,4,1,0,80,0,0
45639,-90.1765295742946,4,1,0,80,0,0
45733,-89.9772537502519,4,1,0,80,0,0
45920,-89.5814129317936,4,1,0,80,0,0
46108,-85.4700854700855,4,1,0,80,0,0
46389,-88.6068434609479,4,1,0,80,0,0
46483,-88.4144373703071,4,1,0,80,0,0
46670,-88.0321986569808,4,1,0,80,0,0
46858,-87.653250752284,4,1,0,80,0,0
46951,-87.4649593506601,4,1,0,80,0,0
47045,-87.2774751673764,4,1,0,80,0,0
47139,-87.0908688707624,4,1,0,80,0,0
47233,-86.9049833055527,4,1,0,80,0,0
47420,-86.5356574503307,4,1,0,80,0,0
47514,-86.3521319046085,4,1,0,80,0,0
47608,-86.1693831564707,4,1,0,80,0,0
47889,-85.6258220078913,4,1,0,80,0,0
47983,-85.4462043514334,4,1,0,80,0,0
48170,-85.0890754986858,4,1,0,80,0,0
48264,-84.9117003228343,4,1,0,80,0,0
48358,-84.7349913146634,4,1,0,80,0,0
48451,-84.5590162742283,4,1,0,80,0,0
48545,-84.3838418444283,4,1,0,80,0,0
48733,-84.0355201336501,4,1,0,80,0,0
48920,-83.690132263885,4,1,0,80,0,0
49108,-80,4,1,0,80,0,0
49295,-84.7457627118644,4,1,0,80,0,0
49389,-83.3333333333333,4,1,0,80,0,0
49483,-81.9672131147541,4,1,0,80,0,0
49670,-89.2857142857143,4,1,0,80,0,0
49764,-87.719298245614,4,1,0,80,0,0
49858,-86.2068965517241,4,1,0,80,0,0
49951,-84.7457627118644,4,1,0,80,0,0
50045,-83.3333333333333,4,1,0,80,0,0
50139,-81.9672131147541,4,1,0,80,0,0
50233,-80.6451612903226,4,1,0,80,0,0
50420,-83.3333333333333,4,1,0,80,0,0
50514,-81.3008130081301,4,1,0,80,0,0
50608,-79.3650793650794,4,1,0,80,0,0
50951,-71.4285714285714,4,1,0,60,0,0
50983,-72.992700729927,4,1,0,60,0,0
51733,-86.9565217391304,4,1,0,80,0,0
52110,-76.9230769230769,4,1,0,90,0,1
52295,-86.9565217391304,4,1,0,90,0,1
54639,-84.0336134453781,4,1,0,90,0,1
54733,-80,4,1,0,90,0,1
55108,-86.9565217391304,4,1,0,90,0,1
57545,-76.9230769230769,4,1,0,90,0,1
58108,-83.3333333333333,4,1,0,90,0,1
58295,-86.9565217391304,4,1,0,90,0,1
62608,-86.9565217391304,4,1,0,90,0,1
62795,-85.1250742716273,4,1,0,90,0,1
62983,-83.3691125774812,4,1,0,90,0,1
63170,-81.6841974568442,4,1,0,90,0,1
63264,-80.8670238832668,4,1,0,90,0,1
63360,-80.0660384685288,4,1,0,90,0,0
63545,-76.9230769230769,4,1,0,90,0,0
63639,-79.9561840111619,4,1,0,90,0,0
63733,-83.2383029374797,4,1,0,90,0,0
63826,-86.8014113909492,4,1,0,90,0,0
63920,-90.6832072836752,4,1,0,90,0,0
64014,-94.9284476825593,4,1,0,90,0,0
64110,-76.9230769230769,4,1,0,90,0,1
64295,-86.9565217391304,4,1,0,90,0,1
66639,-84.0336134453781,4,1,0,90,0,1
66733,-80,4,1,0,90,0,1
66920,-86.9565217391304,4,1,0,90,0,1
69545,-76.9230769230769,4,1,0,90,0,1
70108,-71.4285714285714,4,1,0,90,0,1
70295,-83.3333333333333,4,1,0,90,0,1
70389,-86.2068965517241,4,1,0,90,0,1
70483,-83.3333333333333,4,1,0,90,0,1
70670,-86.9565217391304,4,1,0,90,0,1
70764,-84.7457627118644,4,1,0,90,0,1
70858,-82.6446280991736,4,1,0,90,0,1
71045,-85.4700854700855,4,1,0,90,0,1
71233,-81.9672131147541,4,1,0,90,0,1
71420,-86.2068965517241,4,1,0,90,0,1
71514,-85.1063829787234,4,1,0,90,0,1
71608,-84.0336134453781,4,1,0,90,0,1
71701,-82.9875518672199,4,1,0,90,0,1
71795,-81.9672131147541,4,1,0,90,0,1
71889,-80.9716599190283,4,1,0,90,0,1
71983,-80,4,1,0,90,0,1
72170,-84.0336134453781,4,1,0,90,0,1
72264,-81.9672131147541,4,1,0,90,0,1
72358,-80,4,1,0,90,0,1
72545,-82.6446280991736,4,1,0,90,0,1
72733,-78.7401574803149,4,1,0,90,0,1
73014,-75.7575757575758,4,1,0,90,0,1
73108,-72.992700729927,4,1,0,90,0,1
73389,-80.6451612903226,4,1,0,90,0,1
73483,-78.125,4,1,0,90,0,1
73670,-81.3008130081301,4,1,0,90,0,1
73764,-79.3650793650794,4,1,0,90,0,1
73858,-77.5193798449612,4,1,0,90,0,1
74045,-80.6451612903226,4,1,0,90,0,1
74139,-78.7401574803149,4,1,0,90,0,1
74233,-76.9230769230769,4,1,0,90,0,1
74420,-79.3650793650794,4,1,0,90,0,1
74608,-80.6451612903226,4,1,0,90,0,1
74701,-79.3650793650794,4,1,0,90,0,1
74795,-78.125,4,1,0,90,0,1
74889,-76.9230769230769,4,1,0,90,0,1
74983,-75.7575757575758,4,1,0,90,0,1
75170,-78.7401574803149,4,1,0,90,0,1
75358,-75.187969924812,4,1,0,90,0,1
75451,-74.0740740740741,4,1,0,90,0,1
75545,-72.992700729927,4,1,0,90,0,1
75639,-71.9424460431655,4,1,0,90,0,1
75733,-70.9219858156028,4,1,0,90,0,1
75826,-69.9300699300699,4,1,0,90,0,1
75920,-68.9655172413793,4,1,0,90,0,1
76014,-68.0272108843537,4,1,0,90,0,1
76110,-67.1140939597315,4,1,0,90,0,0
76201,-100,4,1,0,60,0,0
77514,-100,4,1,0,70,0,0
77608,-95.2380952380952,4,1,0,70,0,0
77795,-100,4,1,0,70,0,0
89608,-100,4,1,0,60,0,0
89983,-90.9090909090909,4,1,0,70,0,0
90170,-100,4,1,0,70,0,0
95983,-95.2380952380952,4,1,0,70,0,0
96170,-100,4,1,0,70,0,0
100858,-100,4,1,0,70,0,0
101045,-98.7780171498393,4,1,0,70,0,0
101233,-97.5855386038632,4,1,0,70,0,0
101420,-96.4215085530699,4,1,0,70,0,0
101608,-90.9090909090909,4,1,0,70,0,0
101795,-95.2380952380952,4,1,0,80,0,0
107514,-93.0232558139535,4,1,0,80,0,0
107608,-90.9090909090909,4,1,0,80,0,0
107889,-100,4,1,0,80,0,0
107983,-99.7786908636644,4,1,0,80,0,0
108170,-99.3389983052767,4,1,0,80,0,0
108358,-98.903066093952,4,1,0,80,0,0
108451,-98.6865803027507,4,1,0,80,0,0
108545,-98.4710401594443,4,1,0,80,0,0
108639,-98.2564394814025,4,1,0,80,0,0
108733,-98.0427721397737,4,1,0,80,0,0
108920,-97.6182132157489,4,1,0,80,0,0
109108,-97.1973154101484,4,1,0,80,0,0
109389,-96.5726371090015,4,1,0,80,0,0
109483,-96.3662224826252,4,1,0,80,0,0
109670,-95.956029109221,4,1,0,80,0,0
109858,-95.5493130004395,4,1,0,80,0,0
109951,-95.3471542211615,4,1,0,80,0,0
110045,-95.1459395994546,4,1,0,80,0,0
110139,-94.9455724505927,4,1,0,80,0,0
110233,-94.7460474317663,4,1,0,80,0,0
110420,-94.3495026365968,4,1,0,80,0,0
110514,-94.1524723968489,4,1,0,80,0,0
110608,-93.9562633594062,4,1,0,80,0,0
110889,-93.3724252553736,4,1,0,80,0,0
110983,-93.1794505766876,4,1,0,80,0,0
111170,-92.7958843169388,4,1,0,80,0,0
111358,-92.4154629552617,4,1,0,80,0,0
111451,-92.2264195490497,4,1,0,80,0,0
111545,-92.0381479715713,4,1,0,80,0,0
111639,-91.8505591402788,4,1,0,80,0,0
111733,-91.6638174496743,4,1,0,80,0,0
111920,-91.2926028342701,4,1,0,80,0,0
112014,-91.1081207401259,4,1,0,80,0,0
112108,-90.9243827370967,4,1,0,80,0,0
112295,-88.8888888888889,4,1,0,80,0,0
112389,-90.2145211097469,4,1,0,80,0,0
112483,-91.5802073192733,4,1,0,80,0,0
112576,-92.9879636379867,4,1,0,80,0,0
112670,-94.4395860524064,4,1,0,80,0,0
112858,-86.9565217391304,4,1,0,80,0,0
112951,-88.3827112810809,4,1,0,80,0,0
113045,-89.8563825437803,4,1,0,80,0,0
113139,-91.3801138596219,4,1,0,80,0,0
113233,-92.9564136671956,4,1,0,80,0,0
113326,-94.5880501240995,4,1,0,80,0,0
113420,-96.2778965205168,4,1,0,80,0,0
113514,-98.0293166474366,4,1,0,80,0,0
113608,-95.2380952380952,4,1,0,80,0,0
113795,-100,4,1,0,80,0,0
114358,-90.9090909090909,4,1,0,80,0,0
114545,-100,4,1,0,80,0,0
118764,-97.5609756097561,4,1,0,80,0,0
118858,-95.2380952380952,4,1,0,80,0,0
119045,-101.010101010101,4,1,0,80,0,0
119233,-90.9090909090909,4,1,0,80,0,0
119608,-86.9565217391304,4,1,0,80,0,0
119795,-95.2380952380952,4,1,0,80,0,0
119889,-94.6054102942039,4,1,0,80,0,0
119983,-94.396349504372,4,1,0,80,0,0
120170,-93.9810759705426,4,1,0,80,0,0
120358,-93.5693526685044,4,1,0,80,0,0
120451,-93.364928024977,4,1,0,80,0,0
120545,-93.161307872969,4,1,0,80,0,0
120639,-92.9585739411089,4,1,0,80,0,0
120733,-92.7568064944606,4,1,0,80,0,0
120920,-92.3557172806783,4,1,0,80,0,0
121014,-92.1564706283505,4,1,0,80,0,0
121108,-91.9581663909454,4,1,0,80,0,0
121389,-91.3681744547376,4,1,0,80,0,0
121483,-91.1731615387842,4,1,0,80,0,0
121670,-90.7857048829091,4,1,0,80,0,0
121764,-90.5931678256553,4,1,0,80,0,0
121858,-90.4014456999196,4,1,0,80,0,0
121951,-90.2105333427152,4,1,0,80,0,0
122045,-90.0205066714198,4,1,0,80,0,0
122139,-89.8311981954709,4,1,0,80,0,0
122233,-89.6426842605375,4,1,0,80,0,0
122420,-89.2680997767405,4,1,0,80,0,0
122608,-85.4700854700855,4,1,0,80,0,0
122889,-88.3450758663339,4,1,0,80,0,0
122983,-88.1628190943034,4,1,0,80,0,0
123170,-87.8003980870049,4,1,0,80,0,0
123358,-87.4410210313144,4,1,0,80,0,0
123451,-87.2623954051113,4,1,0,80,0,0
123545,-87.0845739256594,4,1,0,80,0,0
123639,-86.9074001651241,4,1,0,80,0,0
123733,-86.7309458616763,4,1,0,80,0,0
123920,-86.3802527831717,4,1,0,80,0,0
124014,-86.2059304507794,4,1,0,80,0,0
124108,-86.0323102944542,4,1,0,80,0,0
124389,-85.5156938401335,4,1,0,80,0,0
124483,-85.3448400936404,4,1,0,80,0,0
124670,-85.0052448236056,4,1,0,80,0,0
124764,-84.8364226516642,4,1,0,80,0,0
124858,-84.6683414064597,4,1,0,80,0,0
124951,-84.5008534586199,4,1,0,80,0,0
125045,-84.3340268401474,4,1,0,80,0,0
125233,-84.0024125492884,4,1,0,80,0,0
125420,-83.6733259477678,4,1,0,80,0,0
125608,-80,4,1,0,80,0,0
125795,-84.7457627118644,4,1,0,80,0,0
125889,-83.3333333333333,4,1,0,80,0,0
125983,-81.9672131147541,4,1,0,80,0,0
126170,-89.2857142857143,4,1,0,80,0,0
126264,-87.719298245614,4,1,0,80,0,0
126358,-86.2068965517241,4,1,0,80,0,0
126451,-84.7457627118644,4,1,0,80,0,0
126545,-83.3333333333333,4,1,0,80,0,0
126639,-81.9672131147541,4,1,0,80,0,0
126733,-80.6451612903226,4,1,0,80,0,0
126920,-84.7457627118644,4,1,0,80,0,0
127014,-82.6446280991736,4,1,0,80,0,0
127108,-79.3650793650794,4,1,0,80,0,0
127451,-71.4285714285714,4,1,0,60,0,0
127483,-72.992700729927,4,1,0,60,0,0
128233,-86.9565217391304,4,1,0,80,0,0
128610,-76.9230769230769,4,1,0,90,0,1
128795,-86.9565217391304,4,1,0,90,0,1
131139,-84.0336134453781,4,1,0,90,0,1
131233,-80,4,1,0,90,0,1
131420,-86.9565217391304,4,1,0,90,0,1
134045,-76.9230769230769,4,1,0,90,0,1
134608,-83.3333333333333,4,1,0,90,0,1
134795,-86.9565217391304,4,1,0,90,0,1
139108,-86.9565217391304,4,1,0,90,0,1
139295,-85.1250742716273,4,1,0,90,0,1
139483,-83.3691125774812,4,1,0,90,0,1
139670,-81.6841974568442,4,1,0,90,0,1
139764,-80.8670238832668,4,1,0,90,0,1
139860,-80.0660384685288,4,1,0,90,0,0
140045,-76.9230769230769,4,1,0,90,0,0
140139,-79.9561840111619,4,1,0,90,0,0
140233,-83.2383029374797,4,1,0,90,0,0
140326,-86.8014113909492,4,1,0,90,0,0
140420,-90.6832072836752,4,1,0,90,0,0
140514,-94.9284476825593,4,1,0,90,0,0
140610,-76.9230769230769,4,1,0,90,0,1
140795,-86.9565217391304,4,1,0,90,0,1
143139,-84.0336134453781,4,1,0,90,0,1
143233,-80,4,1,0,90,0,1
143420,-86.9565217391304,4,1,0,90,0,1
146045,-76.9230769230769,4,1,0,90,0,1
146608,-71.4285714285714,4,1,0,90,0,1
146795,-83.3333333333333,4,1,0,90,0,1
146889,-86.2068965517241,4,1,0,90,0,1
146983,-83.3333333333333,4,1,0,90,0,1
147170,-86.9565217391304,4,1,0,90,0,1
147264,-84.7457627118644,4,1,0,90,0,1
147358,-82.6446280991736,4,1,0,90,0,1
147545,-85.4700854700855,4,1,0,90,0,1
147733,-81.9672131147541,4,1,0,90,0,1
147920,-86.2068965517241,4,1,0,90,0,1
148014,-85.1063829787234,4,1,0,90,0,1
148108,-84.0336134453781,4,1,0,90,0,1
148201,-82.9875518672199,4,1,0,90,0,1
148295,-81.9672131147541,4,1,0,90,0,1
148389,-80.9716599190283,4,1,0,90,0,1
148483,-80,4,1,0,90,0,1
148670,-83.3333333333333,4,1,0,90,0,1
148858,-80,4,1,0,90,0,1
149045,-83.3333333333333,4,1,0,90,0,1
149139,-81.3008130081301,4,1,0,90,0,1
149233,-79.3650793650794,4,1,0,90,0,1
149420,-82.6446280991736,4,1,0,90,0,1
149514,-80.6451612903226,4,1,0,90,0,1
149608,-78.7401574803149,4,1,0,90,0,1
149889,-80.6451612903226,4,1,0,90,0,1
149983,-78.125,4,1,0,90,0,1
150170,-81.3008130081301,4,1,0,90,0,1
150264,-79.3650793650794,4,1,0,90,0,1
150358,-77.5193798449612,4,1,0,90,0,1
150545,-80.6451612903226,4,1,0,90,0,1
150639,-78.7401574803149,4,1,0,90,0,1
150733,-76.9230769230769,4,1,0,90,0,1
150920,-79.3650793650794,4,1,0,90,0,1
151108,-80.6451612903226,4,1,0,90,0,1
151201,-79.3650793650794,4,1,0,90,0,1
151295,-78.125,4,1,0,90,0,1
151389,-76.9230769230769,4,1,0,90,0,1
151483,-75.7575757575758,4,1,0,90,0,1
151670,-78.125,4,1,0,90,0,1
151858,-75.187969924812,4,1,0,90,0,1
151951,-74.0740740740741,4,1,0,90,0,1
152045,-72.992700729927,4,1,0,90,0,1
152139,-71.9424460431655,4,1,0,90,0,1
152233,-70.9219858156028,4,1,0,90,0,1
152326,-69.9300699300699,4,1,0,90,0,1
152420,-68.9655172413793,4,1,0,90,0,1
152514,-68.0272108843537,4,1,0,90,0,1
152610,-67.1140939597315,4,1,0,90,0,1
152703,-100,4,1,0,60,0,0
153639,-90.9090909090909,4,1,0,70,0,0
153826,-93.0232558139535,4,1,0,70,0,0
153920,-95.2380952380952,4,1,0,70,0,0
154110,-76.9230769230769,4,1,0,80,0,1
154483,-86.9565217391304,4,1,0,80,0,1
154670,-91.743119266055,4,1,0,80,0,1
154764,-89.2857142857143,4,1,0,80,0,1
154858,-86.9565217391304,4,1,0,80,0,1
155045,-86.9565217391304,4,1,0,80,0,1
155233,-90.0900900900901,4,1,0,80,0,1
155326,-88.4955752212389,4,1,0,80,0,1
155420,-86.9565217391304,4,1,0,80,0,1
155514,-85.4700854700855,4,1,0,80,0,1
155608,-84.0336134453781,4,1,0,80,0,1
155889,-90.0900900900901,4,1,0,80,0,1
155983,-86.9565217391304,4,1,0,80,0,1
156170,-90.0900900900901,4,1,0,80,0,1
156264,-88.4955752212389,4,1,0,80,0,1
156358,-86.9565217391304,4,1,0,80,0,1
156451,-85.4700854700855,4,1,0,80,0,1
156545,-84.0336134453781,4,1,0,80,0,1
156733,-86.9565217391304,4,1,0,80,0,1
156920,-86.9565217391304,4,1,0,80,0,1
157014,-89.2857142857143,4,1,0,80,0,1
157108,-91.743119266055,4,1,0,80,0,1
157389,-86.9565217391304,4,1,0,80,0,1
157483,-90.0900900900901,4,1,0,80,0,1
157670,-86.9565217391304,4,1,0,80,0,1
157764,-89.2857142857143,4,1,0,80,0,1
157858,-91.743119266055,4,1,0,80,0,1
158045,-91.743119266055,4,1,0,80,0,1
158233,-84.0336134453781,4,1,0,80,0,1
158326,-85.4700854700855,4,1,0,80,0,1
158420,-86.9565217391304,4,1,0,80,0,1
158514,-88.4955752212389,4,1,0,80,0,1
158608,-90.0900900900901,4,1,0,80,0,1
158795,-86.9565217391304,4,1,0,80,0,1
158983,-90.0900900900901,4,1,0,80,0,1
159170,-91.743119266055,4,1,0,80,0,1
159264,-89.2857142857143,4,1,0,80,0,1
159358,-86.9565217391304,4,1,0,80,0,1
159545,-84.0336134453781,4,1,0,80,0,1
159639,-85.4700854700855,4,1,0,80,0,1
159733,-86.9565217391304,4,1,0,80,0,1
159826,-88.4955752212389,4,1,0,80,0,1
159920,-90.0900900900901,4,1,0,80,0,1
160108,-76.9230769230769,4,1,0,80,0,1
160483,-86.9565217391304,4,1,0,80,0,1
160670,-91.743119266055,4,1,0,80,0,1
160764,-89.2857142857143,4,1,0,80,0,1
160858,-86.9565217391304,4,1,0,80,0,1
161045,-86.9565217391304,4,1,0,80,0,1
161233,-90.0900900900901,4,1,0,80,0,1
161326,-88.4955752212389,4,1,0,80,0,1
161420,-86.9565217391304,4,1,0,80,0,1
161514,-85.4700854700855,4,1,0,80,0,1
161608,-84.0336134453781,4,1,0,80,0,1
161889,-90.0900900900901,4,1,0,80,0,1
161983,-86.9565217391304,4,1,0,80,0,1
162170,-91.743119266055,4,1,0,80,0,1
162264,-90.4977375565611,4,1,0,80,0,1
162358,-89.2857142857143,4,1,0,80,0,1
162451,-88.1057268722467,4,1,0,80,0,1
162545,-86.9565217391304,4,1,0,80,0,1
162639,-85.8369098712446,4,1,0,80,0,1
162733,-84.7457627118644,4,1,0,80,0,1
162920,-86.9565217391304,4,1,0,80,0,1
163014,-89.2857142857143,4,1,0,80,0,1
163108,-91.743119266055,4,1,0,80,0,1
163389,-86.9565217391304,4,1,0,80,0,1
163483,-90.0900900900901,4,1,0,80,0,1
163670,-86.9565217391304,4,1,0,80,0,1
163764,-89.2857142857143,4,1,0,80,0,1
163858,-91.743119266055,4,1,0,80,0,1
164045,-86.9565217391304,4,1,0,80,0,1
164233,-90.0900900900901,4,1,0,80,0,1
164420,-86.9565217391304,4,1,0,80,0,1
164514,-89.2857142857143,4,1,0,80,0,1
164608,-91.743119266055,4,1,0,80,0,1
164795,-91.743119266055,4,1,0,80,0,1
164889,-89.2857142857143,4,1,0,80,0,1
164983,-86.9565217391304,4,1,0,80,0,1
165170,-84.0336134453781,4,1,0,80,0,1
165264,-85.4700854700855,4,1,0,80,0,1
165358,-86.9565217391304,4,1,0,80,0,1
165451,-88.4955752212389,4,1,0,80,0,1
165545,-90.0900900900901,4,1,0,80,0,1
165733,-86.9565217391304,4,1,0,80,0,1
165920,-90.9090909090909,4,1,0,80,0,1
166014,-85.4700854700855,4,1,0,80,0,1
166108,-80.6451612903226,4,1,0,85,0,1
166389,-80,4,1,0,85,0,1
166483,-76.9230769230769,4,1,0,85,0,1
166670,-91.743119266055,4,1,0,85,0,1
166764,-89.2857142857143,4,1,0,85,0,1
166858,-86.9565217391304,4,1,0,85,0,1
167045,-90.0900900900901,4,1,0,85,0,1
167233,-86.9565217391304,4,1,0,85,0,1
167420,-91.743119266055,4,1,0,85,0,1
167514,-89.2857142857143,4,1,0,85,0,1
167608,-86.9565217391304,4,1,0,85,0,1
167795,-86.9565217391304,4,1,0,85,0,1
167983,-90.0900900900901,4,1,0,85,0,1
168076,-88.4955752212389,4,1,0,85,0,1
168170,-86.9565217391304,4,1,0,85,0,1
168264,-85.4700854700855,4,1,0,85,0,1
168358,-84.0336134453781,4,1,0,85,0,1
168545,-91.743119266055,4,1,0,85,0,1
168639,-89.2857142857143,4,1,0,85,0,1
168733,-86.9565217391304,4,1,0,85,0,1
168920,-90.0900900900901,4,1,0,85,0,1
169108,-86.9565217391304,4,1,0,85,0,1
169389,-86.9565217391304,4,1,0,85,0,1
169483,-90.0900900900901,4,1,0,85,0,1
169670,-86.9565217391304,4,1,0,85,0,1
169764,-89.2857142857143,4,1,0,85,0,1
169858,-91.743119266055,4,1,0,85,0,1
170045,-86.9565217391304,4,1,0,85,0,1
170233,-90.0900900900901,4,1,0,85,0,1
170420,-84.7457627118644,4,1,0,85,0,1
170514,-85.8369098712446,4,1,0,85,0,1
170608,-86.9565217391304,4,1,0,85,0,1
170701,-88.1057268722467,4,1,0,85,0,1
170795,-89.2857142857143,4,1,0,85,0,1
170889,-90.4977375565611,4,1,0,85,0,1
170983,-91.743119266055,4,1,0,85,0,1
171170,-86.9565217391304,4,1,0,85,0,1
171358,-90.0900900900901,4,1,0,85,0,1
171545,-86.9565217391304,4,1,0,85,0,1
171639,-89.2857142857143,4,1,0,85,0,1
171733,-91.743119266055,4,1,0,85,0,1
171920,-86.9565217391304,4,1,0,85,0,1
172014,-83.3333333333333,4,1,0,85,0,1
172108,-80,4,1,0,85,0,1
172389,-90.0900900900901,4,1,0,85,0,1
172483,-86.9565217391304,4,1,0,85,0,1
172670,-90.0900900900901,4,1,0,85,0,1
172858,-86.9565217391304,4,1,0,85,0,1
173045,-91.743119266055,4,1,0,85,0,1
173139,-89.2857142857143,4,1,0,85,0,1
173233,-86.9565217391304,4,1,0,85,0,1
173420,-90.0900900900901,4,1,0,85,0,1
173514,-88.4955752212389,4,1,0,85,0,1
173608,-86.9565217391304,4,1,0,85,0,1
173701,-84.7457627118644,4,1,0,85,0,1
173795,-82.6446280991736,4,1,0,85,0,1
173983,-86.9565217391304,4,1,0,85,0,1
174170,-82.6446280991736,4,1,0,85,0,1
174264,-84.7457627118644,4,1,0,85,0,1
174358,-86.9565217391304,4,1,0,85,0,1
174545,-91.743119266055,4,1,0,85,0,1
174639,-89.2857142857143,4,1,0,85,0,1
174733,-86.9565217391304,4,1,0,85,0,1
174920,-82.6446280991736,4,1,0,85,0,1
175014,-84.7457627118644,4,1,0,85,0,1
175108,-86.9565217391304,4,1,0,85,0,1
175389,-84.0336134453781,4,1,0,85,0,1
175483,-86.9565217391304,4,1,0,85,0,1
175670,-84.0336134453781,4,1,0,85,0,1
175858,-86.9565217391304,4,1,0,85,0,1
176045,-82.6446280991736,4,1,0,85,0,1
176139,-84.7457627118644,4,1,0,85,0,1
176233,-86.9565217391304,4,1,0,85,0,1
176420,-84.7457627118644,4,1,0,85,0,1
176514,-85.8369098712446,4,1,0,85,0,1
176608,-86.9565217391304,4,1,0,85,0,1
176701,-88.1057268722467,4,1,0,85,0,1
176795,-89.2857142857143,4,1,0,85,0,1
176889,-90.4977375565611,4,1,0,85,0,1
176983,-91.743119266055,4,1,0,85,0,1
177170,-82.6446280991736,4,1,0,85,0,1
177264,-84.0336134453781,4,1,0,85,0,1
177358,-86.9565217391304,4,1,0,85,0,1
177545,-82.6446280991736,4,1,0,85,0,1
177639,-84.0336134453781,4,1,0,85,0,1
177733,-86.9565217391304,4,1,0,85,0,1
177920,-89.2857142857143,4,1,0,85,0,1
178108,-80.6451612903226,4,1,0,85,0,1
178389,-80,4,1,0,85,0,1
178483,-76.9230769230769,4,1,0,85,0,1
178670,-91.743119266055,4,1,0,85,0,1
178764,-89.2857142857143,4,1,0,85,0,1
178858,-86.9565217391304,4,1,0,85,0,1
179045,-90.0900900900901,4,1,0,85,0,1
179233,-86.9565217391304,4,1,0,85,0,1
179420,-91.743119266055,4,1,0,85,0,1
179514,-89.2857142857143,4,1,0,85,0,1
179608,-86.9565217391304,4,1,0,85,0,1
179795,-86.9565217391304,4,1,0,85,0,1
179983,-90.0900900900901,4,1,0,85,0,1
180076,-88.4955752212389,4,1,0,85,0,1
180170,-86.9565217391304,4,1,0,85,0,1
180264,-85.4700854700855,4,1,0,85,0,1
180358,-84.0336134453781,4,1,0,85,0,1
180545,-91.743119266055,4,1,0,85,0,1
180639,-89.2857142857143,4,1,0,85,0,1
180733,-86.9565217391304,4,1,0,85,0,1
180920,-90.0900900900901,4,1,0,85,0,1
181108,-86.9565217391304,4,1,0,85,0,1
181389,-86.9565217391304,4,1,0,85,0,1
181483,-90.0900900900901,4,1,0,85,0,1
181670,-86.9565217391304,4,1,0,85,0,1
181764,-89.2857142857143,4,1,0,85,0,1
181858,-91.743119266055,4,1,0,85,0,1
182045,-86.9565217391304,4,1,0,85,0,1
182233,-90.0900900900901,4,1,0,85,0,1
182420,-84.7457627118644,4,1,0,85,0,1
182514,-85.8369098712446,4,1,0,85,0,1
182608,-86.9565217391304,4,1,0,85,0,1
182701,-88.1057268722467,4,1,0,85,0,1
182795,-89.2857142857143,4,1,0,85,0,1
182889,-90.4977375565611,4,1,0,85,0,1
182983,-91.743119266055,4,1,0,85,0,1
183170,-91.743119266055,4,1,0,85,0,1
183264,-89.2857142857143,4,1,0,85,0,1
183358,-86.9565217391304,4,1,0,85,0,1
183545,-80.5592747087379,4,1,0,85,0,1
183639,-83.2186995746692,4,1,0,85,0,1
183733,-86.0597788435803,4,1,0,85,0,1
183826,-89.1016239661984,4,1,0,85,0,1
183920,-92.3663804848311,4,1,0,85,0,1
184014,-95.8795752534816,4,1,0,85,0,1
184110,-86.9565217391304,4,1,0,80,0,0
184389,-95.2380952380952,4,1,0,80,0,0
184483,-95.0158486435537,4,1,0,80,0,0
184670,-94.574542235572,4,1,0,80,0,0
184858,-94.1373162204244,4,1,0,80,0,0
184951,-93.9201716109376,4,1,0,80,0,0
185045,-93.7040264620171,4,1,0,80,0,0
185139,-93.4889612908956,4,1,0,80,0,0
185233,-93.2747940725734,4,1,0,80,0,0
185420,-92.8494761432556,4,1,0,80,0,0
185514,-92.638225496263,4,1,0,80,0,0
185608,-92.427933939907,4,1,0,80,0,0
185889,-91.8028332190388,4,1,0,80,0,0
185983,-91.596396964129,4,1,0,80,0,0
186170,-91.1861309542264,4,1,0,80,0,0
186264,-90.9824558530379,4,1,0,80,0,0
186358,-90.7796061799125,4,1,0,80,0,0
186451,-90.5776590204026,4,1,0,80,0,0
186545,-90.3766900441038,4,1,0,80,0,0
186639,-90.1765295742946,4,1,0,80,0,0
186733,-89.9772537502519,4,1,0,80,0,0
186920,-89.5814129317936,4,1,0,80,0,0
187108,-81.8857301013581,4,1,0,80,0,0
187389,-88.6068434609479,4,1,0,80,0,0
187483,-88.4144373703071,4,1,0,80,0,0
187670,-88.0321986569808,4,1,0,80,0,0
187858,-87.653250752284,4,1,0,80,0,0
187951,-87.4649593506601,4,1,0,80,0,0
188045,-87.2774751673764,4,1,0,80,0,0
188139,-87.0908688707624,4,1,0,80,0,0
188233,-86.9049833055527,4,1,0,80,0,0
188420,-86.5356574503307,4,1,0,80,0,0
188514,-86.3521319046085,4,1,0,80,0,0
188608,-86.1693831564707,4,1,0,80,0,0
188889,-85.6258220078913,4,1,0,80,0,0
188983,-85.4462043514334,4,1,0,80,0,0
189170,-85.0890754986858,4,1,0,80,0,0
189264,-84.9117003228343,4,1,0,80,0,0
189358,-84.7349913146634,4,1,0,80,0,0
189451,-84.5590162742283,4,1,0,80,0,0
189545,-84.3838418444283,4,1,0,80,0,0
189733,-84.0355201336501,4,1,0,80,0,0
189920,-83.690132263885,4,1,0,80,0,0
190110,-80,4,1,0,85,0,1
190295,-84.7457627118644,4,1,0,85,0,1
190389,-83.3333333333333,4,1,0,85,0,1
190483,-81.9672131147541,4,1,0,85,0,1
190670,-87.719298245614,4,1,0,85,0,1
190764,-86.2068965517241,4,1,0,85,0,1
190858,-84.7457627118644,4,1,0,85,0,1
190951,-83.3333333333333,4,1,0,85,0,1
191045,-81.9672131147541,4,1,0,85,0,1
191139,-80.6451612903226,4,1,0,85,0,1
191233,-79.3650793650794,4,1,0,85,0,1
191420,-81.9672131147541,4,1,0,85,0,1
191514,-80,4,1,0,85,0,1
191608,-78.125,4,1,0,85,0,1
191795,-80.6451612903226,4,1,0,85,0,1
191889,-78.7401574803149,4,1,0,85,0,1
191983,-76.9230769230769,4,1,0,85,0,1
192170,-81.9672131147541,4,1,0,85,0,1
192264,-80.6451612903226,4,1,0,85,0,1
192358,-79.3650793650794,4,1,0,85,0,1
192451,-78.125,4,1,0,85,0,1
192545,-76.9230769230769,4,1,0,85,0,1
192639,-75.7575757575758,4,1,0,85,0,1
192733,-74.6268656716418,4,1,0,85,0,1
192826,-73.8007380073801,4,1,0,85,0,1
192920,-72.463768115942,4,1,0,85,0,1
193108,-68.4931506849315,4,1,0,85,0,1
193295,-75.7575757575758,4,1,0,85,0,1
193389,-74.0740740740741,4,1,0,85,0,1
193483,-72.463768115942,4,1,0,85,0,1
193670,-78.125,4,1,0,85,0,1
193764,-76.9230769230769,4,1,0,85,0,1
193858,-75.7575757575758,4,1,0,85,0,1
193951,-74.6268656716418,4,1,0,85,0,1
194045,-73.5294117647059,4,1,0,85,0,1
194139,-72.463768115942,4,1,0,85,0,1
194233,-70.4225352112676,4,1,0,85,0,1
194326,-69.4444444444444,4,1,0,85,0,1
194420,-68.4931506849315,4,1,0,85,0,1
194610,-66.6666666666667,4,1,0,90,0,0
194983,-95.2380952380952,4,1,0,70,0,0
195108,-95.2380952380952,4,1,0,70,0,0
195170,-96.665429349171,4,1,0,70,0,0
195233,-98.1361973401165,4,1,0,70,0,0
195295,-99.652412385599,4,1,0,70,0,0
195358,-101.216214027758,4,1,0,70,0,0
195545,-106.216535152893,4,1,0,70,0,0
195733,-111.736712549485,4,1,0,70,0,0
195920,-117.861983617184,4,1,0,70,0,0
196108,-125,4,1,0,60,0,0
200608,-125,4,1,0,60,0,0
200795,-121.231224314134,4,1,0,60,0,0
200889,-119.430650204346,4,1,0,60,0,0
200983,-117.682917500744,4,1,0,60,0,0
201170,-114.336545046884,4,1,0,60,0,0
201358,-111.175098556725,4,1,0,60,0,0
201451,-109.65910274729,4,1,0,60,0,0
201545,-108.183895312608,4,1,0,60,0,0
201639,-106.747738015431,4,1,0,60,0,0
201733,-105.349322551181,4,1,0,60,0,0
202108,-95.2380952380952,4,1,0,70,0,0
202295,-105.263157894737,4,1,0,70,0,0
202389,-105.263157894737,4,1,0,70,0,0
202483,-104.652318833755,4,1,0,70,0,0
202670,-103.451557773557,4,1,0,70,0,0
202764,-102.86150418492,4,1,0,70,0,0
202858,-102.278143365319,4,1,0,70,0,0
203045,-101.130947384602,4,1,0,70,0,0
203233,-100.009200846478,4,1,0,70,0,0
203420,-98.9121640201069,4,1,0,70,0,0
203514,-98.3726217189042,4,1,0,70,0,0
203608,-97.8388379094188,4,1,0,73,0,0
203795,-96.7886494015074,4,1,0,73,0,0
203983,-95.7606749212368,4,1,0,73,0,0
204076,-95.2548782404519,4,1,0,73,0,0
204170,-94.7543966040024,4,1,0,73,0,0
204264,-94.2590578241616,4,1,0,73,0,0
204358,-93.7689589113799,4,1,0,76,0,0
204545,-92.8038071833859,4,1,0,76,0,0
204639,-92.3286864305453,4,1,0,76,0,0
204733,-91.858405778996,4,1,0,76,0,0
204920,-90.9319892372898,4,1,0,76,0,0
205108,-82.5891363901775,4,1,0,80,0,0
205389,-88.6958079700279,4,1,0,80,0,0
205483,-88.2617207152024,4,1,0,80,0,0
205670,-87.4060930787485,4,1,0,80,0,0
205858,-86.5668954341157,4,1,0,80,0,0
205951,-86.1533477898651,4,1,0,80,0,0
206045,-85.7437325618684,4,1,0,80,0,0
206139,-85.3379939256416,4,1,0,80,0,0
206233,-84.9360049670576,4,1,0,80,0,0
206420,-84.143424149331,4,1,0,80,0,0
206608,-76.9504239198854,4,1,0,80,0,0
206795,-83.3333333333333,4,1,0,80,0,0
206889,-80.6451612903226,4,1,0,80,0,0
206983,-76.9504239198854,4,1,0,80,0,0
207170,-83.3654290235074,4,1,0,80,0,0
207358,-80,4,1,0,80,0,0
207545,-76.9230769230769,4,1,0,80,0,0
207639,-79.9561840111619,4,1,0,80,0,0
207733,-83.2383029374797,4,1,0,80,0,0
207826,-86.8014113909492,4,1,0,80,0,0
207920,-90.6832072836752,4,1,0,80,0,0
208014,-94.9284476825593,4,1,0,80,0,0
208110,-76.9230769230769,4,1,0,90,0,1
208295,-86.9565217391304,4,1,0,90,0,1
210639,-84.0336134453781,4,1,0,90,0,1
210733,-80,4,1,0,90,0,1
210920,-86.9565217391304,4,1,0,90,0,1
213545,-76.9230769230769,4,1,0,90,0,1
214108,-71.4285714285714,4,1,0,90,0,1
214295,-83.3333333333333,4,1,0,90,0,1
214389,-86.2068965517241,4,1,0,90,0,1
214483,-83.3333333333333,4,1,0,90,0,1
214670,-86.9565217391304,4,1,0,90,0,1
214764,-84.7457627118644,4,1,0,90,0,1
214858,-82.6446280991736,4,1,0,90,0,1
215045,-85.4700854700855,4,1,0,90,0,1
215233,-81.9672131147541,4,1,0,90,0,1
215420,-86.2068965517241,4,1,0,90,0,1
215514,-85.1063829787234,4,1,0,90,0,1
215608,-84.0336134453781,4,1,0,90,0,1
215701,-82.9875518672199,4,1,0,90,0,1
215795,-81.9672131147541,4,1,0,90,0,1
215889,-80.9716599190283,4,1,0,90,0,1
215983,-80,4,1,0,90,0,1
216170,-84.0336134453781,4,1,0,90,0,1
216264,-81.9672131147541,4,1,0,90,0,1
216358,-80,4,1,0,90,0,1
216545,-82.6446280991736,4,1,0,90,0,1
216733,-79.3650793650794,4,1,0,90,0,1
216920,-82.6446280991736,4,1,0,90,0,1
217014,-80.6451612903226,4,1,0,90,0,1
217108,-78.7401574803149,4,1,0,90,0,1
217389,-80.6451612903226,4,1,0,90,0,1
217483,-78.125,4,1,0,90,0,1
217670,-81.3008130081301,4,1,0,90,0,1
217764,-79.3650793650794,4,1,0,90,0,1
217858,-77.5193798449612,4,1,0,90,0,1
218045,-80.6451612903226,4,1,0,90,0,1
218139,-78.7401574803149,4,1,0,90,0,1
218233,-76.9230769230769,4,1,0,90,0,1
218420,-79.3650793650794,4,1,0,90,0,1
218608,-76.3358778625954,4,1,0,90,0,1
218795,-79.3650793650794,4,1,0,90,0,1
218889,-77.5193798449612,4,1,0,90,0,1
218983,-75.7575757575758,4,1,0,90,0,1
219170,-77.5193798449612,4,1,0,90,0,1
219264,-76.3358778625954,4,1,0,90,0,1
219358,-75.187969924812,4,1,0,90,0,1
219451,-74.0740740740741,4,1,0,90,0,1
219545,-72.992700729927,4,1,0,90,0,1
219639,-71.9424460431655,4,1,0,90,0,1
219733,-70.9219858156028,4,1,0,90,0,1
219826,-69.9300699300699,4,1,0,90,0,1
219920,-68.9655172413793,4,1,0,90,0,1
220014,-68.0272108843537,4,1,0,90,0,1
220110,-67.1140939597315,4,1,0,90,0,0
220201,-100,4,1,0,60,0,0
221608,-100,4,1,0,60,0,0
221795,-111.111111111111,4,1,0,60,0,0
227514,-108.108108108108,4,1,0,60,0,0
227608,-105.263157894737,4,1,0,60,0,0
227795,-111.111111111111,4,1,0,60,0,0
230983,-111.111111111111,4,1,0,60,0,0
231170,-110.238755095786,4,1,0,60,0,0
231264,-109.807814363301,4,1,0,60,0,0
231358,-109.380110102019,4,1,0,60,0,0
231545,-108.53461983036,4,1,0,60,0,0
231733,-107.702100298658,4,1,0,60,0,0
231826,-107.290726755196,4,1,0,60,0,0
231920,-106.88236953938,4,1,0,60,0,0
232014,-106.477109018718,4,1,0,60,0,0
232108,-106.074910101514,4,1,0,60,0,0
232295,-105.279559341876,4,1,0,60,0,0
232483,-104.496156108898,4,1,0,60,0,0
232670,-103.724218049051,4,1,0,60,0,0
232764,-103.342510148234,4,1,0,60,0,0
232858,-102.963601337291,4,1,0,60,0,0
233045,-102.21416320331,4,1,0,60,0,0
233233,-101.475453087898,4,1,0,60,0,0
233420,-100.747343796281,4,1,0,60,0,0
233608,-95.2380952380952,4,1,0,70,0,0
233795,-100,4,1,0,70,0,0
239608,-95.2380952380952,4,1,0,70,0,0
239701,-100,4,1,0,70,0,0
245233,-90.9090909090909,4,1,0,70,0,0

[HitObjects]
276,222,860,5,8,0:0:0:0:
276,222,922,1,8,0:0:0:0:
276,222,985,1,0,0:0:0:0:
276,222,1047,1,0,0:0:0:0:
276,222,1110,1,8,0:0:0:0:
276,222,1672,1,0,0:0:0:0:
276,222,1860,1,8,0:0:0:0:
276,222,2422,1,8,0:0:0:0:
276,222,2610,1,0,0:0:0:0:
271,191,2797,1,8,0:0:0:0:
247,194,2985,1,0,0:0:0:0:
224,172,3172,1,8,0:0:0:0:
226,156,3235,1,0,0:0:0:0:
226,156,3297,1,0,0:0:0:0:
200,149,3360,1,8,0:0:0:0:
259,184,4110,1,8,0:0:0:0:
259,184,4297,1,8,0:0:0:0:
249,181,4485,1,0,0:0:0:0:
259,184,4672,1,0,0:0:0:0:
259,184,4860,1,8,0:0:0:0:
253,164,5422,1,0,0:0:0:0:
253,164,5610,1,8,0:0:0:0:
253,164,5797,1,0,0:0:0:0:
253,164,5985,1,8,0:0:0:0:
253,164,6172,1,0,0:0:0:0:
331,56,6235,1,0,0:0:0:0:
331,56,6297,1,0,0:0:0:0:
253,164,6360,1,8,0:0:0:0:
131,158,7110,1,12,0:0:0:0:
376,124,7485,1,0,0:0:0:0:
376,124,7672,1,0,0:0:0:0:
376,124,7860,1,8,0:0:0:0:
376,124,8047,1,8,0:0:0:0:
376,124,8235,1,0,0:0:0:0:
376,124,8422,1,8,0:0:0:0:
231,27,8516,1,0,0:0:0:0:
196,27,8610,1,8,0:0:0:0:
376,124,8797,1,8,0:0:0:0:
376,124,8985,1,0,0:0:0:0:
304,38,9172,1,0,0:0:0:0:
274,28,9266,1,0,0:0:0:0:
325,85,9360,1,8,0:0:0:0:
325,12,9547,1,8,0:0:0:0:
246,65,9735,1,8,0:0:0:0:
246,65,9922,1,0,0:0:0:0:
183,67,10110,1,12,0:0:0:0:
240,199,10485,1,0,0:0:0:0:
240,199,10672,1,0,0:0:0:0:
240,199,10860,1,8,0:0:0:0:
240,199,11047,1,8,0:0:0:0:
293,86,11235,1,0,0:0:0:0:
271,155,11422,1,0,0:0:0:0:
271,155,11516,1,0,0:0:0:0:
271,155,11610,1,8,0:0:0:0:
338,51,11797,1,0,0:0:0:0:
338,54,11985,1,12,0:0:0:0:
338,51,12360,1,0,0:0:0:0:
338,51,12547,1,8,0:0:0:0:
338,51,12641,1,8,0:0:0:0:
338,51,12735,1,8,0:0:0:0:
338,51,12828,1,8,0:0:0:0:
338,51,12922,1,8,0:0:0:0:
338,51,13016,1,8,0:0:0:0:
338,51,13110,1,4,0:0:0:0:
94,176,13485,1,0,0:0:0:0:
94,176,13672,1,8,0:0:0:0:
94,176,13860,1,0,0:0:0:0:
94,176,14235,1,0,0:0:0:0:
94,176,14422,1,0,0:0:0:0:
94,176,14610,1,8,0:0:0:0:
94,176,14985,1,0,0:0:0:0:
94,176,15172,1,8,0:0:0:0:
94,176,15360,1,0,0:0:0:0:
94,176,15547,1,8,0:0:0:0:
94,176,15641,1,8,0:0:0:0:
273,265,15735,1,0,0:0:0:0:
273,265,15922,1,8,0:0:0:0:
273,265,16016,1,0,0:0:0:0:
272,188,16110,1,8,0:0:0:0:
273,264,16391,1,0,0:0:0:0:
272,188,16485,1,8,0:0:0:0:
251,212,16672,1,8,0:0:0:0:
251,212,16860,1,0,0:0:0:0:
274,188,17047,1,8,0:0:0:0:
251,212,17141,1,0,0:0:0:0:
274,188,17235,1,8,0:0:0:0:
274,188,17422,1,0,0:0:0:0:
285,158,17485,1,0,0:0:0:0:
284,157,17547,1,0,0:0:0:0:
274,188,17610,1,8,0:0:0:0:
282,150,17985,1,0,0:0:0:0:
282,150,18172,1,8,0:0:0:0:
282,150,18266,1,8,0:0:0:0:
193,187,18360,1,0,0:0:0:0:
193,187,18641,1,0,0:0:0:0:
193,187,18735,1,0,0:0:0:0:
208,182,18922,1,0,0:0:0:0:
208,182,19110,1,8,0:0:0:0:
94,176,19485,1,0,0:0:0:0:
94,176,19672,1,8,0:0:0:0:
94,176,19860,1,0,0:0:0:0:
273,141,20141,1,0,0:0:0:0:
94,176,20235,1,0,0:0:0:0:
94,176,20422,1,8,0:0:0:0:
217,192,20485,1,0,0:0:0:0:
217,192,20547,1,0,0:0:0:0:
94,176,20610,1,8,0:0:0:0:
94,176,20985,1,0,0:0:0:0:
94,176,21172,1,8,0:0:0:0:
94,176,21360,1,0,0:0:0:0:
273,140,21641,1,0,0:0:0:0:
273,265,21735,1,0,0:0:0:0:
273,265,21922,1,8,0:0:0:0:
273,265,22016,1,0,0:0:0:0:
272,188,22110,1,8,0:0:0:0:
273,264,22391,1,0,0:0:0:0:
272,188,22485,1,8,0:0:0:0:
251,212,22672,1,8,0:0:0:0:
251,212,22860,1,0,0:0:0:0:
274,188,23047,1,8,0:0:0:0:
251,212,23141,1,0,0:0:0:0:
274,188,23235,1,8,0:0:0:0:
274,188,23422,1,0,0:0:0:0:
285,158,23485,1,0,0:0:0:0:
284,157,23547,1,0,0:0:0:0:
274,188,23610,1,8,0:0:0:0:
282,150,23985,1,0,0:0:0:0:
282,150,24266,1,0,0:0:0:0:
193,187,24360,1,8,0:0:0:0:
193,187,24547,1,0,0:0:0:0:
193,187,24735,1,8,0:0:0:0:
208,182,24922,1,8,0:0:0:0:
208,182,25110,1,4,0:0:0:0:
367,210,25391,1,0,0:0:0:0:
208,131,25485,1,8,0:0:0:0:
208,131,25860,1,0,0:0:0:0:
208,131,26047,1,0,0:0:0:0:
208,131,26235,1,8,0:0:0:0:
323,165,26422,1,8,0:0:0:0:
323,165,26516,1,8,0:0:0:0:
208,131,26610,1,0,0:0:0:0:
208,131,26985,1,8,0:0:0:0:
410,118,27360,1,8,0:0:0:0:
208,131,27547,1,0,0:0:0:0:
208,131,27735,1,8,0:0:0:0:
410,118,27922,1,8,0:0:0:0:
288,261,28016,1,0,0:0:0:0:
288,261,28110,1,8,0:0:0:0:
229,163,28391,1,0,0:0:0:0:
214,131,28485,1,8,0:0:0:0:
258,64,28672,1,8,0:0:0:0:
407,120,28860,1,0,0:0:0:0:
214,131,29047,1,8,0:0:0:0:
258,64,29141,1,0,0:0:0:0:
214,131,29235,1,8,0:0:0:0:
214,131,29422,1,8,0:0:0:0:
214,131,29610,1,0,0:0:0:0:
285,178,29985,1,8,0:0:0:0:
263,60,30360,1,0,0:0:0:0:
285,178,30547,1,0,0:0:0:0:
285,178,30735,1,8,0:0:0:0:
285,178,30922,1,8,0:0:0:0:
288,261,31016,1,8,0:0:0:0:
285,178,31110,1,4,0:0:0:0:
191,212,31391,1,0,0:0:0:0:
299,187,31485,1,8,0:0:0:0:
272,35,31672,1,8,0:0:0:0:
271,35,31860,1,0,0:0:0:0:
314,269,31953,1,0,0:0:0:0:
231,163,32047,1,0,0:0:0:0:
314,269,32141,1,0,0:0:0:0:
271,35,32235,1,8,0:0:0:0:
398,272,32422,1,8,0:0:0:0:
266,73,32610,1,0,0:0:0:0:
265,180,32891,1,0,0:0:0:0:
231,163,32985,1,8,0:0:0:0:
266,73,33172,1,8,0:0:0:0:
266,73,33360,1,0,0:0:0:0:
400,133,33453,1,8,0:0:0:0:
231,163,33547,1,0,0:0:0:0:
401,133,33641,1,0,0:0:0:0:
266,73,33735,1,8,0:0:0:0:
289,140,33922,1,0,0:0:0:0:
357,79,34016,1,8,0:0:0:0:
266,73,34110,1,0,0:0:0:0:
295,201,34391,1,0,0:0:0:0:
231,163,34485,1,8,0:0:0:0:
266,73,34672,1,8,0:0:0:0:
266,73,34860,1,0,0:0:0:0:
321,126,34953,1,0,0:0:0:0:
321,126,35047,1,0,0:0:0:0:
314,269,35141,1,0,0:0:0:0:
266,73,35235,1,8,0:0:0:0:
412,83,35422,1,0,0:0:0:0:
411,77,35516,1,8,0:0:0:0:
266,73,35610,1,0,0:0:0:0:
79,186,35797,1,0,0:0:0:0:
412,147,35891,1,0,0:0:0:0:
231,163,35985,1,8,0:0:0:0:
266,73,36172,1,0,0:0:0:0:
374,88,36360,1,8,0:0:0:0:
352,126,36453,1,8,0:0:0:0:
355,230,36547,1,0,0:0:0:0:
355,230,36641,1,8,0:0:0:0:
355,230,36735,1,0,0:0:0:0:
355,230,36828,1,0,0:0:0:0:
355,230,36922,1,8,0:0:0:0:
355,230,37016,1,0,0:0:0:0:
266,73,37110,1,12,0:0:0:0:
235,88,37297,1,0,0:0:0:0:
414,311,37391,1,8,0:0:0:0:
414,311,37485,1,0,0:0:0:0:
462,128,37672,1,8,0:0:0:0:
359,129,37860,1,8,0:0:0:0:
202,144,38235,1,0,0:0:0:0:
188,141,38328,1,0,0:0:0:0:
196,143,38422,1,0,0:0:0:0:
408,152,38516,1,0,0:0:0:0:
405,153,38610,1,8,0:0:0:0:
223,38,38797,1,0,0:0:0:0:
224,42,38985,1,8,0:0:0:0:
342,290,39172,1,8,0:0:0:0:
342,290,39266,1,0,0:0:0:0:
359,129,39360,1,8,0:0:0:0:
342,290,39547,1,8,0:0:0:0:
271,60,39641,1,0,0:0:0:0:
342,290,39735,1,8,0:0:0:0:
271,60,39828,1,8,0:0:0:0:
342,290,39922,1,0,0:0:0:0:
359,129,40110,1,8,0:0:0:0:
250,169,40297,1,8,0:0:0:0:
250,169,40391,1,0,0:0:0:0:
250,169,40485,1,8,0:0:0:0:
250,169,40672,1,0,0:0:0:0:
359,129,40860,1,8,0:0:0:0:
253,167,41235,1,8,0:0:0:0:
253,167,41328,1,8,0:0:0:0:
253,167,41422,1,0,0:0:0:0:
253,167,41516,1,0,0:0:0:0:
253,167,41610,1,8,0:0:0:0:
275,111,41797,1,0,0:0:0:0:
275,111,41985,1,8,0:0:0:0:
312,201,42172,1,0,0:0:0:0:
119,164,42266,1,0,0:0:0:0:
359,129,42360,1,12,0:0:0:0:
428,176,42547,1,0,0:0:0:0:
359,129,42735,1,12,0:0:0:0:
414,176,43110,1,4,0:0:0:0:
256,241,43391,1,8,0:0:0:0:
399,233,43485,1,0,0:0:0:0:
256,241,43672,1,8,0:0:0:0:
237,157,43860,1,0,0:0:0:0:
237,157,43953,1,8,0:0:0:0:
256,241,44047,1,0,0:0:0:0:
321,119,44141,1,0,0:0:0:0:
256,241,44235,1,8,0:0:0:0:
256,241,44422,1,8,0:0:0:0:
256,241,44516,1,8,0:0:0:0:
258,240,44610,1,0,0:0:0:0:
248,159,44891,1,0,0:0:0:0:
257,234,44985,1,8,0:0:0:0:
249,159,45172,1,0,0:0:0:0:
252,159,45266,1,0,0:0:0:0:
249,159,45360,1,8,0:0:0:0:
249,159,45453,1,8,0:0:0:0:
257,234,45547,1,0,0:0:0:0:
257,234,45641,1,0,0:0:0:0:
257,234,45735,1,8,0:0:0:0:
257,234,45922,1,0,0:0:0:0:
257,234,46110,1,12,0:0:0:0:
315,67,46391,1,8,0:0:0:0:
300,155,46485,1,0,0:0:0:0:
315,67,46672,1,8,0:0:0:0:
300,155,46860,1,8,0:0:0:0:
300,155,46953,1,8,0:0:0:0:
300,155,47047,1,0,0:0:0:0:
300,157,47141,1,0,0:0:0:0:
344,188,47235,1,8,0:0:0:0:
216,161,47422,1,0,0:0:0:0:
216,161,47516,1,0,0:0:0:0:
301,158,47610,1,8,0:0:0:0:
301,158,47891,1,0,0:0:0:0:
344,183,47985,1,8,0:0:0:0:
344,183,48172,1,8,0:0:0:0:
344,183,48266,1,0,0:0:0:0:
344,183,48360,1,8,0:0:0:0:
344,183,48453,1,8,0:0:0:0:
343,74,48547,1,0,0:0:0:0:
264,247,48735,1,8,0:0:0:0:
292,11,48922,1,0,0:0:0:0:
344,183,49110,1,12,0:0:0:0:
262,246,49297,1,0,0:0:0:0:
262,246,49391,1,0,0:0:0:0:
446,138,49485,1,8,0:0:0:0:
262,246,49672,1,8,0:0:0:0:
262,246,49766,1,0,0:0:0:0:
262,246,49860,1,8,0:0:0:0:
262,246,49953,1,8,0:0:0:0:
262,246,50047,1,0,0:0:0:0:
262,246,50141,1,0,0:0:0:0:
444,138,50235,1,8,0:0:0:0:
444,138,50422,1,8,0:0:0:0:
300,209,50516,1,8,0:0:0:0:
443,138,50610,1,0,0:0:0:0:
296,217,50953,1,8,0:0:0:0:
232,207,50985,1,8,0:0:0:0:
232,207,51735,1,0,0:0:0:0:
182,189,52110,1,4,0:0:0:0:
340,264,52391,1,0,0:0:0:0:
340,264,52485,1,8,0:0:0:0:
340,264,52672,1,8,0:0:0:0:
340,264,52860,1,0,0:0:0:0:
340,264,52953,1,0,0:0:0:0:
340,264,53047,1,0,0:0:0:0:
340,264,53141,1,0,0:0:0:0:
340,264,53235,1,8,0:0:0:0:
283,111,53422,1,8,0:0:0:0:
340,264,53516,1,0,0:0:0:0:
340,264,53610,1,8,0:0:0:0:
340,264,53797,1,0,0:0:0:0:
283,111,53985,1,8,0:0:0:0:
340,264,54078,1,0,0:0:0:0:
283,107,54172,1,8,0:0:0:0:
340,264,54266,1,8,0:0:0:0:
283,111,54360,1,0,0:0:0:0:
300,174,54547,1,0,0:0:0:0:
224,173,54641,1,0,0:0:0:0:
283,107,54735,1,12,0:0:0:0:
418,70,55110,1,8,0:0:0:0:
418,70,55297,1,0,0:0:0:0:
418,70,55485,1,8,0:0:0:0:
418,66,55672,1,8,0:0:0:0:
343,224,55766,1,0,0:0:0:0:
418,66,55860,1,8,0:0:0:0:
343,224,56047,1,0,0:0:0:0:
343,224,56235,1,8,0:0:0:0:
343,224,56422,1,8,0:0:0:0:
343,224,56516,1,8,0:0:0:0:
418,66,56610,1,0,0:0:0:0:
420,62,56797,1,0,0:0:0:0:
420,62,56985,1,8,0:0:0:0:
343,224,57078,1,8,0:0:0:0:
343,224,57172,1,8,0:0:0:0:
343,224,57266,1,8,0:0:0:0:
420,62,57360,1,0,0:0:0:0:
420,62,57547,1,12,0:0:0:0:
420,62,57735,1,12,0:0:0:0:
264,83,58110,1,4,0:0:0:0:
288,207,58297,1,0,0:0:0:0:
288,207,58391,1,0,0:0:0:0:
338,85,58485,1,8,0:0:0:0:
119,142,58672,1,0,0:0:0:0:
273,265,58766,1,8,0:0:0:0:
334,81,58860,1,0,0:0:0:0:
332,81,59047,1,8,0:0:0:0:
365,249,59235,1,0,0:0:0:0:
331,79,59422,1,8,0:0:0:0:
155,163,59516,1,8,0:0:0:0:
331,79,59610,1,0,0:0:0:0:
376,206,59891,1,0,0:0:0:0:
331,78,59985,1,8,0:0:0:0:
237,159,60172,1,8,0:0:0:0:
376,206,60266,1,8,0:0:0:0:
329,75,60360,1,0,0:0:0:0:
382,213,60547,1,0,0:0:0:0:
382,213,60641,1,0,0:0:0:0:
329,75,60735,1,8,0:0:0:0:
382,213,60922,1,0,0:0:0:0:
328,74,61110,1,8,0:0:0:0:
382,213,61391,1,0,0:0:0:0:
382,213,61485,1,8,0:0:0:0:
328,74,61672,1,8,0:0:0:0:
258,161,61766,1,0,0:0:0:0:
321,68,61860,1,8,0:0:0:0:
269,212,61953,1,8,0:0:0:0:
269,212,62047,1,0,0:0:0:0:
269,212,62141,1,0,0:0:0:0:
321,68,62235,1,8,0:0:0:0:
321,68,62422,1,8,0:0:0:0:
292,218,62516,1,0,0:0:0:0:
321,68,62610,1,0,0:0:0:0:
372,145,62797,1,8,0:0:0:0:
320,68,62985,1,8,0:0:0:0:
320,68,63172,1,0,0:0:0:0:
374,220,63266,1,0,0:0:0:0:
320,68,63360,1,8,0:0:0:0:
320,68,63547,1,8,0:0:0:0:
217,132,63641,1,0,0:0:0:0:
217,132,63735,1,8,0:0:0:0:
217,132,63828,1,8,0:0:0:0:
217,132,63922,1,0,0:0:0:0:
217,132,64016,1,0,0:0:0:0:
161,152,64110,1,12,0:0:0:0:
340,264,64391,1,0,0:0:0:0:
340,264,64485,1,8,0:0:0:0:
340,264,64672,1,8,0:0:0:0:
340,264,64860,1,0,0:0:0:0:
340,264,64953,1,0,0:0:0:0:
340,264,65047,1,0,0:0:0:0:
340,264,65141,1,0,0:0:0:0:
340,264,65235,1,8,0:0:0:0:
283,111,65422,1,8,0:0:0:0:
340,264,65516,1,8,0:0:0:0:
340,264,65610,1,0,0:0:0:0:
340,264,65797,1,0,0:0:0:0:
283,111,65985,1,8,0:0:0:0:
340,264,66078,1,0,0:0:0:0:
283,107,66172,1,8,0:0:0:0:
340,264,66266,1,8,0:0:0:0:
283,111,66360,1,0,0:0:0:0:
300,174,66547,1,0,0:0:0:0:
224,173,66641,1,0,0:0:0:0:
283,107,66735,1,12,0:0:0:0:
416,68,67110,1,8,0:0:0:0:
416,68,67297,1,0,0:0:0:0:
416,68,67485,1,8,0:0:0:0:
416,64,67672,1,8,0:0:0:0:
416,64,67766,1,0,0:0:0:0:
341,222,67860,1,8,0:0:0:0:
341,222,68047,1,0,0:0:0:0:
341,222,68235,1,8,0:0:0:0:
341,222,68328,1,8,0:0:0:0:
341,222,68422,1,0,0:0:0:0:
341,222,68610,1,8,0:0:0:0:
418,60,68797,1,8,0:0:0:0:
418,60,68891,1,0,0:0:0:0:
418,60,68985,1,8,0:0:0:0:
341,222,69078,1,0,0:0:0:0:
341,222,69172,1,8,0:0:0:0:
341,222,69266,1,8,0:0:0:0:
418,60,69360,1,0,0:0:0:0:
420,62,69547,1,12,0:0:0:0:
420,62,69735,1,12,0:0:0:0:
264,83,70110,1,4,0:0:0:0:
122,176,70391,1,0,0:0:0:0:
242,174,70485,1,8,0:0:0:0:
323,137,70672,1,0,0:0:0:0:
324,137,70766,1,0,0:0:0:0:
324,139,70860,1,8,0:0:0:0:
322,138,71047,1,0,0:0:0:0:
322,138,71235,1,8,0:0:0:0:
392,187,71422,1,8,0:0:0:0:
326,135,71516,1,0,0:0:0:0:
326,135,71610,1,8,0:0:0:0:
326,135,71703,1,8,0:0:0:0:
327,134,71797,1,0,0:0:0:0:
327,134,71891,1,0,0:0:0:0:
328,133,71985,1,8,0:0:0:0:
268,78,72172,1,0,0:0:0:0:
328,133,72266,1,0,0:0:0:0:
328,133,72360,1,8,0:0:0:0:
194,88,72547,1,0,0:0:0:0:
328,133,72735,1,8,0:0:0:0:
203,88,72922,1,8,0:0:0:0:
203,88,73016,1,0,0:0:0:0:
203,88,73110,1,12,0:0:0:0:
337,86,73391,1,0,0:0:0:0:
337,86,73485,1,8,0:0:0:0:
337,86,73672,1,8,0:0:0:0:
296,210,73766,1,8,0:0:0:0:
337,86,73860,1,0,0:0:0:0:
337,86,74047,1,8,0:0:0:0:
337,86,74141,1,0,0:0:0:0:
337,86,74235,1,8,0:0:0:0:
337,86,74422,1,0,0:0:0:0:
337,86,74610,1,8,0:0:0:0:
337,86,74703,1,0,0:0:0:0:
302,178,74797,1,0,0:0:0:0:
302,178,74891,1,0,0:0:0:0:
302,178,74985,1,8,0:0:0:0:
331,125,75172,1,0,0:0:0:0:
331,125,75360,1,8,0:0:0:0:
331,125,75453,1,8,0:0:0:0:
414,99,75547,1,0,0:0:0:0:
267,59,75641,1,0,0:0:0:0:
262,61,75735,1,8,0:0:0:0:
267,59,75828,1,0,0:0:0:0:
267,59,75922,1,8,0:0:0:0:
264,49,76016,1,8,0:0:0:0:
264,49,76110,1,0,0:0:0:0:
191,297,77610,1,4,0:0:0:0:
256,224,77797,1,0,0:0:0:0:
303,85,77985,1,8,0:0:0:0:
256,224,78172,1,8,0:0:0:0:
159,216,78266,1,8,0:0:0:0:
302,84,78360,1,0,0:0:0:0:
301,83,78547,1,0,0:0:0:0:
300,83,78922,1,8,0:0:0:0:
288,96,79297,1,0,0:0:0:0:
288,96,79485,1,8,0:0:0:0:
172,216,79672,1,8,0:0:0:0:
172,216,79766,1,8,0:0:0:0:
288,96,79860,1,0,0:0:0:0:
288,96,80047,1,0,0:0:0:0:
288,64,80235,1,8,0:0:0:0:
256,128,80422,1,8,0:0:0:0:
352,128,80485,1,0,0:0:0:0:
352,128,80547,1,0,0:0:0:0:
256,128,80610,1,8,0:0:0:0:
352,128,80797,1,0,0:0:0:0:
256,128,80985,1,8,0:0:0:0:
352,128,81172,1,8,0:0:0:0:
256,128,81360,1,0,0:0:0:0:
256,128,81547,1,0,0:0:0:0:
256,128,81922,1,8,0:0:0:0:
288,64,82297,1,0,0:0:0:0:
256,128,82485,1,8,0:0:0:0:
288,96,82672,1,0,0:0:0:0:
448,160,82766,1,0,0:0:0:0:
288,96,82860,1,8,0:0:0:0:
288,96,83047,1,0,0:0:0:0:
288,96,83235,1,8,0:0:0:0:
288,96,83422,1,8,0:0:0:0:
448,160,83485,1,8,0:0:0:0:
448,160,83547,1,8,0:0:0:0:
288,96,83610,1,0,0:0:0:0:
416,160,83797,1,0,0:0:0:0:
288,96,83985,1,8,0:0:0:0:
384,128,84172,1,8,0:0:0:0:
126,179,84266,1,8,0:0:0:0:
288,96,84360,1,0,0:0:0:0:
288,96,84547,1,0,0:0:0:0:
288,96,84922,1,8,0:0:0:0:
288,96,85297,1,0,0:0:0:0:
288,96,85485,1,8,0:0:0:0:
384,128,85672,1,8,0:0:0:0:
352,96,85766,1,8,0:0:0:0:
288,96,85860,1,0,0:0:0:0:
288,96,86047,1,0,0:0:0:0:
288,96,86235,1,8,0:0:0:0:
288,96,86422,1,8,0:0:0:0:
448,32,86485,1,0,0:0:0:0:
448,64,86547,1,0,0:0:0:0:
448,32,86610,1,8,0:0:0:0:
416,96,86797,1,0,0:0:0:0:
288,96,86985,1,8,0:0:0:0:
352,192,87172,1,8,0:0:0:0:
288,96,87360,1,0,0:0:0:0:
288,96,87547,1,0,0:0:0:0:
288,96,87922,1,8,0:0:0:0:
288,96,88297,1,0,0:0:0:0:
288,96,88485,1,8,0:0:0:0:
288,96,88860,1,8,0:0:0:0:
288,96,89047,1,0,0:0:0:0:
288,96,89235,1,8,0:0:0:0:
288,96,89422,1,8,0:0:0:0:
288,96,89610,1,0,0:0:0:0:
288,96,89985,1,12,0:0:0:0:
231,275,90360,1,0,0:0:0:0:
231,275,90547,1,0,0:0:0:0:
231,275,90922,1,8,0:0:0:0:
210,125,91110,1,8,0:0:0:0:
231,275,91297,1,0,0:0:0:0:
198,183,91391,1,0,0:0:0:0:
231,275,91485,1,8,0:0:0:0:
231,275,91672,1,8,0:0:0:0:
231,275,91860,1,0,0:0:0:0:
321,176,92047,1,8,0:0:0:0:
321,176,92141,1,0,0:0:0:0:
321,176,92235,1,8,0:0:0:0:
245,97,92422,1,8,0:0:0:0:
258,4,92516,1,8,0:0:0:0:
231,275,92610,1,0,0:0:0:0:
161,145,92891,1,0,0:0:0:0:
234,240,92985,1,8,0:0:0:0:
234,240,93172,1,8,0:0:0:0:
234,240,93360,1,0,0:0:0:0:
265,103,93547,1,8,0:0:0:0:
97,131,93641,1,0,0:0:0:0:
265,114,93735,1,8,0:0:0:0:
262,153,93922,1,8,0:0:0:0:
173,156,93985,1,8,0:0:0:0:
173,156,94047,1,8,0:0:0:0:
262,153,94110,1,0,0:0:0:0:
318,178,94297,1,0,0:0:0:0:
318,178,94485,1,8,0:0:0:0:
318,178,94860,1,0,0:0:0:0:
318,178,95047,1,0,0:0:0:0:
318,178,95235,1,8,0:0:0:0:
318,178,95422,1,8,0:0:0:0:
318,178,95516,1,8,0:0:0:0:
318,178,95610,1,0,0:0:0:0:
288,96,95985,1,12,0:0:0:0:
231,275,96360,1,0,0:0:0:0:
231,275,96547,1,0,0:0:0:0:
231,275,96922,1,8,0:0:0:0:
210,125,97110,1,8,0:0:0:0:
231,275,97297,1,0,0:0:0:0:
198,183,97391,1,0,0:0:0:0:
231,275,97485,1,8,0:0:0:0:
231,275,97672,1,8,0:0:0:0:
231,275,97860,1,0,0:0:0:0:
321,176,98047,1,8,0:0:0:0:
184,113,98141,1,0,0:0:0:0:
321,176,98235,1,8,0:0:0:0:
245,97,98422,1,8,0:0:0:0:
258,4,98485,1,8,0:0:0:0:
258,4,98547,1,8,0:0:0:0:
231,275,98610,1,0,0:0:0:0:
161,145,98891,1,0,0:0:0:0:
234,240,98985,1,8,0:0:0:0:
234,240,99172,1,8,0:0:0:0:
234,240,99360,1,0,0:0:0:0:
265,103,99547,1,8,0:0:0:0:
97,131,99641,1,0,0:0:0:0:
265,114,99735,1,8,0:0:0:0:
262,153,99922,1,0,0:0:0:0:
173,156,99985,1,0,0:0:0:0:
173,156,100047,1,0,0:0:0:0:
262,153,100110,1,8,0:0:0:0:
318,178,100297,1,0,0:0:0:0:
318,178,100485,1,8,0:0:0:0:
318,178,100860,1,8,0:0:0:0:
191,185,101047,1,0,0:0:0:0:
191,185,101235,1,8,0:0:0:0:
206,180,101422,1,8,0:0:0:0:
206,180,101610,1,4,0:0:0:0:
365,208,101891,1,0,0:0:0:0:
206,129,101985,1,8,0:0:0:0:
206,129,102360,1,8,0:0:0:0:
206,129,102547,1,0,0:0:0:0:
206,129,102735,1,8,0:0:0:0:
321,163,102922,1,8,0:0:0:0:
321,163,103016,1,8,0:0:0:0:
206,129,103110,1,0,0:0:0:0:
206,129,103485,1,8,0:0:0:0:
408,116,103860,1,0,0:0:0:0:
206,129,104047,1,0,0:0:0:0:
206,129,104235,1,8,0:0:0:0:
408,116,104422,1,0,0:0:0:0:
286,259,104516,1,0,0:0:0:0:
286,259,104610,1,8,0:0:0:0:
227,161,104891,1,0,0:0:0:0:
212,129,104985,1,8,0:0:0:0:
256,62,105172,1,8,0:0:0:0:
405,118,105360,1,0,0:0:0:0:
212,129,105547,1,8,0:0:0:0:
256,62,105641,1,0,0:0:0:0:
212,129,105735,1,8,0:0:0:0:
212,129,105922,1,8,0:0:0:0:
212,129,106110,1,0,0:0:0:0:
283,176,106485,1,8,0:0:0:0:
261,58,106672,1,8,0:0:0:0:
261,58,106735,1,8,0:0:0:0:
261,58,106797,1,8,0:0:0:0:
261,58,106860,1,0,0:0:0:0:
283,176,107047,1,0,0:0:0:0:
283,176,107235,1,8,0:0:0:0:
283,176,107422,1,0,0:0:0:0:
286,259,107516,1,8,0:0:0:0:
283,176,107610,1,4,0:0:0:0:
189,210,107891,1,0,0:0:0:0:
297,185,107985,1,8,0:0:0:0:
270,33,108172,1,8,0:0:0:0:
269,33,108360,1,0,0:0:0:0:
312,267,108453,1,8,0:0:0:0:
229,161,108547,1,0,0:0:0:0:
312,267,108641,1,0,0:0:0:0:
269,33,108735,1,8,0:0:0:0:
396,270,108922,1,8,0:0:0:0:
264,71,109110,1,0,0:0:0:0:
263,178,109391,1,0,0:0:0:0:
229,161,109485,1,8,0:0:0:0:
264,71,109672,1,8,0:0:0:0:
264,71,109860,1,0,0:0:0:0:
398,131,109953,1,0,0:0:0:0:
229,161,110047,1,0,0:0:0:0:
399,131,110141,1,0,0:0:0:0:
264,71,110235,1,8,0:0:0:0:
287,138,110422,1,0,0:0:0:0:
355,77,110516,1,8,0:0:0:0:
264,71,110610,1,0,0:0:0:0:
293,199,110891,1,0,0:0:0:0:
229,161,110985,1,8,0:0:0:0:
264,71,111172,1,8,0:0:0:0:
264,71,111360,1,0,0:0:0:0:
319,124,111453,1,8,0:0:0:0:
319,124,111547,1,0,0:0:0:0:
312,267,111641,1,0,0:0:0:0:
264,71,111735,1,8,0:0:0:0:
410,81,111922,1,0,0:0:0:0:
409,75,112016,1,8,0:0:0:0:
264,71,112110,1,0,0:0:0:0:
77,184,112297,1,8,0:0:0:0:
410,145,112391,1,0,0:0:0:0:
229,161,112485,1,8,0:0:0:0:
229,161,112578,1,8,0:0:0:0:
264,71,112672,1,0,0:0:0:0:
372,86,112860,1,8,0:0:0:0:
350,124,112953,1,8,0:0:0:0:
353,228,113047,1,0,0:0:0:0:
353,228,113141,1,8,0:0:0:0:
353,228,113234,1,0,0:0:0:0:
353,228,113328,1,0,0:0:0:0:
353,228,113422,1,8,0:0:0:0:
353,228,113516,1,0,0:0:0:0:
264,71,113610,1,12,0:0:0:0:
233,86,113797,1,0,0:0:0:0:
412,309,113891,1,8,0:0:0:0:
412,309,113985,1,0,0:0:0:0:
460,126,114172,1,8,0:0:0:0:
357,127,114360,1,12,0:0:0:0:
200,142,114735,1,8,0:0:0:0:
186,139,114828,1,8,0:0:0:0:
194,141,114922,1,0,0:0:0:0:
406,150,115016,1,0,0:0:0:0:
403,151,115110,1,8,0:0:0:0:
221,36,115297,1,0,0:0:0:0:
222,40,115485,1,8,0:0:0:0:
340,288,115672,1,8,0:0:0:0:
340,288,115735,1,0,0:0:0:0:
340,288,115797,1,0,0:0:0:0:
357,127,115860,1,8,0:0:0:0:
340,288,116047,1,8,0:0:0:0:
269,58,116141,1,0,0:0:0:0:
340,288,116235,1,8,0:0:0:0:
269,58,116328,1,8,0:0:0:0:
340,288,116422,1,0,0:0:0:0:
357,127,116610,1,8,0:0:0:0:
248,167,116797,1,8,0:0:0:0:
248,167,116891,1,0,0:0:0:0:
248,167,116985,1,8,0:0:0:0:
248,167,117172,1,0,0:0:0:0:
357,127,117360,1,8,0:0:0:0:
251,165,117735,1,0,0:0:0:0:
251,165,117828,1,0,0:0:0:0:
251,165,117922,1,0,0:0:0:0:
251,165,118016,1,0,0:0:0:0:
251,165,118110,1,8,0:0:0:0:
273,109,118297,1,0,0:0:0:0:
273,109,118485,1,8,0:0:0:0:
310,199,118672,1,0,0:0:0:0:
117,162,118766,1,0,0:0:0:0:
357,127,118860,1,12,0:0:0:0:
426,174,119047,1,0,0:0:0:0:
357,127,119235,1,12,0:0:0:0:
413,176,119610,1,4,0:0:0:0:
255,241,119891,1,8,0:0:0:0:
398,233,119985,1,0,0:0:0:0:
255,241,120172,1,8,0:0:0:0:
236,157,120360,1,0,0:0:0:0:
236,157,120453,1,8,0:0:0:0:
255,241,120547,1,0,0:0:0:0:
320,119,120641,1,0,0:0:0:0:
255,241,120735,1,8,0:0:0:0:
255,241,120922,1,8,0:0:0:0:
255,241,121016,1,8,0:0:0:0:
257,240,121110,1,0,0:0:0:0:
247,159,121391,1,0,0:0:0:0:
256,234,121485,1,8,0:0:0:0:
248,159,121672,1,0,0:0:0:0:
251,159,121766,1,0,0:0:0:0:
248,159,121860,1,8,0:0:0:0:
248,159,121953,1,8,0:0:0:0:
256,234,122047,1,0,0:0:0:0:
256,234,122141,1,0,0:0:0:0:
256,234,122235,1,8,0:0:0:0:
256,234,122422,1,0,0:0:0:0:
256,234,122610,1,12,0:0:0:0:
314,67,122891,1,8,0:0:0:0:
299,155,122985,1,0,0:0:0:0:
314,67,123172,1,8,0:0:0:0:
299,155,123360,1,8,0:0:0:0:
299,155,123453,1,8,0:0:0:0:
299,155,123547,1,0,0:0:0:0:
299,157,123641,1,0,0:0:0:0:
343,188,123735,1,8,0:0:0:0:
215,161,123922,1,0,0:0:0:0:
215,161,124016,1,0,0:0:0:0:
300,158,124110,1,8,0:0:0:0:
300,158,124391,1,0,0:0:0:0:
343,183,124485,1,8,0:0:0:0:
344,183,124672,1,8,0:0:0:0:
344,183,124766,1,0,0:0:0:0:
344,183,124860,1,8,0:0:0:0:
344,183,124953,1,8,0:0:0:0:
343,74,125047,1,0,0:0:0:0:
263,247,125235,1,8,0:0:0:0:
291,11,125422,1,0,0:0:0:0:
343,183,125610,1,12,0:0:0:0:
261,246,125797,1,0,0:0:0:0:
261,246,125891,1,0,0:0:0:0:
445,138,125985,1,8,0:0:0:0:
261,246,126172,1,8,0:0:0:0:
261,246,126266,1,0,0:0:0:0:
261,246,126360,1,8,0:0:0:0:
261,246,126453,1,8,0:0:0:0:
261,246,126547,1,0,0:0:0:0:
261,246,126641,1,0,0:0:0:0:
443,138,126735,1,8,0:0:0:0:
443,138,126922,1,8,0:0:0:0:
299,209,127016,1,8,0:0:0:0:
442,138,127110,1,0,0:0:0:0:
294,215,127453,1,8,0:0:0:0:
230,205,127485,1,8,0:0:0:0:
230,205,128235,1,0,0:0:0:0:
182,189,128610,1,4,0:0:0:0:
340,264,128891,1,0,0:0:0:0:
340,264,128985,1,8,0:0:0:0:
340,264,129172,1,0,0:0:0:0:
340,264,129360,1,8,0:0:0:0:
340,264,129453,1,8,0:0:0:0:
340,264,129547,1,0,0:0:0:0:
340,264,129641,1,0,0:0:0:0:
340,264,129735,1,8,0:0:0:0:
283,111,129922,1,8,0:0:0:0:
340,264,130016,1,8,0:0:0:0:
340,264,130110,1,0,0:0:0:0:
340,264,130297,1,0,0:0:0:0:
283,111,130485,1,8,0:0:0:0:
340,264,130578,1,0,0:0:0:0:
283,107,130672,1,8,0:0:0:0:
340,264,130766,1,8,0:0:0:0:
283,111,130860,1,0,0:0:0:0:
300,174,131047,1,0,0:0:0:0:
224,173,131141,1,0,0:0:0:0:
283,107,131235,1,12,0:0:0:0:
418,70,131610,1,8,0:0:0:0:
418,70,131797,1,0,0:0:0:0:
418,70,131985,1,8,0:0:0:0:
418,66,132172,1,0,0:0:0:0:
343,224,132266,1,0,0:0:0:0:
418,66,132360,1,8,0:0:0:0:
343,224,132547,1,0,0:0:0:0:
343,224,132735,1,8,0:0:0:0:
343,224,132922,1,8,0:0:0:0:
343,224,133016,1,8,0:0:0:0:
418,66,133110,1,0,0:0:0:0:
420,62,133297,1,0,0:0:0:0:
420,62,133485,1,8,0:0:0:0:
343,224,133578,1,8,0:0:0:0:
343,224,133672,1,0,0:0:0:0:
343,224,133766,1,8,0:0:0:0:
420,62,133860,1,0,0:0:0:0:
420,62,134047,1,12,0:0:0:0:
420,62,134235,1,12,0:0:0:0:
264,83,134610,1,4,0:0:0:0:
288,207,134797,1,0,0:0:0:0:
288,207,134891,1,0,0:0:0:0:
338,85,134985,1,8,0:0:0:0:
119,142,135172,1,0,0:0:0:0:
273,265,135266,1,8,0:0:0:0:
334,81,135360,1,0,0:0:0:0:
332,81,135547,1,8,0:0:0:0:
365,249,135735,1,0,0:0:0:0:
331,79,135922,1,8,0:0:0:0:
331,79,136016,1,8,0:0:0:0:
331,79,136110,1,0,0:0:0:0:
376,206,136391,1,0,0:0:0:0:
331,78,136485,1,8,0:0:0:0:
237,159,136672,1,8,0:0:0:0:
376,206,136766,1,8,0:0:0:0:
329,75,136860,1,0,0:0:0:0:
382,213,137047,1,0,0:0:0:0:
382,213,137141,1,0,0:0:0:0:
329,75,137235,1,8,0:0:0:0:
382,213,137422,1,8,0:0:0:0:
328,74,137610,1,0,0:0:0:0:
382,213,137891,1,0,0:0:0:0:
382,213,137985,1,8,0:0:0:0:
328,74,138172,1,8,0:0:0:0:
258,161,138266,1,0,0:0:0:0:
321,68,138360,1,8,0:0:0:0:
269,212,138453,1,8,0:0:0:0:
269,212,138547,1,0,0:0:0:0:
269,212,138641,1,0,0:0:0:0:
321,68,138735,1,8,0:0:0:0:
321,68,138922,1,8,0:0:0:0:
292,218,139016,1,0,0:0:0:0:
321,68,139110,1,0,0:0:0:0:
372,145,139297,1,8,0:0:0:0:
320,68,139485,1,8,0:0:0:0:
320,68,139672,1,0,0:0:0:0:
374,220,139766,1,0,0:0:0:0:
320,68,139860,1,8,0:0:0:0:
320,68,140047,1,8,0:0:0:0:
217,132,140141,1,0,0:0:0:0:
217,132,140235,1,8,0:0:0:0:
217,132,140328,1,8,0:0:0:0:
217,132,140422,1,0,0:0:0:0:
217,132,140516,1,0,0:0:0:0:
161,152,140610,1,12,0:0:0:0:
340,264,140891,1,0,0:0:0:0:
340,264,140985,1,8,0:0:0:0:
340,264,141172,1,0,0:0:0:0:
340,264,141360,1,8,0:0:0:0:
340,264,141453,1,8,0:0:0:0:
340,264,141547,1,0,0:0:0:0:
340,264,141641,1,0,0:0:0:0:
340,264,141735,1,8,0:0:0:0:
283,111,141922,1,8,0:0:0:0:
340,264,142016,1,0,0:0:0:0:
340,264,142110,1,8,0:0:0:0:
340,264,142297,1,0,0:0:0:0:
283,111,142485,1,8,0:0:0:0:
340,264,142578,1,0,0:0:0:0:
283,107,142672,1,8,0:0:0:0:
340,264,142766,1,8,0:0:0:0:
283,111,142860,1,0,0:0:0:0:
300,174,143047,1,0,0:0:0:0:
224,173,143141,1,0,0:0:0:0:
283,107,143235,1,12,0:0:0:0:
416,68,143610,1,8,0:0:0:0:
416,68,143703,1,8,0:0:0:0:
416,68,143797,1,0,0:0:0:0:
416,68,143985,1,8,0:0:0:0:
416,64,144172,1,0,0:0:0:0:
416,64,144266,1,0,0:0:0:0:
341,222,144360,1,8,0:0:0:0:
341,222,144547,1,0,0:0:0:0:
341,222,144735,1,8,0:0:0:0:
341,222,144828,1,8,0:0:0:0:
341,222,144922,1,0,0:0:0:0:
341,222,145016,1,0,0:0:0:0:
341,222,145110,1,8,0:0:0:0:
418,60,145297,1,0,0:0:0:0:
418,60,145391,1,0,0:0:0:0:
418,60,145485,1,8,0:0:0:0:
341,222,145578,1,0,0:0:0:0:
341,222,145672,1,8,0:0:0:0:
341,222,145766,1,8,0:0:0:0:
418,60,145860,1,0,0:0:0:0:
420,62,146047,1,12,0:0:0:0:
420,62,146235,1,12,0:0:0:0:
264,83,146610,1,4,0:0:0:0:
122,176,146891,1,0,0:0:0:0:
242,174,146985,1,8,0:0:0:0:
323,137,147172,1,0,0:0:0:0:
324,137,147266,1,0,0:0:0:0:
324,139,147360,1,8,0:0:0:0:
322,138,147547,1,0,0:0:0:0:
322,138,147735,1,8,0:0:0:0:
392,187,147922,1,8,0:0:0:0:
326,135,148016,1,0,0:0:0:0:
326,135,148110,1,8,0:0:0:0:
326,135,148203,1,8,0:0:0:0:
327,134,148297,1,0,0:0:0:0:
327,134,148391,1,0,0:0:0:0:
328,133,148485,1,8,0:0:0:0:
268,78,148672,1,0,0:0:0:0:
328,133,148860,1,8,0:0:0:0:
194,88,149047,1,0,0:0:0:0:
268,78,149141,1,0,0:0:0:0:
328,133,149235,1,8,0:0:0:0:
203,88,149422,1,8,0:0:0:0:
203,88,149516,1,0,0:0:0:0:
203,88,149610,1,12,0:0:0:0:
337,86,149891,1,0,0:0:0:0:
337,86,149985,1,8,0:0:0:0:
337,86,150172,1,8,0:0:0:0:
296,210,150266,1,8,0:0:0:0:
337,86,150360,1,0,0:0:0:0:
337,86,150547,1,8,0:0:0:0:
337,86,150641,1,0,0:0:0:0:
337,86,150735,1,8,0:0:0:0:
337,86,150922,1,0,0:0:0:0:
337,86,151110,1,8,0:0:0:0:
337,86,151203,1,0,0:0:0:0:
302,178,151297,1,0,0:0:0:0:
302,178,151391,1,0,0:0:0:0:
302,178,151485,1,8,0:0:0:0:
331,125,151672,1,0,0:0:0:0:
331,125,151860,1,8,0:0:0:0:
331,125,151953,1,8,0:0:0:0:
414,99,152047,1,0,0:0:0:0:
267,59,152141,1,0,0:0:0:0:
262,61,152235,1,8,0:0:0:0:
267,59,152328,1,0,0:0:0:0:
267,59,152422,1,8,0:0:0:0:
264,49,152516,1,8,0:0:0:0:
264,49,152610,1,0,0:0:0:0:
154,237,153735,1,0,0:0:0:0:
154,237,153828,1,0,0:0:0:0:
154,237,153922,1,0,0:0:0:0:
158,212,154110,1,12,0:0:0:0:
304,302,154485,1,8,0:0:0:0:
232,149,154672,1,0,0:0:0:0:
259,94,154766,1,0,0:0:0:0:
304,302,154860,1,8,0:0:0:0:
314,260,155047,1,0,0:0:0:0:
304,302,155235,1,8,0:0:0:0:
232,149,155328,1,8,0:0:0:0:
294,256,155422,1,0,0:0:0:0:
232,149,155516,1,0,0:0:0:0:
304,302,155610,1,8,0:0:0:0:
217,136,155891,1,0,0:0:0:0:
304,302,155985,1,8,0:0:0:0:
217,135,156172,1,8,0:0:0:0:
217,135,156266,1,0,0:0:0:0:
304,302,156360,1,8,0:0:0:0:
217,135,156453,1,8,0:0:0:0:
294,256,156547,1,0,0:0:0:0:
304,302,156735,1,8,0:0:0:0:
217,132,156922,1,8,0:0:0:0:
217,132,157016,1,0,0:0:0:0:
304,302,157110,1,8,0:0:0:0:
228,91,157391,1,0,0:0:0:0:
304,302,157485,1,8,0:0:0:0:
228,91,157672,1,0,0:0:0:0:
228,91,157766,1,8,0:0:0:0:
228,91,157860,1,8,0:0:0:0:
242,195,158047,1,0,0:0:0:0:
331,24,158235,1,8,0:0:0:0:
315,86,158328,1,8,0:0:0:0:
315,86,158422,1,0,0:0:0:0:
304,302,158516,1,8,0:0:0:0:
315,86,158610,1,0,0:0:0:0:
315,86,158797,1,8,0:0:0:0:
304,302,158985,1,8,0:0:0:0:
242,195,159172,1,8,0:0:0:0:
429,138,159266,1,0,0:0:0:0:
304,302,159360,1,8,0:0:0:0:
411,109,159547,1,0,0:0:0:0:
411,109,159641,1,0,0:0:0:0:
304,302,159735,1,8,0:0:0:0:
411,109,159828,1,8,0:0:0:0:
304,302,159922,1,0,0:0:0:0:
304,302,160110,1,12,0:0:0:0:
304,302,160485,1,8,0:0:0:0:
232,149,160672,1,0,0:0:0:0:
259,94,160766,1,0,0:0:0:0:
304,302,160860,1,8,0:0:0:0:
314,260,161047,1,0,0:0:0:0:
304,302,161235,1,8,0:0:0:0:
232,149,161328,1,8,0:0:0:0:
294,256,161422,1,0,0:0:0:0:
304,302,161516,1,8,0:0:0:0:
232,149,161610,1,0,0:0:0:0:
304,302,161891,1,8,0:0:0:0:
217,136,161985,1,0,0:0:0:0:
217,135,162172,1,8,0:0:0:0:
217,135,162266,1,0,0:0:0:0:
304,302,162360,1,8,0:0:0:0:
217,135,162453,1,8,0:0:0:0:
294,256,162547,1,0,0:0:0:0:
294,256,162641,1,0,0:0:0:0:
304,302,162735,1,8,0:0:0:0:
217,132,162922,1,8,0:0:0:0:
217,132,163016,1,8,0:0:0:0:
304,302,163110,1,0,0:0:0:0:
304,302,163391,1,8,0:0:0:0:
228,91,163485,1,0,0:0:0:0:
228,91,163672,1,8,0:0:0:0:
228,91,163766,1,0,0:0:0:0:
228,91,163860,1,8,0:0:0:0:
242,195,164047,1,0,0:0:0:0:
331,24,164235,1,8,0:0:0:0:
315,86,164422,1,0,0:0:0:0:
315,86,164516,1,0,0:0:0:0:
304,302,164610,1,8,0:0:0:0:
287,145,164797,1,8,0:0:0:0:
281,143,164891,1,0,0:0:0:0:
287,145,164985,1,8,0:0:0:0:
287,145,165172,1,8,0:0:0:0:
287,145,165266,1,0,0:0:0:0:
287,145,165360,1,8,0:0:0:0:
348,108,165453,1,8,0:0:0:0:
348,108,165547,1,0,0:0:0:0:
326,251,165735,1,8,0:0:0:0:
223,168,165922,1,8,0:0:0:0:
223,168,166016,1,8,0:0:0:0:
326,251,166110,1,4,0:0:0:0:
236,87,166391,1,0,0:0:0:0:
326,251,166485,1,12,0:0:0:0:
317,160,166672,1,8,0:0:0:0:
317,160,166766,1,0,0:0:0:0:
317,160,166860,1,8,0:0:0:0:
317,160,167047,1,0,0:0:0:0:
317,160,167235,1,8,0:0:0:0:
374,48,167422,1,0,0:0:0:0:
230,23,167516,1,0,0:0:0:0:
314,103,167610,1,8,0:0:0:0:
198,137,167797,1,0,0:0:0:0:
286,32,167985,1,8,0:0:0:0:
307,150,168078,1,0,0:0:0:0:
307,151,168172,1,8,0:0:0:0:
270,63,168266,1,0,0:0:0:0:
270,62,168360,1,8,0:0:0:0:
326,19,168547,1,0,0:0:0:0:
326,19,168641,1,0,0:0:0:0:
326,19,168735,1,8,0:0:0:0:
241,12,168922,1,8,0:0:0:0:
241,12,169110,1,0,0:0:0:0:
356,66,169391,1,8,0:0:0:0:
357,67,169485,1,0,0:0:0:0:
249,40,169672,1,8,0:0:0:0:
249,40,169766,1,0,0:0:0:0:
241,12,169860,1,8,0:0:0:0:
241,12,170047,1,0,0:0:0:0:
249,40,170235,1,8,0:0:0:0:
249,40,170422,1,0,0:0:0:0:
249,40,170516,1,0,0:0:0:0:
249,40,170610,1,8,0:0:0:0:
271,59,170703,1,8,0:0:0:0:
252,35,170797,1,0,0:0:0:0:
252,35,170891,1,0,0:0:0:0:
262,39,170985,1,8,0:0:0:0:
252,36,171172,1,0,0:0:0:0:
252,36,171360,1,8,0:0:0:0:
252,36,171547,1,0,0:0:0:0:
252,36,171641,1,0,0:0:0:0:
252,36,171735,1,8,0:0:0:0:
252,36,171922,1,8,0:0:0:0:
252,36,172016,1,0,0:0:0:0:
252,36,172110,1,12,0:0:0:0:
354,50,172391,1,0,0:0:0:0:
352,49,172485,1,8,0:0:0:0:
352,49,172672,1,8,0:0:0:0:
349,46,172860,1,0,0:0:0:0:
225,97,173047,1,8,0:0:0:0:
225,97,173141,1,0,0:0:0:0:
226,94,173235,1,8,0:0:0:0:
226,94,173422,1,0,0:0:0:0:
335,54,173516,1,0,0:0:0:0:
335,54,173610,1,8,0:0:0:0:
311,68,173703,1,8,0:0:0:0:
311,68,173797,1,0,0:0:0:0:
401,66,173985,1,8,0:0:0:0:
285,109,174172,1,8,0:0:0:0:
115,180,174266,1,8,0:0:0:0:
285,109,174360,1,0,0:0:0:0:
285,109,174547,1,0,0:0:0:0:
285,109,174641,1,0,0:0:0:0:
285,109,174735,1,8,0:0:0:0:
285,108,174922,1,0,0:0:0:0:
237,47,175016,1,8,0:0:0:0:
237,47,175110,1,0,0:0:0:0:
240,44,175391,1,0,0:0:0:0:
240,44,175485,1,8,0:0:0:0:
240,44,175672,1,8,0:0:0:0:
240,44,175860,1,0,0:0:0:0:
241,44,176047,1,8,0:0:0:0:
241,44,176141,1,0,0:0:0:0:
241,44,176235,1,8,0:0:0:0:
244,44,176422,1,8,0:0:0:0:
293,50,176516,1,0,0:0:0:0:
293,50,176610,1,8,0:0:0:0:
294,50,176703,1,8,0:0:0:0:
294,50,176797,1,0,0:0:0:0:
294,50,176891,1,0,0:0:0:0:
294,50,176985,1,8,0:0:0:0:
417,91,177172,1,0,0:0:0:0:
417,91,177266,1,0,0:0:0:0:
291,144,177360,1,8,0:0:0:0:
308,125,177547,1,8,0:0:0:0:
306,126,177641,1,0,0:0:0:0:
306,126,177735,1,8,0:0:0:0:
308,125,177922,1,8,0:0:0:0:
308,125,178110,1,4,0:0:0:0:
279,4,178391,1,0,0:0:0:0:
279,4,178485,1,12,0:0:0:0:
317,160,178672,1,8,0:0:0:0:
317,160,178766,1,0,0:0:0:0:
317,160,178860,1,8,0:0:0:0:
317,160,179047,1,0,0:0:0:0:
317,160,179235,1,8,0:0:0:0:
374,48,179422,1,0,0:0:0:0:
230,23,179516,1,8,0:0:0:0:
314,103,179610,1,8,0:0:0:0:
198,137,179797,1,0,0:0:0:0:
286,32,179985,1,8,0:0:0:0:
307,151,180078,1,0,0:0:0:0:
307,150,180172,1,8,0:0:0:0:
270,63,180266,1,0,0:0:0:0:
270,62,180360,1,8,0:0:0:0:
326,19,180547,1,0,0:0:0:0:
326,19,180641,1,0,0:0:0:0:
326,19,180735,1,8,0:0:0:0:
241,12,180922,1,0,0:0:0:0:
241,12,181110,1,8,0:0:0:0:
356,66,181391,1,8,0:0:0:0:
357,67,181485,1,0,0:0:0:0:
249,40,181672,1,8,0:0:0:0:
249,40,181766,1,0,0:0:0:0:
241,12,181860,1,8,0:0:0:0:
241,12,182047,1,0,0:0:0:0:
249,40,182235,1,8,0:0:0:0:
249,40,182422,1,8,0:0:0:0:
249,40,182516,1,0,0:0:0:0:
249,40,182610,1,8,0:0:0:0:
271,59,182703,1,8,0:0:0:0:
252,35,182797,1,0,0:0:0:0:
252,35,182891,1,0,0:0:0:0:
262,39,182985,1,8,0:0:0:0:
252,36,183172,1,8,0:0:0:0:
252,36,183266,1,8,0:0:0:0:
252,36,183360,1,0,0:0:0:0:
152,152,183547,1,8,0:0:0:0:
152,152,183641,1,8,0:0:0:0:
200,134,183735,1,0,0:0:0:0:
200,134,183828,1,8,0:0:0:0:
200,134,183922,1,0,0:0:0:0:
200,134,184016,1,8,0:0:0:0:
409,174,184110,1,4,0:0:0:0:
394,231,184391,1,0,0:0:0:0:
251,239,184485,1,8,0:0:0:0:
251,239,184672,1,8,0:0:0:0:
232,155,184860,1,0,0:0:0:0:
232,155,184953,1,8,0:0:0:0:
251,239,185047,1,0,0:0:0:0:
316,117,185141,1,0,0:0:0:0:
251,239,185235,1,8,0:0:0:0:
251,239,185422,1,8,0:0:0:0:
251,239,185516,1,8,0:0:0:0:
253,238,185610,1,0,0:0:0:0:
243,157,185891,1,0,0:0:0:0:
252,232,185985,1,8,0:0:0:0:
244,157,186172,1,0,0:0:0:0:
247,157,186266,1,0,0:0:0:0:
244,157,186360,1,8,0:0:0:0:
244,157,186453,1,8,0:0:0:0:
252,232,186547,1,0,0:0:0:0:
252,232,186641,1,0,0:0:0:0:
252,232,186735,1,8,0:0:0:0:
252,232,186922,1,0,0:0:0:0:
252,232,187110,1,12,0:0:0:0:
295,153,187391,1,0,0:0:0:0:
310,65,187485,1,8,0:0:0:0:
310,65,187672,1,8,0:0:0:0:
295,153,187860,1,8,0:0:0:0:
295,153,187953,1,8,0:0:0:0:
295,153,188047,1,0,0:0:0:0:
295,155,188141,1,0,0:0:0:0:
339,186,188235,1,8,0:0:0:0:
211,159,188422,1,0,0:0:0:0:
211,159,188516,1,0,0:0:0:0:
296,156,188610,1,8,0:0:0:0:
296,156,188891,1,0,0:0:0:0:
339,181,188985,1,8,0:0:0:0:
339,181,189172,1,8,0:0:0:0:
339,181,189266,1,0,0:0:0:0:
339,181,189360,1,8,0:0:0:0:
339,181,189453,1,8,0:0:0:0:
338,72,189547,1,0,0:0:0:0:
259,245,189735,1,8,0:0:0:0:
287,9,189922,1,0,0:0:0:0:
339,181,190110,1,12,0:0:0:0:
257,244,190297,1,0,0:0:0:0:
257,244,190391,1,0,0:0:0:0:
441,136,190485,1,8,0:0:0:0:
257,244,190672,1,8,0:0:0:0:
257,244,190766,1,0,0:0:0:0:
257,244,190860,1,8,0:0:0:0:
257,244,190953,1,8,0:0:0:0:
257,244,191047,1,0,0:0:0:0:
257,244,191141,1,0,0:0:0:0:
439,136,191235,1,8,0:0:0:0:
439,136,191422,1,8,0:0:0:0:
295,207,191516,1,8,0:0:0:0:
438,136,191610,1,0,0:0:0:0:
273,245,191797,1,0,0:0:0:0:
315,259,191891,1,8,0:0:0:0:
315,259,191985,1,0,0:0:0:0:
310,140,192172,1,8,0:0:0:0:
240,10,192266,1,0,0:0:0:0:
315,259,192360,1,8,0:0:0:0:
315,259,192453,1,8,0:0:0:0:
291,142,192547,1,0,0:0:0:0:
268,95,192641,1,0,0:0:0:0:
291,142,192735,1,8,0:0:0:0:
291,142,192828,1,8,0:0:0:0:
291,142,192922,1,0,0:0:0:0:
291,142,193110,1,12,0:0:0:0:
350,52,193297,1,0,0:0:0:0:
299,46,193391,1,0,0:0:0:0:
299,46,193485,1,8,0:0:0:0:
294,60,193672,1,8,0:0:0:0:
294,60,193766,1,0,0:0:0:0:
294,60,193860,1,8,0:0:0:0:
294,60,193953,1,8,0:0:0:0:
294,60,194047,1,0,0:0:0:0:
294,60,194141,1,0,0:0:0:0:
236,46,194235,1,8,0:0:0:0:
234,42,194328,1,0,0:0:0:0:
233,42,194422,1,0,0:0:0:0:
234,42,194610,1,8,0:0:0:0:
400,35,195110,1,8,0:0:0:0:
375,52,195172,1,8,0:0:0:0:
277,71,195235,1,0,0:0:0:0:
277,71,195297,1,0,0:0:0:0:
293,75,195360,1,8,0:0:0:0:
230,152,195547,1,8,0:0:0:0:
230,152,195735,1,0,0:0:0:0:
230,152,195922,1,0,0:0:0:0:
242,138,196110,1,8,0:0:0:0:
242,138,196672,1,0,0:0:0:0:
242,138,196860,1,8,0:0:0:0:
248,140,197047,1,8,0:0:0:0:
248,140,197422,1,8,0:0:0:0:
248,140,197610,1,0,0:0:0:0:
248,140,197797,1,8,0:0:0:0:
251,166,197891,1,0,0:0:0:0:
248,140,197985,1,8,0:0:0:0:
248,140,198172,1,0,0:0:0:0:
248,140,198360,1,8,0:0:0:0:
248,140,198547,1,0,0:0:0:0:
248,140,198735,1,8,0:0:0:0:
252,142,199110,1,0,0:0:0:0:
298,184,199297,1,0,0:0:0:0:
256,165,199391,1,0,0:0:0:0:
298,184,199485,1,8,0:0:0:0:
298,184,199672,1,0,0:0:0:0:
298,184,199860,1,8,0:0:0:0:
298,184,200047,1,8,0:0:0:0:
298,184,200422,1,0,0:0:0:0:
298,184,200610,1,8,0:0:0:0:
383,186,200797,1,8,0:0:0:0:
182,201,200891,1,0,0:0:0:0:
246,79,200985,1,8,0:0:0:0:
428,54,201172,1,0,0:0:0:0:
245,78,201360,1,8,0:0:0:0:
245,78,201453,1,8,0:0:0:0:
247,67,201547,1,0,0:0:0:0:
247,67,201641,1,0,0:0:0:0:
247,67,201735,1,8,0:0:0:0:
242,74,202110,1,12,0:0:0:0:
109,134,202391,1,0,0:0:0:0:
297,320,202485,1,8,0:0:0:0:
275,203,202672,1,0,0:0:0:0:
268,233,202766,1,0,0:0:0:0:
275,203,202860,1,8,0:0:0:0:
335,209,203047,1,8,0:0:0:0:
335,209,203235,1,0,0:0:0:0:
268,233,203422,1,8,0:0:0:0:
186,174,203516,1,0,0:0:0:0:
332,209,203610,1,8,0:0:0:0:
261,194,203797,1,0,0:0:0:0:
268,233,203985,1,8,0:0:0:0:
236,149,204078,1,0,0:0:0:0:
235,0,204172,1,8,0:0:0:0:
235,0,204266,1,8,0:0:0:0:
300,163,204360,1,0,0:0:0:0:
300,163,204547,1,8,0:0:0:0:
300,163,204641,1,0,0:0:0:0:
268,233,204735,1,8,0:0:0:0:
303,70,204922,1,0,0:0:0:0:
268,233,205110,1,12,0:0:0:0:
254,132,205391,1,8,0:0:0:0:
254,132,205485,1,0,0:0:0:0:
382,96,205672,1,8,0:0:0:0:
268,233,205860,1,8,0:0:0:0:
268,233,205953,1,8,0:0:0:0:
242,129,206047,1,0,0:0:0:0:
242,129,206141,1,0,0:0:0:0:
268,233,206235,1,8,0:0:0:0:
242,129,206422,1,0,0:0:0:0:
268,233,206610,1,12,0:0:0:0:
232,176,206797,1,0,0:0:0:0:
232,176,206891,1,0,0:0:0:0:
268,233,206985,1,12,0:0:0:0:
320,68,207172,1,0,0:0:0:0:
320,68,207360,1,8,0:0:0:0:
320,68,207547,1,8,0:0:0:0:
217,132,207641,1,0,0:0:0:0:
217,132,207735,1,8,0:0:0:0:
217,132,207828,1,8,0:0:0:0:
217,132,207922,1,0,0:0:0:0:
217,132,208016,1,0,0:0:0:0:
161,152,208110,1,12,0:0:0:0:
340,264,208391,1,0,0:0:0:0:
340,264,208485,1,8,0:0:0:0:
340,264,208672,1,8,0:0:0:0:
340,264,208860,1,0,0:0:0:0:
340,264,208953,1,0,0:0:0:0:
340,264,209047,1,0,0:0:0:0:
340,264,209141,1,0,0:0:0:0:
340,264,209235,1,8,0:0:0:0:
283,111,209422,1,8,0:0:0:0:
340,264,209516,1,8,0:0:0:0:
340,264,209610,1,0,0:0:0:0:
340,264,209797,1,0,0:0:0:0:
283,111,209985,1,8,0:0:0:0:
340,264,210078,1,0,0:0:0:0:
283,107,210172,1,8,0:0:0:0:
340,264,210266,1,8,0:0:0:0:
283,111,210360,1,0,0:0:0:0:
300,174,210547,1,0,0:0:0:0:
224,173,210641,1,0,0:0:0:0:
283,107,210735,1,12,0:0:0:0:
416,68,211110,1,8,0:0:0:0:
416,68,211297,1,0,0:0:0:0:
416,68,211485,1,8,0:0:0:0:
416,64,211672,1,8,0:0:0:0:
416,64,211766,1,0,0:0:0:0:
341,222,211860,1,8,0:0:0:0:
341,222,212047,1,0,0:0:0:0:
341,222,212235,1,8,0:0:0:0:
341,222,212328,1,8,0:0:0:0:
341,222,212422,1,0,0:0:0:0:
341,222,212610,1,8,0:0:0:0:
418,60,212797,1,0,0:0:0:0:
418,60,212891,1,0,0:0:0:0:
418,60,212985,1,8,0:0:0:0:
341,222,213078,1,0,0:0:0:0:
341,222,213172,1,8,0:0:0:0:
341,222,213266,1,8,0:0:0:0:
418,60,213360,1,0,0:0:0:0:
420,62,213547,1,12,0:0:0:0:
420,62,213735,1,12,0:0:0:0:
264,83,214110,1,4,0:0:0:0:
122,176,214391,1,0,0:0:0:0:
242,174,214485,1,8,0:0:0:0:
323,137,214672,1,0,0:0:0:0:
324,137,214766,1,0,0:0:0:0:
324,139,214860,1,8,0:0:0:0:
322,138,215047,1,0,0:0:0:0:
322,138,215235,1,8,0:0:0:0:
392,187,215422,1,8,0:0:0:0:
326,135,215516,1,0,0:0:0:0:
326,135,215610,1,8,0:0:0:0:
326,135,215703,1,8,0:0:0:0:
327,134,215797,1,0,0:0:0:0:
327,134,215891,1,0,0:0:0:0:
328,133,215985,1,8,0:0:0:0:
268,78,216172,1,0,0:0:0:0:
328,133,216266,1,0,0:0:0:0:
328,133,216360,1,8,0:0:0:0:
194,88,216547,1,0,0:0:0:0:
328,133,216735,1,8,0:0:0:0:
203,88,216922,1,8,0:0:0:0:
203,88,217016,1,0,0:0:0:0:
203,88,217110,1,12,0:0:0:0:
337,86,217391,1,0,0:0:0:0:
337,86,217485,1,8,0:0:0:0:
337,86,217672,1,8,0:0:0:0:
296,210,217766,1,8,0:0:0:0:
337,86,217860,1,0,0:0:0:0:
337,86,218047,1,8,0:0:0:0:
337,86,218141,1,0,0:0:0:0:
337,86,218235,1,8,0:0:0:0:
337,86,218422,1,0,0:0:0:0:
337,86,218610,1,12,0:0:0:0:
302,178,218797,1,0,0:0:0:0:
302,178,218891,1,0,0:0:0:0:
302,178,218985,1,8,0:0:0:0:
331,125,219172,1,0,0:0:0:0:
331,125,219266,1,0,0:0:0:0:
331,125,219360,1,8,0:0:0:0:
331,125,219453,1,8,0:0:0:0:
414,99,219547,1,0,0:0:0:0:
267,59,219641,1,0,0:0:0:0:
262,61,219735,1,8,0:0:0:0:
267,59,219828,1,0,0:0:0:0:
267,59,219922,1,8,0:0:0:0:
264,49,220016,1,8,0:0:0:0:
264,49,220110,1,0,0:0:0:0:
81,166,221610,1,4,0:0:0:0:
289,239,221985,1,0,0:0:0:0:
332,244,222172,1,8,0:0:0:0:
289,239,222360,1,0,0:0:0:0:
289,239,222547,1,0,0:0:0:0:
291,185,222735,1,8,0:0:0:0:
228,146,222922,1,0,0:0:0:0:
291,185,223110,1,0,0:0:0:0:
246,97,223297,1,8,0:0:0:0:
265,248,223485,1,0,0:0:0:0:
327,30,223672,1,0,0:0:0:0:
396,161,223735,1,0,0:0:0:0:
396,161,223797,1,0,0:0:0:0:
247,96,223860,1,8,0:0:0:0:
396,161,224047,1,0,0:0:0:0:
327,30,224235,1,8,0:0:0:0:
265,49,224422,1,8,0:0:0:0:
360,73,224485,1,8,0:0:0:0:
265,49,224547,1,8,0:0:0:0:
265,50,224610,1,0,0:0:0:0:
289,239,224985,1,0,0:0:0:0:
332,244,225172,1,8,0:0:0:0:
118,175,225266,1,0,0:0:0:0:
289,239,225360,1,8,0:0:0:0:
185,177,225547,1,0,0:0:0:0:
291,185,225735,1,8,0:0:0:0:
223,71,225828,1,0,0:0:0:0:
220,118,225922,1,8,0:0:0:0:
220,118,226016,1,8,0:0:0:0:
220,118,226110,1,0,0:0:0:0:
246,97,226297,1,8,0:0:0:0:
265,248,226485,1,0,0:0:0:0:
327,30,226672,1,8,0:0:0:0:
396,161,226766,1,0,0:0:0:0:
247,96,226860,1,8,0:0:0:0:
142,171,227047,1,0,0:0:0:0:
327,30,227235,1,8,0:0:0:0:
265,49,227422,1,8,0:0:0:0:
360,73,227516,1,8,0:0:0:0:
265,50,227610,1,4,0:0:0:0:
186,221,227797,1,8,0:0:0:0:
289,238,227985,1,0,0:0:0:0:
332,243,228172,1,0,0:0:0:0:
289,238,228360,1,8,0:0:0:0:
289,238,228547,1,0,0:0:0:0:
291,184,228735,1,0,0:0:0:0:
228,145,228922,1,8,0:0:0:0:
291,184,229110,1,8,0:0:0:0:
291,184,229203,1,8,0:0:0:0:
291,184,229297,1,0,0:0:0:0:
265,247,229485,1,8,0:0:0:0:
327,29,229672,1,0,0:0:0:0:
247,95,229860,1,8,0:0:0:0:
184,181,229953,1,0,0:0:0:0:
184,181,230047,1,0,0:0:0:0:
184,181,230141,1,0,0:0:0:0:
327,29,230235,1,8,0:0:0:0:
265,48,230422,1,8,0:0:0:0:
265,48,230485,1,8,0:0:0:0:
265,48,230547,1,8,0:0:0:0:
360,71,230610,1,0,0:0:0:0:
289,238,230985,1,0,0:0:0:0:
332,243,231172,1,8,0:0:0:0:
118,174,231266,1,0,0:0:0:0:
289,238,231360,1,0,0:0:0:0:
185,176,231547,1,0,0:0:0:0:
291,184,231735,1,8,0:0:0:0:
223,70,231828,1,0,0:0:0:0:
220,117,231922,1,8,0:0:0:0:
220,117,232016,1,8,0:0:0:0:
220,117,232110,1,0,0:0:0:0:
246,96,232297,1,8,0:0:0:0:
265,247,232485,1,0,0:0:0:0:
327,29,232672,1,8,0:0:0:0:
396,160,232766,1,0,0:0:0:0:
247,95,232860,1,8,0:0:0:0:
142,170,233047,1,0,0:0:0:0:
327,29,233235,1,8,0:0:0:0:
327,29,233422,1,8,0:0:0:0:
191,297,233610,1,4,0:0:0:0:
256,224,233797,1,0,0:0:0:0:
303,85,233985,1,8,0:0:0:0:
256,224,234172,1,8,0:0:0:0:
256,224,234266,1,8,0:0:0:0:
302,84,234360,1,0,0:0:0:0:
301,83,234547,1,0,0:0:0:0:
300,83,234922,1,8,0:0:0:0:
288,96,235297,1,0,0:0:0:0:
288,96,235485,1,8,0:0:0:0:
288,96,235672,1,8,0:0:0:0:
163,161,235766,1,8,0:0:0:0:
288,96,235860,1,0,0:0:0:0:
288,96,236047,1,0,0:0:0:0:
288,64,236235,1,8,0:0:0:0:
256,128,236422,1,8,0:0:0:0:
352,128,236485,1,0,0:0:0:0:
352,128,236547,1,0,0:0:0:0:
256,128,236610,1,8,0:0:0:0:
352,128,236797,1,0,0:0:0:0:
256,128,236985,1,8,0:0:0:0:
352,128,237172,1,8,0:0:0:0:
161,151,237266,1,8,0:0:0:0:
256,128,237360,1,0,0:0:0:0:
256,128,237547,1,0,0:0:0:0:
250,192,237735,1,0,0:0:0:0:
250,192,237828,1,0,0:0:0:0:
256,128,237922,1,8,0:0:0:0:
288,64,238297,1,0,0:0:0:0:
256,128,238485,1,8,0:0:0:0:
288,96,238672,1,8,0:0:0:0:
448,160,238766,1,0,0:0:0:0:
288,96,238860,1,8,0:0:0:0:
288,96,239047,1,0,0:0:0:0:
288,96,239235,1,8,0:0:0:0:
288,96,239422,1,0,0:0:0:0:
288,96,239610,1,12,0:0:0:0:
416,160,239797,1,0,0:0:0:0:
288,96,239985,1,8,0:0:0:0:
384,128,240172,1,8,0:0:0:0:
257,245,240266,1,8,0:0:0:0:
288,96,240360,1,0,0:0:0:0:
288,96,240547,1,0,0:0:0:0:
288,96,240922,1,8,0:0:0:0:
248,176,241110,1,8,0:0:0:0:
288,96,241297,1,0,0:0:0:0:
288,96,241485,1,8,0:0:0:0:
384,128,241672,1,0,0:0:0:0:
352,96,241766,1,0,0:0:0:0:
288,96,241860,1,8,0:0:0:0:
288,96,242047,1,0,0:0:0:0:
288,96,242235,1,8,0:0:0:0:
288,96,242422,1,0,0:0:0:0:
448,64,242485,1,0,0:0:0:0:
448,32,242547,1,0,0:0:0:0:
448,32,242610,1,8,0:0:0:0:
416,96,242797,1,0,0:0:0:0:
288,96,242985,1,8,0:0:0:0:
352,192,243172,1,8,0:0:0:0:
288,96,243360,1,0,0:0:0:0:
288,96,243547,1,0,0:0:0:0:
288,96,243922,1,8,0:0:0:0:
288,96,244297,1,0,0:0:0:0:
288,96,244485,1,8,0:0:0:0:
208,152,244672,1,0,0:0:0:0:
192,174,244766,1,0,0:0:0:0:
288,96,244860,1,8,0:0:0:0:
288,96,245047,1,0,0:0:0:0:
288,96,245235,1,12,0:0:0:0:
288,96,245422,1,12,0:0:0:0:
