osu file format v14

[General]
AudioFilename: audio.mp3
AudioLeadIn: 0
PreviewTime: 51085
Countdown: 0
SampleSet: Soft
StackLeniency: 0.3
Mode: 0
LetterboxInBreaks: 0
WidescreenStoryboard: 0

[Editor]
DistanceSpacing: 1
BeatDivisor: 4
GridSize: 32
TimelineZoom: 2.2

[Metadata]
Title:Hana wa Odore ya Irohaniho (TV Size)
TitleUnicode:花ハ踊レヤいろはにほ (TV Size)
Artist:Team "Hanayamata"
ArtistUnicode:チーム"ハナヤマタ"
Creator:_Meep_
Version:Hard
Source:ハナヤマタ
Tags:Matsubara Kanon opening madhouse Naru Sekiya Reina Ueda Yaya Sasame Kaya Okuno Hana N. Fontainestand Minami Tanaka Tami Nigishimon Yuka Ootsubo Machi Tokiwa Manami Numakura ShogunMoon Shunao Karee Pan Nardoxyribonucleic
BeatmapID:1669225
BeatmapSetID:705516

[Difficulty]
HPDrainRate:5
CircleSize:3.5
OverallDifficulty:7
ApproachRate:8
SliderMultiplier:1.4
SliderTickRate:1

[Events]
//Background and Video events
0,0,"BOOTIFUl.jpg",0,0
Video,0,"moe.avi"
//Break Periods
//Storyboard Layer 0 (Background)
//Storyboard Layer 1 (Fail)
//Storyboard Layer 2 (Pass)
//Storyboard Layer 3 (Foreground)
//Storyboard Sound Samples

[TimingPoints]
1204,375,4,2,1,30,1,0
1204,-125,4,2,1,30,0,0
6829,-125,4,2,1,50,0,0
7204,-100,4,2,1,50,0,0
7954,-100,4,2,1,65,0,0
8704,-100,4,2,1,70,0,0
9454,-100,4,2,1,75,0,0
10204,-100,4,2,1,80,0,0
10954,-100,4,2,1,85,0,0
11704,-100,4,2,1,90,0,0
12454,-100,4,2,1,95,0,0
12641,-100,4,2,1,80,0,0
13204,-125,4,2,1,70,0,0
39454,-125,4,2,1,70,0,0
39547,-125,4,2,1,70,0,0
43204,-111.111111111111,4,2,1,70,0,0
52204,-100,4,2,1,95,0,1
70204,-100,4,2,1,100,0,1
76204,-100,4,2,2,85,0,0
77704,-125,4,2,1,60,0,0

[Colours]
Combo1 : 142,199,255
Combo2 : 255,255,179
Combo3 : 192,130,255
Combo4 : 255,174,136

[HitObjects]
366,65,1204,6,0,B|397:87|397:87|396:177,1,112,2|0,0:0|0:0,0:0:0:0:
369,235,1766,1,0,0:0:0:0:
316,175,1954,2,0,P|261:155|200:184,1,112,0|0,0:0|0:0,0:0:0:0:
185,247,2516,1,0,0:0:0:0:
252,286,2704,6,0,P|264:250|257:214,1,56,2|0,0:0|0:0,0:0:0:0:
305,121,3079,2,0,P|305:148|315:174,1,56,0|0,0:0|0:0,0:0:0:0:
379,220,3454,1,0,0:0:0:0:
379,220,4204,6,0,P|385:181|391:160,2,56,2|0|0,0:0|0:0|0:0,0:0:0:0:
391,297,4766,1,0,0:0:0:0:
351,364,4954,2,0,P|283:369|234:358,1,112,0|0,0:0|0:0,0:0:0:0:
167,333,5516,1,0,0:0:0:0:
166,332,5704,6,0,P|163:305|156:278,1,56,2|0,0:0|0:0,0:0:0:0:
166,197,6079,2,0,P|193:190|221:187,1,56,0|0,0:0|0:0,0:0:0:0:
286,234,6454,1,0,0:0:0:0:
286,234,6829,6,0,P|278:193|282:145,1,84,8|0,3:0|0:0,0:0:0:0:
302,106,7204,5,4,0:0:0:0:
140,105,7579,2,0,P|139:149|150:184,1,70,0|0,1:0|1:0,0:0:0:0:
232,200,7954,2,0,P|233:156|222:121,1,70,0|0,1:0|1:0,0:0:0:0:
159,266,8329,1,0,1:0:0:0:
252,295,8517,1,0,1:0:0:0:
326,229,8704,6,0,L|402:251,2,70,2|0|0,1:2|1:0|1:0,0:0:0:0:
232,200,9266,1,0,1:0:0:0:
159,266,9454,2,0,L|83:244,2,70,2|0|0,1:2|1:0|1:0,0:0:0:0:
252,295,10016,1,0,1:0:0:0:
326,229,10204,6,0,P|356:187|364:126,1,105,6|0,0:0|0:0,0:0:0:0:
356,105,10579,2,0,P|323:101|283:85,1,70,0|0,1:0|1:0,0:0:0:0:
198,47,10954,2,0,P|165:59|130:63,1,70,0|0,1:0|1:0,0:0:0:0:
33,75,11329,1,0,1:0:0:0:
90,153,11516,1,0,1:0:0:0:
40,238,11704,6,0,P|29:290|32:329,1,70,2|0,1:2|1:0,0:0:0:0:
128,380,12079,2,0,B|182:363|182:363|248:372,1,105,12|0,1:0|0:0,0:0:0:0:
262,376,12454,2,0,P|303:368|327:359,3,35,8|0|0|0,1:0|0:0|1:0|1:0,0:0:0:0:
325,361,12829,2,0,P|342:357|359:354,3,35,8|8|8|8,1:0|1:0|1:0|1:0,0:0:0:0:
389,348,13204,6,0,L|401:224,1,112,4|0,0:0|1:0,0:0:0:0:
407,157,13766,1,0,0:0:0:0:
355,97,13954,2,0,P|304:82|238:103,1,112,0|0,1:0|1:0,0:0:0:0:
183,141,14516,1,0,0:0:0:0:
252,178,14704,6,0,B|274:234|274:234|248:306,1,112,0|0,1:0|1:0,0:0:0:0:
215,351,15266,1,2,0:0:0:0:
168,287,15454,2,0,B|147:232|147:232|172:159,1,112,0|0,1:0|1:0,0:0:0:0:
205,114,16016,1,0,0:0:0:0:
240,97,16110,1,0,0:0:0:0:
280,92,16204,6,0,P|326:92|389:137,1,112,2|0,1:2|1:0,0:0:0:0:
408,200,16766,2,0,L|402:321,1,112,0|0,0:0|0:0,0:0:0:0:
354,374,17329,2,0,L|287:369,1,56,0|0,1:0|0:0,0:0:0:0:
232,325,17704,5,2,1:2:0:0:
197,170,18079,1,0,1:0:0:0:
310,279,18454,1,2,1:2:0:0:
153,259,18829,1,0,1:0:0:0:
286,174,19204,6,0,P|301:127|268:51,1,112,2|0,1:2|1:0,0:0:0:0:
216,27,19766,1,0,0:0:0:0:
137,35,19954,2,0,L|12:48,1,112,0|0,1:0|1:0,0:0:0:0:
5,122,20516,1,0,0:0:0:0:
46,188,20704,6,0,P|101:193|154:172,1,112,2|0,1:2|1:0,0:0:0:0:
214,124,21266,1,0,0:0:0:0:
273,176,21454,2,0,L|265:302,1,112,0|0,1:0|1:0,0:0:0:0:
313,350,22016,1,0,0:0:0:0:
350,360,22110,1,0,0:0:0:0:
389,355,22204,6,0,P|419:319|416:243,1,112,2|0,1:2|1:0,0:0:0:0:
366,200,22766,2,0,P|310:199|266:232,1,112,0|0,0:0|0:0,0:0:0:0:
219,296,23329,2,0,P|187:320|150:330,1,56,0|0,1:0|0:0,0:0:0:0:
97,301,23704,5,2,1:2:0:0:
163,157,24079,1,0,1:0:0:0:
15,210,24454,2,0,P|53:205|84:213,1,56,2|0,1:2|0:0,0:0:0:0:
140,242,24829,2,0,P|167:245|195:239,1,56,8|0,1:0|0:0,0:0:0:0:
264,201,25204,6,0,B|323:188|323:188|389:212,1,112,4|8,0:0|0:0,0:0:0:0:
388,213,25954,2,0,L|381:339,1,112,0|8,1:0|0:0,0:0:0:0:
381,343,26704,2,0,P|351:323|258:331,1,112,0|8,1:0|0:0,0:0:0:0:
263,328,27454,6,0,P|231:333|186:328,1,56,0|0,1:0|1:0,0:0:0:0:
227,236,27829,2,0,P|259:231|304:236,1,56,8|0,0:0|0:0,0:0:0:0:
134,261,28204,2,0,L|143:140,1,112,0|8,1:0|0:0,0:0:0:0:
185,83,28766,2,0,P|233:64|298:78,1,112,0|0,0:0|1:0,0:0:0:0:
352,125,29329,2,0,L|348:190,1,56,8|0,0:0|0:0,0:0:0:0:
374,256,29704,5,0,1:0:0:0:
245,163,30079,1,8,0:0:0:0:
271,318,30454,2,0,P|262:273|269:242,1,56,0|0,1:0|1:0,0:0:0:0:
333,227,30829,2,0,P|342:272|335:303,1,56,8|0,0:0|1:0,0:0:0:0:
200,354,31204,6,0,L|85:343,1,112,4|8,0:0|0:0,0:0:0:0:
44,278,31766,1,0,0:0:0:0:
26,201,31954,2,0,P|39:153|88:111,1,112,0|8,1:0|0:0,0:0:0:0:
97,110,32704,6,0,B|128:95|155:112|155:112|187:130|226:114,1,112,0|8,1:0|0:0,0:0:0:0:
276,87,33266,1,0,0:0:0:0:
341,130,33454,2,0,P|346:163|338:266,1,112,0|8,1:0|0:0,0:0:0:0:
336,262,34204,6,0,P|388:262|441:237,1,112,0|8,1:0|0:0,0:0:0:0:
483,170,34766,1,0,0:0:0:0:
453,96,34954,2,0,B|408:65|408:65|329:68,1,112,0|8,1:0|0:0,0:0:0:0:
338,71,35704,6,0,L|276:75,1,56,0|0,1:0|0:0,0:0:0:0:
249,97,35985,1,0,0:0:0:0:
222,125,36079,2,0,P|212:164|216:195,1,56,8|0,0:0|1:0,0:0:0:0:
281,219,36454,2,0,P|291:179|287:149,2,56,0|8|8,1:0|1:0|1:0,0:0:0:0:
213,259,37016,1,8,1:0:0:0:
299,333,37204,6,0,P|341:322|388:328,2,84,4|0|0,0:0|1:0|1:0,0:0:0:0:
225,363,37954,2,0,P|185:367|114:343,1,112,8|0,0:0|1:0,0:0:0:0:
40,208,38704,1,0,1:0:0:0:
196,213,39079,1,0,1:0:0:0:
71,307,39454,1,10,0:0:0:0:
122,168,39829,1,0,1:0:0:0:
171,317,40204,6,0,P|214:334|268:330,2,84,0|0|0,1:0|1:0|1:0,0:0:0:0:
131,248,40954,2,0,L|147:123,1,112,8|0,0:0|1:0,0:0:0:0:
263,31,41704,1,0,1:0:0:0:
107,56,42079,1,0,1:0:0:0:
247,126,42454,2,0,P|290:125|325:109,1,56,4|2,0:0|0:0,0:0:0:0:
370,80,42829,2,0,P|397:73|425:74,1,56,4|0,0:0|0:0,0:0:0:0:
489,120,43204,6,0,L|485:246,1,125.999996154785,4|8,1:0|0:0,0:0:0:0:
479,335,43766,1,0,0:0:0:0:
404,287,43954,2,0,P|309:291|277:318,1,125.999996154785,0|8,1:0|0:0,0:0:0:0:
222,370,44516,5,0,0:0:0:0:
151,316,44704,2,0,B|135:275|135:275|164:188,1,125.999996154785,0|8,1:0|0:0,0:0:0:0:
197,115,45266,1,0,0:0:0:0:
169,31,45454,2,0,P|124:64|110:133,1,125.999996154785,0|8,1:0|0:0,0:0:0:0:
161,197,46016,5,0,1:0:0:0:
248,184,46204,2,0,B|288:179|310:205|310:205|337:234|384:232,1,125.999996154785,4|8,0:0|0:0,0:0:0:0:
449,223,46766,1,0,0:0:0:0:
431,137,46954,2,0,P|375:177|364:251,1,125.999996154785,0|8,1:0|0:0,0:0:0:0:
407,305,47516,1,0,0:0:0:0:
342,364,47704,2,0,P|301:375|259:371,1,62.9999980773926,0|0,1:0|0:0,0:0:0:0:
198,339,48079,1,8,0:0:0:0:
113,314,48266,6,0,P|81:315|51:324,2,62.9999980773926,0|0|0,0:0|1:0|1:0,0:0:0:0:
180,256,48829,2,0,P|211:257|241:266,1,62.9999980773926,8|0,0:0|1:0,0:0:0:0:
310,323,49204,5,12,0:0:0:0:
404,288,49391,2,0,P|449:282|459:282,2,31.4999990386963,0|0|8,0:0|0:0|0:0,0:0:0:0:
335,213,49766,2,0,P|290:207|280:207,2,31.4999990386963,0|0|8,1:0|0:0|0:0,0:0:0:0:
428,172,50141,2,0,P|473:166|483:166,2,31.4999990386963,0|0|8,1:0|1:0|0:0,0:0:0:0:
350,107,50516,2,0,P|305:101|295:101,2,31.4999990386963,0|0|8,1:0|1:0|0:0,0:0:0:0:
350,107,51079,6,0,B|422:90|402:20|333:36|314:63|314:63|287:103|237:106|209:85,1,251.999992309571,2|8,0:0|0:3,0:0:0:0:
186,79,52204,6,0,L|206:237,1,140,4|8,1:0|0:0,0:0:0:0:
256,293,52766,1,0,0:0:0:0:
307,218,52954,2,0,L|325:79,1,140,0|8,1:0|0:0,0:0:0:0:
254,20,53516,1,0,0:0:0:0:
186,79,53704,6,0,P|181:122|187:155,1,70,0|0,1:0|0:0,0:0:0:0:
326,148,54079,2,0,P|331:113|326:79,1,70,8|0,0:0|0:0,0:0:0:0:
256,215,54454,1,0,1:0:0:0:
256,215,54829,2,0,B|302:242|302:242|367:243,1,105,10|0,0:1|0:0,0:0:0:0:
399,243,55204,6,0,P|454:221|470:199,1,70,0|0,1:0|0:0,0:0:0:0:
463,121,55579,2,0,P|435:99|401:92,1,70,8|0,0:0|0:0,0:0:0:0:
310,94,55954,2,0,P|259:123|161:114,1,140,0|8,1:0|0:0,0:0:0:0:
96,81,56516,6,0,L|7:68,2,70,0|0|0,0:0|1:0|0:0,0:0:0:0:
179,121,57079,2,0,P|191:162|187:200,1,70,8|0,0:0|0:0,0:0:0:0:
117,247,57454,1,0,1:0:0:0:
91,169,57641,1,10,0:1:0:0:
192,281,57829,2,0,B|248:291|248:291|312:263,1,105,10|0,0:1|0:0,0:0:0:0:
331,247,58204,6,0,P|334:168|346:96,1,140,4|8,0:0|0:0,0:0:0:0:
168,52,58954,1,0,1:0:0:0:
204,134,59141,2,0,P|207:181|204:211,1,70,0|8,1:0|0:0,0:0:0:0:
135,264,59516,2,0,B|169:245|206:261|206:261|245:281|293:256,1,140,0|0,0:0|0:0,0:0:0:0:
362,254,60079,6,0,P|348:288|350:341,1,70,8|0,0:0|0:0,0:0:0:0:
463,266,60454,2,0,P|460:231|447:199,1,70,0|0,1:0|1:0,0:0:0:0:
352,255,60829,2,0,P|338:289|340:342,1,70,8|0,0:0|0:0,0:0:0:0:
473,266,61204,6,0,B|476:228|456:193|456:193|431:156|449:108,1,140,0|8,1:0|0:0,0:0:0:0:
473,45,61766,1,0,0:0:0:0:
383,28,61954,2,0,B|316:33|316:33|256:82,1,140,0|8,1:0|0:0,0:0:0:0:
182,245,62704,6,0,P|174:287|181:330,2,70,2|2|8,1:2|0:0|0:0,0:0:0:0:
223,162,63266,1,2,0:0:0:0:
294,220,63454,2,0,P|345:211|376:197,1,70,0|0,1:0|1:0,0:0:0:0:
203,153,63829,2,0,P|152:162|121:176,1,70,8|8,1:0|1:0,0:0:0:0:
69,233,64204,6,0,P|46:185|76:100,1,140,4|8,1:0|0:0,0:0:0:0:
145,52,64766,1,0,0:0:0:0:
224,96,64954,2,0,P|247:143|217:229,1,140,0|8,1:0|0:0,0:0:0:0:
150,279,65516,1,0,0:0:0:0:
235,311,65704,6,0,B|273:313|273:313|311:294,1,70,0|0,1:0|0:0,0:0:0:0:
430,240,66079,2,0,B|393:238|393:238|355:257,1,70,8|0,0:0|0:0,0:0:0:0:
418,325,66454,1,0,1:0:0:0:
418,325,66829,2,0,P|476:313|512:266,1,105,10|0,0:1|0:0,0:0:0:0:
511,235,67204,5,0,1:0:0:0:
450,166,67391,1,0,0:0:0:0:
361,189,67579,2,0,L|365:274,1,70,8|0,0:0|0:0,0:0:0:0:
450,166,67954,2,0,L|453:96,1,70,0|0,1:0|1:0,0:0:0:0:
399,22,68329,2,0,P|355:22|313:50,1,70,8|0,0:0|0:0,0:0:0:0:
258,83,68704,6,0,P|224:95|189:93,2,70,0|0|8,1:0|0:0|0:0,0:0:0:0:
335,130,69266,2,0,P|367:142|402:140,1,70,0|0,0:0|1:0,0:0:0:0:
487,109,69641,1,10,0:1:0:0:
472,256,69829,2,0,B|417:263|417:263|342:238,1,105,10|0,0:1|0:0,0:0:0:0:
328,227,70204,6,0,P|314:192|317:149,1,70,4|0,0:0|0:0,0:0:0:0:
389,107,70579,2,0,P|403:142|400:184,1,70,8|0,0:0|0:0,0:0:0:0:
311,72,70954,2,0,P|334:42|372:23,1,70,8|0,0:0|1:0,0:0:0:0:
453,128,71329,2,0,P|429:157|391:176,1,70,8|0,0:0|1:0,0:0:0:0:
314,159,71704,6,0,L|231:127,1,70,8|0,0:0|0:0,0:0:0:0:
162,101,72079,1,8,0:0:0:0:
89,156,72266,2,0,P|75:192|78:234,1,70,0|8,1:0|0:0,0:0:0:0:
124,300,72641,2,0,P|159:314|201:311,1,70,0|8,1:0|0:0,0:0:0:0:
274,274,73016,1,0,1:0:0:0:
318,263,73110,1,0,0:0:0:0:
362,274,73204,6,0,L|349:126,1,140,4|8,0:0|0:0,0:0:0:0:
286,68,73766,1,0,1:0:0:0:
218,130,73954,2,0,L|141:137,1,70,8|0,0:0|1:0,0:0:0:0:
99,214,74329,2,0,L|176:221,1,70,8|0,0:0|1:0,0:0:0:0:
240,276,74704,6,0,P|272:261|319:266,1,70,8|0,0:0|1:0,0:0:0:0:
391,295,75079,1,8,0:0:0:0:
475,260,75266,1,0,1:0:0:0:
402,204,75454,2,0,L|416:110,1,70,8|0,0:0|1:0,0:0:0:0:
421,86,75735,1,0,1:0:0:0:
430,37,75829,2,0,L|369:39,3,35,8|8|8|8,1:0|1:0|1:0|1:0,0:0:0:0:
345,41,76204,1,8,1:0:0:0:
360,299,77704,6,0,P|416:295|470:310,2,112,4|8|0,0:0|0:0|1:0,0:0:0:0:
282,330,78641,1,0,1:0:0:0:
259,345,79016,2,0,L|275:215,1,112,8|0,0:0|1:0,0:0:0:0:
234,157,79579,2,0,P|206:143|161:136,1,56,8|0,0:0|0:0,0:0:0:0:
98,150,79954,1,0,1:0:0:0:
98,150,80141,1,0,1:0:0:0:
40,212,80329,2,0,P|32:238|31:266,1,56,8|0,0:0|0:0,0:0:0:0:
113,366,80704,6,0,L|126:254,2,112,0|8|0,1:0|0:0|1:0,0:0:0:0:
195,350,81641,1,0,1:0:0:0:
215,347,82016,2,0,P|263:344|337:367,1,112,8|0,0:0|1:0,0:0:0:0:
403,328,82579,2,0,P|395:297|401:264,1,56,8|0,0:0|0:0,0:0:0:0:
427,194,82954,2,0,P|429:165|421:138,2,56,0|0|8,1:0|1:0|0:0,0:0:0:0:
397,273,83516,1,0,0:0:0:0:
343,174,83704,6,0,L|215:157,2,112,4|8|0,0:0|0:0|1:0,0:0:0:0:
421,138,84641,1,0,1:0:0:0:
438,133,85016,2,0,P|445:186|439:258,1,112,8|0,0:0|1:0,0:0:0:0:
376,299,85579,2,0,P|334:289|298:290,1,56,8|0,0:0|0:0,0:0:0:0:
239,311,85954,1,0,1:0:0:0:
239,311,86141,1,0,1:0:0:0:
176,367,86329,2,0,P|134:377|98:376,1,56,8|0,0:0|0:0,0:0:0:0:
33,313,86704,6,0,L|40:188,2,112,0|8|0,1:0|0:0|1:0,0:0:0:0:
115,295,87641,1,0,1:0:0:0:
131,290,88016,2,0,P|142:242|125:174,1,112,8|0,0:0|1:0,0:0:0:0:
138,96,88579,1,8,0:0:0:0:
221,107,88766,1,0,1:0:0:0:
281,47,88954,2,0,P|319:32|351:31,2,56,0|0|8,1:0|1:0|0:0,0:0:0:0:
225,201,89516,1,8,0:0:0:0:
