osu file format v14

[General]
AudioFilename: audio.mp3
AudioLeadIn: 0
PreviewTime: 127465
Countdown: 0
SampleSet: Soft
StackLeniency: 0.7
Mode: 0
LetterboxInBreaks: 0
WidescreenStoryboard: 0

[Editor]
DistanceSpacing: 0.9
BeatDivisor: 4
GridSize: 4
TimelineZoom: 2

[Metadata]
Title:Hana wa Odore ya Irohaniho
TitleUnicode:花ハ踊レヤいろはにほ
Artist:Team "Hanayamata"
ArtistUnicode:チーム"ハナヤマタ"
Creator:Fycho
Version:Normal
Source:ハナヤマタ
Tags:momochikun yf_bmp pata-mon
BeatmapID:1139591
BeatmapSetID:529815

[Difficulty]
HPDrainRate:4
CircleSize:3.5
OverallDifficulty:4
ApproachRate:5
SliderMultiplier:1.1
SliderTickRate:1

[Events]
//Background and Video events
0,0,"3e322b4baaeb01e71ac8be8ce691e85b.jpeg",0,0
//Break Periods
2,77790,88390
2,154290,164890
2,196090,200890
//Storyboard Layer 0 (Background)
//Storyboard Layer 1 (Fail)
//Storyboard Layer 2 (Pass)
//Storyboard Layer 3 (Foreground)
//Storyboard Sound Samples

[TimingPoints]
1090,375,4,2,1,40,1,0
1090,-100,4,2,1,40,0,0
6621,-100,4,2,1,5,0,0
6715,-100,4,2,1,60,0,0
6996,-100,4,2,1,5,0,0
7090,-100,4,2,1,50,0,0
8590,-100,4,2,1,60,0,0
10090,-100,4,2,1,70,0,0
13090,-100,4,2,2,60,0,0
25090,-100,4,2,1,60,0,0
37090,-100,4,2,1,60,0,0
42340,-100,4,2,1,60,0,0
49090,-100,4,2,1,70,0,0
50590,-100,4,2,1,60,0,0
50965,-100,4,2,2,60,0,0
51152,-100,4,2,1,40,0,0
51621,-100,4,2,1,5,0,0
51715,-100,4,2,1,60,0,0
51996,-100,4,2,1,5,0,0
52090,-100,4,2,1,75,0,1
54715,-100,4,2,1,75,0,1
55090,-100,4,2,1,75,0,1
66715,-100,4,2,1,60,0,1
67090,-100,4,2,1,60,0,1
76090,-100,4,2,1,60,0,0
89590,-100,4,2,1,60,0,0
101590,-100,4,2,1,60,0,0
113590,-100,4,2,1,60,0,0
114340,-100,4,2,1,60,0,0
114715,-100,4,2,1,60,0,0
118840,-100,4,2,1,60,0,0
119590,-100,4,2,1,60,0,0
127465,-100,4,2,2,60,0,0
127652,-100,4,2,1,40,0,0
128121,-100,4,2,1,5,0,0
128215,-100,4,2,1,60,0,0
128590,-100,4,2,1,60,0,1
131215,-100,4,2,1,60,0,1
131590,-100,4,2,1,60,0,1
143215,-100,4,2,1,60,0,1
143590,-100,4,2,1,60,0,1
152590,-100,4,2,1,60,0,0
153715,-100,4,2,1,60,0,0
154090,-100,4,2,1,70,0,0
166840,-100,4,2,1,70,0,0
201715,-100,4,2,1,60,0,0
205090,-100,4,2,1,60,0,0
208090,-100,4,2,1,60,0,1
210715,-100,4,2,1,60,0,1
211090,-100,4,2,1,60,0,1
220090,-100,4,2,1,60,0,0

[Colours]
Combo1 : 255,155,198
Combo2 : 77,225,218
Combo3 : 226,46,194
Combo4 : 45,45,255

[HitObjects]
25,147,1090,6,0,P|97:130|159:197,1,165,4|0,0:3|0:0,0:0:0:0:
175,234,1840,2,0,P|252:179|320:205,1,165,0|0,0:3|0:0,0:0:0:0:
347,234,2590,2,0,L|371:107,1,110,2|0,0:0|0:0,0:0:0:0:
362,27,3340,2,0,B|419:43|459:6|459:6|448:59|473:136,1,220,2|4,0:0|0:3,0:0:0:0:
486,217,4465,5,0,0:0:0:0:
440,304,4840,2,0,P|365:334|290:303,1,165,0|0,0:0|0:0,0:0:0:0:
261,263,5590,2,0,L|186:257,1,55,2|0,0:0|0:0,0:0:0:0:
156,262,5965,2,0,L|45:255,2,110,0|2|0,0:0|0:0|0:0,0:0:0:0:
190,168,7090,5,4,1:0:0:0:
256,192,7465,12,0,10090,1:0:0:0:
66,273,10840,6,0,L|187:248,1,110,0|0,1:0|1:2,0:0:0:0:
270,231,11590,1,0,1:0:0:0:
354,284,11965,2,0,P|394:270|380:118,1,220,4|8,1:0|0:0,0:0:0:0:
311,63,13090,6,0,L|198:90,1,110,4|0,3:1|3:0,0:0:0:0:
109,116,13840,2,0,P|83:187|87:229,1,110,0|0,3:0|3:0,0:0:0:0:
95,268,14402,1,8,0:0:0:0:
95,268,14590,2,0,L|212:258,1,110,0|0,3:0|3:0,0:0:0:0:
253,268,15152,1,2,0:0:0:0:
253,268,15340,2,0,P|344:270|369:295,1,110,0|0,3:0|3:0,0:0:0:0:
453,287,16090,6,0,L|480:181,1,110,2|0,3:2|3:0,0:0:0:0:
495,133,16652,2,0,P|423:105|351:155,1,165,2|0,0:0|3:0,0:0:0:0:
314,178,17402,1,2,0:0:0:0:
314,178,17590,2,0,L|192:187,1,110,2|0,3:2|3:0,0:0:0:0:
133,254,18340,2,0,L|23:262,1,110,2|0,3:2|3:0,0:0:0:0:
35,163,19090,5,2,3:2:0:0:
122,116,19465,2,0,L|132:46,1,55,0|0,3:0|0:0,0:0:0:0:
144,14,19840,2,0,L|259:7,1,110,0|0,3:0|3:0,0:0:0:0:
299,25,20402,1,2,0:0:0:0:
299,25,20590,2,0,P|348:38|391:95,1,110,2|0,3:2|3:0,0:0:0:0:
330,163,21340,2,0,L|320:278,1,110,0|0,3:0|3:0,0:0:0:0:
415,301,22090,6,0,L|425:170,1,110,2|0,3:2|3:0,0:0:0:0:
419,142,22652,2,0,P|315:153|270:98,1,165,2|0,0:0|0:0,0:0:0:0:
245,77,23402,1,0,0:0:0:0:
245,77,23590,2,0,L|216:209,1,110,2|0,3:2|3:0,0:0:0:0:
131,143,24340,2,0,L|102:275,1,110,0|0,3:0|1:0,0:0:0:0:
147,341,25090,5,4,3:1:0:0:
48,338,25465,1,8,0:2:0:0:
9,246,25840,2,0,P|-1:195|0:132,2,110,2|8|2,3:2|0:2|3:2,0:0:0:0:
97,201,26965,1,8,0:2:0:0:
188,239,27340,2,0,L|307:212,1,110,0|8,3:0|0:2,0:0:0:0:
343,223,27902,1,2,0:0:0:0:
343,223,28090,6,0,P|357:312|345:343,1,110,0|8,3:0|0:2,0:0:0:0:
302,327,28652,2,0,L|134:323,1,165,2|8,0:2|0:2,0:0:0:0:
88,332,29402,1,0,0:0:0:0:
88,332,29590,2,0,P|39:261|50:221,1,110,0|8,3:0|0:2,0:0:0:0:
77,150,30340,1,0,3:0:0:0:
174,164,30715,1,8,1:2:0:0:
216,78,31090,6,0,L|334:68,1,110,4|8,3:1|0:2,0:0:0:0:
374,60,31652,1,0,0:0:0:0:
374,60,31840,2,0,L|388:170,1,110,0|8,3:0|0:0,0:0:0:0:
371,267,32590,2,0,L|249:262,1,110,4|8,3:0|0:2,0:0:0:0:
218,236,33152,1,0,0:0:0:0:
218,236,33340,2,0,L|202:350,1,110,0|8,3:0|0:2,0:0:0:0:
104,333,34090,6,0,L|123:212,1,110,2|8,3:2|0:2,0:0:0:0:
124,175,34652,1,0,0:0:0:0:
124,175,34840,2,0,L|14:161,1,110,0|8,3:0|0:0,0:0:0:0:
47,67,35590,2,0,L|160:83,1,110,4|8,0:3|1:2,0:0:0:0:
246,43,36340,2,0,L|276:109,1,55,8|0,0:0|1:0,0:0:0:0:
275,142,36715,2,0,L|264:214,1,55,0|8,1:0|1:2,0:0:0:0:
251,243,37090,6,0,P|267:319|345:319,1,165,4|0,3:1|0:0,0:0:0:0:
384,295,37840,2,0,L|498:278,2,110,2|2|2,1:2|3:2|3:2,0:0:0:0:
289,265,38965,1,0,3:0:0:0:
231,345,39340,1,4,1:3:0:0:
136,316,39715,1,0,3:0:0:0:
133,217,40090,6,0,P|150:140|88:96,1,165,2|2,3:2|0:0,0:0:0:0:
52,131,40840,2,0,L|13:243,2,110,2|2|2,1:2|3:2|3:2,0:0:0:0:
111,51,41965,1,0,3:0:0:0:
207,72,42340,2,0,L|235:7,2,55,4|0|12,1:0|0:0|1:2,0:0:0:0:
302,99,43090,6,0,P|352:189|323:252,1,165,4|0,3:1|0:0,0:0:0:0:
326,290,43840,2,0,L|204:288,1,110,0|10,3:1|1:2,0:0:0:0:
120,315,44590,2,0,P|128:234|55:183,1,165,0|0,3:1|0:0,0:0:0:0:
20,171,45340,1,0,3:1:0:0:
26,72,45715,1,10,1:2:0:0:
113,24,46090,6,0,L|227:21,1,110,4|10,3:1|1:2,0:0:0:0:
267,37,46652,1,2,0:0:0:0:
267,37,46840,2,0,L|389:41,1,110,4|10,3:0|1:2,0:0:0:0:
407,130,47590,1,4,3:0:0:0:
361,218,47965,2,0,L|338:340,2,110,10|0|10,1:2|3:0|1:2,0:0:0:0:
281,159,49090,5,2,1:2:0:0:
183,175,49465,1,2,1:2:0:0:
148,267,49840,1,2,1:2:0:0:
245,249,50215,1,2,1:2:0:0:
237,347,50590,6,0,L|365:333,1,110,10|8,1:2|0:0,0:0:0:0:
414,263,51340,2,0,L|432:203,2,55,2|0|8,0:0|0:0|1:3,0:0:0:0:
318,238,52090,6,0,L|333:123,1,110,4|8,3:1|1:2,0:0:0:0:
325,79,52652,1,2,0:0:0:0:
325,79,52840,2,0,L|202:83,1,110,4|8,3:0|1:2,0:0:0:0:
116,74,53590,2,0,L|86:130,1,55,0|2,3:0|0:0,0:0:0:0:
88,169,53965,2,0,L|97:226,1,55,8|2,1:2|0:0,0:0:0:0:
98,272,54340,2,0,L|214:248,1,110,0|8,3:0|1:1,0:0:0:0:
302,229,55090,6,0,L|314:342,1,110,0|8,3:0|1:2,0:0:0:0:
389,275,55840,2,0,L|377:147,1,110,0|8,3:0|1:2,0:0:0:0:
356,69,56590,1,0,3:0:0:0:
454,77,56965,1,8,1:2:0:0:
484,171,57340,2,0,L|486:228,1,55,0|8,3:0|0:1,0:0:0:0:
484,275,57715,1,8,1:1:0:0:
404,216,58090,5,4,3:1:0:0:
318,266,58465,1,8,1:2:0:0:
235,211,58840,2,0,L|123:197,1,110,0|0,3:0|1:0,0:0:0:0:
31,228,59590,1,0,3:0:0:0:
45,130,59965,1,10,1:2:0:0:
140,103,60340,2,0,P|162:66|143:-6,2,110,2|8|2,3:2|1:2|3:2,0:0:0:0:
119,199,61465,6,0,L|125:267,1,55,8|2,1:2|0:0,0:0:0:0:
136,301,61840,2,0,L|259:281,1,110,0|8,3:0|1:2,0:0:0:0:
342,301,62590,2,0,P|353:223|367:184,1,110,2|8,3:2|1:2,0:0:0:0:
380,147,63152,1,2,0:0:0:0:
380,147,63340,2,0,L|447:133,1,55,0|0,1:0|1:0,0:0:0:0:
465,173,63715,2,0,L|475:239,1,55,0|8,1:0|1:2,0:0:0:0:
478,275,64090,6,0,P|436:310|382:320,1,110,4|8,3:1|1:2,0:0:0:0:
333,329,64652,1,2,0:0:0:0:
333,329,64840,2,0,P|238:349|208:338,1,110,4|8,3:0|1:2,0:0:0:0:
186,320,65402,1,2,0:0:0:0:
186,320,65590,2,0,L|166:200,1,110,0|8,3:0|1:2,0:0:0:0:
211,122,66340,1,0,3:0:0:0:
123,75,66715,1,8,1:1:0:0:
61,152,67090,6,0,L|72:275,2,110,0|8|0,3:0|1:2|3:0,0:0:0:0:
123,75,68215,1,8,1:2:0:0:
202,133,68590,1,2,3:2:0:0:
290,88,68965,1,8,1:2:0:0:
378,132,69340,2,0,L|439:127,1,55,2|8,3:2|1:0,0:0:0:0:
478,108,69715,1,8,1:1:0:0:
450,202,70090,6,0,P|438:256|433:311,1,110,4|0,1:1|1:1,0:0:0:0:
340,346,70840,2,0,P|230:321|213:320,1,110,0|0,1:0|1:0,0:0:0:0:
186,304,71402,1,0,3:0:0:0:
151,268,71590,2,0,P|133:200|128:142,1,110,0|0,1:2|1:2,0:0:0:0:
162,67,72340,2,0,P|90:61|30:76,1,110,0|8,1:2|1:2,0:0:0:0:
21,105,72902,1,0,3:0:0:0:
21,154,73090,6,0,P|15:252|19:278,1,110,4|0,3:1|1:0,0:0:0:0:
92,327,73840,2,0,P|120:242|132:217,1,110,0|0,1:0|1:2,0:0:0:0:
172,200,74402,1,0,3:0:0:0:
172,200,74590,2,0,L|276:252,1,110,2|8,3:2|1:2,0:0:0:0:
314,160,75340,2,0,L|215:110,2,110,0|0|0,3:0|1:0|1:0,0:0:0:0:
256,192,77590,5,4,3:2:0:0:
100,104,89590,6,0,P|72:220|72:232,1,110,2|4,0:0|3:1,0:0:0:0:
83,308,90340,2,0,L|151:292,1,55,0|0,3:0|3:0,0:0:0:0:
222,246,90902,1,8,0:0:0:0:
222,246,91090,2,0,L|354:258,1,110,0|8,0:0|0:0,0:0:0:0:
429,240,91840,2,0,L|490:261,2,55,0|0|8,3:0|3:0|0:0,0:0:0:0:
359,169,92590,6,0,P|363:86|382:59,1,110,2|8,3:2|0:0,0:0:0:0:
410,29,93152,2,0,L|285:50,1,110,2|0,0:0|3:0,0:0:0:0:
251,49,93715,1,2,0:0:0:0:
251,49,93902,2,0,L|212:210,1,165,8|8,0:0|0:0,0:0:0:0:
114,191,94840,2,0,L|111:123,2,55,0|0|8,3:0|3:0|0:0,0:0:0:0:
43,260,95590,6,0,P|44:335|65:391,1,110,0|4,3:0|3:1,0:0:0:0:
146,333,96340,2,0,L|199:345,1,55,0|0,3:0|3:0,0:0:0:0:
293,311,96902,1,8,0:0:0:0:
293,311,97090,2,0,L|402:301,1,110,2|8,0:0|0:0,0:0:0:0:
417,203,97840,2,0,L|361:198,2,55,0|0|8,3:0|3:0|0:0,0:0:0:0:
429,104,98590,6,0,P|425:21|406:-6,1,110,2|8,3:2|0:0,0:0:0:0:
362,0,99152,2,0,L|306:112,1,110,2|0,0:0|3:0,0:0:0:0:
288,141,99715,1,2,0:0:0:0:
288,141,99902,2,0,L|257:303,1,165,8|8,0:0|0:0,0:0:0:0:
354,282,100840,2,0,L|365:212,2,55,0|2|8,3:0|3:2|1:2,0:0:0:0:
319,374,101590,5,4,3:1:0:0:
234,321,101965,1,8,0:2:0:0:
276,231,102340,2,0,P|276:176|266:122,2,110,0|8|2,3:1|0:2|3:2,0:0:0:0:
190,282,103465,1,8,0:2:0:0:
140,196,103840,2,0,L|21:223,1,110,0|8,3:0|0:2,0:0:0:0:
26,171,104402,1,2,0:0:0:0:
26,171,104590,6,0,P|12:82|24:51,1,110,0|8,3:0|0:2,0:0:0:0:
63,84,105152,2,0,L|231:88,1,165,2|8,0:2|0:2,0:0:0:0:
319,50,106090,2,0,P|368:121|357:161,1,110,2|8,3:2|0:2,0:0:0:0:
286,198,106840,1,2,3:2:0:0:
368,252,107215,1,8,1:2:0:0:
306,329,107590,6,0,L|188:339,1,110,4|8,3:1|0:2,0:0:0:0:
147,338,108152,1,0,0:0:0:0:
147,338,108340,2,0,L|133:228,1,110,0|8,3:0|0:0,0:0:0:0:
129,129,109090,2,0,L|251:134,1,110,2|8,3:2|0:2,0:0:0:0:
281,158,109652,1,0,0:0:0:0:
281,158,109840,2,0,L|297:44,1,110,0|8,3:0|0:0,0:0:0:0:
393,28,110590,6,0,L|374:149,1,110,2|8,3:2|0:2,0:0:0:0:
364,184,111152,1,0,0:0:0:0:
364,184,111340,2,0,L|474:198,1,110,0|8,3:0|0:0,0:0:0:0:
459,296,112090,2,0,L|348:283,1,110,4|8,0:3|0:0,0:0:0:0:
257,247,112840,2,0,L|227:181,1,55,0|0,0:0|1:0,0:0:0:0:
200,160,113215,2,0,L|211:88,1,55,0|8,1:0|1:2,0:0:0:0:
239,67,113590,6,0,L|53:62,1,165,4|2,3:1|0:0,0:0:0:0:
29,85,114340,2,0,P|7:132|20:196,2,110,4|0|0,1:2|1:2|3:0,0:0:0:0:
119,44,115465,1,0,3:0:0:0:
174,125,115840,1,4,1:3:0:0:
263,82,116215,1,0,3:0:0:0:
358,109,116590,6,0,P|387:156|330:246,1,165,2|2,3:2|0:0,0:0:0:0:
288,240,117340,2,0,L|251:343,2,110,0|0|0,1:2|1:2|1:0,0:0:0:0:
194,207,118465,1,8,0:0:0:0:
97,229,118840,2,0,L|75:100,1,110,4|12,1:0|1:2,0:0:0:0:
156,59,119590,6,0,P|246:9|309:38,1,165,4|0,3:1|0:0,0:0:0:0:
311,75,120340,2,0,L|433:77,1,110,0|10,3:1|1:2,0:0:0:0:
487,149,121090,2,0,P|503:209|502:320,1,165,0|0,3:1|0:0,0:0:0:0:
460,336,121840,1,0,3:1:0:0:
378,280,122215,1,10,1:2:0:0:
304,345,122590,6,0,L|188:356,1,110,4|10,3:1|1:2,0:0:0:0:
146,344,123152,1,2,0:0:0:0:
146,344,123340,2,0,L|24:340,1,110,4|10,3:0|1:2,0:0:0:0:
0,253,124090,1,4,3:0:0:0:
63,176,124465,2,0,L|86:54,2,110,8|0|10,1:2|3:0|1:2,0:0:0:0:
127,250,125590,5,2,1:2:0:0:
167,159,125965,1,2,1:2:0:0:
236,229,126340,1,2,1:2:0:0:
277,139,126715,1,2,1:2:0:0:
362,189,127090,6,0,L|471:177,1,110,2|8,1:2|0:0,0:0:0:0:
472,275,127840,2,0,L|454:335,2,55,2|0|8,0:0|0:0|1:3,0:0:0:0:
471,176,128590,6,0,L|485:66,1,110,4|8,3:1|1:2,0:0:0:0:
456,26,129152,1,2,0:0:0:0:
456,26,129340,2,0,L|346:29,1,110,0|8,3:2|1:2,0:0:0:0:
247,41,130090,2,0,L|184:40,1,55,0|2,3:0|0:0,0:0:0:0:
150,67,130465,2,0,L|76:96,1,55,8|2,1:2|0:0,0:0:0:0:
57,114,130840,2,0,L|34:238,1,110,0|8,3:0|1:1,0:0:0:0:
134,206,131590,6,0,L|145:315,1,110,0|8,3:0|1:2,0:0:0:0:
235,356,132340,2,0,P|295:331|343:323,1,110,0|8,3:0|1:2,0:0:0:0:
434,349,133090,1,0,3:0:0:0:
474,258,133465,1,8,1:2:0:0:
418,175,133840,2,0,L|416:118,1,55,0|8,3:0|0:1,0:0:0:0:
404,71,134215,1,8,1:1:0:0:
308,45,134590,5,4,3:1:0:0:
220,91,134965,1,8,1:2:0:0:
123,68,135340,2,0,P|99:120|106:180,1,110,0|8,3:0|1:2,0:0:0:0:
152,257,136090,1,0,3:0:0:0:
242,216,136465,1,8,1:2:0:0:
335,247,136840,2,0,P|353:192|338:137,2,110,2|8|2,3:2|1:2|3:2,0:0:0:0:
317,344,137965,6,0,L|244:335,1,55,8|2,1:2|0:0,0:0:0:0:
217,315,138340,2,0,L|94:335,1,110,0|8,3:0|1:2,0:0:0:0:
45,255,139090,2,0,P|60:202|65:147,1,110,0|8,3:0|1:2,0:0:0:0:
69,98,139652,1,2,0:0:0:0:
69,98,139840,2,0,L|2:112,1,55,8|0,0:0|1:0,0:0:0:0:
0,65,140215,2,0,L|15:-5,1,55,0|8,1:0|1:2,0:0:0:0:
60,5,140590,6,0,L|176:14,1,110,4|8,3:1|1:2,0:0:0:0:
214,34,141152,1,2,0:0:0:0:
214,34,141340,2,0,P|309:14|339:25,1,110,0|8,3:2|1:2,0:0:0:0:
364,34,141902,1,2,0:0:0:0:
364,34,142090,2,0,L|384:154,1,110,0|8,3:0|1:2,0:0:0:0:
458,206,142840,1,0,3:0:0:0:
403,288,143215,1,8,1:1:0:0:
312,327,143590,6,0,L|187:315,2,110,0|8|0,3:0|1:2|3:0,0:0:0:0:
335,230,144715,1,8,1:2:0:0:
264,160,145090,1,0,3:0:0:0:
189,225,145465,1,8,1:2:0:0:
126,148,145840,2,0,L|128:90,1,55,0|8,3:0|0:1,0:0:0:0:
133,43,146215,1,8,1:1:0:0:
34,45,146590,6,0,P|29:99|17:153,1,110,4|0,1:1|1:1,0:0:0:0:
2,251,147340,2,0,P|112:276|129:277,1,110,0|0,1:0|1:0,0:0:0:0:
146,243,147902,1,0,3:0:0:0:
146,243,148090,2,0,P|164:311|169:369,1,110,0|0,1:2|1:2,0:0:0:0:
266,367,148840,2,0,P|338:373|398:358,1,110,0|8,1:2|1:2,0:0:0:0:
421,350,149402,1,0,3:0:0:0:
421,350,149590,6,0,P|427:252|423:226,1,110,4|0,3:1|1:0,0:0:0:0:
356,170,150340,2,0,L|481:165,1,110,0|0,1:0|1:2,0:0:0:0:
493,124,150902,1,0,3:0:0:0:
493,124,151090,2,0,L|499:12,1,110,2|8,3:2|1:2,0:0:0:0:
400,1,151840,2,0,L|383:121,2,110,0|0|0,0:0|1:0|0:0,0:0:0:0:
32,192,154090,5,4,3:1:0:0:
40,136,166090,6,0,L|164:120,1,110,4|8,1:1|1:1,0:0:0:0:
176,163,166652,1,0,0:0:0:0:
176,163,166840,2,0,L|298:153,1,110,2|0,1:2|1:0,0:0:0:0:
333,165,167402,1,2,3:2:0:0:
333,165,167590,2,0,L|464:185,2,110,0|0|2,1:2|1:2|1:2,0:0:0:0:
269,241,168715,1,8,1:2:0:0:
173,214,169090,6,0,L|150:333,1,110,2|8,1:2|1:1,0:0:0:0:
112,350,169652,1,2,2:2:0:0:
112,350,169840,2,0,L|-18:319,1,110,0|0,1:0|1:2,0:0:0:0:
0,275,170402,1,2,3:2:0:0:
0,275,170590,2,0,L|22:165,1,110,0|0,1:0|1:0,0:0:0:0:
107,118,171340,1,0,1:0:0:0:
183,180,171715,1,0,1:0:0:0:
272,136,172090,6,0,L|383:114,2,110,4|8|0,1:0|1:0|1:0,0:0:0:0:
183,180,173215,1,0,1:0:0:0:
84,186,173590,2,0,P|46:124|56:81,2,110,0|0|0,1:0|1:0|1:0,0:0:0:0:
162,247,174715,1,0,1:0:0:0:
118,335,175090,6,0,L|1:319,1,110,4|0,1:0|1:0,0:0:0:0:
53,230,175840,2,0,L|185:250,1,110,0|0,1:0|1:0,0:0:0:0:
253,209,176590,1,0,1:0:0:0:
236,111,176965,1,0,1:0:0:0:
316,53,177340,1,0,1:0:0:0:
406,93,177715,1,0,1:0:0:0:
424,190,178090,6,0,L|444:313,2,110,4|8|2,1:1|1:1|1:2,0:0:0:0:
327,166,179215,1,0,1:0:0:0:
280,253,179590,2,0,L|170:280,1,110,0|0,1:2|1:2,0:0:0:0:
133,188,180340,2,0,P|79:170|8:170,1,110,2|12,1:2|1:2,0:0:0:0:
31,118,180902,1,0,3:2:0:0:
31,118,181090,6,0,L|65:-1,1,110,6|8,1:2|1:1,0:0:0:0:
159,25,181840,1,0,1:0:0:0:
257,16,182215,1,0,1:2:0:0:
355,10,182590,2,0,P|365:88|366:134,1,110,0|0,1:0|1:0,0:0:0:0:
280,169,183340,1,8,0:0:0:0:
275,267,183715,1,8,0:0:0:0:
321,354,184090,6,0,L|480:270,1,165,4|0,3:1|0:0,0:0:0:0:
475,227,184840,2,0,P|475:167|461:112,1,110,0|8,3:0|0:0,0:0:0:0:
369,87,185590,2,0,P|243:102|214:74,1,165,2|0,3:2|0:0,0:0:0:0:
195,42,186340,2,0,L|79:32,1,110,0|8,3:0|0:0,0:0:0:0:
46,123,187090,6,0,P|11:257|30:287,1,165,4|0,3:1|0:0,0:0:0:0:
55,303,187840,1,0,3:0:0:0:
141,254,188215,1,8,0:0:0:0:
215,319,188590,2,0,L|293:305,1,55,4|0,3:1|0:0,0:0:0:0:
305,275,188965,2,0,L|430:301,1,110,10|0,1:2|3:0,0:0:0:0:
450,205,189715,1,10,0:0:0:0:
365,154,190090,6,0,L|358:42,1,110,4|2,1:1|1:2,0:0:0:0:
260,29,190840,1,2,1:2:0:0:
170,71,191215,1,2,1:2:0:0:
71,81,191590,2,0,L|60:200,1,110,2|2,1:2|1:2,0:0:0:0:
75,288,192340,1,2,1:2:0:0:
170,263,192715,1,2,1:2:0:0:
265,237,193090,6,0,L|277:367,1,110,4|2,1:0|1:2,0:0:0:0:
368,312,193840,1,2,1:2:0:0:
361,213,194215,1,2,1:2:0:0:
353,114,194590,1,2,1:2:0:0:
256,192,202090,5,4,3:1:0:0:
256,192,202465,12,0,206590,3:0:0:0:
256,48,207340,5,0,1:0:0:0:
256,147,207715,2,0,L|256:227,1,55,8|8,0:0|0:0,0:0:0:0:
242,249,208090,6,0,L|358:240,1,110,4|8,3:1|1:2,0:0:0:0:
397,222,208652,1,2,0:0:0:0:
397,222,208840,2,0,P|409:283|403:340,1,110,4|8,3:0|1:2,0:0:0:0:
367,363,209402,1,2,0:0:0:0:
367,363,209590,2,0,L|255:352,1,110,0|8,3:0|1:2,0:0:0:0:
181,288,210340,1,0,3:0:0:0:
93,334,210715,1,8,1:1:0:0:
34,254,211090,6,0,L|65:134,2,110,0|8|0,3:0|1:2|3:0,0:0:0:0:
104,324,212215,1,8,1:2:0:0:
193,281,212590,1,2,3:2:0:0:
283,319,212965,1,8,1:2:0:0:
372,277,213340,2,0,L|371:223,1,55,2|8,3:2|1:0,0:0:0:0:
363,172,213715,1,8,1:1:0:0:
275,125,214090,6,0,P|270:70|258:16,1,110,4|0,1:1|1:1,0:0:0:0:
160,33,214840,2,0,P|105:41|53:57,1,110,2|0,1:2|1:0,0:0:0:0:
44,105,215402,1,2,3:2:0:0:
44,105,215590,1,0,1:2:0:0:
52,203,215965,1,0,1:2:0:0:
48,302,216340,2,0,P|120:296|180:311,1,110,0|8,1:2|1:2,0:0:0:0:
187,341,216902,1,0,3:0:0:0:
187,341,217090,5,4,3:1:0:0:
232,253,217465,1,0,1:0:0:0:
326,222,217840,1,0,1:0:0:0:
390,297,218215,1,0,1:2:0:0:
482,260,218590,1,4,3:1:0:0:
486,161,218965,1,8,1:2:0:0:
396,118,219340,2,0,L|404:9,2,110,0|0|0,1:0|1:0|0:0,0:0:0:0:
297,99,221590,6,0,L|175:103,1,110,4|0,3:1|3:0,0:0:0:0:
140,119,222152,2,0,P|123:218|126:248,1,110,2|0,0:0|2:0,0:0:0:0:
137,274,222715,1,2,3:2:0:0:
194,354,223090,1,0,3:0:0:0:
194,354,223277,2,0,L|326:340,1,110,2|0,0:0|0:0,0:0:0:0:
348,321,223840,2,0,P|354:233|330:201,1,110,2|0,3:2|3:0,0:0:0:0:
275,146,224590,6,0,L|286:81,2,55,0|0|2,3:0|0:0|3:2,0:0:0:0:
217,226,225340,1,0,3:0:0:0:
217,226,225527,2,0,L|81:215,1,110,2|0,0:0|0:0,0:0:0:0:
77,177,226090,1,2,3:2:0:0:
79,78,226465,2,0,L|71:2,2,55,0|2|0,3:0|0:0|3:0,0:0:0:0:
177,83,227215,1,2,3:2:0:0:
171,181,227590,6,0,L|159:300,1,110,4|0,3:1|3:0,0:0:0:0:
154,339,228152,1,0,0:0:0:0:
154,339,228340,2,0,P|243:328|279:343,1,110,2|0,3:2|3:0,0:0:0:0:
309,341,228902,2,0,P|345:287|338:228,1,110,2|0,0:0|0:0,0:0:0:0:
316,202,229465,2,0,L|451:193,1,110,2|0,3:2|3:0,0:0:0:0:
467,167,230027,2,0,L|451:53,1,110,2|0,0:0|0:0,0:0:0:0:
428,16,230590,5,2,3:2:0:0:
336,52,230965,1,0,3:0:0:0:
336,52,231152,2,0,L|318:186,1,110,2|0,0:0|2:0,0:0:0:0:
310,209,231715,1,2,3:2:0:0:
277,302,232090,1,0,3:0:0:0:
277,302,232277,2,0,L|148:295,1,110,2|0,0:0|2:0,0:0:0:0:
119,283,232840,1,0,3:0:0:0:
116,185,233215,2,0,L|46:185,1,55,8|0,0:0|3:0,0:0:0:0:
18,210,233590,6,0,P|-2:256|34:360,1,165,4|2,3:1|0:0,0:0:0:0:
83,362,234340,1,2,3:2:0:0:
83,362,234527,2,0,L|201:346,1,110,0|8,3:0|0:0,0:0:0:0:
278,304,235277,2,0,L|345:297,1,55,2|8,3:2|0:0,0:0:0:0:
386,214,235840,2,0,L|455:222,2,55,2|0|8,0:0|3:0|0:0,0:0:0:0:
295,173,236590,6,0,P|297:104|330:57,1,110,2|8,0:0|0:0,0:0:0:0:
413,47,237340,1,0,3:0:0:0:
413,47,237527,1,2,0:0:0:0:
443,141,237902,1,8,0:0:0:0:
443,141,238090,2,0,L|419:251,1,110,0|8,0:0|0:0,0:0:0:0:
326,281,238840,2,0,L|313:342,2,55,0|0|8,3:0|3:0|0:0,0:0:0:0:
242,227,239590,6,0,P|268:167|239:74,1,165,4|0,3:2|0:0,0:0:0:0:
205,39,240340,2,0,L|141:58,1,55,2|0,3:2|3:0,0:0:0:0:
53,49,240902,2,0,P|32:125|34:167,1,110,10|2,0:2|3:2,0:0:0:0:
80,168,241465,2,0,L|65:288,1,110,8|0,0:0|3:0,0:0:0:0:
80,324,242027,2,0,L|145:306,1,55,2|8,3:2|0:0,0:0:0:0:
229,333,242590,6,0,P|244:283|238:171,1,165,2|2,3:2|0:2,0:0:0:0:
215,127,243340,2,0,L|216:67,2,55,0|0|0,3:0|3:0|0:0,0:0:0:0:
173,153,243902,2,0,L|52:144,1,110,10|2,0:0|3:2,0:0:0:0:
13,140,244465,1,8,0:0:0:0:
51,49,244840,2,0,L|120:57,1,55,2|2,3:2|3:2,0:0:0:0:
153,40,245215,2,0,L|214:50,1,55,8|2,0:0|0:0,0:0:0:0:
