osu file format v14

[General]
AudioFilename: audio.mp3
AudioLeadIn: 0
PreviewTime: 127465
Countdown: 0
SampleSet: Soft
StackLeniency: 0.7
Mode: 0
LetterboxInBreaks: 0
WidescreenStoryboard: 0

[Editor]
DistanceSpacing: 0.9
BeatDivisor: 4
GridSize: 4
TimelineZoom: 2

[Metadata]
Title:Hana wa Odore ya Irohaniho
TitleUnicode:花ハ踊レヤいろはにほ
Artist:Team "Hanayamata"
ArtistUnicode:チーム"ハナヤマタ"
Creator:Fycho
Version:Dance
Source:ハナヤマタ
Tags:momochikun yf_bmp pata-mon
BeatmapID:1123314
BeatmapSetID:529815

[Difficulty]
HPDrainRate:7
CircleSize:4.1
OverallDifficulty:8.8
ApproachRate:9
SliderMultiplier:1.7
SliderTickRate:1

[Events]
//Background and Video events
0,0,"3e322b4baaeb01e71ac8be8ce691e85b.jpeg",0,0
//Break Periods
2,196090,201021
//Storyboard Layer 0 (Background)
//Storyboard Layer 1 (Fail)
//Storyboard Layer 2 (Pass)
//Storyboard Layer 3 (Foreground)
//Storyboard Sound Samples

[TimingPoints]
1090,375,4,2,1,40,1,0
1090,-133.333333333333,4,2,1,40,0,0
6621,-133.333333333333,4,2,1,5,0,0
6715,-133.333333333333,4,2,1,60,0,0
6996,-133.333333333333,4,2,1,5,0,0
7090,-100,4,2,1,50,0,0
8590,-100,4,2,1,60,0,0
10090,-100,4,2,1,70,0,0
13090,-111.111111111111,4,2,2,60,0,0
25090,-100,4,2,1,60,0,0
37090,-111.111111111111,4,2,1,60,0,0
42340,-100,4,2,1,60,0,0
49090,-100,4,2,1,70,0,0
50590,-100,4,2,1,60,0,0
50965,-125,4,2,2,60,0,0
51152,-125,4,2,1,40,0,0
51621,-125,4,2,1,5,0,0
51715,-125,4,2,1,60,0,0
51996,-125,4,2,1,5,0,0
52090,-100,4,2,1,75,0,1
54715,-83.3333333333333,4,2,1,75,0,1
55090,-100,4,2,1,75,0,1
66715,-83.3333333333333,4,2,1,60,0,1
67090,-100,4,2,1,60,0,1
76090,-100,4,2,1,60,0,0
89590,-111.111111111111,4,2,1,60,0,0
101590,-100,4,2,1,60,0,0
113590,-111.111111111111,4,2,1,60,0,0
114340,-90.9090909090909,4,2,1,60,0,0
114715,-111.111111111111,4,2,1,60,0,0
118840,-100,4,2,1,60,0,0
119590,-100,4,2,1,60,0,0
127465,-125,4,2,2,60,0,0
127652,-125,4,2,1,40,0,0
128121,-125,4,2,1,5,0,0
128215,-125,4,2,1,60,0,0
128590,-100,4,2,1,60,0,1
131215,-83.3333333333333,4,2,1,60,0,1
131590,-100,4,2,1,60,0,1
143215,-83.3333333333333,4,2,1,60,0,1
143590,-100,4,2,1,60,0,1
152590,-100,4,2,1,60,0,0
153715,-125,4,2,1,60,0,0
154090,-100,4,2,1,70,0,0
166840,-100,4,2,1,70,0,0
201715,-133.333333333333,4,2,1,60,0,0
205090,-100,4,2,1,60,0,0
208090,-100,4,2,1,60,0,1
210715,-83.3333333333333,4,2,1,60,0,1
211090,-100,4,2,1,60,0,1
220090,-100,4,2,1,60,0,0

[Colours]
Combo1 : 255,155,198
Combo2 : 77,225,218
Combo3 : 226,46,194
Combo4 : 45,45,255

[HitObjects]
116,250,1090,6,0,P|179:237|243:234,1,127.500004863739,4|0,0:3|0:0,0:0:0:0:
345,231,1652,1,0,0:0:0:0:
297,124,1840,2,0,P|234:112|170:108,1,127.500004863739,2|0,0:0|0:0,0:0:0:0:
48,149,2402,1,0,0:0:0:0:
117,250,2590,6,0,P|122:215|122:181,1,63.7500024318696,2|0,0:0|0:0,0:0:0:0:
29,289,2965,2,0,P|40:330|51:353,1,63.7500024318696,0|0,0:0|0:0,0:0:0:0:
215,257,3340,1,2,0:0:0:0:
215,257,4090,6,0,L|198:327,1,63.7500024318696,4|0,0:3|0:0,0:0:0:0:
299,227,4465,2,0,L|314:165,1,63.7500024318696,0|0,0:0|0:0,0:0:0:0:
292,65,4840,2,0,P|338:141|426:122,1,191.250007295609,0|0,0:0|0:0,0:0:0:0:
292,65,5590,5,2,0:0:0:0:
207,108,5777,1,0,0:0:0:0:
118,70,5965,1,0,0:0:0:0:
46,132,6152,1,0,0:0:0:0:
41,226,6340,2,0,P|33:283|49:357,1,127.500004863739,2|0,0:0|0:0,0:0:0:0:
147,299,6902,1,0,0:0:0:0:
253,381,7090,6,0,L|241:286,1,85,4|0,1:0|1:0,0:0:0:0:
225,191,7465,1,0,1:0:0:0:
332,260,7652,1,0,1:0:0:0:
147,299,7840,1,0,1:0:0:0:
312,167,8027,1,0,1:0:0:0:
242,296,8215,1,0,1:0:0:0:
250,94,8402,1,0,1:0:0:0:
423,192,8590,5,0,1:0:0:0:
247,202,8777,1,0,1:0:0:0:
350,85,8965,1,0,1:0:0:0:
448,284,9152,1,0,1:0:0:0:
219,311,9340,1,0,1:0:0:0:
342,170,9527,1,0,1:0:0:0:
373,376,9715,1,0,1:0:0:0:
259,220,9902,1,0,1:0:0:0:
451,186,10090,6,0,L|437:291,1,85,6|0,1:2|1:0,0:0:0:0:
258,335,10465,1,0,1:0:0:0:
329,120,10652,1,0,1:0:0:0:
358,234,10840,1,0,1:0:0:0:
227,114,11027,1,0,1:0:0:0:
458,158,11215,1,0,1:0:0:0:
207,222,11402,1,0,1:0:0:0:
491,291,11590,5,0,1:2:0:0:
243,367,11777,1,0,1:0:0:0:
448,347,11965,2,0,P|472:314|429:203,1,170,4|4,1:0|0:0,0:0:0:0:
269,223,12527,1,0,0:0:0:0:
269,223,12621,1,0,0:0:0:0:
269,223,12715,2,0,L|220:249,1,42.5,8|8,0:0|0:0,0:0:0:0:
257,360,12902,2,0,L|214:314,1,42.5,8|8,0:0|0:0,0:0:0:0:
152,283,13090,6,0,L|-24:298,1,152.999995330811,4|0,3:1|3:0,0:0:0:0:
16,197,13652,1,0,0:0:0:0:
101,161,13840,2,0,P|116:113|50:34,1,152.999995330811,0|0,3:0|3:0,0:0:0:0:
101,161,14402,1,8,0:0:0:0:
199,194,14590,6,0,L|281:170,1,76.4999976654053,0|0,3:0|0:0,0:0:0:0:
116,249,14965,2,0,P|99:283|105:335,1,76.4999976654053,0|2,3:0|0:0,0:0:0:0:
237,379,15340,2,0,P|300:358|292:265,1,152.999995330811,0|0,3:0|3:0,0:0:0:0:
229,187,15902,1,0,0:0:0:0:
229,187,15996,1,0,0:0:0:0:
229,187,16090,6,0,L|408:161,1,152.999995330811,2|0,3:2|3:0,0:0:0:0:
454,217,16652,2,0,P|407:146|426:71,1,152.999995330811,2|2,0:0|0:0,0:0:0:0:
243,82,17215,1,0,3:0:0:0:
330,18,17402,1,2,0:0:0:0:
334,143,17590,6,0,P|294:187|199:180,1,152.999995330811,2|0,3:2|3:0,0:0:0:0:
98,115,18152,1,0,0:0:0:0:
120,240,18340,2,0,L|110:330,1,76.4999976654053,2|8,3:2|0:0,0:0:0:0:
111,316,18621,1,0,0:0:0:0:
111,316,18715,1,0,3:0:0:0:
220,368,18902,1,8,0:0:0:0:
220,368,18996,1,0,0:0:0:0:
220,368,19090,6,0,P|294:341|376:338,1,152.999995330811,2|0,3:2|3:0,0:0:0:0:
460,240,19652,1,0,0:0:0:0:
366,186,19840,2,0,P|263:223|208:215,1,152.999995330811,0|0,3:0|3:0,0:0:0:0:
143,126,20402,1,2,0:0:0:0:
143,126,20496,1,2,0:0:0:0:
143,126,20590,6,0,P|125:161|117:289,1,152.999995330811,2|0,3:2|3:0,0:0:0:0:
113,272,21152,1,0,0:0:0:0:
285,335,21340,2,0,L|298:251,1,76.4999976654053,0|0,3:0|0:0,0:0:0:0:
328,69,21715,2,0,P|272:88|246:86,1,76.4999976654053,0|2,3:0|0:0,0:0:0:0:
218,98,21996,1,0,0:0:0:0:
218,98,22090,6,0,P|288:105|360:174,1,152.999995330811,2|0,3:2|3:0,0:0:0:0:
266,295,22652,2,0,L|284:197,1,76.4999976654053,0|0,0:0|3:0,0:0:0:0:
430,182,23027,1,10,0:0:0:0:
360,261,23215,1,0,0:0:0:0:
451,274,23402,1,0,0:0:0:0:
362,352,23590,6,0,L|201:335,1,152.999995330811,2|0,3:2|3:0,0:0:0:0:
138,256,24152,1,2,0:0:0:0:
75,342,24340,1,0,3:0:0:0:
123,158,24527,1,10,0:0:0:0:
225,232,24715,1,0,1:0:0:0:
138,256,24902,1,8,0:2:0:0:
218,126,25090,6,0,P|223:64|117:21,1,170,4|8,3:1|0:2,0:0:0:0:
79,100,25652,1,0,0:0:0:0:
73,207,25840,2,0,P|62:245|78:299,1,85,2|0,3:2|3:0,0:0:0:0:
182,378,26215,2,0,P|202:334|189:284,1,85,8|0,0:2|0:0,0:0:0:0:
169,152,26590,6,0,P|208:216|313:218,1,170,2|8,3:2|0:2,0:0:0:0:
380,156,27152,1,0,0:0:0:0:
470,266,27340,2,0,P|485:206|468:178,1,85,0|0,3:0|3:0,0:0:0:0:
412,41,27715,1,8,0:2:0:0:
380,156,27902,1,2,0:0:0:0:
284,81,28090,6,0,P|228:64|139:140,1,170,0|8,3:0|0:2,0:0:0:0:
34,178,28652,2,0,L|52:95,1,85,2|0,0:2|3:0,0:0:0:0:
121,228,29027,2,0,L|102:310,1,85,2|8,3:2|0:2,0:0:0:0:
216,196,29402,1,0,0:0:0:0:
322,273,29590,6,0,P|344:186|304:107,1,170,0|8,3:0|0:2,0:0:0:0:
312,115,30152,1,0,0:0:0:0:
431,183,30340,2,0,P|430:225|417:265,1,85,0|0,3:0|3:0,0:0:0:0:
240,289,30715,2,0,P|276:273|336:276,1,85,8|0,1:2|0:0,0:0:0:0:
148,335,31090,6,0,P|76:310|87:214,1,170,4|8,3:1|0:2,0:0:0:0:
198,195,31652,1,0,0:0:0:0:
179,77,31840,2,0,L|0:65,1,170,0|8,3:0|0:0,0:0:0:0:
94,172,32402,1,0,0:0:0:0:
248,131,32590,6,0,P|268:79|243:26,1,85,4|0,3:0|0:0,0:0:0:0:
144,6,32965,1,8,0:2:0:0:
144,6,33152,1,0,0:0:0:0:
82,121,33340,2,0,L|48:296,1,170,0|8,3:0|0:2,0:0:0:0:
156,283,33902,1,0,0:0:0:0:
185,182,34090,6,0,P|330:159|377:189,1,170,2|8,3:2|0:2,0:0:0:0:
407,247,34652,1,0,0:0:0:0:
482,176,34840,2,0,P|484:127|471:81,1,85,0|0,3:0|3:0,0:0:0:0:
346,0,35215,2,0,P|344:49|357:95,1,85,8|0,0:0|0:0,0:0:0:0:
364,211,35590,6,0,L|354:328,1,85,4|2,0:3|0:0,0:0:0:0:
218,351,35965,2,0,L|214:248,1,85,8|2,1:2|0:0,0:0:0:0:
214,266,36246,1,10,0:0:0:0:
214,266,36340,1,8,0:0:0:0:
238,126,36527,1,0,1:0:0:0:
204,106,36621,1,0,1:0:0:0:
165,102,36715,1,0,1:0:0:0:
133,122,36808,1,0,1:0:0:0:
100,141,36902,1,8,1:2:0:0:
61,144,36996,1,8,1:2:0:0:
29,121,37090,6,0,L|5:271,1,114.749996498108,4|2,3:1|0:2,0:0:0:0:
5,265,37465,2,0,L|98:245,1,76.4999976654053
131,336,37840,2,0,L|224:328,1,76.4999976654053,2|0,1:2|0:0,0:0:0:0:
320,379,38215,2,0,P|298:315|380:262,1,152.999995330811,2|2,3:2|3:2,0:0:0:0:
449,323,38777,5,2,0:0:0:0:
419,180,38965,1,0,3:0:0:0:
503,240,39152,1,2,0:0:0:0:
363,270,39340,2,0,L|352:364,1,76.4999976654053,4|0,1:3|0:0,0:0:0:0:
503,240,39715,2,0,L|508:150,1,76.4999976654053,0|0,3:0|0:0,0:0:0:0:
438,65,40090,6,0,P|379:85|341:147,1,114.749996498108,2|2,3:2|0:2,0:0:0:0:
348,144,40465,2,0,L|251:158,1,76.4999976654053,0|2,3:0|0:0,0:0:0:0:
364,269,40840,1,2,1:2:0:0:
113,370,41215,2,0,P|32:348|20:261,1,152.999995330811,2|2,3:2|3:2,0:0:0:0:
68,186,41777,5,2,0:0:0:0:
215,223,41965,1,0,3:0:0:0:
105,254,42152,1,2,0:0:0:0:
248,307,42340,6,0,L|376:274,1,127.5,4|0,1:0|0:0,0:0:0:0:
457,300,42715,2,0,P|447:227|471:174,1,127.5,12|2,1:2|0:0,0:0:0:0:
460,93,43090,6,0,L|362:95,1,85,4|0,3:1|0:0,0:0:0:0:
286,27,43465,2,0,L|182:52,1,85,10|0,1:2|0:0,0:0:0:0:
130,146,43840,2,0,P|68:152|16:61,1,170,0|10,3:1|1:2,0:0:0:0:
130,146,44402,1,0,0:0:0:0:
191,234,44590,6,0,L|169:332,1,85,0|0,3:1|0:0,0:0:0:0:
56,228,44965,1,10,1:2:0:0:
130,146,45152,1,0,0:0:0:0:
191,232,45340,2,0,P|247:214|251:115,1,170,0|10,3:1|1:2,0:0:0:0:
147,36,45902,1,0,3:0:0:0:
251,115,46090,6,0,L|421:142,1,170,4|10,3:1|1:2,0:0:0:0:
371,225,46652,1,2,0:0:0:0:
512,129,46840,2,0,P|514:56|436:2,1,170,4|10,3:0|1:2,0:0:0:0:
347,88,47402,1,0,0:2:0:0:
242,34,47590,6,0,L|218:203,1,170,4|10,3:0|1:2,0:0:0:0:
113,267,48152,1,2,0:0:0:0:
135,167,48340,1,0,3:0:0:0:
275,270,48527,1,0,3:0:0:0:
134,358,48715,2,0,P|93:361|56:342,1,85,10|2,1:2|3:0,0:0:0:0:
135,167,49090,5,2,1:2:0:0:
352,242,49277,1,0,3:0:0:0:
329,142,49465,1,2,1:2:0:0:
115,262,49652,1,0,3:0:0:0:
157,85,49840,5,2,1:2:0:0:
346,210,50027,1,0,3:0:0:0:
306,47,50215,1,2,1:2:0:0:
134,174,50402,1,0,3:0:0:0:
172,9,50590,5,10,1:2:0:0:
172,9,50965,2,0,L|159:88,1,68,8|0,0:0|0:0,0:0:0:0:
160,251,51340,2,0,L|175:164,1,68,2|0,0:0|0:0,0:0:0:0:
293,127,51715,2,0,L|311:234,1,102,8|0,1:3|0:0,0:0:0:0:
345,256,52090,6,0,P|407:145|364:109,1,170,4|8,3:1|1:2,0:0:0:0:
242,79,52652,1,2,0:0:0:0:
197,271,52840,2,0,P|120:277|102:186,1,170,4|8,3:0|1:2,0:0:0:0:
259,173,53402,1,2,0:0:0:0:
301,332,53590,5,0,3:0:0:0:
176,183,53777,1,2,0:0:0:0:
93,360,53965,1,8,1:2:0:0:
219,279,54152,1,2,0:0:0:0:
94,200,54340,2,0,L|65:304,1,85,0|0,3:0|0:0,0:0:0:0:
224,185,54715,6,0,P|242:143|155:65,1,152.999995330811,8|0,1:1|0:0,0:0:0:0:
171,42,55090,6,0,L|264:30,1,85,0|2,3:0|0:0,0:0:0:0:
446,104,55465,2,0,L|352:114,1,85,8|2,1:2|0:0,0:0:0:0:
249,183,55840,2,0,P|212:241|219:341,1,170,0|8,3:0|1:2,0:0:0:0:
322,270,56402,1,2,0:0:0:0:
90,350,56590,5,0,3:0:0:0:
175,150,56777,1,2,0:2:0:0:
187,260,56965,1,8,1:2:0:0:
92,131,57152,1,2,0:0:0:0:
307,180,57340,1,0,3:0:0:0:
48,228,57527,5,8,0:1:0:0:
342,305,57715,1,8,1:1:0:0:
342,305,58090,6,0,L|238:327,1,85,4|0,3:1|0:0,0:0:0:0:
259,201,58465,2,0,P|268:138|230:101,1,85,8|0,1:2|0:0,0:0:0:0:
170,267,58840,1,0,3:0:0:0:
74,311,59027,2,0,P|65:264|76:226,1,85,2|0,0:0|1:0,0:0:0:0:
157,160,59402,1,2,0:0:0:0:
249,270,59590,6,0,P|288:210|258:121,1,170,0|10,3:0|1:2,0:0:0:0:
157,160,60152,1,0,0:0:0:0:
124,269,60340,2,0,L|115:372,1,85,2|0,3:2|0:0,0:0:0:0:
50,179,60715,2,0,P|47:116|63:84,1,85,8|0,1:2|0:0,0:0:0:0:
175,16,61090,6,0,P|261:14|323:104,1,170,2|8,3:2|1:2,0:0:0:0:
220,157,61652,1,2,0:0:0:0:
275,269,61840,2,0,P|391:242|456:233,1,170,0|8,3:0|1:2,0:0:0:0:
358,346,62402,1,2,0:0:0:0:
229,365,62590,6,0,P|104:334|39:335,1,170,2|8,3:2|1:2,0:0:0:0:
59,154,63152,2,0,L|50:245,1,85,2|0,0:0|1:0,0:0:0:0:
149,109,63527,1,0,1:0:0:0:
184,93,63621,1,0,1:0:0:0:
222,90,63715,1,0,1:0:0:0:
254,109,63808,1,0,1:0:0:0:
288,126,63902,1,8,1:2:0:0:
326,122,63996,1,8,1:2:0:0:
352,96,64090,6,0,L|409:277,1,170,4|8,3:1|1:2,0:0:0:0:
306,225,64652,1,2,0:0:0:0:
474,143,64840,2,0,P|489:59|424:21,1,170,4|8,3:0|1:2,0:0:0:0:
312,138,65402,1,2,0:0:0:0:
335,31,65590,5,0,3:0:0:0:
436,208,65777,1,2,0:0:0:0:
239,259,65965,1,8,1:2:0:0:
386,124,66152,1,2,0:0:0:0:
239,259,66340,2,0,L|245:174,1,85,0|0,3:0|0:0,0:0:0:0:
76,308,66715,6,0,P|38:243|54:170,1,152.999995330811,8|0,1:1|0:0,0:0:0:0:
69,147,67090,5,0,3:0:0:0:
245,174,67277,1,2,0:0:0:0:
149,203,67465,1,8,1:2:0:0:
277,87,67652,1,2,0:0:0:0:
311,252,67840,5,0,3:0:0:0:
174,108,68027,1,2,0:2:0:0:
390,118,68215,1,8,1:2:0:0:
215,256,68402,1,2,0:2:0:0:
280,43,68590,5,2,3:2:0:0:
424,220,68777,1,2,0:0:0:0:
245,174,68965,1,8,1:2:0:0:
390,20,69152,1,2,0:0:0:0:
327,263,69340,1,2,3:2:0:0:
463,97,69527,5,8,1:0:0:0:
132,212,69715,1,8,1:1:0:0:
132,212,70090,6,0,L|106:89,1,85,4|0,1:1|0:0,0:0:0:0:
279,24,70465,2,0,L|305:128,1,85,0|0,1:1|0:0,0:0:0:0:
242,253,70840,5,0,1:0:0:0:
437,165,71027,1,0,3:0:0:0:
378,312,71215,1,0,1:0:0:0:
300,107,71402,1,0,3:0:0:0:
242,253,71590,5,0,1:2:0:0:
300,107,71777,1,2,0:2:0:0:
413,239,71965,1,0,1:2:0:0:
264,177,72152,1,2,3:2:0:0:
407,96,72340,5,0,1:2:0:0:
378,312,72527,1,2,3:2:0:0:
264,177,72715,1,8,1:2:0:0:
461,169,72902,1,0,3:0:0:0:
262,305,73090,5,4,3:1:0:0:
293,100,73277,1,0,0:2:0:0:
374,223,73465,1,0,1:0:0:0:
158,285,73652,1,2,2:2:0:0:
194,55,73840,5,0,1:0:0:0:
277,200,74027,1,0,0:0:0:0:
88,215,74215,1,0,1:2:0:0:
190,137,74402,1,0,3:0:0:0:
56,106,74590,6,0,L|76:22,1,85,2|0,3:2|0:0,0:0:0:0:
289,150,74965,2,0,L|301:254,1,85,8|0,1:2|0:0,0:0:0:0:
475,83,75340,2,0,L|497:171,1,85,0|0,3:0|1:0,0:0:0:0:
499,190,75621,1,0,1:0:0:0:
499,189,75715,2,0,L|501:245,1,42.5,0|0,1:0|1:0,0:0:0:0:
441,312,75902,1,8,1:2:0:0:
441,312,75996,1,8,1:2:0:0:
441,312,76090,1,8,0:0:0:0:
183,96,77590,6,0,L|9:85,1,170,4|8,3:2|0:0,0:0:0:0:
31,185,78152,2,0,L|139:183,1,85,2|2,0:0|3:2,0:0:0:0:
76,294,78527,1,0,3:0:0:0:
196,317,78715,2,0,P|216:259|195:210,1,85,2|8,0:0|0:0,0:0:0:0:
155,111,79090,5,0,0:0:0:0:
256,167,79277,2,0,L|353:183,1,85,2|8,3:2|0:0,0:0:0:0:
355,289,79652,1,0,0:0:0:0:
448,199,79840,2,0,P|457:150|416:90,1,85,2|0,0:0|3:0,0:0:0:0:
320,53,80215,2,0,P|280:92|272:127,1,85,8|2,0:0|0:0,0:0:0:0:
230,258,80590,6,0,P|167:264|127:241,1,85,2|0,0:0|0:0,0:0:0:0:
106,82,80965,2,0,L|291:123,1,170,10|0,0:0|3:0,0:0:0:0:
327,250,81527,2,0,P|311:312|282:327,1,85,2|0,0:0|0:0,0:0:0:0:
189,185,81902,1,8,0:0:0:0:
375,170,82090,6,0,L|475:198,1,85,2|0,0:0|3:0,0:0:0:0:
327,250,82465,1,8,0:0:0:0:
271,118,82652,2,0,P|265:65|279:21,1,85,2|0,0:0|3:0,0:0:0:0:
446,12,83027,1,0,3:0:0:0:
358,74,83215,1,8,0:0:0:0:
467,100,83402,1,2,0:0:0:0:
378,177,83590,5,4,3:2:0:0:
454,311,83777,2,0,P|464:242|448:220,1,85,0|8,0:0|0:0,0:0:0:0:
379,340,84152,5,0,0:0:0:0:
378,177,84340,2,0,L|380:70,1,85,2|0,3:2|3:0,0:0:0:0:
284,275,84715,1,2,0:0:0:0:
287,87,84902,2,0,L|286:172,1,85,10|0,0:2|0:0,0:0:0:0:
200,327,85277,1,2,3:2:0:0:
196,171,85465,2,0,L|198:64,1,85,8|2,0:0|0:0,0:0:0:0:
110,266,85840,1,0,3:0:0:0:
115,99,86027,2,0,L|114:184,2,85,0|10|0,3:0|0:2|0:0,0:0:0:0:
200,235,86590,6,0,P|260:178|227:80,1,170,2|8,3:2|0:0,0:0:0:0:
200,235,87152,2,0,L|293:232,1,85,2|0,0:2|3:0,0:0:0:0:
406,230,87527,5,0,3:0:0:0:
390,90,87715,2,0,P|355:116|347:176,1,85,0|10,0:0|0:0,0:0:0:0:
342,310,88090,1,0,0:0:0:0:
505,225,88277,2,0,P|484:185|448:168,1,85,2|8,3:2|0:0,0:0:0:0:
343,154,88652,1,0,0:0:0:0:
266,335,88840,2,0,P|324:327|346:302,1,85,2|2,3:2|3:2,0:0:0:0:
195,181,89215,2,0,L|175:264,1,85,8|2,0:0|0:0,0:0:0:0:
223,72,89590,5,2,0:0:0:0:
223,72,89965,2,0,L|47:80,1,152.999995330811,4|0,3:1|3:0,0:0:0:0:
45,176,90527,2,0,P|46:215|52:252,1,76.4999976654053,0|0,3:0|0:0,0:0:0:0:
73,353,90902,6,0,P|139:324|227:335,1,152.999995330811,8|0,0:0|3:0,0:0:0:0:
324,376,91465,2,0,L|479:331,1,152.999995330811,8|0,0:0|3:0,0:0:0:0:
456,245,92027,1,0,3:0:0:0:
361,251,92215,2,0,L|356:157,1,76.4999976654053,8|0,0:0|0:0,0:0:0:0:
395,72,92590,6,0,P|361:129|273:140,1,152.999995330811,0|8,3:0|0:0,0:0:0:0:
171,198,93152,2,0,P|185:157|190:120,1,76.4999976654053,0|0,0:0|3:0,0:0:0:0:
171,27,93527,2,0,P|88:19|5:39,1,152.999995330811,0|8,3:0|0:0,0:0:0:0:
38,145,94090,6,0,P|26:181|26:222,1,76.4999976654053,0|0,0:0|3:0,0:0:0:0:
139,330,94465,2,0,P|168:277|135:182,1,152.999995330811,8|0,0:0|3:0,0:0:0:0:
139,330,95027,1,0,3:0:0:0:
139,330,95215,2,0,L|239:332,1,76.4999976654053,8|0,0:0|3:0,0:0:0:0:
426,343,95590,5,0,3:0:0:0:
426,343,95965,2,0,P|389:299|407:190,1,152.999995330811,4|0,3:1|3:0,0:0:0:0:
383,100,96527,2,0,L|488:109,1,76.4999976654053,0|0,3:0|0:0,0:0:0:0:
309,171,96902,1,8,0:0:0:0:
309,171,97090,6,0,L|204:185,1,76.4999976654053,2|0,0:0|3:0,0:0:0:0:
86,103,97465,2,0,L|247:92,1,152.999995330811,8|0,0:0|3:0,0:0:0:0:
329,35,98027,1,0,3:0:0:0:
329,35,98215,2,0,L|418:44,1,76.4999976654053,8|2,0:0|0:0,0:0:0:0:
466,153,98590,6,0,P|489:232|442:322,1,152.999995330811,0|8,3:0|0:0,0:0:0:0:
353,355,99152,2,0,L|339:276,1,76.4999976654053,0|0,0:0|3:0,0:0:0:0:
264,104,99527,2,0,L|244:183,1,76.4999976654053,0|0,3:0|0:0,0:0:0:0:
115,335,99902,2,0,L|140:243,1,76.4999976654053,8|0,0:0|0:0,0:0:0:0:
40,195,100277,5,0,3:0:0:0:
40,195,100465,2,0,L|61:111,1,76.4999976654053,8|0,0:0|0:0,0:0:0:0:
142,52,100840,1,0,3:0:0:0:
142,52,101027,1,0,3:0:0:0:
253,136,101215,1,8,1:2:0:0:
253,136,101402,1,0,3:0:0:0:
145,227,101590,6,0,P|133:293|211:345,1,170,4|8,3:1|0:2,0:0:0:0:
279,272,102152,1,0,0:0:0:0:
377,303,102340,2,0,P|386:343|375:384,1,85,0|0,3:1|3:0,0:0:0:0:
392,208,102715,2,0,L|500:204,1,85,8|0,0:2|0:0,0:0:0:0:
297,179,103090,6,0,P|280:86|335:39,1,170,2|8,3:2|0:2,0:0:0:0:
438,78,103652,1,2,0:0:0:0:
490,253,103840,2,0,P|505:206|496:167,1,85,0|0,3:0|3:0,0:0:0:0:
447,348,104215,1,8,0:2:0:0:
379,223,104402,1,2,0:0:0:0:
288,345,104590,6,0,P|206:357|142:304,1,170,0|8,3:0|0:2,0:0:0:0:
47,209,105152,2,0,P|13:238|0:287,1,85,2|0,0:2|3:0,0:0:0:0:
145,196,105527,2,0,L|164:114,1,85,2|8,3:2|0:2,0:0:0:0:
62,86,105902,1,0,0:0:0:0:
183,27,106090,6,0,P|265:37|318:116,1,170,2|8,3:2|0:2,0:0:0:0:
323,207,106652,1,0,0:0:0:0:
200,258,106840,2,0,P|207:191|220:165,1,85,2|0,3:2|3:0,0:0:0:0:
365,309,107215,2,0,P|308:332|264:331,1,85,8|0,1:2|0:0,0:0:0:0:
419,226,107590,6,0,P|491:251|480:347,1,170,4|8,3:1|0:2,0:0:0:0:
365,309,108152,1,0,0:0:0:0:
286,377,108340,2,0,L|116:365,1,170,0|8,3:0|0:0,0:0:0:0:
101,270,108902,1,0,0:0:0:0:
0,306,109090,6,0,P|-5:264|12:227,1,85,2|0,3:2|0:0,0:0:0:0:
112,170,109465,1,8,0:2:0:0:
21,110,109652,1,0,0:0:0:0:
149,55,109840,2,0,L|338:52,1,170,0|8,3:0|0:0,0:0:0:0:
452,32,110402,1,0,0:0:0:0:
350,150,110590,6,0,P|333:191|292:314,1,170,2|8,3:2|0:2,0:0:0:0:
432,294,111152,1,0,0:0:0:0:
204,273,111340,2,0,P|202:322|215:368,1,85,0|0,3:0|3:0,0:0:0:0:
432,294,111715,2,0,P|434:245|421:199,1,85,8|0,0:0|0:0,0:0:0:0:
290,93,112090,6,0,L|283:178,1,85,4|2,0:3|0:0,0:0:0:0:
280,208,112371,1,2,0:0:0:0:
280,208,112465,2,0,L|278:256,1,42.5,8|8,0:0|0:0,0:0:0:0:
196,341,112652,2,0,L|189:291,1,42.5,8|2,0:3|0:0,0:0:0:0:
109,201,112840,2,0,L|108:255,1,42.5,0|0,0:0|1:0,0:0:0:0:
36,351,113027,2,0,L|30:306,1,42.5,0|0,1:0|1:0,0:0:0:0:
50,114,113215,2,0,L|124:126,1,42.5,0|0,1:0|1:0,0:0:0:0:
251,191,113402,2,0,L|206:201,1,42.5,8|8,1:2|1:2,0:0:0:0:
17,236,113590,5,4,3:1:0:0:
290,347,113871,1,2,3:2:0:0:
290,347,113965,1,0,0:0:0:0:
410,274,114152,1,2,0:0:0:0:
328,191,114340,6,0,L|199:257,1,140.25000428009,4|0,1:2|0:0,0:0:0:0:
201,337,114715,6,0,P|201:257|141:220,1,152.999995330811,0|0,1:2|3:0,0:0:0:0:
58,290,115277,5,0,0:0:0:0:
89,145,115465,1,0,3:0:0:0:
4,213,115652,1,0,0:0:0:0:
146,221,115840,2,0,L|139:139,1,76.4999976654053,4|0,1:3|0:0,0:0:0:0:
0,136,116215,2,0,L|4:213,1,76.4999976654053,0|0,3:0|0:0,0:0:0:0:
61,18,116590,5,2,3:2:0:0:
300,112,116871,1,2,3:2:0:0:
300,112,116965,2,0,L|397:126,1,76.4999976654053,0|2,0:0|0:0,0:0:0:0:
261,19,117340,1,0,1:2:0:0:
460,298,117715,2,0,P|375:304|303:318,1,152.999995330811,0|0,1:2|1:0,0:0:0:0:
286,213,118277,5,2,0:0:0:0:
205,351,118465,1,8,0:0:0:0:
169,260,118652,1,10,0:0:0:0:
169,260,118746,1,8,0:0:0:0:
169,260,118840,6,0,P|109:237|27:276,1,127.5,4|0,1:0|0:0,0:0:0:0:
4,327,119215,2,0,L|29:181,1,127.5,12|2,1:2|0:0,0:0:0:0:
12,120,119590,6,0,L|110:118,1,85,4|0,3:1|0:0,0:0:0:0:
211,147,119965,2,0,L|315:122,1,85,10|0,1:2|0:0,0:0:0:0:
371,40,120340,2,0,P|433:34|485:125,1,170,0|10,3:1|1:2,0:0:0:0:
428,207,120902,1,0,0:0:0:0:
322,190,121090,6,0,L|303:272,1,85,0|0,3:1|0:0,0:0:0:0:
208,361,121465,1,10,1:2:0:0:
126,259,121652,1,0,0:0:0:0:
50,372,121840,2,0,P|5:257|36:213,1,170,0|10,3:1|1:2,0:0:0:0:
89,84,122402,1,0,3:0:0:0:
162,186,122590,6,0,L|329:212,1,170,4|10,3:1|1:2,0:0:0:0:
489,203,123152,1,2,0:0:0:0:
396,66,123340,2,0,P|340:128|329:212,1,170,4|10,3:0|1:2,0:0:0:0:
489,203,123902,1,0,0:2:0:0:
405,311,124090,6,0,L|214:281,1,170,4|8,3:0|1:2,0:0:0:0:
154,220,124652,1,2,0:0:0:0:
116,317,124840,1,0,3:0:0:0:
236,182,125027,1,0,3:0:0:0:
52,154,125215,2,0,P|49:195|68:232,1,85,10|2,1:2|3:2,0:0:0:0:
331,77,125590,5,2,1:2:0:0:
139,174,125777,1,0,3:0:0:0:
348,166,125965,1,2,1:2:0:0:
166,89,126152,1,0,3:0:0:0:
245,273,126340,5,2,1:2:0:0:
331,77,126527,1,0,3:0:0:0:
135,189,126715,1,2,1:2:0:0:
362,174,126902,1,0,3:0:0:0:
170,80,127090,5,2,1:2:0:0:
169,79,127465,2,0,L|237:70,1,68,8|0,0:0|0:0,0:0:0:0:
250,159,127840,2,0,L|317:153,1,68,2|0,0:0|0:0,0:0:0:0:
421,157,128215,2,0,P|445:190|433:255,1,102,8|0,1:3|0:0,0:0:0:0:
434,281,128590,6,0,P|323:219|287:262,1,170,4|8,3:1|1:2,0:0:0:0:
219,368,129152,1,2,0:0:0:0:
75,319,129340,2,0,L|96:148,1,170,0|8,3:2|1:2,0:0:0:0:
203,250,129902,1,2,0:0:0:0:
0,163,130090,5,0,3:0:0:0:
98,66,130277,1,2,0:0:0:0:
203,250,130465,1,8,1:2:0:0:
116,161,130652,1,2,0:0:0:0:
102,273,130840,2,0,L|90:357,1,85,0|0,3:0|0:0,0:0:0:0:
266,340,131215,6,0,P|298:202|286:182,1,152.999995330811,8|0,1:1|0:0,0:0:0:0:
287,173,131590,6,0,L|371:162,1,85,0|2,3:0|0:0,0:0:0:0:
181,348,131965,2,0,L|275:338,1,85,8|2,1:2|0:0,0:0:0:0:
461,306,132340,2,0,P|498:248|447:159,1,170,0|8,3:0|1:2,0:0:0:0:
266,194,132902,1,2,0:0:0:0:
401,236,133090,5,0,3:0:0:0:
211,268,133277,1,2,0:2:0:0:
428,322,133465,1,8,1:2:0:0:
179,351,133652,1,2,0:0:0:0:
401,236,133840,1,0,3:0:0:0:
166,188,134027,5,8,0:1:0:0:
434,144,134215,1,8,1:1:0:0:
149,272,134590,6,0,L|169:178,1,85,4|0,3:1|0:0,0:0:0:0:
56,48,134965,2,0,P|47:111|85:148,1,85,8|0,1:2|0:0,0:0:0:0:
166,92,135340,1,0,3:0:0:0:
57,216,135527,2,0,L|55:301,1,85,2|8,0:0|1:2,0:0:0:0:
146,350,135902,1,2,0:0:0:0:
360,226,136090,6,0,P|283:201|219:252,1,170,0|8,3:0|1:2,0:0:0:0:
245,365,136652,1,0,2:0:0:0:
367,365,136840,2,0,L|448:326,1,85,2|0,3:2|2:0,0:0:0:0:
463,152,137215,2,0,P|445:190|456:259,1,85,8|0,1:2|0:0,0:0:0:0:
493,64,137590,6,0,L|324:86,1,170,2|8,3:2|1:2,0:0:0:0:
225,218,138152,1,2,0:0:0:0:
66,78,138340,2,0,L|239:55,1,170,0|8,3:0|1:2,0:0:0:0:
318,225,138902,1,2,0:0:0:0:
160,348,139090,6,0,P|84:316|65:236,1,170,0|8,3:0|1:2,0:0:0:0:
206,190,139652,2,8,L|258:201,2,42.5,2|10|8,0:0|0:0|0:0,0:0:0:0:
363,354,140027,1,0,1:0:0:0:
395,333,140121,1,0,1:0:0:0:
411,298,140215,1,0,1:0:0:0:
423,262,140308,1,0,1:0:0:0:
412,225,140402,1,8,1:2:0:0:
392,192,140496,1,8,1:2:0:0:
358,174,140590,6,0,L|168:148,1,170,4|8,3:1|1:2,0:0:0:0:
91,37,141152,1,2,0:0:0:0:
38,241,141340,2,0,P|23:325|88:363,1,170,0|8,3:2|1:2,0:0:0:0:
170,197,141902,1,2,0:0:0:0:
297,316,142090,5,0,3:0:0:0:
115,283,142277,1,2,0:0:0:0:
275,206,142465,1,8,1:2:0:0:
198,367,142652,1,2,0:0:0:0:
170,197,142840,2,0,L|177:113,1,85,0|0,3:0|0:0,0:0:0:0:
333,17,143215,6,0,P|368:78|341:175,1,152.999995330811,8|0,1:1|0:0,0:0:0:0:
341,173,143590,5,0,3:0:0:0:
477,94,143777,1,2,0:0:0:0:
438,251,143965,1,8,1:2:0:0:
427,167,144152,1,2,0:0:0:0:
512,317,144340,5,0,3:0:0:0:
351,260,144527,1,0,0:0:0:0:
512,192,144715,1,8,1:2:0:0:
403,349,144902,1,2,0:0:0:0:
230,221,145090,5,0,3:0:0:0:
351,260,145277,1,2,0:2:0:0:
151,334,145465,1,8,1:2:0:0:
215,133,145652,1,2,0:0:0:0:
276,357,145840,1,0,3:0:0:0:
118,218,146027,5,8,0:1:0:0:
426,120,146215,1,8,1:1:0:0:
426,120,146590,6,0,L|532:108,1,85,4|0,1:1|0:0,0:0:0:0:
364,319,146965,2,0,L|262:331,1,85,0|0,1:1|0:0,0:0:0:0:
195,181,147340,5,0,1:0:0:0:
98,332,147527,1,0,3:0:0:0:
145,101,147715,1,0,1:0:0:0:
244,260,147902,1,0,3:0:0:0:
68,157,148090,5,0,1:2:0:0:
255,94,148277,1,2,0:2:0:0:
120,229,148465,1,0,1:2:0:0:
189,21,148652,1,2,3:2:0:0:
244,260,148840,5,0,1:2:0:0:
145,101,149027,1,2,3:2:0:0:
356,207,149215,1,8,1:2:0:0:
195,181,149402,1,0,3:0:0:0:
383,118,149590,5,4,3:1:0:0:
146,250,149777,1,0,0:2:0:0:
252,90,149965,1,0,1:0:0:0:
320,318,150152,1,2,2:2:0:0:
195,181,150340,5,0,1:0:0:0:
400,209,150527,1,0,0:0:0:0:
146,250,150715,1,0,1:2:0:0:
383,118,150902,1,0,3:0:0:0:
146,250,151090,6,0,L|130:148,1,85,2|0,3:2|0:0,0:0:0:0:
383,118,151465,2,0,L|370:210,1,85,8|0,1:2|0:0,0:0:0:0:
161,333,151840,2,0,L|142:230,1,85,0|0,0:0|1:0,0:0:0:0:
141,224,152121,1,0,1:0:0:0:
141,224,152215,2,0,L|130:166,1,42.5,0|0,1:0|1:0,0:0:0:0:
116,84,152402,1,8,1:2:0:0:
116,84,152496,1,8,1:2:0:0:
116,84,152590,1,0,0:0:0:0:
250,41,153715,6,0,L|250:143,1,102,8|0,1:3|0:0,0:0:0:0:
240,160,154090,6,0,L|135:150,1,85,4|0,3:1|0:0,0:0:0:0:
346,42,154465,2,0,L|463:58,1,85,0|0,1:0|0:0,0:0:0:0:
354,249,154840,2,0,L|249:239,1,85,0|0,1:0|3:0,0:0:0:0:
416,148,155215,2,0,L|533:164,1,85,0|0,1:0|3:0,0:0:0:0:
354,249,155590,5,0,1:0:0:0:
392,347,155777,1,0,0:0:0:0:
266,280,155965,2,0,L|236:366,1,85,0|0,1:0|0:0,0:0:0:0:
183,232,156340,1,0,1:0:0:0:
142,348,156527,1,0,3:0:0:0:
90,269,156715,2,0,P|81:221|93:177,1,85,0|0,1:0|3:0,0:0:0:0:
74,59,157090,6,0,P|42:65|-5:121,1,85,0|0,1:0|0:0,0:0:0:0:
242,85,157465,2,0,L|256:-19,1,85,0|0,1:0|0:0,0:0:0:0:
134,172,157840,1,0,1:0:0:0:
316,182,158027,1,0,3:0:0:0:
150,76,158215,1,0,1:0:0:0:
139,279,158402,1,0,3:0:0:0:
316,182,158590,6,0,P|276:166|216:187,1,85,0|0,1:0|0:0,0:0:0:0:
139,279,158965,1,0,1:0:0:0:
4,202,159152,1,0,0:0:0:0:
146,114,159340,5,0,1:0:0:0:
96,194,159527,1,0,3:0:0:0:
277,213,159715,1,0,1:0:0:0:
245,127,159902,1,0,3:0:0:0:
374,200,160090,6,0,L|398:90,1,85,4|0,1:0|0:0,0:0:0:0:
222,285,160465,2,0,L|199:387,1,85,0|0,1:0|0:0,0:0:0:0:
277,213,160840,1,0,1:0:0:0:
426,307,161027,1,0,3:0:0:0:
374,200,161215,1,0,1:0:0:0:
222,285,161402,1,0,3:0:0:0:
359,371,161590,6,0,L|357:268,1,85,0|0,1:0|0:0,0:0:0:0:
228,120,161965,2,0,P|226:167|242:204,1,85,0|0,1:0|0:0,0:0:0:0:
408,95,162340,1,0,1:0:0:0:
308,46,162527,1,0,3:0:0:0:
323,260,162715,1,0,1:0:0:0:
414,204,162902,1,0,3:0:0:0:
240,201,163090,6,0,L|225:300,1,85,0|0,1:0|0:0,0:0:0:0:
376,374,163465,2,0,P|405:319|396:280,1,85,0|0,1:0|0:0,0:0:0:0:
353,140,163840,1,0,1:0:0:0:
323,260,164027,1,0,3:0:0:0:
444,185,164215,2,0,L|457:95,1,85,0|0,1:0|3:0,0:0:0:0:
222,262,164590,5,0,1:0:0:0:
363,140,164777,1,0,0:0:0:0:
372,334,164965,1,0,1:0:0:0:
256,182,165152,1,0,0:0:0:0:
437,184,165340,1,0,1:0:0:0:
296,296,165527,1,0,3:0:0:0:
285,101,165715,1,0,1:0:0:0:
408,260,165902,1,0,3:0:0:0:
220,266,166090,6,0,L|99:232,1,85,4|0,1:1|0:0,0:0:0:0:
256,182,166465,2,0,L|289:91,1,85,8|0,1:1|0:0,0:0:0:0:
317,245,166840,2,0,L|349:343,1,85,2|0,1:2|3:0,0:0:0:0:
363,165,167215,2,0,L|463:152,1,85,0|2,1:0|3:2,0:0:0:0:
423,285,167590,5,0,1:2:0:0:
275,163,167777,1,2,0:2:0:0:
200,307,167965,1,0,1:2:0:0:
359,203,168152,1,2,3:2:0:0:
266,59,168340,1,2,1:2:0:0:
275,163,168527,1,0,3:2:0:0:
371,43,168715,1,8,1:2:0:0:
188,130,168902,1,0,3:0:0:0:
340,286,169090,6,0,L|358:201,1,85,2|0,1:2|0:2,0:0:0:0:
371,43,169465,2,0,L|287:59,1,85,8|2,1:1|2:2,0:0:0:0:
128,111,169840,2,0,L|144:194,1,85,0|0,1:0|3:0,0:0:0:0:
265,303,170215,2,0,L|287:201,1,85,0|2,1:2|3:2,0:0:0:0:
294,91,170590,5,0,1:0:0:0:
128,111,170777,1,2,3:2:0:0:
192,248,170965,1,0,1:0:0:0:
220,147,171152,1,2,3:2:0:0:
67,205,171340,1,0,1:0:0:0:
281,233,171527,1,0,3:0:0:0:
123,137,171715,1,0,1:0:0:0:
244,318,171902,1,0,3:0:0:0:
383,204,172090,6,0,P|387:158|363:122,1,85,4|0,1:0|0:0,0:0:0:0:
182,76,172465,2,0,L|122:136,1,85,8|2,1:0|0:0,0:0:0:0:
259,230,172840,1,0,1:0:0:0:
259,230,173027,1,2,3:2:0:0:
52,250,173215,1,0,1:0:0:0:
52,250,173402,1,0,3:0:0:0:
259,230,173590,6,0,L|233:131,1,85,0|2,1:0|0:0,0:0:0:0:
52,250,173965,2,0,L|73:332,1,85,0|0,1:0|3:0,0:0:0:0:
205,349,174340,1,0,1:0:0:0:
259,230,174527,1,0,3:0:0:0:
331,299,174715,1,0,1:0:0:0:
237,147,174902,1,0,3:0:0:0:
108,286,175090,6,0,L|99:379,1,85,4|0,1:0|0:0,0:0:0:0:
50,203,175465,1,0,1:0:0:0:
225,215,175652,1,2,0:0:0:0:
44,118,175840,6,0,L|50:209,1,85,0|2,1:0|3:2,0:0:0:0:
0,42,176215,1,0,1:0:0:0:
154,11,176402,1,0,3:0:0:0:
146,203,176590,6,0,L|159:119,1,85,0|2,1:0|0:0,0:0:0:0:
385,162,176965,1,0,1:0:0:0:
328,30,177152,1,0,3:0:0:0:
212,197,177340,5,0,1:0:0:0:
251,83,177527,1,0,3:0:0:0:
385,162,177715,1,0,1:0:0:0:
328,30,177902,1,0,3:0:0:0:
212,197,178090,6,0,L|196:293,1,85,4|0,1:1|0:0,0:0:0:0:
115,161,178465,2,0,P|72:153|15:185,1,85,8|0,1:1|0:0,0:0:0:0:
295,143,178840,2,0,L|389:126,1,85,2|0,1:2|3:0,0:0:0:0:
210,91,179215,2,0,P|221:49|207:6,1,85,0|2,1:0|3:2,0:0:0:0:
18,80,179590,5,0,1:2:0:0:
112,139,179777,1,2,0:2:0:0:
107,28,179965,1,0,1:2:0:0:
12,186,180152,1,2,3:2:0:0:
188,241,180340,1,2,1:2:0:0:
174,78,180527,1,0,3:2:0:0:
79,259,180715,1,12,1:2:0:0:
227,150,180902,1,0,3:2:0:0:
310,337,181090,6,0,P|316:286|305:248,1,85,6|0,1:2|0:2,0:0:0:0:
300,119,181465,2,0,L|408:135,1,85,8|2,1:1|2:2,0:0:0:0:
166,243,181840,2,0,L|83:257,1,85,0|0,1:0|3:0,0:0:0:0:
120,128,182215,2,0,P|106:69|117:43,1,85,0|2,1:2|3:2,0:0:0:0:
384,131,182590,5,0,1:0:0:0:
247,98,182777,1,2,3:2:0:0:
348,34,182965,1,0,1:0:0:0:
316,204,183152,1,2,0:0:0:0:
316,204,183246,1,0,1:0:0:0:
316,204,183340,2,0,L|310:263,1,42.5,0|0,1:0|0:0,0:0:0:0:
252,308,183527,5,0,1:2:0:0:
218,326,183621,1,0,1:2:0:0:
181,333,183715,1,8,0:0:0:0:
146,318,183808,1,8,0:0:0:0:
108,308,183902,1,8,0:0:0:0:
70,316,183996,1,8,0:0:0:0:
44,344,184090,6,0,L|28:245,1,85,4|0,3:1|0:0,0:0:0:0:
146,50,184465,2,0,L|138:151,1,85,8|0,0:0|0:0,0:0:0:0:
255,260,184840,2,0,P|342:279|383:200,1,170,0|8,3:0|0:0,0:0:0:0:
307,41,185402,1,2,0:0:0:0:
406,116,185590,6,0,L|488:135,1,85,2|0,3:2|0:0,0:0:0:0:
500,289,185965,1,8,0:0:0:0:
406,116,186152,1,0,0:0:0:0:
418,259,186340,2,0,P|357:341|289:334,1,170,0|8,3:0|0:0,0:0:0:0:
224,195,186902,1,2,0:0:0:0:
354,82,187090,6,0,L|328:249,1,170,4|8,3:1|0:0,0:0:0:0:
215,301,187652,1,0,0:0:0:0:
220,124,187840,2,0,P|163:79|68:113,1,170,0|8,3:0|0:0,0:0:0:0:
0,209,188402,1,2,0:0:0:0:
112,328,188590,6,0,L|298:292,1,170,4|10,3:1|1:2,0:0:0:0:
463,349,189152,1,2,0:2:0:0:
320,199,189340,1,0,3:0:0:0:
387,273,189527,1,0,3:0:0:0:
477,178,189715,2,0,P|472:135|458:95,1,85,10|0,0:0|3:0,0:0:0:0:
187,64,190090,5,4,1:1:0:0:
320,199,190277,1,0,3:0:0:0:
283,39,190465,1,2,1:2:0:0:
167,170,190652,1,0,3:0:0:0:
325,288,190840,5,2,1:2:0:0:
251,134,191027,1,0,3:0:0:0:
175,338,191215,1,2,1:2:0:0:
320,199,191402,1,0,3:0:0:0:
151,96,191590,5,2,1:2:0:0:
212,243,191777,1,0,3:0:0:0:
298,20,191965,1,2,1:2:0:0:
215,154,192152,1,0,3:0:0:0:
344,282,192340,5,2,1:2:0:0:
229,77,192527,1,0,3:0:0:0:
138,321,192715,1,2,1:2:0:0:
309,158,192902,1,0,3:0:0:0:
151,5,193090,5,4,1:0:0:0:
213,250,193277,1,0,3:0:0:0:
298,20,193465,1,2,1:2:0:0:
124,161,193652,1,2,0:0:0:0:
332,283,193840,5,2,1:2:0:0:
215,96,194027,1,8,3:0:0:0:
98,325,194215,1,2,1:2:0:0:
341,172,194402,1,8,3:0:0:0:
89,28,194590,5,2,1:2:0:0:
98,206,201621,5,0,0:0:0:0:
98,206,201715,2,0,B|133:205|133:205|151:214|151:214|204:213,1,95.6250036478044
214,211,202090,6,0,L|232:68,2,127.500004863739,4|0|0,3:1|3:0|3:0,0:0:0:0:
309,245,203027,2,0,L|318:182,2,63.7500024318696,0|0|0,3:0|3:0|0:0,0:0:0:0:
302,367,203590,5,0,1:0:0:0:
214,211,203777,1,0,1:0:0:0:
408,209,203965,1,0,1:0:0:0:
246,289,204152,1,0,1:0:0:0:
344,120,204340,5,0,1:0:0:0:
461,318,204527,1,0,1:0:0:0:
295,202,204715,1,0,1:0:0:0:
487,124,204902,1,0,1:0:0:0:
317,303,205090,6,0,P|222:291|196:224,1,170,4|0,1:0|1:0,0:0:0:0:
348,85,205652,1,0,1:0:0:0:
281,222,205840,1,0,1:0:0:0:
265,25,206027,1,0,1:0:0:0:
434,112,206215,1,0,1:0:0:0:
230,127,206402,1,0,1:0:0:0:
417,14,206590,5,0,1:0:0:0:
281,222,206777,1,0,1:0:0:0:
330,49,206965,1,8,1:2:0:0:
450,185,207152,2,0,L|457:142,2,42.5,0|0|0,1:0|1:0|1:0,0:0:0:0:
358,293,207527,5,0,1:0:0:0:
322,277,207621,1,0,1:0:0:0:
283,275,207715,1,8,0:0:0:0:
248,282,207808,1,8,0:0:0:0:
215,302,207902,1,8,0:0:0:0:
177,307,207996,1,8,0:0:0:0:
143,287,208090,6,0,L|176:120,1,170,4|8,3:1|1:2,0:0:0:0:
287,42,208652,1,2,0:0:0:0:
327,212,208840,2,0,P|411:227|449:162,1,170,4|8,3:0|1:2,0:0:0:0:
327,212,209402,1,2,0:0:0:0:
268,336,209590,5,0,3:0:0:0:
370,114,209777,1,2,0:0:0:0:
470,284,209965,1,8,1:2:0:0:
327,212,210152,1,2,0:0:0:0:
431,152,210340,2,0,L|515:127,1,85,0|0,3:0|0:0,0:0:0:0:
267,0,210715,6,0,P|238:33|257:133,1,152.999995330811,8|0,1:1|0:0,0:0:0:0:
258,141,211090,5,0,3:0:0:0:
404,256,211277,1,2,0:0:0:0:
378,111,211465,1,8,1:2:0:0:
254,232,211652,1,2,0:0:0:0:
157,116,211840,5,0,3:0:0:0:
266,226,212027,1,2,0:2:0:0:
271,138,212215,1,8,1:2:0:0:
110,246,212402,1,2,0:2:0:0:
253,354,212590,5,2,3:2:0:0:
271,138,212777,1,2,0:0:0:0:
180,194,212965,1,8,1:2:0:0:
366,264,213152,1,2,0:0:0:0:
127,322,213340,1,2,3:2:0:0:
366,264,213527,5,8,1:0:0:0:
42,173,213715,1,8,1:1:0:0:
42,173,214090,6,0,L|52:258,1,85,4|0,1:1|0:0,0:0:0:0:
292,347,214465,2,0,L|282:262,1,85,0|0,1:1|0:0,0:0:0:0:
277,88,214840,5,2,1:2:0:0:
155,229,215027,1,0,3:0:0:0:
182,113,215215,1,0,1:0:0:0:
317,186,215402,1,2,3:2:0:0:
155,229,215590,5,0,1:2:0:0:
277,88,215777,1,2,0:2:0:0:
223,306,215965,1,0,1:2:0:0:
99,167,216152,1,2,3:2:0:0:
317,186,216340,5,0,1:2:0:0:
155,229,216527,1,2,3:2:0:0:
277,88,216715,1,8,1:2:0:0:
359,281,216902,1,0,3:0:0:0:
376,32,217090,5,4,3:1:0:0:
204,141,217277,1,0,0:2:0:0:
421,180,217465,1,0,1:0:0:0:
277,88,217652,1,2,2:2:0:0:
283,346,217840,5,0,1:0:0:0:
421,180,218027,1,0,0:0:0:0:
167,281,218215,1,0,1:2:0:0:
357,263,218402,1,0,3:0:0:0:
252,115,218590,6,0,L|159:129,1,85,4|0,3:1|0:0,0:0:0:0:
82,290,218965,2,0,L|169:280,1,85,0|0,1:2|1:0,0:0:0:0:
166,280,219246,1,0,1:0:0:0:
166,280,219340,1,0,1:0:0:0:
262,179,219527,1,0,1:0:0:0:
357,263,219715,1,0,1:0:0:0:
395,246,219808,1,0,1:0:0:0:
423,214,219902,1,8,1:2:0:0:
431,172,219996,1,8,1:2:0:0:
412,133,220090,1,0,0:0:0:0:
246,339,221590,6,0,L|240:165,1,170,4|0,3:1|3:0,0:0:0:0:
401,86,222152,2,0,L|402:178,1,85,2|0,0:0|3:0,0:0:0:0:
309,90,222527,1,0,2:0:0:0:
143,62,222715,2,0,P|180:42|222:46,1,85,2|0,3:2|0:0,0:0:0:0:
103,150,223090,5,0,3:0:0:0:
10,103,223277,2,0,L|30:3,1,85,2|0,0:0|3:0,0:0:0:0:
53,221,223652,1,0,0:0:0:0:
193,185,223840,2,0,P|224:192|263:231,1,85,2|0,3:2|0:0,0:0:0:0:
349,70,224215,2,0,P|372:108|371:154,1,85,2|0,3:2|0:0,0:0:0:0:
340,365,224590,6,0,P|349:305|380:274,1,85,2|0,3:2|0:0,0:0:0:0:
505,211,224965,2,0,P|395:192|371:133,1,170,2|0,3:2|3:0,0:0:0:0:
401,27,225527,2,0,L|493:37,1,85,2|0,0:0|3:0,0:0:0:0:
288,38,225902,1,0,0:0:0:0:
253,132,226090,6,0,L|133:139,1,85,2|0,3:2|0:0,0:0:0:0:
39,180,226465,1,0,3:0:0:0:
143,307,226652,2,0,P|149:265|141:223,1,85,2|0,0:0|3:0,0:0:0:0:
351,210,227027,1,0,0:0:0:0:
238,267,227215,1,0,3:0:0:0:
250,171,227402,1,0,0:0:0:0:
361,310,227590,5,4,3:1:0:0:
155,292,227777,2,0,P|143:332|159:371,1,85,2|0,0:0|3:0,0:0:0:0:
361,310,228152,5,0,0:0:0:0:
475,208,228340,2,0,L|383:218,1,85,2|0,3:2|2:0,0:0:0:0:
238,247,228715,1,0,3:0:0:0:
150,148,228902,2,0,L|253:157,1,85,2|0,0:0|3:0,0:0:0:0:
390,217,229277,1,0,0:0:0:0:
484,103,229465,2,0,L|383:115,1,85,2|0,3:2|0:0,0:0:0:0:
234,155,229840,1,0,3:0:0:0:
236,50,230027,2,0,L|127:35,2,85,2|0|0,0:0|3:0|0:0,0:0:0:0:
415,31,230590,6,0,P|464:111|435:186,1,170,2|0,3:2|3:0,0:0:0:0:
246,214,231152,2,0,L|266:117,1,85,2|0,0:0|3:0,0:0:0:0:
344,246,231527,5,0,2:0:0:0:
481,250,231715,2,0,P|468:210|434:185,1,85,2|0,3:2|0:0,0:0:0:0:
289,324,232090,1,0,3:0:0:0:
146,355,232277,2,0,P|164:317|201:298,1,85,2|0,0:0|3:0,0:0:0:0:
352,152,232652,1,0,2:0:0:0:
267,199,232840,2,0,P|225:198|191:173,1,85,0|0,3:0|3:0,0:0:0:0:
370,69,233215,2,0,L|348:163,1,85,8|0,0:0|3:0,0:0:0:0:
412,326,233590,6,0,P|446:179|421:157,1,170,4|8,3:1|0:0,0:0:0:0:
282,282,234152,2,0,L|293:379,1,85,2|2,0:0|3:2,0:0:0:0:
164,231,234527,2,0,P|102:204|105:107,1,170,0|8,3:0|0:0,0:0:0:0:
240,154,235090,5,0,0:0:0:0:
250,266,235277,2,0,L|219:363,2,85,2|8|0,3:2|0:0|0:0,0:0:0:0:
324,174,235840,2,0,L|409:147,1,85,2|0,0:0|3:0,0:0:0:0:
391,328,236215,1,8,0:0:0:0:
449,224,236402,1,2,0:0:0:0:
269,260,236590,6,0,P|216:198|257:105,1,170,2|8,0:0|0:0,0:0:0:0:
331,41,237152,1,0,0:0:0:0:
417,114,237340,2,0,L|417:212,2,85,0|2|0,3:0|0:0|0:0,0:0:0:0:
331,41,237902,6,0,L|214:23,2,85,8|0|0,0:0|0:0|3:0,0:0:0:0:
177,112,238465,2,0,L|71:124,1,85,8|2,0:0|0:0,0:0:0:0:
9,301,238840,2,0,L|102:283,1,85,0|0,3:0|3:0,0:0:0:0:
268,175,239215,1,8,0:0:0:0:
205,270,239402,1,2,0:0:0:0:
314,361,239590,6,0,P|430:339|447:271,1,170,4|8,1:2|0:0,0:0:0:0:
398,204,240152,1,0,0:0:0:0:
460,112,240340,1,2,3:2:0:0:
460,112,240527,2,0,P|471:60|462:19,1,85,0|2,3:0|0:0,0:0:0:0:
282,148,240902,6,0,P|266:191|258:333,1,170,10|2,0:2|3:2,0:0:0:0:
75,342,241465,1,8,0:0:0:0:
169,286,241652,1,2,0:0:0:0:
47,234,241840,2,0,P|56:179|71:139,2,85,0|0|10,3:0|3:0|0:2,0:0:0:0:
162,174,242402,1,0,0:0:0:0:
144,72,242590,6,0,P|323:58|333:58,1,170,2|8,3:2|0:0,0:0:0:0:
421,181,243152,2,0,P|344:184|324:180,1,85,2|0,0:2|3:0,0:0:0:0:
194,185,243527,2,0,P|148:239|170:348,1,170,0|10,3:0|0:0,0:0:0:0:
354,304,244090,5,0,0:0:0:0:
354,115,244277,1,2,3:2:0:0:
267,245,244465,1,8,0:0:0:0:
418,181,244652,1,0,0:0:0:0:
271,156,244840,1,2,3:2:0:0:
470,250,245027,1,2,3:2:0:0:
417,95,245215,1,8,0:0:0:0:
191,182,245402,1,2,1:2:0:0:
