osu file format v14

[General]
AudioFilename: audio.mp3
AudioLeadIn: 0
PreviewTime: -1
Countdown: 0
SampleSet: Soft
StackLeniency: 0.7
Mode: 0
LetterboxInBreaks: 0
WidescreenStoryboard: 0

[Editor]
DistanceSpacing: 0.9
BeatDivisor: 4
GridSize: 4
TimelineZoom: 1

[Metadata]
Title:Hana wa Odore ya Irohaniho
TitleUnicode:Hana wa Odore ya Irohaniho
Artist:Team "Hanayamata"
ArtistUnicode:Team "Hanayamata"
Creator:[-R1]
Version:1
Source:ハナヤマタ
Tags:
BeatmapID:1178873
BeatmapSetID:557064

[Difficulty]
HPDrainRate:2
CircleSize:3
OverallDifficulty:2
ApproachRate:3
SliderMultiplier:1
SliderTickRate:1

[Events]
//Background and Video events
0,0,"hanayamata-11.jpg",0,0
//Break Periods
//Storyboard Layer 0 (Background)
//Storyboard Layer 1 (Fail)
//Storyboard Layer 2 (Pass)
//Storyboard Layer 3 (Foreground)
//Storyboard Sound Samples

[TimingPoints]
257,375,4,2,0,100,1,0
51257,-100,4,2,0,100,0,1
53507,-100,4,2,0,100,0,0
53882,-100,4,2,0,100,0,1
56694,-100,4,2,0,100,0,0
57257,-100,4,2,0,100,0,1
62132,-100,4,2,0,100,0,0
63257,-100,4,2,0,100,0,1
65507,-100,4,2,0,100,0,0
65882,-100,4,2,0,100,0,1
76757,-100,4,2,0,100,0,0

[HitObjects]
80,272,257,6,0,P|176:256|280:272,1,200
444,336,1757,2,0,P|456:285|434:223,1,100
416,156,2507,1,0,0:0:0:0:
276,40,3257,6,0,P|178:61|92:111,1,200
208,248,4757,2,0,P|260:248|316:228,1,100
372,176,5507,1,0,0:0:0:0:
244,52,6257,6,0,P|194:52|150:74,2,100
332,72,7382,1,0,0:0:0:0:
316,160,7757,2,0,B|256:158|216:140|216:140|192:176|136:192,1,200
56,232,8882,1,0,0:0:0:0:
116,296,9257,6,0,P|168:300|224:288,1,100
296,252,10007,1,0,0:0:0:0:
368,308,10382,1,0,0:0:0:0:
384,220,10757,2,0,P|312:160|216:204,1,200
168,268,11882,1,0,0:0:0:0:
84,300,12257,6,0,P|80:244|112:196,1,100
148,128,13007,2,0,B|200:104|200:104|248:104,1,100
332,88,13757,6,0,P|364:120|371:179,1,100
340,256,14507,2,0,B|276:256|276:256|244:272,1,100
208,356,15257,2,0,P|152:280|192:184,1,200
260,140,16382,1,0,0:0:0:0:
344,172,16757,2,0,P|348:116|313:77,1,100
260,140,17507,2,0,L|260:248,1,100
216,316,18257,6,0,B|160:336|96:316,2,100
264,240,19382,1,0,0:0:0:0:
200,176,19757,2,0,P|152:172|96:192,1,100
32,244,20507,1,0,0:0:0:0:
8,156,20882,1,0,0:0:0:0:
76,100,21257,6,0,P|148:72|260:116,1,200
336,160,22382,1,0,0:0:0:0:
264,216,22757,2,0,B|136:216|136:216|104:284,1,200
184,328,23882,1,0,0:0:0:0:
272,316,24257,6,0,P|304:300|372:304,1,100
452,332,25007,2,0,P|456:276|448:212,1,100
376,184,25757,2,0,P|344:200|276:196,1,100
196,172,26507,5,0,0:0:0:0:
128,228,26882,1,0,0:0:0:0:
184,300,27257,2,0,P|228:284|288:304,1,100
356,340,28007,2,0,P|400:332|448:300,1,100
488,224,28757,2,0,B|448:192|392:220|392:220|336:248|288:208,1,200
236,148,29882,5,0,0:0:0:0:
164,204,30257,2,8,P|120:128|200:52,1,200,0|0,0:0|0:0,0:0:0:0:
276,52,31382,1,0,0:0:0:0:
360,20,31757,2,0,B|384:60|360:116|360:116|332:184|376:208,1,200
452,248,32882,1,0,0:0:0:0:
480,332,33257,6,0,P|424:332|372:300,1,100
320,252,34007,2,0,L|204:252,1,100
148,200,34757,2,0,P|128:240|144:296,1,100
208,348,35507,1,0,0:0:0:0:
276,288,35882,5,0,0:0:0:0:
348,340,36257,2,0,P|400:332|428:296,1,100
424,208,37007,2,0,P|372:200|312:204,1,100
240,228,37757,5,0,0:0:0:0:
88,132,38507,1,0,0:0:0:0:
268,132,39257,6,0,P|320:140|348:176,1,100
300,252,40007,2,0,P|248:244|188:248,1,100
112,232,40757,1,0,0:0:0:0:
264,132,41507,2,0,P|312:136|360:160,1,100
424,308,42257,6,0,P|452:276|472:220,1,100
440,140,43007,1,0,0:0:0:0:
376,80,43382,1,0,0:0:0:0:
324,152,43757,6,0,P|276:164|220:148,1,100
140,128,44507,1,0,0:0:0:0:
176,44,44882,1,0,0:0:0:0:
264,60,45257,6,0,P|312:52|376:64,1,100
420,128,46007,2,0,B|412:176|328:216|328:216|376:272,1,200
436,332,47132,1,0,0:0:0:0:
348,348,47507,2,0,P|300:356|232:344,1,100
160,328,48257,6,0,P|144:296|156:232,1,100
216,168,49007,2,0,P|256:152|316:148,1,100
392,192,49757,5,0,0:0:0:0:
148,304,50882,5,0,0:0:0:0:
72,248,51257,2,0,P|95:205|143:174,1,100
224,160,52007,2,0,P|276:144|320:100,1,100
388,68,52757,6,0,P|440:48|484:48,2,100
300,76,53882,1,0,0:0:0:0:
212,88,54257,6,0,P|144:112|100:92,1,100
32,72,55007,2,0,P|24:124|40:180,1,100
100,232,55757,2,0,B|136:204|186:230|186:230|260:264|292:244,1,200
368,200,56882,1,0,0:0:0:0:
400,284,57257,6,0,P|369:326|320:343,1,100
236,332,58007,2,0,P|192:316|128:328,1,100
52,340,58757,1,0,0:0:0:0:
12,260,59132,2,0,P|46:228|104:224,1,100
184,248,59882,1,0,0:0:0:0:
260,200,60257,2,0,B|296:180|352:220|352:220|408:252|448:224,1,200
500,152,61382,1,0,0:0:0:0:
468,68,61757,1,0,0:0:0:0:
380,92,62132,6,0,P|328:112|272:112,1,100
196,112,62882,1,0,0:0:0:0:
116,148,63257,2,0,P|100:196|116:248,1,100
168,312,64007,2,0,P|215:299|268:304,1,100
340,352,64757,2,0,P|356:308|336:236,2,100
265,303,65882,5,0,0:0:0:0:
224,220,66257,2,0,P|184:248|169:300,1,100
104,360,67007,2,0,P|68:320|56:256,1,100
88,192,67757,2,0,B|128:171|172:206|172:206|238:253|274:240,1,200
364,244,68882,1,0,0:0:0:0:
444,204,69257,6,0,P|444:152|404:112,1,100
324,104,70007,2,0,P|272:124|224:112,1,100
140,96,70757,1,0,0:0:0:0:
68,40,71132,2,0,P|48:88|60:140,1,100
100,212,71882,1,0,0:0:0:0:
156,280,72257,6,0,P|212:272|256:280,1,100
336,320,73007,1,0,0:0:0:0:
408,268,73382,1,0,0:0:0:0:
404,180,73757,2,0,B|360:168|276:96|276:96|216:168|152:180,1,300
76,216,75257,1,0,0:0:0:0:
96,316,76757,6,0,P|192:320|280:248,1,200
340,200,77882,1,0,0:0:0:0:
256,168,78257,2,0,P|200:200|76:144,1,200
144,80,79382,1,0,0:0:0:0:
228,48,79757,2,0,P|324:40|424:88,1,200
456,164,80882,1,0,0:0:0:0:
368,192,81257,6,0,P|308:200|264:224,2,100
444,240,82382,1,0,0:0:0:0:
380,304,82757,2,0,P|324:324|272:320,1,100
196,320,83507,2,0,P|138:303|99:269,1,100
80,192,84257,1,0,0:0:0:0:
168,176,84632,1,0,0:0:0:0:
232,236,85007,2,0,B|263:227|263:227|295:247|327:239,1,100
420,240,85757,1,0,0:0:0:0:
256,192,85944,12,0,88569,0:0:0:0:
