osu file format v14

[General]
AudioFilename: audio.mp3
AudioLeadIn: 0
PreviewTime: 51163
Countdown: 0
SampleSet: Soft
StackLeniency: 0.5
Mode: 0
LetterboxInBreaks: 0
WidescreenStoryboard: 1

[Editor]
DistanceSpacing: 1
BeatDivisor: 4
GridSize: 4
TimelineZoom: 1.4

[Metadata]
Title:Hana wa Odore ya Iroha ni Ho (TV Size)
TitleUnicode:花ハ踊レヤいろはにほ (TV Size)
Artist:Team "Hanayamata"
ArtistUnicode:チーム"ハナヤマタ"
Creator:Stixy
Version:Normal
Source:ハナヤマタ
Tags:japanese anime pop jpop j-pop op opening Naru Sekiya Reina Ueda Yaya Sasame Kaya Okuno Hana N. Fontainestand Minami Tanaka Tami Nigishimon Yuka Ootsubo Machi Tokiwa Manami Numakura pikaqours muya-
BeatmapID:3096254
BeatmapSetID:1512150

[Difficulty]
HPDrainRate:3
CircleSize:3
OverallDifficulty:4
ApproachRate:5.2
SliderMultiplier:0.999999999999999
SliderTickRate:1

[Events]
//Background and Video events
0,0,"bg.jpg",0,0
Video,-294,"video.avi"
//Break Periods
//Storyboard Layer 0 (Background)
//Storyboard Layer 1 (Fail)
//Storyboard Layer 2 (Pass)
//Storyboard Layer 3 (Foreground)
//Storyboard Layer 4 (Overlay)
//Storyboard Sound Samples

[TimingPoints]
1089,375,4,2,1,50,1,0
1089,-100,4,2,1,50,0,0
7089,-100,4,2,1,60,0,0
8589,-100,4,2,1,63,0,0
10089,-100,4,2,1,66,0,0
11589,-100,4,2,1,70,0,0
13089,-100,4,2,1,60,0,0
25089,-100,4,2,1,65,0,0
37089,-100,4,2,1,60,0,0
43089,-100,4,2,1,70,0,0
50589,-100,4,2,1,60,0,0
52089,-100,4,2,1,80,0,1
77589,-100,4,2,1,60,0,0

[Colours]
Combo1 : 255,221,117
Combo2 : 255,170,213
Combo3 : 199,141,141
Combo4 : 248,105,126

[HitObjects]
31,56,1089,6,0,L|186:28,1,150,2|2,0:0|0:0,0:0:0:0:
226,23,1839,1,2,0:0:0:0:
226,23,2589,2,0,L|244:127,1,99.9999999999999,2|2,0:0|0:0,0:0:0:0:
175,195,3339,1,2,0:0:0:0:
175,195,4089,6,0,P|125:193|81:215,1,99.9999999999999,2|2,0:0|0:0,0:0:0:0:
53,311,4839,1,2,0:0:0:0:
53,311,5589,2,0,P|102:312|146:290,1,99.9999999999999,2|2,0:0|0:0,0:0:0:0:
225,228,6339,1,2,0:0:0:0:
225,228,7089,6,0,L|241:326,1,99.9999999999999,6|8,1:2|0:0,0:0:0:0:
338,348,7839,2,8,L|436:331,1,99.9999999999999
412,233,8589,1,10,0:0:0:0:
463,147,8964,1,8,0:0:0:0:
409,62,9339,2,0,P|359:56|314:76,1,99.9999999999999,10|8,0:0|0:0,0:0:0:0:
242,145,10089,6,0,L|259:243,1,99.9999999999999,14|8,0:0|0:0,0:0:0:0:
196,321,10839,1,8,0:0:0:0:
101,353,11214,1,8,0:0:0:0:
34,278,11589,1,10,0:0:0:0:
85,193,11964,1,12,0:0:0:0:
178,227,12339,1,12,0:0:0:0:
237,146,12714,2,8,L|228:96,1,50,8|10,0:0|0:0,3:0:0:0:
216,47,13089,6,8,L|386:17,1,150,6|2,1:2|0:0,0:0:0:0:
412,10,13839,1,2,1:2:0:0:
412,10,14589,2,8,B|426:39|450:55|450:55|412:137,1,150,2|2,1:2|0:0,2:0:0:0:
389,181,15339,1,2,1:2:0:0:
389,181,16089,6,0,L|290:198,1,99.9999999999999,2|2,1:2|1:2,0:0:0:0:
248,171,16651,1,2,0:0:0:0:
164,115,17026,2,0,L|114:123,1,50,2|2,0:0|1:2,0:0:0:0:
62,151,17401,2,8,B|53:222|102:258|102:258|69:324|117:398,1,250,2|0,0:0|1:2,0:0:0:0:
108,382,19089,6,0,L|255:356,1,150,2|2,1:2|0:0,0:0:0:0:
304,346,19839,1,2,1:2:0:0:
304,346,20589,2,0,P|381:358|442:318,1,150,2|2,1:2|0:0,0:0:0:0:
471,283,21339,1,2,1:2:0:0:
471,283,22089,6,0,L|451:173,1,99.9999999999999,2|2,1:2|1:2,0:0:0:0:
443,135,22651,1,2,0:0:0:0:
427,36,23026,2,0,L|377:41,1,50,2|2,0:0|1:2,0:0:0:0:
342,4,23401,2,0,L|193:21,1,150,2|0,0:2|1:2,0:0:0:0:
216,116,24339,2,0,L|227:182,1,50,2|2,1:2|0:0,0:3:0:0:
257,203,24714,2,0,L|268:269,1,50,10|2,1:2|0:0,0:3:0:0:
250,299,25089,6,0,P|205:320|156:316,1,99.9999999999999,6|8,1:2|0:2,0:0:0:0:
68,266,25839,2,0,L|56:205,1,50,2|0,1:2|1:2,0:0:0:0:
42,169,26214,1,8,0:2:0:0:
82,77,26589,2,0,P|126:55|175:59,1,99.9999999999999,2|8,1:2|0:2,0:0:0:0:
265,103,27339,1,2,1:2:0:0:
356,62,27714,1,10,0:2:0:0:
442,114,28089,6,0,L|462:228,1,99.9999999999999,2|10,1:2|0:2,0:0:0:0:
421,245,28651,2,0,L|441:359,1,99.9999999999999,2|2,0:0|1:2,0:0:0:0:
343,312,29401,2,0,P|293:308|249:329,1,99.9999999999999,2|0,0:2|0:0,0:0:0:0:
210,362,29964,1,8,0:2:0:0:
129,302,30339,1,2,1:2:0:0:
183,218,30714,1,10,0:2:0:0:
99,163,31089,6,0,B|71:109|71:109|90:96|106:65,1,99.9999999999999,6|8,1:2|0:2,0:0:0:0:
146,45,31651,1,2,0:2:0:0:
146,45,31839,2,0,L|259:64,1,99.9999999999999,2|8,1:2|0:2,0:0:0:0:
342,41,32589,2,0,L|361:156,1,99.9999999999999,2|8,1:2|0:2,0:0:0:0:
326,179,33151,1,2,0:2:0:0:
326,179,33339,2,0,P|276:175|232:196,1,99.9999999999999,2|8,1:2|0:2,0:0:0:0:
154,258,34089,6,0,L|173:373,1,99.9999999999999,2|8,1:2|0:2,0:0:0:0:
222,379,34651,1,2,0:2:0:0:
222,379,34839,2,0,P|266:357|315:362,1,99.9999999999999,2|8,1:2|0:2,0:0:0:0:
416,359,35589,1,2,1:2:0:0:
455,266,35964,1,14,0:2:0:0:
383,196,36339,2,0,L|373:133,1,50,10|8,0:2|0:2,0:0:0:0:
406,107,36714,2,0,L|396:44,1,50,10|8,0:2|0:2,0:0:0:0:
351,38,37089,6,0,B|314:32|314:32|272:54,2,74.9999999999999,6|2|2,1:2|0:0|0:0,0:0:0:0:
398,57,37839,1,10,0:0:0:0:
449,142,38214,2,0,L|428:251,1,99.9999999999999,2|2,1:2|1:2,0:0:0:0:
430,240,40089,6,0,B|467:234|467:234|509:256,2,74.9999999999999,2|2|2,1:2|0:0|0:0,0:0:0:0:
388,267,40839,1,10,0:2:0:0:
319,340,41214,2,0,P|274:361|225:355,1,99.9999999999999,2|2,1:2|1:2,0:0:0:0:
225,355,42339,1,14,0:2:0:0:
241,256,42714,1,14,0:2:0:0:
151,211,43089,6,0,L|133:112,1,99.9999999999999,6|8,1:2|0:2,0:0:0:0:
129,67,43651,1,2,0:0:0:0:
129,67,43839,2,0,P|173:45|222:51,1,99.9999999999999,2|8,1:2|0:2,0:0:0:0:
318,65,44589,2,0,B|360:85|360:85|425:65,1,99.9999999999999,2|8,1:2|0:2,0:0:0:0:
459,54,45151,1,2,0:0:0:0:
459,54,45339,2,8,P|453:103|474:147,1,99.9999999999999,2|8,1:2|0:2,0:0:0:0:
471,244,46089,6,0,L|353:266,1,99.9999999999999,6|8,1:2|0:2,0:3:0:0:
324,274,46651,1,2,0:0:0:0:
324,274,46839,2,0,L|336:339,1,50,2|0,1:2|1:2,0:0:0:0:
344,372,47214,1,8,0:2:0:0:
248,341,47589,2,0,P|199:332|155:354,1,99.9999999999999,0|8,1:2|0:2,0:0:0:0:
80,287,48339,2,0,L|90:226,1,50,2|2,1:2|1:2,0:0:0:0:
57,197,48714,2,0,L|67:136,1,50,10|2,0:2|1:2,0:0:0:0:
77,99,49089,5,14,0:2:0:0:
155,36,49464,1,8,0:2:0:0:
236,101,49839,2,0,L|293:112,1,50,10|0,0:0|1:0,0:0:0:0:
312,68,50214,2,8,L|371:77,1,50,8|0,0:2|1:2,0:0:0:0:
409,60,50589,1,8,0:2:0:0:
323,16,51714,1,12,0:0:0:0:
421,52,52089,6,0,L|399:167,1,99.9999999999999,6|8,1:2|0:2,0:0:0:0:
367,185,52651,1,2,0:2:0:0:
367,185,52839,2,0,P|322:163|274:172,1,99.9999999999999,2|8,1:2|0:2,0:0:0:0:
230,195,53401,1,2,0:2:0:0:
230,195,53589,2,0,L|180:203,1,50,2|2,1:2|0:0,0:0:0:0:
134,184,53964,2,0,L|84:192,1,50,10|2,0:2|0:0,0:0:0:0:
35,202,54339,1,2,1:2:0:0:
2,296,54714,1,10,0:2:0:0:
82,355,55089,6,0,L|131:346,1,50,2|2,1:2|0:2,0:0:0:0:
172,317,55464,2,0,L|221:308,1,50,10|2,0:2|0:2,0:0:0:0:
265,285,55839,2,0,L|368:303,1,99.9999999999999,2|8,1:2|0:2,0:0:0:0:
409,279,56401,1,2,0:2:0:0:
409,279,56589,2,0,P|432:310|428:377,2,99.9999999999999,2|10|2,1:2|0:0|1:2,0:0:0:0:
410,233,57526,1,10,0:0:0:0:
410,233,57714,1,10,0:2:0:0:
355,149,58089,6,0,P|306:157|262:135,1,99.9999999999999,6|10,1:2|0:2,0:0:0:0:
190,73,58839,1,2,1:2:0:0:
190,73,59026,1,2,0:0:0:0:
92,93,59401,2,0,L|72:207,1,99.9999999999999,2|0,0:0|0:0,0:3:0:0:
82,236,59964,1,10,0:2:0:0:
33,323,60339,1,2,1:2:0:0:
115,379,60714,1,10,0:2:0:0:
173,298,61089,6,0,L|191:199,1,99.9999999999999,2|8,1:2|0:2,0:0:0:0:
221,159,61651,1,2,0:0:0:0:
221,159,61839,2,0,L|202:60,1,99.9999999999999,2|8,1:2|0:2,0:0:0:0:
291,13,62589,2,0,P|339:4|383:26,1,99.9999999999999,0|8,1:2|0:0,0:0:0:0:
442,107,63339,2,0,L|429:171,1,50,2|0,1:2|1:2,0:0:0:0:
461,196,63714,2,0,L|448:260,1,50,10|8,0:0|0:0,0:0:0:0:
441,294,64089,6,0,B|397:275|397:275|331:287,1,99.9999999999999,6|8,1:2|0:2,0:0:0:0:
307,315,64651,1,2,0:2:0:0:
307,315,64839,2,0,B|263:334|263:334|211:324,1,99.9999999999999,2|8,1:2|0:2,0:0:0:0:
116,292,65589,2,0,L|124:242,1,50,2|2,1:2|0:0,0:0:0:0:
90,205,65964,2,0,L|100:145,1,50,10|2,0:2|0:0,0:0:0:0:
62,121,66339,1,2,1:2:0:0:
127,45,66714,1,10,0:2:0:0:
213,95,67089,6,0,P|259:101|314:76,1,99.9999999999999,2|10,1:2|0:2,0:0:0:0:
353,58,67651,1,2,0:0:0:0:
353,58,67839,2,0,L|344:8,2,50,2|2|10,1:2|0:0|0:0,0:0:0:0:
385,95,68401,1,2,0:0:0:0:
385,95,68589,2,0,P|430:99|480:66,2,99.9999999999999,2|10|2,1:2|0:2|1:2,0:3:0:0:
356,136,69526,1,12,0:0:0:0:
356,136,69714,1,12,0:0:0:0:
312,225,70089,5,14,0:2:0:0:
234,287,70464,1,8,0:2:0:0:
155,219,70839,2,0,P|155:162|120:117,1,99.9999999999999,10|8,0:2|0:2,0:0:0:0:
96,109,71401,1,2,1:2:0:0:
96,109,71589,2,0,L|38:126,1,50,10|2,0:2|0:0,0:0:0:0:
26,216,72151,1,2,1:2:0:0:
78,300,72526,1,2,1:2:0:0:
163,245,72901,1,2,1:2:0:0:
163,245,73089,6,0,L|261:260,1,99.9999999999999,14|10,0:0|0:0,0:0:0:0:
300,291,73651,1,2,0:0:0:0:
389,336,74026,1,2,1:2:0:0:
462,267,74401,1,2,1:2:0:0:
462,267,74589,1,8,0:0:0:0:
410,181,74964,1,8,0:0:0:0:
458,93,75339,2,0,L|448:43,1,50,0|8,1:0|0:0,0:0:0:0:
394,35,75714,2,0,L|335:46,1,50,8|8,0:0|0:0,0:0:0:0:
296,56,76089,5,8,0:0:0:0:
296,56,77589,6,0,L|313:154,1,99.9999999999999,4|8,1:2|0:0,0:0:0:0:
264,241,78339,2,8,L|206:251,1,50,0|0,1:0|1:0,0:0:0:0:
141,317,78901,2,0,P|115:262|126:215,1,99.9999999999999,8|0,0:0|1:0,0:0:0:0:
145,181,79464,1,8,0:0:0:0:
199,97,79839,2,0,L|189:42,2,50,0|0|8,1:0|1:0|0:0,0:0:0:0:
286,145,80589,6,0,P|341:152|391:122,1,99.9999999999999,0|8,1:2|0:0,0:0:0:0:
469,87,81339,2,0,L|485:142,1,50,0|0,1:0|1:0,0:0:0:0:
447,228,81901,2,0,P|392:221|342:251,1,99.9999999999999,8|0,0:0|1:2,0:0:0:0:
320,277,82464,1,10,0:0:0:0:
348,372,82839,2,0,L|397:364,2,50,2|0|10,1:2|1:2|0:2,0:0:0:0:
252,342,83589,6,0,B|214:351|214:351|194:345|194:345|149:356,1,99.9999999999999,4|8,1:2|0:2,0:0:0:0:
75,293,84339,2,0,L|57:234,1,50,0|0,1:2|1:2,0:0:0:0:
100,152,84901,2,0,P|144:128|193:132,1,99.9999999999999,8|0,0:2|1:2,0:0:0:0:
237,156,85464,1,8,0:2:0:0:
285,243,85839,2,8,L|274:300,1,50,0|0,1:2|1:2,0:0:0:0:
270,342,86214,1,8,0:2:0:0:
365,373,86589,6,0,L|463:355,1,99.9999999999999,0|8,1:2|0:2,0:0:0:0:
489,258,87339,2,0,L|474:192,1,50,0|0,1:2|1:2,0:0:0:0:
495,110,87901,2,0,P|445:108|404:134,1,99.9999999999999,8|0,0:2|1:2,0:0:0:0:
367,169,88464,1,8,0:2:0:0:
283,114,88839,2,0,L|271:49,1,50,2|2,1:2|1:2,0:0:0:0:
267,19,89214,1,10,0:2:0:0:
267,19,89401,1,10,0:2:0:0:
