osu file format v14

[General]
AudioFilename: audio.mp3
AudioLeadIn: 0
PreviewTime: 51163
Countdown: 0
SampleSet: Soft
StackLeniency: 0.4
Mode: 0
LetterboxInBreaks: 0
WidescreenStoryboard: 1

[Editor]
DistanceSpacing: 1.2
BeatDivisor: 4
GridSize: 32
TimelineZoom: 1.8

[Metadata]
Title:Hana wa Odore ya Iroha ni Ho (TV Size)
TitleUnicode:花ハ踊レヤいろはにほ (TV Size)
Artist:Team "Hanayamata"
ArtistUnicode:チーム"ハナヤマタ"
Creator:Stixy
Version:Hard
Source:ハナヤマタ
Tags:japanese anime pop jpop j-pop op opening Naru Sekiya Reina Ueda Yaya Sasame Kaya Okuno Hana N. Fontainestand Minami Tanaka Tami Nigishimon Yuka Ootsubo Machi Tokiwa Manami Numakura pikaqours muya-
BeatmapID:3096252
BeatmapSetID:1512150

[Difficulty]
HPDrainRate:4
CircleSize:3.5
OverallDifficulty:6
ApproachRate:7.5
SliderMultiplier:1.5
SliderTickRate:1

[Events]
//Background and Video events
0,0,"bg.jpg",0,0
Video,-294,"video.avi"
//Break Periods
//Storyboard Layer 0 (Background)
//Storyboard Layer 1 (Fail)
//Storyboard Layer 2 (Pass)
//Storyboard Layer 3 (Foreground)
//Storyboard Layer 4 (Overlay)
//Storyboard Sound Samples

[TimingPoints]
1089,375,4,2,1,50,1,0
1089,-125,4,2,1,50,0,0
6995,-125,4,2,1,5,0,0
7089,-100,4,2,1,60,0,0
8589,-100,4,2,1,63,0,0
10089,-100,4,2,1,66,0,0
11589,-100,4,2,1,70,0,0
11870,-100,4,2,1,5,0,0
11964,-100,4,2,1,70,0,0
13089,-125,4,2,1,60,0,0
25089,-111.111111111111,4,2,1,65,0,0
37089,-125,4,2,1,60,0,0
42620,-125,4,2,1,5,0,0
42714,-125,4,2,1,60,0,0
42995,-125,4,2,1,5,0,0
43089,-111.111111111111,4,2,1,70,0,0
50589,-111.111111111111,4,2,1,60,0,0
51995,-111.111111111111,4,2,1,5,0,0
52089,-90.9090909090908,4,2,1,80,0,1
62870,-90.9090909090908,4,2,1,5,0,1
62964,-90.9090909090908,4,2,1,80,0,1
77589,-111.111111111111,4,2,1,60,0,0

[Colours]
Combo1 : 255,221,117
Combo2 : 255,170,213
Combo3 : 199,141,141
Combo4 : 248,105,126

[HitObjects]
21,46,1089,6,0,B|66:34|66:34|93:50|93:50|133:39,1,120,2|0,0:0|0:0,0:0:0:0:
210,83,1651,1,2,0:0:0:0:
276,31,1839,2,0,P|337:24|385:61,1,120,2|0,0:0|0:0,0:0:0:0:
445,111,2401,1,2,0:0:0:0:
380,164,2589,2,0,L|390:223,1,60,2|0,0:0|0:0,0:0:0:0:
452,279,2964,2,0,L|441:338,1,60,2|0,0:0|0:0,0:0:0:0:
364,372,3339,1,2,0:0:0:0:
364,372,4089,6,0,P|334:369|299:350,1,60,2|0,0:0|0:0,0:0:0:0:
246,298,4464,2,0,P|216:300|189:313,1,60,2|0,0:0|0:0,0:0:0:0:
117,358,4839,1,2,0:0:0:0:
117,358,5401,1,0,0:0:0:0:
52,303,5589,6,0,L|63:244,1,60,2|0,0:0|0:0,0:0:0:0:
125,187,5964,2,0,L|113:128,1,60,2|0,0:0|0:0,0:0:0:0:
89,47,6339,1,2,0:0:0:0:
89,47,6714,2,0,P|135:44|171:69,1,90
201,109,7089,6,0,L|230:276,1,150,6|8,1:2|0:0,0:0:0:0:
224,353,7651,1,8,0:0:0:0:
315,318,7839,2,0,P|352:320|385:336,1,75,8|8,0:0|0:0,0:0:0:0:
472,382,8214,1,8,0:0:0:0:
472,382,8589,6,0,B|433:293|433:293|456:283|483:241,1,150,10|8,0:0|0:0,0:0:0:0:
498,164,9151,1,8,0:0:0:0:
432,91,9339,2,0,L|335:116,1,75,10|8,0:0|0:0,0:0:0:0:
282,50,9714,2,0,L|207:40,1,75,8|8,0:0|0:0,0:0:0:0:
117,3,10089,6,0,P|161:61|153:134,1,150,14|8,0:0|0:0,0:0:0:0:
85,204,10651,1,8,0:0:0:0:
156,270,10839,2,0,L|228:251,1,75,8|8,0:0|0:0,0:0:0:0:
291,176,11214,1,8,0:0:0:0:
379,216,11401,1,8,0:0:0:0:
442,141,11589,6,0,P|476:205|455:272,1,112.5,10|0,0:0|0:0,0:0:0:0:
443,282,11964,2,0,L|365:302,1,75,12|0,0:0|0:0,0:0:0:0:
274,281,12339,2,0,L|196:301,1,75,12|0,0:0|0:0,0:0:0:0:
130,366,12714,2,0,L|91:376,3,37.5,8|8|10|8,0:0|0:0|0:0|0:0,0:0:0:0:
56,362,13089,6,0,B|25:288|25:288|48:273|73:240,1,120,6|0,1:2|1:2,0:0:0:0:
99,190,13651,1,2,0:0:0:0:
48,125,13839,2,0,P|25:74|46:8,1,120,2|0,1:2|1:2,0:0:0:0:
106,66,14401,1,2,0:0:0:0:
176,20,14589,6,0,B|220:29|220:29|244:14|244:14|309:27,1,120,2|0,1:2|1:2,0:0:0:0:
373,10,15151,1,2,0:0:0:0:
443,55,15339,1,2,1:2:0:0:
443,55,15714,1,0,1:2:0:0:
393,123,15901,1,2,0:0:0:0:
393,123,15995,1,2,0:0:0:0:
393,123,16089,6,0,B|328:112|342:166|276:154,1,120,2|2,1:2|1:2,0:0:0:0:
235,85,16651,2,0,P|200:132|205:190,1,120,2|2,0:0|0:0,0:0:0:0:
261,254,17214,1,2,1:2:0:0:
242,354,17401,6,0,B|347:308|347:308|368:334|409:360,1,180,2|0,0:0|1:2,0:0:0:0:
395,351,18339,2,0,P|387:292|422:242,1,120,0|0,1:2|1:2,0:0:0:0:
471,177,18901,1,2,0:0:0:0:
429,103,19089,2,0,B|387:92|387:92|369:65|369:65|326:52,1,120,2|0,1:2|1:2,0:0:0:0:
253,94,19651,1,2,0:0:0:0:
183,46,19839,2,0,P|124:40|77:75,1,120,2|0,1:2|1:2,0:0:0:0:
40,151,20401,1,2,0:0:0:0:
90,218,20589,6,0,B|118:257|118:257|82:341,1,120,2|0,1:2|1:2,0:0:0:0:
164,361,21151,1,2,0:0:0:0:
235,316,21339,1,2,1:2:0:0:
235,316,21714,1,0,1:2:0:0:
201,236,21901,1,2,0:0:0:0:
201,236,21995,1,2,0:0:0:0:
201,236,22089,6,0,L|177:109,1,120,2|2,1:2|1:2,0:0:0:0:
238,59,22651,2,0,B|285:70|285:70|310:52|310:52|375:66,1,120,2|2,0:0|0:0,0:0:0:0:
433,47,23214,1,2,1:2:0:0:
482,114,23401,6,0,B|448:233|448:233|440:204|419:180,1,180,2|0,0:0|1:2,0:0:0:0:
423,184,24339,1,2,1:2:0:0:
423,184,24714,1,10,1:2:0:0:
423,184,25089,6,0,L|267:225,1,134.999995880127,6|8,1:2|0:2,0:0:0:0:
292,218,25839,2,0,L|273:145,1,67.4999979400635,2|0,1:2|1:2,0:0:0:0:
247,62,26214,1,8,0:2:0:0:
247,62,26589,6,0,P|181:51|124:84,1,134.999995880127,2|8,1:2|0:2,0:0:0:0:
124,84,27339,2,0,L|138:161,1,67.4999979400635,2|2,1:2|1:2,0:0:0:0:
78,224,27714,2,0,L|92:301,1,67.4999979400635,10|0,0:2|0:0,0:0:0:0:
169,343,28089,6,0,B|239:354|224:296|296:309,1,134.999995880127,2|10,1:2|0:2,0:0:0:0:
352,382,28651,2,0,P|341:316|374:259,1,134.999995880127,2|2,0:0|1:2,0:0:0:0:
451,202,29214,1,8,0:2:0:0:
416,114,29401,6,0,L|269:153,1,134.999995880127,2|0,0:2|0:0,0:0:0:0:
204,98,29964,1,8,0:2:0:0:
204,98,30339,2,0,L|138:80,1,67.4999979400635,2|2,1:2|1:2,0:0:0:0:
79,154,30714,2,0,L|13:171,1,67.4999979400635,10|2,0:2|1:2,0:0:0:0:
11,266,31089,6,0,L|142:230,1,134.999995880127,6|8,1:2|0:2,0:0:0:0:
225,273,31651,1,2,0:2:0:0:
289,203,31839,2,0,P|287:169|270:140,1,67.4999979400635,2|0,1:2|1:2,0:0:0:0:
237,51,32214,1,8,0:2:0:0:
237,51,32589,6,0,L|373:20,1,134.999995880127,2|8,1:2|0:2,0:0:0:0:
434,88,33151,1,2,0:2:0:0:
414,180,33339,2,0,B|406:193|381:208|381:208|416:292,1,134.999995880127,2|8,1:2|0:2,0:0:0:0:
481,353,33901,1,0,0:0:0:0:
390,381,34089,6,0,L|259:345,1,134.999995880127,2|8,1:2|0:2,0:0:0:0:
173,382,34651,1,2,0:2:0:0:
94,328,34839,2,0,L|132:183,1,134.999995880127,2|8,1:2|0:2,0:0:0:0:
128,197,35589,6,0,L|114:144,3,33.7499989700318,2|2|2|2,1:2|0:2|0:2|0:2,0:0:0:0:
91,126,35964,2,0,L|111:49,1,67.4999979400635,14|2,0:2|0:2,0:0:0:0:
195,24,36339,2,0,L|237:35,3,33.7499989700318,10|8|8|8,0:2|0:2|0:2|0:2,0:0:0:0:
258,68,36714,2,0,L|290:76,3,33.7499989700318,10|8|8|8,0:2|0:2|0:2|0:2,0:0:0:0:
330,88,37089,6,0,B|357:55|357:55|353:7,2,90,6|2|2,1:2|0:0|0:0,0:0:0:0:
274,151,37839,1,10,0:0:0:0:
274,151,38214,2,0,L|305:278,1,120,2|2,1:2|1:2,0:0:0:0:
302,267,38964,1,0,1:2:0:0:
302,267,39339,2,0,L|186:298,1,120,8|0,0:2|1:2,0:0:0:0:
186,298,40089,6,0,B|190:250|190:250|163:217,2,90,2|2|2,1:2|0:0|0:0,0:0:0:0:
235,366,40839,1,10,0:2:0:0:
235,366,41214,2,0,P|290:332|360:348,1,120,2|2,1:2|1:2,0:0:0:0:
504,382,41964,1,2,1:2:0:0:
504,382,42339,2,0,L|479:288,1,90,14|0,0:2|0:0,0:0:0:0:
446,271,42714,2,0,L|470:177,1,90,14|0,0:2|0:0,0:0:0:0:
434,150,43089,6,0,B|407:109|407:109|450:10,1,134.999995880127,6|8,1:2|0:2,0:0:0:0:
348,14,43651,1,2,0:0:0:0:
285,84,43839,2,0,L|309:172,1,67.4999979400635,2|0,1:2|1:2,0:0:0:0:
240,219,44214,1,8,0:2:0:0:
305,286,44401,1,2,0:0:0:0:
235,349,44589,6,0,B|185:344|185:344|156:363|156:363|86:350,1,134.999995880127,2|8,1:2|0:2,0:0:0:0:
47,280,45151,1,2,0:0:0:0:
122,222,45339,2,0,L|83:83,1,134.999995880127,2|8,1:2|0:2,0:0:0:0:
154,27,45901,1,2,1:2:0:0:
229,84,46089,6,0,B|300:71|285:130|356:119,1,134.999995880127,6|8,1:2|0:2,0:0:0:0:
416,48,46651,1,2,0:0:0:0:
480,117,46839,2,0,L|456:207,1,67.4999979400635,2|0,1:2|1:2,0:0:0:0:
490,273,47214,1,8,0:2:0:0:
490,273,47589,6,0,P|442:232|367:243,1,134.999995880127,0|8,1:2|0:2,0:0:0:0:
300,297,48151,1,2,0:0:0:0:
232,230,48339,2,0,P|202:231|154:260,1,67.4999979400635,2|2,1:2|1:2,0:0:0:0:
104,317,48714,2,0,P|73:331|40:334,1,67.4999979400635,10|2,0:2|1:2,0:0:0:0:
12,296,48995,1,2,0:0:0:0:
12,296,49089,6,0,L|-8:217,1,67.4999979400635,14|0,0:2|0:0,0:0:0:0:
60,161,49464,1,8,0:2:0:0:
29,71,49651,1,2,1:2:0:0:
111,24,49839,2,0,L|194:44,1,67.4999979400635,10|0,0:2|1:2,0:0:0:0:
225,29,50120,1,0,1:2:0:0:
225,29,50214,2,0,L|290:13,1,67.4999979400635,8|0,0:2|1:2,0:0:0:0:
372,60,50589,5,8,0:2:0:0:
372,60,51714,2,0,L|342:171,1,101.249996910095,12|0,0:0|0:0,0:0:0:0:
325,203,52089,6,0,P|401:191|471:247,1,165.000005035401,6|8,1:2|0:2,0:0:0:0:
380,286,52651,1,2,0:2:0:0:
280,282,52839,2,0,L|120:323,1,165.000005035401,2|8,1:2|0:2,0:0:0:0:
30,281,53401,1,2,0:2:0:0:
82,196,53589,6,0,P|58:162|55:121,1,82.5000025177003,2|2,1:2|0:0,0:0:0:0:
32,25,53964,2,0,P|72:21|109:39,1,82.5000025177003,10|2,0:2|0:0,0:0:0:0:
205,67,54339,2,0,P|187:103|153:127,1,82.5000025177003,2|0,1:2|0:0,0:0:0:0:
82,196,54714,1,10,0:2:0:0:
82,196,55089,6,0,L|171:220,1,82.5000025177003,2|2,1:2|0:2,0:0:0:0:
245,164,55464,2,0,L|324:142,1,82.5000025177003,10|2,0:2|0:2,0:0:0:0:
386,65,55839,2,0,P|421:113|396:214,1,165.000005035401,2|8,1:2|0:2,0:0:0:0:
435,302,56401,1,2,0:2:0:0:
355,361,56589,6,0,L|266:337,1,82.5000025177003,2|2,1:2|0:2,0:0:0:0:
213,261,56964,2,0,L|133:282,1,82.5000025177003,10|0,0:2|0:0,0:0:0:0:
40,248,57339,1,2,1:2:0:0:
93,164,57526,1,10,0:2:0:0:
11,106,57714,1,10,0:2:0:0:
11,106,58089,6,0,P|113:112|148:68,1,165.000005035401,6|10,1:2|0:2,0:0:0:0:
222,3,58651,1,0,0:0:0:0:
285,79,58839,1,2,1:2:0:0:
220,154,59026,2,0,L|243:239,1,82.5000025177003,2|8,0:0|0:2,0:0:0:0:
305,309,59401,6,0,B|392:293|373:365|461:352,1,165.000005035401,2|0,0:0|0:0,0:0:0:0:
499,262,59964,2,0,P|485:221|470:157,1,82.5000025177003,10|0,0:2|0:0,0:0:0:0:
421,99,60339,2,0,P|392:131|345:176,1,82.5000025177003,2|0,1:2|0:0,0:0:0:0:
319,248,60714,2,0,P|361:256|423:274,1,82.5000025177003,10|0,0:2|0:0,0:0:0:0:
364,159,61089,6,0,B|307:142|307:142|294:99|294:99|207:78,1,165.000005035401,2|8,1:2|0:2,0:0:0:0:
140,55,61651,1,2,0:0:0:0:
66,122,61839,2,0,L|112:290,1,165.000005035401,2|8,1:2|0:2,0:0:0:0:
109,281,62589,6,0,P|160:249|232:255,1,123.75000377655,0|0,1:2|0:0,0:0:0:0:
261,281,62964,2,0,L|238:367,1,82.5000025177003,8|2,0:0|0:0,0:0:0:0:
338,352,63339,2,0,L|400:335,3,41.2500012588501,2|0|0|0,1:2|1:2|1:2|1:2,0:0:0:0:
416,310,63714,2,0,L|478:293,3,41.2500012588501,10|8|8|8,0:0|0:0|0:0|0:0,0:0:0:0:
480,256,64089,6,0,B|464:232|440:211|440:211|482:106,1,165.000005035401,6|8,1:2|0:2,0:0:0:0:
413,40,64651,1,2,0:2:0:0:
337,104,64839,2,0,P|257:113|193:63,1,165.000005035401,2|8,1:2|0:2,0:0:0:0:
111,8,65401,1,2,0:2:0:0:
49,85,65589,6,0,L|77:186,1,82.5000025177003,2|2,1:2|0:0,0:0:0:0:
170,170,65964,2,0,L|141:271,1,82.5000025177003,10|2,0:2|0:0,0:0:0:0:
52,278,66339,2,0,L|80:379,1,82.5000025177003,2|0,1:2|0:0,0:0:0:0:
176,372,66714,1,10,0:2:0:0:
176,372,67089,6,0,P|213:349|265:353,1,82.5000025177003,2|2,1:2|0:2,0:0:0:0:
339,303,67464,2,0,P|373:324|414:326,1,82.5000025177003,10|2,0:2|0:2,0:0:0:0:
480,251,67839,2,0,L|457:162,1,82.5000025177003,2|2,1:2|0:0,0:0:0:0:
387,102,68214,2,0,L|364:13,1,82.5000025177003,8|2,0:2|0:2,0:0:0:0:
267,22,68589,5,2,1:2:0:0:
217,107,68776,1,2,0:2:0:0:
290,173,68964,2,0,L|267:259,1,82.5000025177003,10|2,0:2|0:0,0:0:0:0:
314,340,69339,1,2,1:2:0:0:
402,297,69526,1,12,0:0:0:0:
493,335,69714,1,12,0:0:0:0:
494,335,70089,6,0,L|445:146,1,165.000005035401,14|8,0:2|0:2,0:0:0:0:
485,81,70651,1,0,0:0:0:0:
408,18,70839,2,0,L|309:43,1,82.5000025177003,10|0,0:2|1:2,0:0:0:0:
243,90,71214,2,0,L|154:75,1,82.5000025177003,8|2,0:2|1:2,0:0:0:0:
71,36,71589,5,10,0:2:0:0:
20,120,71776,2,0,P|20:166|56:219,1,82.5000025177003,2|8,0:0|0:2,0:0:0:0:
127,234,72151,2,0,L|207:213,1,82.5000025177003,2|8,1:2|0:2,0:0:0:0:
267,138,72526,2,0,L|347:159,1,82.5000025177003,2|8,1:2|0:2,0:0:0:0:
410,248,72901,1,2,1:2:0:0:
410,248,72995,1,2,0:2:0:0:
410,248,73089,6,0,P|353:269|328:372,1,165.000005035401,14|10,0:2|0:0,0:0:0:0:
225,351,73651,2,0,L|141:329,1,82.5000025177003,2|10,0:0|0:0,0:0:0:0:
62,266,74026,2,0,L|83:186,1,82.5000025177003,2|8,1:2|0:0,0:0:0:0:
51,92,74401,1,2,1:2:0:0:
134,37,74589,6,0,B|190:49|190:49|226:32|226:32|303:48,1,165.000005035401,8|8,0:0|0:0,0:0:0:0:
292,45,75339,2,0,L|268:133,1,82.5000025177003,0|8,1:2|0:0,0:0:0:0:
296,172,75620,1,8,0:0:0:0:
296,172,75714,2,0,L|285:224,3,41.2500012588501,8|8|8|8,0:0|0:0|0:0|0:0,0:0:0:0:
312,255,76089,5,8,0:0:0:0:
309,245,77589,6,0,L|271:375,1,134.999995880127,4|8,1:2|0:0,0:0:0:0:
272,374,78339,1,0,1:0:0:0:
209,312,78526,2,0,P|177:313|137:332,1,67.4999979400635,0|0,1:0|0:0,0:0:0:0:
61,366,78901,6,0,P|36:323|64:234,1,134.999995880127,8|0,0:0|1:0,0:0:0:0:
118,182,79464,1,8,0:0:0:0:
118,182,79839,2,0,L|99:108,1,67.4999979400635,0|0,1:0|1:0,0:0:0:0:
148,42,80214,1,8,0:0:0:0:
148,42,80589,6,0,B|192:52|192:52|238:37|238:37|305:54,1,134.999995880127,0|8,1:2|0:0,0:0:0:0:
278,47,81339,1,0,1:0:0:0:
240,126,81526,2,0,L|258:205,1,67.4999979400635,0|0,1:0|0:0,0:0:0:0:
318,252,81901,6,0,P|382:213|457:233,1,134.999995880127,8|0,0:0|1:2,0:0:0:0:
394,298,82464,1,10,0:0:0:0:
394,298,82839,2,0,L|369:383,1,67.4999979400635,2|0,1:2|1:2,0:0:0:0:
288,375,83214,1,10,0:2:0:0:
288,375,83589,6,0,L|250:244,1,134.999995880127,4|8,1:2|0:2,0:0:0:0:
251,245,84339,1,0,1:2:0:0:
209,168,84526,2,0,P|177:167|137:148,1,67.4999979400635,0|0,1:2|0:0,0:0:0:0:
84,89,84901,6,0,P|59:132|87:221,1,134.999995880127,8|0,0:2|1:2,0:0:0:0:
96,297,85464,1,8,0:2:0:0:
96,297,85839,2,0,L|77:371,1,67.4999979400635,0|0,1:2|1:2,0:0:0:0:
166,348,86214,1,8,0:2:0:0:
166,348,86589,6,0,B|210:338|210:338|256:353|256:353|323:336,1,134.999995880127,0|8,1:2|0:2,0:0:0:0:
296,342,87339,1,0,1:2:0:0:
260,262,87526,2,0,L|278:183,1,67.4999979400635,0|0,1:2|0:0,0:0:0:0:
336,133,87901,6,0,P|399:177|475:152,1,134.999995880127,8|0,0:2|1:2,0:0:0:0:
413,86,88464,1,8,0:2:0:0:
413,86,88839,2,0,L|427:8,1,67.4999979400635,2|2,1:2|1:2,0:0:0:0:
337,11,89214,1,10,0:2:0:0:
272,70,89401,1,10,0:2:0:0:
