osu file format v14

[General]
AudioFilename: audio.mp3
AudioLeadIn: 0
PreviewTime: -1
Countdown: 1
SampleSet: Normal
StackLeniency: 0.7
Mode: 0
LetterboxInBreaks: 0
WidescreenStoryboard: 1

[Editor]
DistanceSpacing: 1.5
BeatDivisor: 4
GridSize: 4
TimelineZoom: 3.399999

[Metadata]
Title:Corpse Party Blood Covered OST - Chapter 5 s Main Building Theme 2 Extended
TitleUnicode:Corpse Party Blood Covered OST - Chapter 5 s Main Building Theme 2 Extended
Artist:Team GrisGris
ArtistUnicode:Team GrisGris
Creator:Gnomeirl
Version:no fail diff
Source:Corpse party (ps game)
Tags:corpse party
BeatmapID:1810275
BeatmapSetID:776257

[Difficulty]
HPDrainRate:6.5
CircleSize:4
OverallDifficulty:9
ApproachRate:10
SliderMultiplier:1.4
SliderTickRate:1

[Events]
//Background and Video events
//Break Periods
//Storyboard Layer 0 (Background)
//Storyboard Layer 1 (Fail)
//Storyboard Layer 2 (Pass)
//Storyboard Layer 3 (Foreground)
//Storyboard Sound Samples

[TimingPoints]
5971.87026991729,225.563909774436,4,1,0,100,1,0
10483,-133.333333333333,4,1,0,100,0,0
16235,-100,4,1,0,100,0,0
22156,-133.333333333333,4,1,0,100,0,0
30671,-100,4,1,0,100,0,0

[HitObjects]
32,32,558,5,0,0:0:0:0:
160,88,783,2,0,L|232:88,1,70
368,88,1009,1,0,0:0:0:0:
288,224,1235,2,0,L|360:224,1,70
496,224,1460,1,0,0:0:0:0:
336,352,1686,2,0,L|264:352,1,70
128,352,1911,1,0,0:0:0:0:
120,352,2024,1,0,0:0:0:0:
112,352,2137,1,0,0:0:0:0:
104,352,2250,1,0,0:0:0:0:
48,224,2362,5,0,0:0:0:0:
48,80,2588,2,0,L|120:80,1,70
256,80,2813,1,0,0:0:0:0:
416,160,3039,2,0,L|344:160,1,70
208,160,3265,1,0,0:0:0:0:
72,280,3490,2,0,L|160:280,1,70
280,280,3716,1,0,0:0:0:0:
288,280,3829,1,0,0:0:0:0:
296,280,3941,1,0,0:0:0:0:
304,280,4054,1,0,0:0:0:0:
40,344,4167,5,0,0:0:0:0:
248,344,4392,2,0,L|304:288,1,70
376,200,4618,1,0,0:0:0:0:
168,200,4844,2,0,L|224:144,1,70
296,64,5069,1,0,0:0:0:0:
84,64,5295,2,0,L|140:120,1,70
124,216,5520,2,0,L|60:288,1,70
148,332,5746,2,0,L|228:332,1,70
288,328,5971,1,0,0:0:0:0:
352,304,6084,1,0,0:0:0:0:
400,248,6197,1,0,0:0:0:0:
432,184,6310,1,0,0:0:0:0:
432,112,6422,1,0,0:0:0:0:
376,64,6535,1,0,0:0:0:0:
304,48,6648,1,0,0:0:0:0:
232,40,6761,1,0,0:0:0:0:
160,56,6874,1,0,0:0:0:0:
112,112,6986,1,0,0:0:0:0:
96,184,7099,1,0,0:0:0:0:
96,256,7212,1,0,0:0:0:0:
144,312,7325,1,0,0:0:0:0:
208,344,7438,1,0,0:0:0:0:
280,344,7550,1,0,0:0:0:0:
352,328,7663,1,0,0:0:0:0:
408,288,7776,2,0,P|456:224|432:152,1,140
400,120,8114,1,0,0:0:0:0:
280,88,8227,2,0,L|208:88,1,70
176,160,8453,2,0,L|176:88,1,70
56,288,8678,2,0,P|40:216|72:160,1,140
120,112,9016,1,0,0:0:0:0:
304,88,9129,2,0,L|384:88,1,70
440,88,9355,2,0,L|440:160,1,70
432,296,9580,6,0,P|392:336|312:328,1,140
68,232,10032,1,0,0:0:0:0:
68,232,10257,5,0,0:0:0:0:
128,128,10483,2,0,P|148:160|208:200,1,105.000004005432
260,204,10934,2,0,P|296:192|328:136,1,105.000004005432
192,64,11385,6,0,L|288:116,1,105.000004005432
444,72,11836,1,0,0:0:0:0:
444,72,12062,5,0,0:0:0:0:
416,168,12287,1,0,0:0:0:0:
416,168,12513,2,0,L|304:168,1,105.000004005432
252,168,12851,1,0,0:0:0:0:
192,168,12964,5,0,0:0:0:0:
136,192,13077,1,0,0:0:0:0:
112,256,13189,2,0,L|236:288,1,105.000004005432
425,327,13641,1,0,0:0:0:0:
433,315,13753,1,0,0:0:0:0:
441,307,13866,1,0,0:0:0:0:
449,299,13979,1,0,0:0:0:0:
457,291,14092,6,0,P|373:291|333:283,1,105.000004005432
200,312,14543,1,0,0:0:0:0:
200,312,14768,5,0,0:0:0:0:
92,208,14994,1,0,0:0:0:0:
68,184,15220,1,0,0:0:0:0:
52,156,15445,1,0,0:0:0:0:
52,124,15671,5,0,0:0:0:0:
72,104,15896,2,0,P|112:72|184:72,1,105.000004005432
288,72,16235,2,0,P|324:76|384:104,1,70
416,120,16460,2,0,P|440:152|448:200,1,70
448,240,16686,2,0,L|416:272,1,35
400,288,16798,6,0,P|319:277|256:312,1,140
208,336,17137,1,0,0:0:0:0:
144,304,17250,2,0,P|105:264|21:264,1,140
109,150,17588,1,0,0:0:0:0:
109,150,17701,2,0,B|48:115|48:115|130:86,1,140
253,90,18039,1,0,0:0:0:0:
253,90,18152,2,0,B|317:114|317:114|243:155,1,140,2|2,0:0|0:0,0:0:0:0:
448,256,18603,5,0,0:0:0:0:
240,256,18716,1,0,0:0:0:0:
440,192,18829,1,0,0:0:0:0:
272,312,18941,1,0,0:0:0:0:
400,144,19054,1,0,0:0:0:0:
328,344,19167,1,0,0:0:0:0:
336,136,19280,1,0,0:0:0:0:
392,336,19392,1,0,0:0:0:0:
480,160,19505,6,0,P|408:160|320:192,1,140
48,140,19956,5,0,0:0:0:0:
256,92,20069,1,0,0:0:0:0:
80,204,20182,1,0,0:0:0:0:
208,36,20295,1,0,0:0:0:0:
40,160,20407,6,0,P|112:160|176:180,1,140
448,88,20746,1,0,0:0:0:0:
248,160,20859,1,0,0:0:0:0:
456,168,20971,1,0,0:0:0:0:
264,248,21084,1,0,0:0:0:0:
472,248,21197,1,0,0:0:0:0:
348,336,21310,2,0,P|276:352|208:320,1,140
40,144,21761,1,0,0:0:0:0:
40,144,21986,5,0,0:0:0:0:
344,272,22212,6,0,L|272:272,1,52.5000020027161
224,272,22438,2,0,L|272:224,1,52.5000020027161
304,184,22663,2,0,L|256:136,1,52.5000020027161
232,88,22889,2,0,L|280:56,1,52.5000020027161
336,40,23114,2,0,L|384:88,1,52.5000020027161
416,128,23340,2,0,L|360:168,1,52.5000020027161
328,208,23565,2,0,L|376:256,1,52.5000020027161
400,304,23791,2,0,L|344:344,1,52.5000020027161
296,344,24017,6,0,L|256:304,1,52.5000020027161
216,256,24242,2,0,L|160:296,1,52.5000020027161
120,320,24468,2,0,L|72:272,1,52.5000020027161
40,232,24693,2,0,L|88:192,1,52.5000020027161
376,312,24919,2,0,P|408:312|440:280,1,52.5000020027161
444,276,25144,2,0,P|464:244|464:208,1,52.5000020027161
464,192,25370,2,0,P|456:156|420:132,1,52.5000020027161
416,116,25595,2,0,P|388:104|352:104,1,52.5000020027161
256,104,25821,5,0,0:0:0:0:
136,104,26047,1,0,0:0:0:0:
48,192,26272,6,0,P|52:248|104:280,1,105.000004005432
248,304,26723,5,0,0:0:0:0:
296,304,26836,1,0,0:0:0:0:
344,296,26949,1,0,0:0:0:0:
384,272,27062,1,0,0:0:0:0:
416,240,27174,1,0,0:0:0:0:
440,200,27287,5,0,0:0:0:0:
440,152,27400,1,0,0:0:0:0:
424,104,27513,1,0,0:0:0:0:
392,72,27626,6,0,P|344:48|272:56,1,105.000004005432
144,88,27964,1,0,0:0:0:0:
64,224,28077,2,0,P|120:216|184:224,1,105.000004005432
408,304,28415,5,0,0:0:0:0:
424,304,28528,2,0,P|472:232|384:168,1,210.000008010865
192,56,29092,1,0,0:0:0:0:
224,56,29205,5,0,0:0:0:0:
456,56,29430,2,0,B|456:111|456:111|424:168,1,105.000004005432
368,272,29768,1,0,0:0:0:0:
248,328,29881,2,0,B|227:289|227:289|176:256,1,105.000004005432
64,192,30219,5,0,0:0:0:0:
72,48,30332,2,0,P|136:40|192:56,1,105.000004005432
416,88,30671,5,0,0:0:0:0:
424,76,30783,1,0,0:0:0:0:
440,76,30896,1,0,0:0:0:0:
448,88,31009,1,0,0:0:0:0:
448,104,31122,1,0,0:0:0:0:
444,116,31235,6,0,P|424:168|344:216,1,140
288,232,31573,1,0,0:0:0:0:
216,236,31686,2,0,P|152:236|92:184,1,140
52,136,32024,1,0,0:0:0:0:
88,76,32137,2,0,B|144:36|144:36|232:36,1,140
284,40,32475,1,0,0:0:0:0:
351,41,32588,2,0,B|432:52|432:52|460:116,1,140
476,172,32926,1,0,0:0:0:0:
476,320,33039,5,0,0:0:0:0:
264,320,33152,1,0,0:0:0:0:
464,252,33265,1,0,0:0:0:0:
256,252,33377,1,0,0:0:0:0:
456,184,33490,1,0,0:0:0:0:
244,184,33603,1,0,0:0:0:0:
444,116,33716,1,0,0:0:0:0:
232,116,33829,1,0,0:0:0:0:
452,48,33941,2,0,B|381:48|381:48|308:68,1,140
136,128,34392,5,0,0:0:0:0:
80,168,34505,1,0,0:0:0:0:
60,236,34618,1,0,0:0:0:0:
96,296,34731,1,0,0:0:0:0:
160,328,34844,2,0,B|232:360|312:320,1,140
448,288,35182,5,0,0:0:0:0:
404,236,35295,1,0,0:0:0:0:
452,188,35407,1,0,0:0:0:0:
400,140,35520,1,0,0:0:0:0:
444,84,35633,1,0,0:0:0:0:
384,48,35746,2,0,B|416:40|416:40|464:56,2,70
116,100,36197,5,0,0:0:0:0:
224,296,36423,1,0,0:0:0:0:
392,160,36648,1,0,0:0:0:0:
144,92,37776,5,0,0:0:0:0:
228,92,38002,1,0,0:0:0:0:
312,92,38227,1,0,2:0:0:0:
396,92,38453,1,0,0:0:0:0:
176,344,39355,5,0,0:0:0:0:
408,124,40257,5,0,0:0:0:0:
168,92,41611,5,0,0:0:0:0:
236,92,41723,1,0,0:0:0:0:
304,100,41836,1,0,0:0:0:0:
364,136,41949,1,0,0:0:0:0:
404,192,42062,1,0,0:0:0:0:
392,192,43866,5,0,0:0:0:0:
104,248,44994,5,0,0:0:0:0:
204,248,45220,1,0,0:0:0:0:
204,344,45445,1,0,0:0:0:0:
304,344,45671,1,0,0:0:0:0:
380,88,46573,5,0,0:0:0:0:
256,188,47024,1,0,0:0:0:0:
116,296,47475,1,0,0:0:0:0:
120,76,49280,1,0,0:0:0:0:
136,92,51084,6,0,L|216:92,1,70
312,92,51310,1,0,0:0:0:0:
436,228,51535,2,0,L|348:228,1,70
260,228,51761,1,0,0:0:0:0:
312,340,51987,5,0,0:0:0:0:
160,340,52212,5,0,0:0:0:0:
96,312,52438,1,0,0:0:0:0:
52,260,52663,1,0,0:0:0:0:
60,176,52889,2,0,P|72:132|112:104,1,70
116,96,53114,2,0,P|152:80|208:88,1,70
176,284,53566,5,0,0:0:0:0:
176,224,53791,6,0,L|176:172,1,35
176,128,54017,2,0,L|176:48,1,70
96,288,54468,5,0,0:0:0:0:
168,288,54693,6,0,L|216:288,1,35
264,288,54919,1,0,0:0:0:0:
340,288,55144,6,0,L|340:192,1,70
224,292,55596,5,0,0:0:0:0:
96,292,55821,1,0,0:0:0:0:
124,72,56047,5,0,0:0:0:0:
156,72,56160,1,0,0:0:0:0:
188,72,56272,1,0,0:0:0:0:
216,72,56385,1,0,0:0:0:0:
248,72,56498,5,0,0:0:0:0:
448,160,56723,5,0,0:0:0:0:
448,160,56949,2,0,P|428:200|384:232,1,70
256,304,57400,5,0,0:0:0:0:
256,304,57626,1,0,0:0:0:0:
232,76,57851,1,0,0:0:0:0:
68,164,58077,5,0,0:0:0:0:
108,312,58302,2,0,L|180:256,1,70
408,84,58754,6,0,L|408:184,1,70
252,68,59204,5,0,0:0:0:0:
260,280,59430,1,0,0:0:0:0:
196,88,59656,5,0,0:0:0:0:
312,248,59881,1,0,0:0:0:0:
152,128,60107,1,0,0:0:0:0:
444,92,60332,5,0,0:0:0:0:
444,92,60558,2,0,L|372:144,1,70
252,268,61009,5,0,0:0:0:0:
252,268,61235,1,0,0:0:0:0:
252,76,61460,5,0,0:0:0:0:
252,76,61686,1,0,0:0:0:0:
84,80,61911,2,0,L|152:140,1,70
456,244,62363,2,0,P|404:244|368:252,1,70
260,320,62813,1,0,0:0:0:0:
224,320,63039,1,0,0:0:0:0:
68,312,63265,5,0,0:0:0:0:
67,301,63378,5,0,0:0:0:0:
67,289,63490,1,0,0:0:0:0:
67,277,63603,1,0,0:0:0:0:
67,265,63716,1,0,0:0:0:0:
32,40,63941,2,0,L|128:40,1,70
248,48,64393,5,0,0:0:0:0:
280,48,64505,1,0,0:0:0:0:
320,48,64618,1,0,0:0:0:0:
352,48,64731,1,0,0:0:0:0:
400,64,64844,5,0,0:0:0:0:
432,104,64957,1,0,0:0:0:0:
440,160,65069,1,0,0:0:0:0:
424,224,65182,1,0,0:0:0:0:
392,280,65295,1,0,0:0:0:0:
344,328,65408,1,0,0:0:0:0:
200,336,65520,5,0,0:0:0:0:
200,336,65746,1,0,0:0:0:0:
200,336,65972,2,0,L|200:264,1,70
428,84,66423,5,0,0:0:0:0:
428,84,66648,1,0,0:0:0:0:
428,84,66874,2,0,L|428:164,1,70
92,68,67325,5,0,0:0:0:0:
92,68,67551,1,0,0:0:0:0:
92,68,67776,2,0,L|92:148,1,70
252,64,68227,5,0,0:0:0:0:
256,68,68453,1,0,0:0:0:0:
256,68,68678,2,0,L|256:160,1,70
452,64,69130,5,0,0:0:0:0:
452,64,69355,1,0,0:0:0:0:
452,64,69581,2,0,L|380:116,1,70
254,138,70032,5,0,0:0:0:0:
123,226,70257,1,0,0:0:0:0:
255,298,70483,1,0,0:0:0:0:
396,229,70708,1,0,0:0:0:0:
324,168,70934,5,0,0:0:0:0:
288,192,71047,1,0,0:0:0:0:
260,204,71160,1,0,0:0:0:0:
224,200,71272,1,0,0:0:0:0:
196,188,71385,1,0,0:0:0:0:
168,164,71498,5,0,0:0:0:0:
156,132,71611,1,0,0:0:0:0:
152,100,71724,1,0,0:0:0:0:
168,80,71836,1,0,0:0:0:0:
196,72,71949,1,0,0:0:0:0:
224,68,72062,5,0,0:0:0:0:
256,72,72175,1,0,0:0:0:0:
284,76,72287,1,0,0:0:0:0:
308,100,72400,1,0,0:0:0:0:
324,124,72513,1,0,0:0:0:0:
344,180,72738,6,0,L|256:228,1,70
248,236,73077,1,0,0:0:0:0:
192,248,73190,2,0,L|136:200,1,70
116,184,73528,1,0,0:0:0:0:
96,128,73641,2,0,P|152:96|172:100,1,70
216,92,73979,1,0,0:0:0:0:
248,96,74092,5,0,0:0:0:0:
280,108,74204,1,0,0:0:0:0:
308,120,74318,1,0,0:0:0:0:
336,136,74430,1,0,0:0:0:0:
360,152,74543,2,0,L|412:184,1,35
408,184,74769,2,0,L|348:256,1,70
252,304,75220,5,0,0:0:0:0:
88,284,75445,2,0,P|72:256|96:208,1,70
124,118,75896,2,0,P|128:82|164:82,1,70
444,116,76348,6,0,P|400:132|400:168,1,70
408,311,76799,1,0,0:0:0:0:
408,311,77024,1,0,0:0:0:0:
252,320,77250,6,0,L|252:232,1,70
168,264,77701,5,0,0:0:0:0:
64,212,77927,1,0,0:0:0:0:
60,128,78152,6,0,L|156:128,1,70
140,48,78603,5,0,0:0:0:0:
248,40,78829,1,0,0:0:0:0:
336,32,79054,2,0,L|336:108,1,70
252,64,79505,5,0,0:0:0:0:
207,77,79618,1,0,0:0:0:0:
168,80,79731,1,0,0:0:0:0:
131,91,79844,1,0,0:0:0:0:
111,112,79957,1,0,0:0:0:0:
64,224,80182,6,0,L|124:277,1,70
184,80,80520,1,0,0:0:0:0:
184,80,80633,6,0,L|264:80,1,70
392,136,81084,1,0,0:0:0:0:
404,140,81197,1,0,0:0:0:0:
412,144,81310,5,0,0:0:0:0:
420,148,81423,1,0,0:0:0:0:
428,152,81536,1,0,0:0:0:0:
436,156,81648,1,0,0:0:0:0:
440,160,81761,6,0,P|439:228|368:264,1,140
104,306,82438,1,0,0:0:0:0:
104,306,82550,1,0,0:0:0:0:
104,306,82663,6,0,L|106:228,1,70
68,80,83114,2,0,P|86:111|116:108,1,70
388,84,83566,5,0,0:0:0:0:
388,84,83791,1,0,0:0:0:0:
388,84,84017,1,0,0:0:0:0:
388,84,84242,1,0,0:0:0:0:
104,304,84468,2,0,L|160:256,1,70
416,312,84919,5,0,0:0:0:0:
400,300,85032,1,0,0:0:0:0:
388,292,85145,1,0,0:0:0:0:
376,284,85257,1,0,0:0:0:0:
364,276,85370,2,0,L|296:232,1,70
80,80,85821,5,0,0:0:0:0:
80,80,86047,1,0,0:0:0:0:
80,80,86272,2,0,L|140:144,1,70
440,72,86724,6,0,L|376:128,1,70
80,104,87175,2,0,P|112:140|128:136,1,70
221,115,87513,1,0,0:0:0:0:
221,115,87626,2,0,P|281:115|297:131,1,70
456,228,88077,2,0,L|379:227,1,70
221,262,88528,2,0,P|213:215|182:171,1,70
64,56,88979,2,0,L|64:140,1,70
74,278,89430,2,0,P|114:310|146:314,1,70
372,100,89881,6,0,P|328:160|328:164,1,70
324,184,90219,1,0,0:0:0:0:
324,216,90333,2,0,L|240:216,1,70
122,264,90784,5,0,0:0:0:0:
63,177,91009,1,0,0:0:0:0:
128,84,91235,1,0,0:0:0:0:
272,48,91460,5,0,0:0:0:0:
272,136,91686,5,0,0:0:0:0:
272,160,91799,1,0,0:0:0:0:
264,192,91912,1,0,0:0:0:0:
240,216,92024,1,0,0:0:0:0:
216,232,92137,5,0,0:0:0:0:
184,248,92250,1,0,0:0:0:0:
160,264,92363,1,0,0:0:0:0:
128,280,92475,1,0,0:0:0:0:
104,328,92588,6,0,L|191:329,1,70
128,124,93039,2,0,L|180:124,1,35
256,192,93265,2,0,L|296:192,1,35
444,240,93490,2,0,L|444:144,1,70
240,72,93941,1,0,0:0:0:0:
240,72,94167,5,0,0:0:0:0:
400,132,94393,2,0,L|352:220,1,70
92,96,94844,5,0,0:0:0:0:
92,96,95069,1,0,0:0:0:0:
92,208,95295,2,0,L|156:260,1,70
368,280,95746,5,0,0:0:0:0:
340,280,95859,1,0,0:0:0:0:
308,284,95972,1,0,0:0:0:0:
280,284,96085,1,0,0:0:0:0:
248,288,96197,6,0,B|184:264|228:356|316:316,1,140
400,264,96874,5,0,0:0:0:0:
464,112,97100,2,0,L|464:196,1,70
328,332,97438,1,0,0:0:0:0:
328,332,97551,2,0,L|232:332,1,70
192,260,98002,5,0,0:0:0:0:
88,216,98227,1,0,0:0:0:0:
212,160,98453,1,0,0:0:0:0:
88,100,98679,5,0,0:0:0:0:
88,100,98904,2,0,L|12:36,1,70
68,312,99355,5,0,0:0:0:0:
68,312,99468,1,0,0:0:0:0:
68,312,99580,2,0,L|100:232,1,70
120,176,99919,1,0,0:0:0:0:
152,148,100032,5,0,0:0:0:0:
192,160,100145,1,0,0:0:0:0:
220,188,100257,1,0,0:0:0:0:
244,216,100370,1,0,0:0:0:0:
276,236,100483,5,0,0:0:0:0:
308,216,100596,1,0,0:0:0:0:
320,172,100709,1,0,0:0:0:0:
348,148,100821,1,0,0:0:0:0:
376,156,100934,5,0,0:0:0:0:
400,188,101047,1,0,0:0:0:0:
408,216,101160,1,0,0:0:0:0:
412,252,101272,1,0,0:0:0:0:
408,336,101385,2,0,L|308:336,1,70
424,172,102288,5,0,0:0:0:0:
424,172,102513,1,0,0:0:0:0:
124,160,102739,5,0,0:0:0:0:
336,280,102964,1,0,0:0:0:0:
260,80,103190,1,0,0:0:0:0:
172,280,103415,1,0,0:0:0:0:
84,144,103641,5,0,0:0:0:0:
84,144,103866,1,0,0:0:0:0:
188,280,104092,1,0,0:0:0:0:
392,252,104318,5,0,0:0:0:0:
240,80,104543,1,0,0:0:0:0:
120,264,104994,1,0,0:0:0:0:
224,80,105220,5,0,0:0:0:0:
224,280,105897,1,0,0:0:0:0:
280,192,106573,5,0,0:0:0:0:
256,168,106686,1,0,0:0:0:0:
236,192,106799,1,0,0:0:0:0:
256,208,106912,1,0,0:0:0:0:
256,192,107024,1,0,0:0:0:0:
208,164,107701,5,0,0:0:0:0:
312,140,108603,5,0,0:0:0:0:
172,224,108829,1,0,0:0:0:0:
352,112,109506,5,0,0:0:0:0:
200,268,109957,5,0,0:0:0:0:
136,104,110182,1,0,0:0:0:0:
344,100,110408,1,0,0:0:0:0:
316,268,110633,1,0,0:0:0:0:
224,64,111310,5,0,0:0:0:0:
308,256,111536,1,0,0:0:0:0:
168,284,111987,5,0,0:0:0:0:
116,104,112212,1,0,0:0:0:0:
312,72,112438,1,0,0:0:0:0:
208,120,113115,5,0,0:0:0:0:
264,112,114242,5,0,0:0:0:0:
208,116,116047,5,0,0:0:0:0:
368,148,116498,5,0,0:0:0:0:
120,212,116949,5,0,0:0:0:0:
208,52,117175,5,0,0:0:0:0:
268,292,117400,1,0,0:0:0:0:
284,52,117626,1,0,0:0:0:0:
192,288,117852,1,0,0:0:0:0:
336,116,118303,5,0,0:0:0:0:
192,184,118754,5,0,0:0:0:0:
332,240,119205,5,0,0:0:0:0:
120,116,119656,5,0,0:0:0:0:
264,76,120107,5,0,0:0:0:0:
128,248,120558,5,0,0:0:0:0:
320,252,121009,5,0,0:0:0:0:
344,268,121122,1,0,0:0:0:0:
368,280,121235,1,0,0:0:0:0:
392,296,121348,1,0,0:0:0:0:
420,312,121461,5,0,0:0:0:0:
300,96,121912,5,0,0:0:0:0:
112,96,122363,5,0,0:0:0:0:
144,248,122588,1,0,0:0:0:0:
144,56,122814,1,0,0:0:0:0:
324,56,123040,1,0,0:0:0:0:
324,252,123265,5,0,0:0:0:0:
204,136,123716,5,0,0:0:0:0:
320,224,124167,5,0,0:0:0:0:
244,64,124393,1,0,0:0:0:0:
388,192,124618,1,0,0:0:0:0:
108,152,124844,1,0,0:0:0:0:
248,280,125070,5,0,0:0:0:0:
280,116,125521,5,0,0:0:0:0:
128,216,125972,5,0,0:0:0:0:
368,264,126423,5,0,0:0:0:0:
96,120,126874,5,0,0:0:0:0:
404,72,127325,5,0,0:0:0:0:
112,312,127776,5,0,0:0:0:0:
480,356,128227,5,0,0:0:0:0:
464,336,128340,1,0,0:0:0:0:
440,312,128453,1,0,0:0:0:0:
424,292,128566,1,0,0:0:0:0:
404,264,128679,1,0,0:0:0:0:
256,192,129130,12,0,130483,0:0:0:0:
